  0
SECTION
  2
HEADER
  9
$ACADVER
  1
AC1018
  9
$ACADMAINTVER
 70
     0
  9
$DWGCODEPAGE
  3
ANSI_1252
  9
$INSBASE
 10
0.0
 20
0.0
 30
0.0
  9
$EXTMIN
 10
1.000000E+20
 20
1.000000E+20
 30
1.000000E+20
  9
$EXTMAX
 10
-1.000000E+20
 20
-1.000000E+20
 30
-1.000000E+20
  9
$LIMMIN
 10
0.0
 20
0.0
  9
$LIMMAX
 10
420.0
 20
297.0
  9
$ORTHOMODE
 70
     0
  9
$REGENMODE
 70
     1
  9
$FILLMODE
 70
     1
  9
$QTEXTMODE
 70
     0
  9
$MIRRTEXT
 70
     1
  9
$LTSCALE
 40
1.0
  9
$ATTMODE
 70
     1
  9
$TEXTSIZE
 40
2.5
  9
$TRACEWID
 40
1.0
  9
$TEXTSTYLE
  7
Standard
  9
$CLAYER
  8
0
  9
$CELTYPE
  6
ByLayer
  9
$CECOLOR
 62
   256
  9
$CELTSCALE
 40
1.0
  9
$DISPSILH
 70
     0
  9
$DIMSCALE
 40
1.0
  9
$DIMASZ
 40
2.5
  9
$DIMEXO
 40
0.625
  9
$DIMDLI
 40
3.75
  9
$DIMRND
 40
0.0
  9
$DIMDLE
 40
0.0
  9
$DIMEXE
 40
1.25
  9
$DIMTP
 40
0.0
  9
$DIMTM
 40
0.0
  9
$DIMTXT
 40
2.5
  9
$DIMCEN
 40
2.5
  9
$DIMTSZ
 40
0.0
  9
$DIMTOL
 70
     0
  9
$DIMLIM
 70
     0
  9
$DIMTIH
 70
     0
  9
$DIMTOH
 70
     0
  9
$DIMSE1
 70
     0
  9
$DIMSE2
 70
     0
  9
$DIMTAD
 70
     1
  9
$DIMZIN
 70
     8
  9
$DIMBLK
  1

  9
$DIMASO
 70
     1
  9
$DIMSHO
 70
     1
  9
$DIMPOST
  1

  9
$DIMAPOST
  1

  9
$DIMALT
 70
     0
  9
$DIMALTD
 70
     3
  9
$DIMALTF
 40
0.03937
  9
$DIMLFAC
 40
1.0
  9
$DIMTOFL
 70
     1
  9
$DIMTVP
 40
0.0
  9
$DIMTIX
 70
     0
  9
$DIMSOXD
 70
     0
  9
$DIMSAH
 70
     0
  9
$DIMBLK1
  1

  9
$DIMBLK2
  1

  9
$DIMSTYLE
  2
ISO-25
  9
$DIMCLRD
 70
     0
  9
$DIMCLRE
 70
     0
  9
$DIMCLRT
 70
     0
  9
$DIMTFAC
 40
1.0
  9
$DIMGAP
 40
0.625
  9
$DIMJUST
 70
     0
  9
$DIMSD1
 70
     0
  9
$DIMSD2
 70
     0
  9
$DIMTOLJ
 70
     0
  9
$DIMTZIN
 70
     8
  9
$DIMALTZ
 70
     0
  9
$DIMALTTZ
 70
     0
  9
$DIMUPT
 70
     0
  9
$DIMDEC
 70
     2
  9
$DIMTDEC
 70
     2
  9
$DIMALTU
 70
     2
  9
$DIMALTTD
 70
     3
  9
$DIMTXSTY
  7
Standard
  9
$DIMAUNIT
 70
     0
  9
$DIMADEC
 70
     0
  9
$DIMALTRND
 40
0.0
  9
$DIMAZIN
 70
     0
  9
$DIMDSEP
 70
    44
  9
$DIMATFIT
 70
     3
  9
$DIMFRAC
 70
     0
  9
$DIMLDRBLK
  1

  9
$DIMLUNIT
 70
     2
  9
$DIMLWD
 70
    -2
  9
$DIMLWE
 70
    -2
  9
$DIMTMOVE
 70
     0
  9
$LUNITS
 70
     2
  9
$LUPREC
 70
     4
  9
$SKETCHINC
 40
1.0
  9
$FILLETRAD
 40
10.0
  9
$AUNITS
 70
     0
  9
$AUPREC
 70
     0
  9
$MENU
  1
.
  9
$ELEVATION
 40
0.0
  9
$PELEVATION
 40
0.0
  9
$THICKNESS
 40
0.0
  9
$LIMCHECK
 70
     0
  9
$CHAMFERA
 40
10.0
  9
$CHAMFERB
 40
10.0
  9
$CHAMFERC
 40
20.0
  9
$CHAMFERD
 40
0.0
  9
$SKPOLY
 70
     0
  9
$TDCREATE
 40
2454558.48770272
  9
$TDUCREATE
 40
2454558.404369386
  9
$TDUPDATE
 40
2454558.487702732
  9
$TDUUPDATE
 40
2454558.404369398
  9
$TDINDWG
 40
0.0000000116
  9
$TDUSRTIMER
 40
0.0000000116
  9
$USRTIMER
 70
     1
  9
$ANGBASE
 50
0.0
  9
$ANGDIR
 70
     0
  9
$PDMODE
 70
     0
  9
$PDSIZE
 40
0.0
  9
$PLINEWID
 40
0.0
  9
$SPLFRAME
 70
     0
  9
$SPLINETYPE
 70
     6
  9
$SPLINESEGS
 70
     8
  9
$HANDSEED
  5
240
  9
$SURFTAB1
 70
     6
  9
$SURFTAB2
 70
     6
  9
$SURFTYPE
 70
     6
  9
$SURFU
 70
     6
  9
$SURFV
 70
     6
  9
$UCSBASE
  2

  9
$UCSNAME
  2

  9
$UCSORG
 10
0.0
 20
0.0
 30
0.0
  9
$UCSXDIR
 10
1.0
 20
0.0
 30
0.0
  9
$UCSYDIR
 10
0.0
 20
1.0
 30
0.0
  9
$UCSORTHOREF
  2

  9
$UCSORTHOVIEW
 70
     0
  9
$UCSORGTOP
 10
0.0
 20
0.0
 30
0.0
  9
$UCSORGBOTTOM
 10
0.0
 20
0.0
 30
0.0
  9
$UCSORGLEFT
 10
0.0
 20
0.0
 30
0.0
  9
$UCSORGRIGHT
 10
0.0
 20
0.0
 30
0.0
  9
$UCSORGFRONT
 10
0.0
 20
0.0
 30
0.0
  9
$UCSORGBACK
 10
0.0
 20
0.0
 30
0.0
  9
$PUCSBASE
  2

  9
$PUCSNAME
  2

  9
$PUCSORG
 10
0.0
 20
0.0
 30
0.0
  9
$PUCSXDIR
 10
1.0
 20
0.0
 30
0.0
  9
$PUCSYDIR
 10
0.0
 20
1.0
 30
0.0
  9
$PUCSORTHOREF
  2

  9
$PUCSORTHOVIEW
 70
     0
  9
$PUCSORGTOP
 10
0.0
 20
0.0
 30
0.0
  9
$PUCSORGBOTTOM
 10
0.0
 20
0.0
 30
0.0
  9
$PUCSORGLEFT
 10
0.0
 20
0.0
 30
0.0
  9
$PUCSORGRIGHT
 10
0.0
 20
0.0
 30
0.0
  9
$PUCSORGFRONT
 10
0.0
 20
0.0
 30
0.0
  9
$PUCSORGBACK
 10
0.0
 20
0.0
 30
0.0
  9
$USERI1
 70
     0
  9
$USERI2
 70
     0
  9
$USERI3
 70
     0
  9
$USERI4
 70
     0
  9
$USERI5
 70
     0
  9
$USERR1
 40
0.0
  9
$USERR2
 40
0.0
  9
$USERR3
 40
0.0
  9
$USERR4
 40
0.0
  9
$USERR5
 40
0.0
  9
$WORLDVIEW
 70
     1
  9
$SHADEDGE
 70
     3
  9
$SHADEDIF
 70
    70
  9
$TILEMODE
 70
     1
  9
$MAXACTVP
 70
    64
  9
$PINSBASE
 10
0.0
 20
0.0
 30
0.0
  9
$PLIMCHECK
 70
     0
  9
$PEXTMIN
 10
1.000000E+20
 20
1.000000E+20
 30
1.000000E+20
  9
$PEXTMAX
 10
-1.000000E+20
 20
-1.000000E+20
 30
-1.000000E+20
  9
$PLIMMIN
 10
0.0
 20
0.0
  9
$PLIMMAX
 10
420.0
 20
297.0
  9
$UNITMODE
 70
     0
  9
$VISRETAIN
 70
     1
  9
$PLINEGEN
 70
     0
  9
$PSLTSCALE
 70
     1
  9
$TREEDEPTH
 70
  3020
  9
$CMLSTYLE
  2
Standard
  9
$CMLJUST
 70
     0
  9
$CMLSCALE
 40
20.0
  9
$PROXYGRAPHICS
 70
     1
  9
$MEASUREMENT
 70
     1
  9
$CELWEIGHT
370
    -1
  9
$ENDCAPS
280
     0
  9
$JOINSTYLE
280
     0
  9
$LWDISPLAY
290
     0
  9
$INSUNITS
 70
     4
  9
$HYPERLINKBASE
  1

  9
$STYLESHEET
  1

  9
$XEDIT
290
     1
  9
$CEPSNTYPE
380
     0
  9
$PSTYLEMODE
290
     1
  9
$FINGERPRINTGUID
  2
{08E36EBD-F8FD-48A8-AF7D-67588F72DA01}
  9
$VERSIONGUID
  2
{FAEB1C32-E019-11D5-929B-00C0DF256EC4}
  9
$EXTNAMES
290
     1
  9
$PSVPSCALE
 40
0.0
  9
$OLESTARTUP
290
     0
  9
$SORTENTS
280
   127
  9
$INDEXCTL
280
     0
  9
$HIDETEXT
280
     1
  9
$XCLIPFRAME
290
     0
  9
$HALOGAP
280
     0
  9
$OBSCOLOR
 70
   257
  9
$OBSLTYPE
280
     0
  9
$INTERSECTIONDISPLAY
280
     0
  9
$INTERSECTIONCOLOR
 70
   257
  9
$DIMASSOC
280
     2
  9
$PROJECTNAME
  1

  0
ENDSEC
  0
SECTION
  2
CLASSES
  0
CLASS
  1
ACDBDICTIONARYWDFLT
  2
AcDbDictionaryWithDefault
  3
ObjectDBX Classes
 90
        0
 91
        3
280
     0
281
     0
  0
CLASS
  1
VISUALSTYLE
  2
AcDbVisualStyle
  3
ObjectDBX Classes
 90
     4095
 91
        3
280
     0
281
     0
  0
ENDSEC
  0
SECTION
  2
TABLES
  0
TABLE
  2
VPORT
  5
8
330
0
100
AcDbSymbolTable
 70
     1
  0
VPORT
  5
29
330
8
100
AcDbSymbolTableRecord
100
AcDbViewportTableRecord
  2
*Active
 70
     0
 10
0.0
 20
0.0
 11
1.0
 21
1.0
 12
344.186916
 22
148.5
 13
0.0
 23
0.0
 14
10.0
 24
10.0
 15
10.0
 25
10.0
 16
0.0
 26
0.0
 36
1.0
 17
0.0
 27
0.0
 37
0.0
 40
297.0
 41
1.972973
 42
50.0
 43
0.0
 44
0.0
 50
0.0
 51
0.0
 71
     0
 72
   100
 73
     1
 74
     3
 75
     0
 76
     0
 77
     0
 78
     0
281
     0
 65
     1
110
0.0
120
0.0
130
0.0
111
1.0
121
0.0
131
0.0
112
0.0
122
1.0
132
0.0
 79
     0
146
0.0
  0
ENDTAB
  0
TABLE
  2
LTYPE
  5
5
330
0
100
AcDbSymbolTable
 70
     1
  0
LTYPE
  5
14
330
5
100
AcDbSymbolTableRecord
100
AcDbLinetypeTableRecord
  2
ByBlock
 70
     0
  3

 72
    65
 73
     0
 40
0.0
  0
LTYPE
  5
15
330
5
100
AcDbSymbolTableRecord
100
AcDbLinetypeTableRecord
  2
ByLayer
 70
     0
  3

 72
    65
 73
     0
 40
0.0
  0
LTYPE
  5
16
330
5
100
AcDbSymbolTableRecord
100
AcDbLinetypeTableRecord
  2
Continuous
 70
     0
  3
Solid line
 72
    65
 73
     0
 40
0.0
  0
ENDTAB
  0
TABLE
  2
LAYER
  5
2
330
0
100
AcDbSymbolTable
 70
    11
  0
LAYER
  5
10
330
2
100
AcDbSymbolTableRecord
100
AcDbLayerTableRecord
  2
0
 70
     0
 62
     7
  6
Continuous
370
    -3
390
F
  0
LAYER
  5
3B
330
2
100
AcDbSymbolTableRecord
100
AcDbLayerTableRecord
  2
DISEGNO
 70
     0
 62
     7
  6
Continuous
370
    -3
390
F
  0
LAYER
  5
3C
330
2
100
AcDbSymbolTableRecord
100
AcDbLayerTableRecord
  2
ASSI
 70
     0
 62
     7
  6
Continuous
370
    -3
390
F
  0
LAYER
  5
3D
330
2
100
AcDbSymbolTableRecord
100
AcDbLayerTableRecord
  2
QUOTE
 70
     0
 62
     7
  6
Continuous
370
    -3
390
F
  0
LAYER
  5
3E
330
2
100
AcDbSymbolTableRecord
100
AcDbLayerTableRecord
  2
TEMPRA
 70
     0
 62
     7
  6
Continuous
370
    -3
390
F
  0
LAYER
  5
3F
330
2
100
AcDbSymbolTableRecord
100
AcDbLayerTableRecord
  2
MARCATURA
 70
     0
 62
     7
  6
Continuous
370
    -3
390
F
  0
LAYER
  5
40
330
2
100
AcDbSymbolTableRecord
100
AcDbLayerTableRecord
  2
TESTO
 70
     0
 62
     7
  6
Continuous
370
    -3
390
F
  0
LAYER
  5
41
330
2
100
AcDbSymbolTableRecord
100
AcDbLayerTableRecord
  2
SEZIONE
 70
     0
 62
     7
  6
Continuous
370
    -3
390
F
  0
LAYER
  5
42
330
2
100
AcDbSymbolTableRecord
100
AcDbLayerTableRecord
  2
TRATTEGGIO
 70
     0
 62
     7
  6
Continuous
370
    -3
390
F
  0
LAYER
  5
43
330
2
100
AcDbSymbolTableRecord
100
AcDbLayerTableRecord
  2
CARTIGLIO
 70
     0
 62
     7
  6
Continuous
370
    -3
390
F
  0
LAYER
  5
4F
330
2
100
AcDbSymbolTableRecord
100
AcDbLayerTableRecord
  2
Defpoints
 70
     0
 62
     7
  6
Continuous
290
     0
370
    -3
390
F
  0
ENDTAB
  0
TABLE
  2
STYLE
  5
3
330
0
100
AcDbSymbolTable
 70
     3
  0
STYLE
  5
11
330
3
100
AcDbSymbolTableRecord
100
AcDbTextStyleTableRecord
  2
Standard
 70
     0
 40
0.0
 41
1.0
 50
0.0
 71
     0
 42
2.5
  3
txt
  4

  0
STYLE
  5
44
330
3
100
AcDbSymbolTableRecord
100
AcDbTextStyleTableRecord
  2
Default
 70
     0
 40
0.0
 41
1.0
 50
0.0
 71
     0
 42
0.2
  3

  4

1001
ACAD
1000
txt
1071
        0
  0
STYLE
  5
45
330
3
100
AcDbSymbolTableRecord
100
AcDbTextStyleTableRecord
  2
STEFANO
 70
     0
 40
0.0
 41
1.0
 50
0.0
 71
     0
 42
0.2
  3
ARIAL.TTF
  4

1001
ACAD
1000
Arial
1071
        0
  0
ENDTAB
  0
TABLE
  2
VIEW
  5
6
330
0
100
AcDbSymbolTable
 70
     0
  0
ENDTAB
  0
TABLE
  2
UCS
  5
7
330
0
100
AcDbSymbolTable
 70
     0
  0
ENDTAB
  0
TABLE
  2
APPID
  5
9
330
0
100
AcDbSymbolTable
 70
     1
  0
APPID
  5
12
330
9
100
AcDbSymbolTableRecord
100
AcDbRegAppTableRecord
  2
ACAD
 70
     0
  0
ENDTAB
  0
TABLE
  2
DIMSTYLE
  5
A
330
0
100
AcDbSymbolTable
 70
     3
100
AcDbDimStyleTable
  0
DIMSTYLE
105
27
330
A
100
AcDbSymbolTableRecord
100
AcDbDimStyleTableRecord
  2
ISO-25
 70
     0
 41
2.5
 42
0.625
 43
3.75
 44
1.25
 73
     0
 74
     0
 77
     1
 78
     8
140
2.5
141
2.5
143
0.03937
147
0.625
171
     3
172
     1
271
     2
272
     2
274
     3
278
    44
283
     0
284
     8
340
11
  0
DIMSTYLE
105
46
330
A
100
AcDbSymbolTableRecord
100
AcDbDimStyleTableRecord
  2
Default
 70
     0
  3
<>
 41
4.375
 42
1.05
 44
2.1
 73
     0
 74
     0
 77
     1
 78
     8
 79
    10
140
3.5
146
0.4
147
1.75
178
     1
179
     1
271
     2
272
     3
284
     8
340
44
341
47
342
47
  0
DIMSTYLE
105
4E
102
{ACAD_REACTORS
330
50
330
5D
330
6A
330
77
330
84
330
91
330
9E
330
AB
330
BA
330
C9
330
D4
330
E3
330
F2
330
100
330
10D
330
11C
330
12A
330
139
330
15C
330
169
330
176
330
183
330
192
330
1A1
330
1AC
330
1BB
330
1CA
330
1D9
330
1E7
330
1F4
330
203
330
210
330
21D
330
22C
102
}
330
A
100
AcDbSymbolTableRecord
100
AcDbDimStyleTableRecord
  2
STEFANO
 70
     0
  3
<>
 41
2.0
 42
0.3
 44
1.25
 73
     0
 74
     0
 77
     1
 78
     8
 79
    10
140
2.5
146
0.6
147
1.25
176
    21
177
    21
178
    21
179
     2
271
     2
272
     2
284
     8
340
45
  0
ENDTAB
  0
TABLE
  2
BLOCK_RECORD
  5
1
330
0
100
AcDbSymbolTable
 70
    36
  0
BLOCK_RECORD
  5
1F
330
1
100
AcDbSymbolTableRecord
100
AcDbBlockTableRecord
  2
*Model_Space
340
22
  0
BLOCK_RECORD
  5
1B
330
1
100
AcDbSymbolTableRecord
100
AcDbBlockTableRecord
  2
*Paper_Space
340
1E
  0
BLOCK_RECORD
  5
23
330
1
100
AcDbSymbolTableRecord
100
AcDbBlockTableRecord
  2
*Paper_Space0
340
26
  0
BLOCK_RECORD
  5
47
330
1
100
AcDbSymbolTableRecord
100
AcDbBlockTableRecord
  2
_CLOSED
340
0
  0
BLOCK_RECORD
  5
51
330
1
100
AcDbSymbolTableRecord
100
AcDbBlockTableRecord
  2
*D2
340
0
  0
BLOCK_RECORD
  5
5E
330
1
100
AcDbSymbolTableRecord
100
AcDbBlockTableRecord
  2
*D3
340
0
  0
BLOCK_RECORD
  5
6B
330
1
100
AcDbSymbolTableRecord
100
AcDbBlockTableRecord
  2
*D4
340
0
  0
BLOCK_RECORD
  5
78
330
1
100
AcDbSymbolTableRecord
100
AcDbBlockTableRecord
  2
*D5
340
0
  0
BLOCK_RECORD
  5
85
330
1
100
AcDbSymbolTableRecord
100
AcDbBlockTableRecord
  2
*D6
340
0
  0
BLOCK_RECORD
  5
92
330
1
100
AcDbSymbolTableRecord
100
AcDbBlockTableRecord
  2
*D7
340
0
  0
BLOCK_RECORD
  5
9F
330
1
100
AcDbSymbolTableRecord
100
AcDbBlockTableRecord
  2
*D8
340
0
  0
BLOCK_RECORD
  5
AC
330
1
100
AcDbSymbolTableRecord
100
AcDbBlockTableRecord
  2
*D9
340
0
  0
BLOCK_RECORD
  5
BB
330
1
100
AcDbSymbolTableRecord
100
AcDbBlockTableRecord
  2
*D10
340
0
  0
BLOCK_RECORD
  5
CA
330
1
100
AcDbSymbolTableRecord
100
AcDbBlockTableRecord
  2
*D11
340
0
  0
BLOCK_RECORD
  5
D5
330
1
100
AcDbSymbolTableRecord
100
AcDbBlockTableRecord
  2
*D12
340
0
  0
BLOCK_RECORD
  5
E4
330
1
100
AcDbSymbolTableRecord
100
AcDbBlockTableRecord
  2
*D13
340
0
  0
BLOCK_RECORD
  5
F3
330
1
100
AcDbSymbolTableRecord
100
AcDbBlockTableRecord
  2
*D14
340
0
  0
BLOCK_RECORD
  5
101
330
1
100
AcDbSymbolTableRecord
100
AcDbBlockTableRecord
  2
*D15
340
0
  0
BLOCK_RECORD
  5
10E
330
1
100
AcDbSymbolTableRecord
100
AcDbBlockTableRecord
  2
*D16
340
0
  0
BLOCK_RECORD
  5
11D
330
1
100
AcDbSymbolTableRecord
100
AcDbBlockTableRecord
  2
*D17
340
0
  0
BLOCK_RECORD
  5
12B
330
1
100
AcDbSymbolTableRecord
100
AcDbBlockTableRecord
  2
*D18
340
0
  0
BLOCK_RECORD
  5
13A
330
1
100
AcDbSymbolTableRecord
100
AcDbBlockTableRecord
  2
*D19
340
0
  0
BLOCK_RECORD
  5
15D
330
1
100
AcDbSymbolTableRecord
100
AcDbBlockTableRecord
  2
*D20
340
0
  0
BLOCK_RECORD
  5
16A
330
1
100
AcDbSymbolTableRecord
100
AcDbBlockTableRecord
  2
*D21
340
0
  0
BLOCK_RECORD
  5
177
330
1
100
AcDbSymbolTableRecord
100
AcDbBlockTableRecord
  2
*D22
340
0
  0
BLOCK_RECORD
  5
184
330
1
100
AcDbSymbolTableRecord
100
AcDbBlockTableRecord
  2
*D23
340
0
  0
BLOCK_RECORD
  5
193
330
1
100
AcDbSymbolTableRecord
100
AcDbBlockTableRecord
  2
*D24
340
0
  0
BLOCK_RECORD
  5
1A2
330
1
100
AcDbSymbolTableRecord
100
AcDbBlockTableRecord
  2
*D25
340
0
  0
BLOCK_RECORD
  5
1AD
330
1
100
AcDbSymbolTableRecord
100
AcDbBlockTableRecord
  2
*D26
340
0
  0
BLOCK_RECORD
  5
1BC
330
1
100
AcDbSymbolTableRecord
100
AcDbBlockTableRecord
  2
*D27
340
0
  0
BLOCK_RECORD
  5
1CB
330
1
100
AcDbSymbolTableRecord
100
AcDbBlockTableRecord
  2
*D28
340
0
  0
BLOCK_RECORD
  5
1DA
330
1
100
AcDbSymbolTableRecord
100
AcDbBlockTableRecord
  2
*D29
340
0
  0
BLOCK_RECORD
  5
1E8
330
1
100
AcDbSymbolTableRecord
100
AcDbBlockTableRecord
  2
*D30
340
0
  0
BLOCK_RECORD
  5
1F5
330
1
100
AcDbSymbolTableRecord
100
AcDbBlockTableRecord
  2
*D31
340
0
  0
BLOCK_RECORD
  5
204
330
1
100
AcDbSymbolTableRecord
100
AcDbBlockTableRecord
  2
*D32
340
0
  0
BLOCK_RECORD
  5
211
330
1
100
AcDbSymbolTableRecord
100
AcDbBlockTableRecord
  2
*D33
340
0
  0
BLOCK_RECORD
  5
21E
330
1
100
AcDbSymbolTableRecord
100
AcDbBlockTableRecord
  2
*D34
340
0
  0
BLOCK_RECORD
  5
22D
330
1
100
AcDbSymbolTableRecord
100
AcDbBlockTableRecord
  2
*D35
340
0
  0
ENDTAB
  0
ENDSEC
  0
SECTION
  2
BLOCKS
  0
BLOCK
  5
20
330
1F
100
AcDbEntity
  8
0
100
AcDbBlockBegin
  2
*Model_Space
 70
     0
 71
     0
 10
0.0
 20
0.0
 30
0.0
  3
*Model_Space
  1

  0
ENDBLK
  5
21
330
1F
100
AcDbEntity
  8
0
100
AcDbBlockEnd
  0
BLOCK
  5
1C
330
1B
100
AcDbEntity
 67
     1
  8
0
100
AcDbBlockBegin
  2
*Paper_Space
 70
     0
 71
     0
 10
0.0
 20
0.0
 30
0.0
  3
*Paper_Space
  1

  0
ENDBLK
  5
1D
330
1B
100
AcDbEntity
 67
     1
  8
0
100
AcDbBlockEnd
  0
BLOCK
  5
24
330
23
100
AcDbEntity
  8
0
100
AcDbBlockBegin
  2
*Paper_Space0
 70
     0
 71
     0
 10
0.0
 20
0.0
 30
0.0
  3
*Paper_Space0
  1

  0
ENDBLK
  5
25
330
23
100
AcDbEntity
  8
0
100
AcDbBlockEnd
  0
BLOCK
  5
48
330
47
100
AcDbEntity
  8
0
100
AcDbBlockBegin
  2
_CLOSED
 70
     0
 71
     0
 10
0.0
 20
0.0
 30
0.0
  3
_CLOSED
  1

  0
LINE
  5
4A
330
47
100
AcDbEntity
  8
0
  6
ByBlock
 62
     0
370
    -2
100
AcDbLine
 10
-1.0
 20
0.166667
 30
0.0
 11
0.0
 21
0.0
 31
0.0
  0
LINE
  5
4B
330
47
100
AcDbEntity
  8
0
  6
ByBlock
 62
     0
370
    -2
100
AcDbLine
 10
0.0
 20
0.0
 30
0.0
 11
-1.0
 21
-0.166667
 31
0.0
  0
LINE
  5
4C
330
47
100
AcDbEntity
  8
0
  6
ByBlock
 62
     0
370
    -2
100
AcDbLine
 10
-1.0
 20
0.166667
 30
0.0
 11
-1.0
 21
-0.166667
 31
0.0
  0
LINE
  5
4D
330
47
100
AcDbEntity
  8
0
  6
ByBlock
 62
     0
370
    -2
100
AcDbLine
 10
0.0
 20
0.0
 30
0.0
 11
-1.0
 21
0.0
 31
0.0
  0
ENDBLK
  5
49
330
47
100
AcDbEntity
  8
0
100
AcDbBlockEnd
  0
BLOCK
  5
5B
330
51
100
AcDbEntity
  8
0
100
AcDbBlockBegin
  2
*D2
 70
     1
 71
     0
 10
0.0
 20
0.0
 30
0.0
  3
*D2
  1

  0
LINE
  5
52
330
51
100
AcDbEntity
  8
QUOTE
  6
Continuous
 62
    21
370
    -2
100
AcDbLine
 10
1190.049683
 20
892.716504
 30
0.0
 11
1190.049683
 21
948.037598
 31
0.0
  0
LINE
  5
53
330
51
100
AcDbEntity
  8
QUOTE
  6
Continuous
 62
    21
370
    -2
100
AcDbLine
 10
1210.299683
 20
763.966504
 30
0.0
 11
1210.299683
 21
948.037598
 31
0.0
  0
LINE
  5
54
330
51
100
AcDbEntity
  8
QUOTE
  6
Continuous
 62
    21
370
    -2
100
AcDbLine
 10
1192.049683
 20
946.537598
 30
0.0
 11
1208.299683
 21
946.537598
 31
0.0
  0
SOLID
  5
55
330
51
100
AcDbEntity
  8
QUOTE
 62
    21
100
AcDbTrace
 10
1192.049683
 20
946.870931
 30
0.0
 11
1192.049683
 21
946.204264
 31
0.0
 12
1190.049683
 22
946.537598
 32
0.0
 13
1190.049683
 23
946.537598
 33
0.0
  0
SOLID
  5
56
330
51
100
AcDbEntity
  8
QUOTE
 62
    21
100
AcDbTrace
 10
1208.299683
 20
946.204264
 30
0.0
 11
1208.299683
 21
946.870931
 31
0.0
 12
1210.299683
 22
946.537598
 32
0.0
 13
1210.299683
 23
946.537598
 33
0.0
  0
MTEXT
  5
57
330
51
100
AcDbEntity
  8
QUOTE
 62
   131
100
AcDbMText
 10
1200.174683
 20
949.569098
 30
0.0
 40
3.0
 41
0.0
 71
     5
 72
     1
  1
\A1;20.25
  7
STEFANO
 73
     1
 44
1.0
  0
POINT
  5
58
330
51
100
AcDbEntity
  8
Defpoints
 62
     0
100
AcDbPoint
 10
1190.049683
 20
892.416504
 30
0.0
  0
POINT
  5
59
330
51
100
AcDbEntity
  8
Defpoints
 62
     0
100
AcDbPoint
 10
1210.299683
 20
763.666504
 30
0.0
  0
POINT
  5
5A
330
51
100
AcDbEntity
  8
Defpoints
 62
     0
100
AcDbPoint
 10
1210.299683
 20
946.537598
 30
0.0
  0
ENDBLK
  5
5C
330
51
100
AcDbEntity
  8
0
100
AcDbBlockEnd
  0
BLOCK
  5
68
330
5E
100
AcDbEntity
  8
0
100
AcDbBlockBegin
  2
*D3
 70
     1
 71
     0
 10
0.0
 20
0.0
 30
0.0
  3
*D3
  1

  0
LINE
  5
5F
330
5E
100
AcDbEntity
  8
QUOTE
  6
Continuous
 62
    21
370
    -2
100
AcDbLine
 10
1207.299683
 20
778.641248
 30
0.0
 11
1207.299683
 21
916.537598
 31
0.0
  0
LINE
  5
60
330
5E
100
AcDbEntity
  8
QUOTE
  6
Continuous
 62
    21
370
    -2
100
AcDbLine
 10
1216.299683
 20
851.966504
 30
0.0
 11
1216.299683
 21
916.537598
 31
0.0
  0
LINE
  5
61
330
5E
100
AcDbEntity
  8
QUOTE
  6
Continuous
 62
    21
370
    -2
100
AcDbLine
 10
1209.299683
 20
915.037598
 30
0.0
 11
1214.299683
 21
915.037598
 31
0.0
  0
SOLID
  5
62
330
5E
100
AcDbEntity
  8
QUOTE
 62
    21
100
AcDbTrace
 10
1209.299683
 20
915.370931
 30
0.0
 11
1209.299683
 21
914.704264
 31
0.0
 12
1207.299683
 22
915.037598
 32
0.0
 13
1207.299683
 23
915.037598
 33
0.0
  0
SOLID
  5
63
330
5E
100
AcDbEntity
  8
QUOTE
 62
    21
100
AcDbTrace
 10
1214.299683
 20
914.704264
 30
0.0
 11
1214.299683
 21
915.370931
 31
0.0
 12
1216.299683
 22
915.037598
 32
0.0
 13
1216.299683
 23
915.037598
 33
0.0
  0
MTEXT
  5
64
330
5E
100
AcDbEntity
  8
QUOTE
 62
   131
100
AcDbMText
 10
1211.799683
 20
918.069098
 30
0.0
 40
3.0
 41
0.0
 71
     5
 72
     1
  1
\A1;9
  7
STEFANO
 73
     1
 44
1.0
  0
POINT
  5
65
330
5E
100
AcDbEntity
  8
Defpoints
 62
     0
100
AcDbPoint
 10
1207.299683
 20
778.341248
 30
0.0
  0
POINT
  5
66
330
5E
100
AcDbEntity
  8
Defpoints
 62
     0
100
AcDbPoint
 10
1216.299683
 20
851.666504
 30
0.0
  0
POINT
  5
67
330
5E
100
AcDbEntity
  8
Defpoints
 62
     0
100
AcDbPoint
 10
1216.299683
 20
915.037598
 30
0.0
  0
ENDBLK
  5
69
330
5E
100
AcDbEntity
  8
0
100
AcDbBlockEnd
  0
BLOCK
  5
75
330
6B
100
AcDbEntity
  8
0
100
AcDbBlockBegin
  2
*D4
 70
     1
 71
     0
 10
0.0
 20
0.0
 30
0.0
  3
*D4
  1

  0
LINE
  5
6C
330
6B
100
AcDbEntity
  8
QUOTE
  6
Continuous
 62
    21
370
    -2
100
AcDbLine
 10
1008.284729
 20
767.502063
 30
0.0
 11
1008.284729
 21
681.226562
 31
0.0
  0
LINE
  5
6D
330
6B
100
AcDbEntity
  8
QUOTE
  6
Continuous
 62
    21
370
    -2
100
AcDbLine
 10
958.284729
 20
767.502063
 30
0.0
 11
958.284729
 21
681.226562
 31
0.0
  0
LINE
  5
6E
330
6B
100
AcDbEntity
  8
QUOTE
  6
Continuous
 62
    21
370
    -2
100
AcDbLine
 10
1006.284729
 20
682.726562
 30
0.0
 11
960.284729
 21
682.726562
 31
0.0
  0
SOLID
  5
6F
330
6B
100
AcDbEntity
  8
QUOTE
 62
    21
100
AcDbTrace
 10
1006.284729
 20
682.393229
 30
0.0
 11
1006.284729
 21
683.059896
 31
0.0
 12
1008.284729
 22
682.726562
 32
0.0
 13
1008.284729
 23
682.726562
 33
0.0
  0
SOLID
  5
70
330
6B
100
AcDbEntity
  8
QUOTE
 62
    21
100
AcDbTrace
 10
960.284729
 20
683.059896
 30
0.0
 11
960.284729
 21
682.393229
 31
0.0
 12
958.284729
 22
682.726562
 32
0.0
 13
958.284729
 23
682.726562
 33
0.0
  0
MTEXT
  5
71
330
6B
100
AcDbEntity
  8
QUOTE
 62
    21
100
AcDbMText
 10
983.284729
 20
685.758063
 30
0.0
 40
3.0
 41
0.0
 71
     5
 72
     1
  1
\A1;50
  7
STEFANO
 73
     1
 44
1.0
  0
POINT
  5
72
330
6B
100
AcDbEntity
  8
Defpoints
 62
     0
100
AcDbPoint
 10
1008.284729
 20
767.802063
 30
0.0
  0
POINT
  5
73
330
6B
100
AcDbEntity
  8
Defpoints
 62
     0
100
AcDbPoint
 10
958.284729
 20
767.802063
 30
0.0
  0
POINT
  5
74
330
6B
100
AcDbEntity
  8
Defpoints
 62
     0
100
AcDbPoint
 10
958.284729
 20
682.726562
 30
0.0
  0
ENDBLK
  5
76
330
6B
100
AcDbEntity
  8
0
100
AcDbBlockEnd
  0
BLOCK
  5
82
330
78
100
AcDbEntity
  8
0
100
AcDbBlockBegin
  2
*D5
 70
     1
 71
     0
 10
0.0
 20
0.0
 30
0.0
  3
*D5
  1

  0
LINE
  5
79
330
78
100
AcDbEntity
  8
QUOTE
  6
Continuous
 62
    21
370
    -2
100
AcDbLine
 10
709.146484
 20
775.618579
 30
0.0
 11
709.146484
 21
689.79303
 31
0.0
  0
LINE
  5
7A
330
78
100
AcDbEntity
  8
QUOTE
  6
Continuous
 62
    21
370
    -2
100
AcDbLine
 10
659.146484
 20
775.618579
 30
0.0
 11
659.146484
 21
689.79303
 31
0.0
  0
LINE
  5
7B
330
78
100
AcDbEntity
  8
QUOTE
  6
Continuous
 62
    21
370
    -2
100
AcDbLine
 10
707.146484
 20
691.29303
 30
0.0
 11
661.146484
 21
691.29303
 31
0.0
  0
SOLID
  5
7C
330
78
100
AcDbEntity
  8
QUOTE
 62
    21
100
AcDbTrace
 10
707.146484
 20
690.959696
 30
0.0
 11
707.146484
 21
691.626363
 31
0.0
 12
709.146484
 22
691.29303
 32
0.0
 13
709.146484
 23
691.29303
 33
0.0
  0
SOLID
  5
7D
330
78
100
AcDbEntity
  8
QUOTE
 62
    21
100
AcDbTrace
 10
661.146484
 20
691.626363
 30
0.0
 11
661.146484
 21
690.959696
 31
0.0
 12
659.146484
 22
691.29303
 32
0.0
 13
659.146484
 23
691.29303
 33
0.0
  0
MTEXT
  5
7E
330
78
100
AcDbEntity
  8
QUOTE
 62
    21
100
AcDbMText
 10
684.146484
 20
694.32453
 30
0.0
 40
3.0
 41
0.0
 71
     5
 72
     1
  1
\A1;50
  7
STEFANO
 73
     1
 44
1.0
  0
POINT
  5
7F
330
78
100
AcDbEntity
  8
Defpoints
 62
     0
100
AcDbPoint
 10
709.146484
 20
775.918579
 30
0.0
  0
POINT
  5
80
330
78
100
AcDbEntity
  8
Defpoints
 62
     0
100
AcDbPoint
 10
659.146484
 20
775.918579
 30
0.0
  0
POINT
  5
81
330
78
100
AcDbEntity
  8
Defpoints
 62
     0
100
AcDbPoint
 10
659.146484
 20
691.29303
 30
0.0
  0
ENDBLK
  5
83
330
78
100
AcDbEntity
  8
0
100
AcDbBlockEnd
  0
BLOCK
  5
8F
330
85
100
AcDbEntity
  8
0
100
AcDbBlockBegin
  2
*D6
 70
     1
 71
     0
 10
0.0
 20
0.0
 30
0.0
  3
*D6
  1

  0
LINE
  5
86
330
85
100
AcDbEntity
  8
QUOTE
  6
Continuous
 62
    21
370
    -2
100
AcDbLine
 10
833.390381
 20
875.255322
 30
0.0
 11
833.390381
 21
909.205322
 31
0.0
  0
LINE
  5
87
330
85
100
AcDbEntity
  8
QUOTE
  6
Continuous
 62
    21
370
    -2
100
AcDbLine
 10
853.640381
 20
746.505322
 30
0.0
 11
853.640381
 21
909.205322
 31
0.0
  0
LINE
  5
88
330
85
100
AcDbEntity
  8
QUOTE
  6
Continuous
 62
    21
370
    -2
100
AcDbLine
 10
835.390381
 20
907.705322
 30
0.0
 11
851.640381
 21
907.705322
 31
0.0
  0
SOLID
  5
89
330
85
100
AcDbEntity
  8
QUOTE
 62
    21
100
AcDbTrace
 10
835.390381
 20
908.038656
 30
0.0
 11
835.390381
 21
907.371989
 31
0.0
 12
833.390381
 22
907.705322
 32
0.0
 13
833.390381
 23
907.705322
 33
0.0
  0
SOLID
  5
8A
330
85
100
AcDbEntity
  8
QUOTE
 62
    21
100
AcDbTrace
 10
851.640381
 20
907.371989
 30
0.0
 11
851.640381
 21
908.038656
 31
0.0
 12
853.640381
 22
907.705322
 32
0.0
 13
853.640381
 23
907.705322
 33
0.0
  0
MTEXT
  5
8B
330
85
100
AcDbEntity
  8
QUOTE
 62
    21
100
AcDbMText
 10
843.515381
 20
910.736822
 30
0.0
 40
3.0
 41
0.0
 71
     5
 72
     1
  1
\A1;20.25
  7
STEFANO
 73
     1
 44
1.0
  0
POINT
  5
8C
330
85
100
AcDbEntity
  8
Defpoints
 62
     0
100
AcDbPoint
 10
833.390381
 20
874.955322
 30
0.0
  0
POINT
  5
8D
330
85
100
AcDbEntity
  8
Defpoints
 62
     0
100
AcDbPoint
 10
853.640381
 20
746.205322
 30
0.0
  0
POINT
  5
8E
330
85
100
AcDbEntity
  8
Defpoints
 62
     0
100
AcDbPoint
 10
853.640381
 20
907.705322
 30
0.0
  0
ENDBLK
  5
90
330
85
100
AcDbEntity
  8
0
100
AcDbBlockEnd
  0
BLOCK
  5
9C
330
92
100
AcDbEntity
  8
0
100
AcDbBlockBegin
  2
*D7
 70
     1
 71
     0
 10
0.0
 20
0.0
 30
0.0
  3
*D7
  1

  0
LINE
  5
93
330
92
100
AcDbEntity
  8
QUOTE
  6
Continuous
 62
    21
370
    -2
100
AcDbLine
 10
845.940381
 20
876.205322
 30
0.0
 11
955.866882
 21
876.205322
 31
0.0
  0
LINE
  5
94
330
92
100
AcDbEntity
  8
QUOTE
  6
Continuous
 62
    21
370
    -2
100
AcDbLine
 10
853.940381
 20
747.00531
 30
0.0
 11
955.866882
 21
747.00531
 31
0.0
  0
LINE
  5
95
330
92
100
AcDbEntity
  8
QUOTE
  6
Continuous
 62
    21
370
    -2
100
AcDbLine
 10
954.366882
 20
874.205322
 30
0.0
 11
954.366882
 21
749.00531
 31
0.0
  0
SOLID
  5
96
330
92
100
AcDbEntity
  8
QUOTE
 62
    21
100
AcDbTrace
 10
954.700216
 20
874.205322
 30
0.0
 11
954.033549
 21
874.205322
 31
0.0
 12
954.366882
 22
876.205322
 32
0.0
 13
954.366882
 23
876.205322
 33
0.0
  0
SOLID
  5
97
330
92
100
AcDbEntity
  8
QUOTE
 62
    21
100
AcDbTrace
 10
954.033549
 20
749.00531
 30
0.0
 11
954.700216
 21
749.00531
 31
0.0
 12
954.366882
 22
747.00531
 32
0.0
 13
954.366882
 23
747.00531
 33
0.0
  0
MTEXT
  5
98
330
92
100
AcDbEntity
  8
QUOTE
 62
    21
100
AcDbMText
 10
951.335382
 20
811.605316
 30
0.0
 40
3.0
 41
0.0
 71
     5
 72
     1
  1
\A1;129.2
  7
STEFANO
 11
0.0
 21
1.0
 31
0.0
 73
     1
 44
1.0
  0
POINT
  5
99
330
92
100
AcDbEntity
  8
Defpoints
 62
     0
100
AcDbPoint
 10
845.640381
 20
876.205322
 30
0.0
  0
POINT
  5
9A
330
92
100
AcDbEntity
  8
Defpoints
 62
     0
100
AcDbPoint
 10
853.640381
 20
747.00531
 30
0.0
  0
POINT
  5
9B
330
92
100
AcDbEntity
  8
Defpoints
 62
     0
100
AcDbPoint
 10
954.366882
 20
747.00531
 30
0.0
  0
ENDBLK
  5
9D
330
92
100
AcDbEntity
  8
0
100
AcDbBlockEnd
  0
BLOCK
  5
A9
330
9F
100
AcDbEntity
  8
0
100
AcDbBlockBegin
  2
*D8
 70
     1
 71
     0
 10
0.0
 20
0.0
 30
0.0
  3
*D8
  1

  0
LINE
  5
A0
330
9F
100
AcDbEntity
  8
QUOTE
  6
Continuous
 62
    21
370
    -2
100
AcDbLine
 10
845.940381
 20
876.205322
 30
0.0
 11
924.41687
 21
876.205322
 31
0.0
  0
LINE
  5
A1
330
9F
100
AcDbEntity
  8
QUOTE
  6
Continuous
 62
    21
370
    -2
100
AcDbLine
 10
858.740369
 20
846.405334
 30
0.0
 11
924.41687
 21
846.405334
 31
0.0
  0
LINE
  5
A2
330
9F
100
AcDbEntity
  8
QUOTE
  6
Continuous
 62
    21
370
    -2
100
AcDbLine
 10
922.91687
 20
874.205322
 30
0.0
 11
922.91687
 21
848.405334
 31
0.0
  0
SOLID
  5
A3
330
9F
100
AcDbEntity
  8
QUOTE
 62
    21
100
AcDbTrace
 10
923.250203
 20
874.205322
 30
0.0
 11
922.583537
 21
874.205322
 31
0.0
 12
922.91687
 22
876.205322
 32
0.0
 13
922.91687
 23
876.205322
 33
0.0
  0
SOLID
  5
A4
330
9F
100
AcDbEntity
  8
QUOTE
 62
    21
100
AcDbTrace
 10
922.583537
 20
848.405334
 30
0.0
 11
923.250203
 21
848.405334
 31
0.0
 12
922.91687
 22
846.405334
 32
0.0
 13
922.91687
 23
846.405334
 33
0.0
  0
MTEXT
  5
A5
330
9F
100
AcDbEntity
  8
QUOTE
 62
    21
100
AcDbMText
 10
919.88537
 20
861.305328
 30
0.0
 40
3.0
 41
0.0
 71
     5
 72
     1
  1
\A1;29.8
  7
STEFANO
 11
0.0
 21
1.0
 31
0.0
 73
     1
 44
1.0
  0
POINT
  5
A6
330
9F
100
AcDbEntity
  8
Defpoints
 62
     0
100
AcDbPoint
 10
845.640381
 20
876.205322
 30
0.0
  0
POINT
  5
A7
330
9F
100
AcDbEntity
  8
Defpoints
 62
     0
100
AcDbPoint
 10
858.440369
 20
846.405334
 30
0.0
  0
POINT
  5
A8
330
9F
100
AcDbEntity
  8
Defpoints
 62
     0
100
AcDbPoint
 10
922.91687
 20
846.405334
 30
0.0
  0
ENDBLK
  5
AA
330
9F
100
AcDbEntity
  8
0
100
AcDbBlockEnd
  0
BLOCK
  5
B8
330
AC
100
AcDbEntity
  8
0
100
AcDbBlockBegin
  2
*D9
 70
     1
 71
     0
 10
0.0
 20
0.0
 30
0.0
  3
*D9
  1

  0
LINE
  5
AD
330
AC
100
AcDbEntity
  8
QUOTE
  6
Continuous
 62
    21
370
    -2
100
AcDbLine
 10
853.640381
 20
745.049758
 30
0.0
 11
853.640381
 21
705.145125
 31
0.0
  0
LINE
  5
AE
330
AC
100
AcDbEntity
  8
QUOTE
  6
Continuous
 62
    21
370
    -2
100
AcDbLine
 10
853.848778
 20
745.133956
 30
0.0
 11
881.56888
 21
716.42898
 31
0.0
  0
ARC
  5
AF
330
AC
100
AcDbEntity
  8
QUOTE
  6
Continuous
 62
    21
370
    -2
100
AcDbCircle
 10
853.640381
 20
745.349758
 30
0.0
 40
38.70463280956687
100
AcDbArc
 50
272.960997
 51
311.039032
  0
SOLID
  5
B0
330
AC
100
AcDbEntity
  8
QUOTE
 62
    21
100
AcDbTrace
 10
855.631101
 20
707.030021
 30
0.0
 11
855.648325
 21
706.363577
 31
0.0
 12
853.640381
 22
706.645125
 32
0.0
 13
853.640381
 23
706.645125
 33
0.0
  0
SOLID
  5
B1
330
AC
100
AcDbEntity
  8
QUOTE
 62
    21
100
AcDbTrace
 10
879.278079
 20
715.910624
 30
0.0
 11
878.827518
 21
716.401988
 31
0.0
 12
880.526892
 22
717.507989
 32
0.0
 13
880.526892
 23
717.507989
 33
0.0
  0
MTEXT
  5
B2
330
AC
100
AcDbEntity
  8
QUOTE
 62
    21
100
AcDbMText
 10
867.01558
 20
712.245002
 30
0.0
 40
3.0
 41
0.0
 71
     5
 72
     1
  1
44
  7
STEFANO
 11
0.9271837580347548
 21
0.374606832340988
 31
0.0
 73
     1
 44
1.0
  0
POINT
  5
B3
330
AC
100
AcDbEntity
  8
Defpoints
 62
     0
100
AcDbPoint
 10
868.139401
 20
709.463451
 30
0.0
  0
POINT
  5
B4
330
AC
100
AcDbEntity
  8
Defpoints
 62
     0
100
AcDbPoint
 10
852.81311
 20
746.206421
 30
0.0
  0
POINT
  5
B5
330
AC
100
AcDbEntity
  8
Defpoints
 62
     0
100
AcDbPoint
 10
853.640381
 20
746.205322
 30
0.0
  0
POINT
  5
B6
330
AC
100
AcDbEntity
  8
Defpoints
 62
     0
100
AcDbPoint
 10
853.640381
 20
885.205322
 30
0.0
  0
POINT
  5
B7
330
AC
100
AcDbEntity
  8
Defpoints
 62
     0
100
AcDbPoint
 10
847.276367
 20
751.93988
 30
0.0
  0
ENDBLK
  5
B9
330
AC
100
AcDbEntity
  8
0
100
AcDbBlockEnd
  0
BLOCK
  5
C7
330
BB
100
AcDbEntity
  8
0
100
AcDbBlockBegin
  2
*D10
 70
     1
 71
     0
 10
0.0
 20
0.0
 30
0.0
  3
*D10
  1

  0
LINE
  5
BC
330
BB
100
AcDbEntity
  8
QUOTE
  6
Continuous
 62
    21
370
    -2
100
AcDbLine
 10
853.431983
 20
745.134017
 30
0.0
 11
826.243307
 21
716.979289
 31
0.0
  0
LINE
  5
BD
330
BB
100
AcDbEntity
  8
QUOTE
  6
Continuous
 62
    21
370
    -2
100
AcDbLine
 10
853.640381
 20
745.049819
 30
0.0
 11
853.640381
 21
705.910161
 31
0.0
  0
ARC
  5
BE
330
BB
100
AcDbEntity
  8
QUOTE
  6
Continuous
 62
    21
370
    -2
100
AcDbCircle
 10
853.640381
 20
745.349819
 30
0.0
 40
37.93965852850279
100
AcDbArc
 50
229.020744
 51
266.979287
  0
SOLID
  5
BF
330
BB
100
AcDbEntity
  8
QUOTE
 62
    21
100
AcDbTrace
 10
828.985246
 20
716.953186
 30
0.0
 11
828.534942
 21
716.461586
 31
0.0
 12
827.285294
 22
718.058299
 32
0.0
 13
827.285294
 23
718.058299
 33
0.0
  0
SOLID
  5
C0
330
BB
100
AcDbEntity
  8
QUOTE
 62
    21
100
AcDbTrace
 10
851.63229
 20
707.129659
 30
0.0
 11
851.649862
 21
707.796094
 31
0.0
 12
853.640381
 22
707.410161
 32
0.0
 13
853.640381
 23
707.410161
 33
0.0
  0
MTEXT
  5
C1
330
BB
100
AcDbEntity
  8
QUOTE
 62
    21
100
AcDbMText
 10
840.551763
 20
712.954329
 30
0.0
 40
3.0
 41
0.0
 71
     5
 72
     1
  1
44
  7
STEFANO
 11
0.9271839550047605
 21
-0.3746063448231094
 31
0.0
 73
     1
 44
1.0
  0
POINT
  5
C2
330
BB
100
AcDbEntity
  8
Defpoints
 62
     0
100
AcDbPoint
 10
839.427944
 20
710.172777
 30
0.0
  0
POINT
  5
C3
330
BB
100
AcDbEntity
  8
Defpoints
 62
     0
100
AcDbPoint
 10
853.640381
 20
746.205322
 30
0.0
  0
POINT
  5
C4
330
BB
100
AcDbEntity
  8
Defpoints
 62
     0
100
AcDbPoint
 10
854.46759
 20
746.206421
 30
0.0
  0
POINT
  5
C5
330
BB
100
AcDbEntity
  8
Defpoints
 62
     0
100
AcDbPoint
 10
859.796143
 20
751.724304
 30
0.0
  0
POINT
  5
C6
330
BB
100
AcDbEntity
  8
Defpoints
 62
     0
100
AcDbPoint
 10
853.640381
 20
885.205322
 30
0.0
  0
ENDBLK
  5
C8
330
BB
100
AcDbEntity
  8
0
100
AcDbBlockEnd
  0
BLOCK
  5
D2
330
CA
100
AcDbEntity
  8
0
100
AcDbBlockBegin
  2
*D11
 70
     1
 71
     0
 10
0.0
 20
0.0
 30
0.0
  3
*D11
  1

  0
LINE
  5
CB
330
CA
100
AcDbEntity
  8
QUOTE
  6
Continuous
 62
    21
370
    -2
100
AcDbLine
 10
843.887272
 20
722.165052
 30
0.0
 11
852.489145
 21
744.073219
 31
0.0
  0
MTEXT
  5
CC
330
CA
100
AcDbEntity
  8
QUOTE
 62
    21
100
AcDbMText
 10
843.776919
 20
730.178751
 30
0.0
 40
3.0
 41
0.0
 71
     5
 72
     1
  1
\A1;R 1.15
  7
STEFANO
 11
0.3654717359394476
 21
0.9308224375408057
 31
0.0
 73
     1
 44
1.0
  0
SOLID
  5
CD
330
CA
100
AcDbEntity
  8
QUOTE
 62
    21
100
AcDbTrace
 10
852.799419
 20
743.951395
 30
0.0
 11
852.178871
 21
744.195043
 31
0.0
 12
853.220088
 22
745.934864
 32
0.0
 13
853.220088
 23
745.934864
 33
0.0
  0
LINE
  5
CE
330
CA
100
AcDbEntity
  8
QUOTE
  6
Continuous
 62
    21
370
    -2
100
AcDbLine
 10
853.550381
 20
747.00531
 30
0.0
 11
853.730381
 21
747.00531
 31
0.0
  0
LINE
  5
CF
330
CA
100
AcDbEntity
  8
QUOTE
  6
Continuous
 62
    21
370
    -2
100
AcDbLine
 10
853.640381
 20
746.91531
 30
0.0
 11
853.640381
 21
747.09531
 31
0.0
  0
POINT
  5
D0
330
CA
100
AcDbEntity
  8
Defpoints
 62
     0
100
AcDbPoint
 10
853.220088
 20
745.934864
 30
0.0
  0
POINT
  5
D1
330
CA
100
AcDbEntity
  8
Defpoints
 62
     0
100
AcDbPoint
 10
853.640381
 20
747.00531
 30
0.0
  0
ENDBLK
  5
D3
330
CA
100
AcDbEntity
  8
0
100
AcDbBlockEnd
  0
BLOCK
  5
E1
330
D5
100
AcDbEntity
  8
0
100
AcDbBlockBegin
  2
*D12
 70
     1
 71
     0
 10
0.0
 20
0.0
 30
0.0
  3
*D12
  1

  0
LINE
  5
D6
330
D5
100
AcDbEntity
  8
QUOTE
  6
Continuous
 62
    21
370
    -2
100
AcDbLine
 10
859.64032
 20
834.505322
 30
0.0
 11
859.64032
 21
909.205383
 31
0.0
  0
LINE
  5
D7
330
D5
100
AcDbEntity
  8
QUOTE
  6
Continuous
 62
    21
370
    -2
100
AcDbLine
 10
853.640381
 20
746.505322
 30
0.0
 11
853.640381
 21
909.205383
 31
0.0
  0
LINE
  5
D8
330
D5
100
AcDbEntity
  8
QUOTE
  6
Continuous
 62
    21
370
    -2
100
AcDbLine
 10
853.640381
 20
907.705383
 30
0.0
 11
846.693925
 21
907.705383
 31
0.0
  0
LINE
  5
D9
330
D5
100
AcDbEntity
  8
QUOTE
  6
Continuous
 62
    21
370
    -2
100
AcDbLine
 10
861.64032
 20
907.705383
 30
0.0
 11
863.64032
 21
907.705383
 31
0.0
  0
LINE
  5
DA
330
D5
100
AcDbEntity
  8
QUOTE
  6
Continuous
 62
    21
370
    -2
100
AcDbLine
 10
851.640381
 20
907.705383
 30
0.0
 11
849.640381
 21
907.705383
 31
0.0
  0
SOLID
  5
DB
330
D5
100
AcDbEntity
  8
QUOTE
 62
    21
100
AcDbTrace
 10
861.64032
 20
908.038717
 30
0.0
 11
861.64032
 21
907.37205
 31
0.0
 12
859.64032
 22
907.705383
 32
0.0
 13
859.64032
 23
907.705383
 33
0.0
  0
SOLID
  5
DC
330
D5
100
AcDbEntity
  8
QUOTE
 62
    21
100
AcDbTrace
 10
851.640381
 20
907.37205
 30
0.0
 11
851.640381
 21
908.038717
 31
0.0
 12
853.640381
 22
907.705383
 32
0.0
 13
853.640381
 23
907.705383
 33
0.0
  0
MTEXT
  5
DD
330
D5
100
AcDbEntity
  8
QUOTE
 62
    21
100
AcDbMText
 10
849.185425
 20
910.736883
 30
0.0
 40
3.0
 41
0.0
 71
     5
 72
     1
  1
\A1;6
  7
STEFANO
 73
     1
 44
1.0
  0
POINT
  5
DE
330
D5
100
AcDbEntity
  8
Defpoints
 62
     0
100
AcDbPoint
 10
859.64032
 20
834.205322
 30
0.0
  0
POINT
  5
DF
330
D5
100
AcDbEntity
  8
Defpoints
 62
     0
100
AcDbPoint
 10
853.640381
 20
746.205322
 30
0.0
  0
POINT
  5
E0
330
D5
100
AcDbEntity
  8
Defpoints
 62
     0
100
AcDbPoint
 10
853.640381
 20
907.705383
 30
0.0
  0
ENDBLK
  5
E2
330
D5
100
AcDbEntity
  8
0
100
AcDbBlockEnd
  0
BLOCK
  5
F0
330
E4
100
AcDbEntity
  8
0
100
AcDbBlockBegin
  2
*D13
 70
     1
 71
     0
 10
0.0
 20
0.0
 30
0.0
  3
*D13
  1

  0
LINE
  5
E5
330
E4
100
AcDbEntity
  8
QUOTE
  6
Continuous
 62
    21
370
    -2
100
AcDbLine
 10
847.276367
 20
753.122607
 30
0.0
 11
847.276367
 21
681.241394
 31
0.0
  0
LINE
  5
E6
330
E4
100
AcDbEntity
  8
QUOTE
  6
Continuous
 62
    21
370
    -2
100
AcDbLine
 10
853.640381
 20
746.70531
 30
0.0
 11
853.640381
 21
681.241394
 31
0.0
  0
LINE
  5
E7
330
E4
100
AcDbEntity
  8
QUOTE
  6
Continuous
 62
    21
370
    -2
100
AcDbLine
 10
847.276367
 20
682.741394
 30
0.0
 11
834.569875
 21
682.741394
 31
0.0
  0
LINE
  5
E8
330
E4
100
AcDbEntity
  8
QUOTE
  6
Continuous
 62
    21
370
    -2
100
AcDbLine
 10
845.276367
 20
682.741394
 30
0.0
 11
843.276367
 21
682.741394
 31
0.0
  0
LINE
  5
E9
330
E4
100
AcDbEntity
  8
QUOTE
  6
Continuous
 62
    21
370
    -2
100
AcDbLine
 10
855.640381
 20
682.741394
 30
0.0
 11
857.640381
 21
682.741394
 31
0.0
  0
SOLID
  5
EA
330
E4
100
AcDbEntity
  8
QUOTE
 62
    21
100
AcDbTrace
 10
845.276367
 20
682.408061
 30
0.0
 11
845.276367
 21
683.074727
 31
0.0
 12
847.276367
 22
682.741394
 32
0.0
 13
847.276367
 23
682.741394
 33
0.0
  0
SOLID
  5
EB
330
E4
100
AcDbEntity
  8
QUOTE
 62
    21
100
AcDbTrace
 10
855.640381
 20
683.074727
 30
0.0
 11
855.640381
 21
682.408061
 31
0.0
 12
853.640381
 22
682.741394
 32
0.0
 13
853.640381
 23
682.741394
 33
0.0
  0
MTEXT
  5
EC
330
E4
100
AcDbEntity
  8
QUOTE
 62
    21
100
AcDbMText
 10
839.971375
 20
685.772894
 30
0.0
 40
3.0
 41
0.0
 71
     5
 72
     1
  1
\A1;6.36
  7
STEFANO
 73
     1
 44
1.0
  0
POINT
  5
ED
330
E4
100
AcDbEntity
  8
Defpoints
 62
     0
100
AcDbPoint
 10
847.276367
 20
753.422607
 30
0.0
  0
POINT
  5
EE
330
E4
100
AcDbEntity
  8
Defpoints
 62
     0
100
AcDbPoint
 10
853.640381
 20
747.00531
 30
0.0
  0
POINT
  5
EF
330
E4
100
AcDbEntity
  8
Defpoints
 62
     0
100
AcDbPoint
 10
853.640381
 20
682.741394
 30
0.0
  0
ENDBLK
  5
F1
330
E4
100
AcDbEntity
  8
0
100
AcDbBlockEnd
  0
BLOCK
  5
FE
330
F3
100
AcDbEntity
  8
0
100
AcDbBlockBegin
  2
*D14
 70
     1
 71
     0
 10
0.0
 20
0.0
 30
0.0
  3
*D14
  1

  0
LINE
  5
F4
330
F3
100
AcDbEntity
  8
QUOTE
  6
Continuous
 62
    21
370
    -2
100
AcDbLine
 10
853.640381
 20
746.70531
 30
0.0
 11
853.640381
 21
681.255798
 31
0.0
  0
LINE
  5
F5
330
F3
100
AcDbEntity
  8
QUOTE
  6
Continuous
 62
    21
370
    -2
100
AcDbLine
 10
853.640381
 20
745.905322
 30
0.0
 11
853.640381
 21
681.255798
 31
0.0
  0
LINE
  5
F6
330
F3
100
AcDbEntity
  8
QUOTE
  6
Continuous
 62
    21
370
    -2
100
AcDbLine
 10
855.640381
 20
682.755798
 30
0.0
 11
862.593381
 21
682.755798
 31
0.0
  0
LINE
  5
F7
330
F3
100
AcDbEntity
  8
QUOTE
  6
Continuous
 62
    21
370
    -2
100
AcDbLine
 10
851.640381
 20
682.755798
 30
0.0
 11
849.640381
 21
682.755798
 31
0.0
  0
SOLID
  5
F8
330
F3
100
AcDbEntity
  8
QUOTE
 62
    21
100
AcDbTrace
 10
851.640381
 20
682.422465
 30
0.0
 11
851.640381
 21
683.089132
 31
0.0
 12
853.640381
 22
682.755798
 32
0.0
 13
853.640381
 23
682.755798
 33
0.0
  0
SOLID
  5
F9
330
F3
100
AcDbEntity
  8
QUOTE
 62
    21
100
AcDbTrace
 10
855.640381
 20
683.089132
 30
0.0
 11
855.640381
 21
682.422465
 31
0.0
 12
853.640381
 22
682.755798
 32
0.0
 13
853.640381
 23
682.755798
 33
0.0
  0
MTEXT
  5
FA
330
F3
100
AcDbEntity
  8
QUOTE
 62
    21
100
AcDbMText
 10
860.116881
 20
685.787298
 30
0.0
 40
3.0
 41
0.0
 71
     5
 72
     1
  1
\A1;0
  7
STEFANO
 73
     1
 44
1.0
  0
POINT
  5
FB
330
F3
100
AcDbEntity
  8
Defpoints
 62
     0
100
AcDbPoint
 10
853.640381
 20
747.00531
 30
0.0
  0
POINT
  5
FC
330
F3
100
AcDbEntity
  8
Defpoints
 62
     0
100
AcDbPoint
 10
853.640381
 20
746.205322
 30
0.0
  0
POINT
  5
FD
330
F3
100
AcDbEntity
  8
Defpoints
 62
     0
100
AcDbPoint
 10
853.640381
 20
682.755798
 30
0.0
  0
ENDBLK
  5
FF
330
F3
100
AcDbEntity
  8
0
100
AcDbBlockEnd
  0
BLOCK
  5
10B
330
101
100
AcDbEntity
  8
0
100
AcDbBlockBegin
  2
*D15
 70
     1
 71
     0
 10
0.0
 20
0.0
 30
0.0
  3
*D15
  1

  0
LINE
  5
102
330
101
100
AcDbEntity
  8
QUOTE
  6
Continuous
 62
    21
370
    -2
100
AcDbLine
 10
850.640381
 20
761.180066
 30
0.0
 11
850.640381
 21
940.705383
 31
0.0
  0
LINE
  5
103
330
101
100
AcDbEntity
  8
QUOTE
  6
Continuous
 62
    21
370
    -2
100
AcDbLine
 10
859.64032
 20
834.505322
 30
0.0
 11
859.64032
 21
940.705383
 31
0.0
  0
LINE
  5
104
330
101
100
AcDbEntity
  8
QUOTE
  6
Continuous
 62
    21
370
    -2
100
AcDbLine
 10
852.640381
 20
939.205383
 30
0.0
 11
857.64032
 21
939.205383
 31
0.0
  0
SOLID
  5
105
330
101
100
AcDbEntity
  8
QUOTE
 62
    21
100
AcDbTrace
 10
852.640381
 20
939.538717
 30
0.0
 11
852.640381
 21
938.87205
 31
0.0
 12
850.640381
 22
939.205383
 32
0.0
 13
850.640381
 23
939.205383
 33
0.0
  0
SOLID
  5
106
330
101
100
AcDbEntity
  8
QUOTE
 62
    21
100
AcDbTrace
 10
857.64032
 20
938.87205
 30
0.0
 11
857.64032
 21
939.538717
 31
0.0
 12
859.64032
 22
939.205383
 32
0.0
 13
859.64032
 23
939.205383
 33
0.0
  0
MTEXT
  5
107
330
101
100
AcDbEntity
  8
QUOTE
 62
    21
100
AcDbMText
 10
855.14035
 20
942.236883
 30
0.0
 40
3.0
 41
0.0
 71
     5
 72
     1
  1
\A1;9
  7
STEFANO
 73
     1
 44
1.0
  0
POINT
  5
108
330
101
100
AcDbEntity
  8
Defpoints
 62
     0
100
AcDbPoint
 10
850.640381
 20
760.880066
 30
0.0
  0
POINT
  5
109
330
101
100
AcDbEntity
  8
Defpoints
 62
     0
100
AcDbPoint
 10
859.64032
 20
834.205322
 30
0.0
  0
POINT
  5
10A
330
101
100
AcDbEntity
  8
Defpoints
 62
     0
100
AcDbPoint
 10
859.64032
 20
939.205383
 30
0.0
  0
ENDBLK
  5
10C
330
101
100
AcDbEntity
  8
0
100
AcDbBlockEnd
  0
BLOCK
  5
11A
330
10E
100
AcDbEntity
  8
0
100
AcDbBlockBegin
  2
*D16
 70
     1
 71
     0
 10
0.0
 20
0.0
 30
0.0
  3
*D16
  1

  0
LINE
  5
10F
330
10E
100
AcDbEntity
  8
QUOTE
  6
Continuous
 62
    21
370
    -2
100
AcDbLine
 10
850.42825
 20
824.99319
 30
0.0
 11
843.992941
 21
818.557837
 31
0.0
  0
ARC
  5
110
330
10E
100
AcDbEntity
  8
QUOTE
  6
Continuous
 62
    21
370
    -2
100
AcDbCircle
 10
853.640381
 20
828.205343
 30
0.0
 40
12.14358697891921
100
AcDbArc
 50
206.106029
 51
215.553112
  0
ARC
  5
111
330
10E
100
AcDbEntity
  8
QUOTE
  6
Continuous
 62
    21
370
    -2
100
AcDbCircle
 10
853.640381
 20
828.205343
 30
0.0
 40
12.14358697891921
100
AcDbArc
 50
279.447082
 51
288.894165
  0
SOLID
  5
112
330
10E
100
AcDbEntity
  8
QUOTE
 62
    21
100
AcDbTrace
 10
843.506329
 20
820.928871
 30
0.0
 11
844.01495
 21
821.359857
 31
0.0
 12
845.053597
 22
819.618501
 32
0.0
 13
845.053597
 23
819.618501
 33
0.0
  0
SOLID
  5
113
330
10E
100
AcDbEntity
  8
QUOTE
 62
    21
100
AcDbTrace
 10
855.606139
 20
816.558653
 30
0.0
 11
855.661037
 21
815.89425
 31
0.0
 12
853.640381
 22
816.061756
 32
0.0
 13
853.640381
 23
816.061756
 33
0.0
  0
MTEXT
  5
114
330
10E
100
AcDbEntity
  8
QUOTE
 62
    21
100
AcDbMText
 10
850.151054
 20
819.781323
 30
0.0
 40
3.0
 41
0.0
 71
     5
 72
     1
  1
45
  7
STEFANO
 11
0.9238801813216861
 21
-0.3826818659944683
 31
0.0
 73
     1
 44
1.0
  0
POINT
  5
115
330
10E
100
AcDbEntity
  8
Defpoints
 62
     0
100
AcDbPoint
 10
848.99325
 20
816.986123
 30
0.0
  0
POINT
  5
116
330
10E
100
AcDbEntity
  8
Defpoints
 62
     0
100
AcDbPoint
 10
853.640381
 20
746.205322
 30
0.0
  0
POINT
  5
117
330
10E
100
AcDbEntity
  8
Defpoints
 62
     0
100
AcDbPoint
 10
850.640381
 20
825.205322
 30
0.0
  0
POINT
  5
118
330
10E
100
AcDbEntity
  8
Defpoints
 62
     0
100
AcDbPoint
 10
859.64032
 20
834.205322
 30
0.0
  0
POINT
  5
119
330
10E
100
AcDbEntity
  8
Defpoints
 62
     0
100
AcDbPoint
 10
853.640381
 20
885.205322
 30
0.0
  0
ENDBLK
  5
11B
330
10E
100
AcDbEntity
  8
0
100
AcDbBlockEnd
  0
BLOCK
  5
128
330
11D
100
AcDbEntity
  8
0
100
AcDbBlockBegin
  2
*D17
 70
     1
 71
     0
 10
0.0
 20
0.0
 30
0.0
  3
*D17
  1

  0
LINE
  5
11E
330
11D
100
AcDbEntity
  8
QUOTE
  6
Continuous
 62
    21
370
    -2
100
AcDbLine
 10
858.740369
 20
846.405334
 30
0.0
 11
892.91687
 21
846.405334
 31
0.0
  0
LINE
  5
11F
330
11D
100
AcDbEntity
  8
QUOTE
  6
Continuous
 62
    21
370
    -2
100
AcDbLine
 10
859.94032
 20
834.205322
 30
0.0
 11
892.91687
 21
834.205322
 31
0.0
  0
LINE
  5
120
330
11D
100
AcDbEntity
  8
QUOTE
  6
Continuous
 62
    21
370
    -2
100
AcDbLine
 10
891.41687
 20
834.205322
 30
0.0
 11
891.41687
 21
821.66533
 31
0.0
  0
LINE
  5
121
330
11D
100
AcDbEntity
  8
QUOTE
  6
Continuous
 62
    21
370
    -2
100
AcDbLine
 10
891.41687
 20
844.405334
 30
0.0
 11
891.41687
 21
836.205322
 31
0.0
  0
SOLID
  5
122
330
11D
100
AcDbEntity
  8
QUOTE
 62
    21
100
AcDbTrace
 10
891.750203
 20
844.405334
 30
0.0
 11
891.083537
 21
844.405334
 31
0.0
 12
891.41687
 22
846.405334
 32
0.0
 13
891.41687
 23
846.405334
 33
0.0
  0
SOLID
  5
123
330
11D
100
AcDbEntity
  8
QUOTE
 62
    21
100
AcDbTrace
 10
891.083537
 20
836.205322
 30
0.0
 11
891.750203
 21
836.205322
 31
0.0
 12
891.41687
 22
834.205322
 32
0.0
 13
891.41687
 23
834.205322
 33
0.0
  0
MTEXT
  5
124
330
11D
100
AcDbEntity
  8
QUOTE
 62
    21
100
AcDbMText
 10
888.41087
 20
826.90033
 30
0.0
 40
3.0
 41
0.0
 71
     5
 72
     1
  1
\A1;12.2
  7
STEFANO
 11
0.0
 21
1.0
 31
0.0
 73
     1
 44
1.0
  0
POINT
  5
125
330
11D
100
AcDbEntity
  8
Defpoints
 62
     0
100
AcDbPoint
 10
858.440369
 20
846.405334
 30
0.0
  0
POINT
  5
126
330
11D
100
AcDbEntity
  8
Defpoints
 62
     0
100
AcDbPoint
 10
859.64032
 20
834.205322
 30
0.0
  0
POINT
  5
127
330
11D
100
AcDbEntity
  8
Defpoints
 62
     0
100
AcDbPoint
 10
891.41687
 20
834.205322
 30
0.0
  0
ENDBLK
  5
129
330
11D
100
AcDbEntity
  8
0
100
AcDbBlockEnd
  0
BLOCK
  5
137
330
12B
100
AcDbEntity
  8
0
100
AcDbBlockBegin
  2
*D18
 70
     1
 71
     0
 10
0.0
 20
0.0
 30
0.0
  3
*D18
  1

  0
LINE
  5
12C
330
12B
100
AcDbEntity
  8
QUOTE
  6
Continuous
 62
    21
370
    -2
100
AcDbLine
 10
833.640369
 20
859.205322
 30
0.0
 11
824.258545
 21
859.205322
 31
0.0
  0
LINE
  5
12D
330
12B
100
AcDbEntity
  8
QUOTE
  6
Continuous
 62
    21
370
    -2
100
AcDbLine
 10
833.090381
 20
859.755371
 30
0.0
 11
824.258545
 21
859.755371
 31
0.0
  0
LINE
  5
12E
330
12B
100
AcDbEntity
  8
QUOTE
  6
Continuous
 62
    21
370
    -2
100
AcDbLine
 10
825.758545
 20
859.755371
 30
0.0
 11
825.758545
 21
872.463364
 31
0.0
  0
LINE
  5
12F
330
12B
100
AcDbEntity
  8
QUOTE
  6
Continuous
 62
    21
370
    -2
100
AcDbLine
 10
825.758545
 20
857.205322
 30
0.0
 11
825.758545
 21
855.205322
 31
0.0
  0
LINE
  5
130
330
12B
100
AcDbEntity
  8
QUOTE
  6
Continuous
 62
    21
370
    -2
100
AcDbLine
 10
825.758545
 20
861.755371
 30
0.0
 11
825.758545
 21
863.755371
 31
0.0
  0
SOLID
  5
131
330
12B
100
AcDbEntity
  8
QUOTE
 62
    21
100
AcDbTrace
 10
826.091878
 20
857.205322
 30
0.0
 11
825.425212
 21
857.205322
 31
0.0
 12
825.758545
 22
859.205322
 32
0.0
 13
825.758545
 23
859.205322
 33
0.0
  0
SOLID
  5
132
330
12B
100
AcDbEntity
  8
QUOTE
 62
    21
100
AcDbTrace
 10
825.425212
 20
861.755371
 30
0.0
 11
826.091878
 21
861.755371
 31
0.0
 12
825.758545
 22
859.755371
 32
0.0
 13
825.758545
 23
859.755371
 33
0.0
  0
MTEXT
  5
133
330
12B
100
AcDbEntity
  8
QUOTE
 62
   131
100
AcDbMText
 10
822.727045
 20
867.060364
 30
0.0
 40
3.0
 41
0.0
 71
     5
 72
     1
  1
\A1;0.55
  7
STEFANO
 11
0.0
 21
1.0
 31
0.0
 73
     1
 44
1.0
  0
POINT
  5
134
330
12B
100
AcDbEntity
  8
Defpoints
 62
     0
100
AcDbPoint
 10
833.940369
 20
859.205322
 30
0.0
  0
POINT
  5
135
330
12B
100
AcDbEntity
  8
Defpoints
 62
     0
100
AcDbPoint
 10
833.390381
 20
859.755371
 30
0.0
  0
POINT
  5
136
330
12B
100
AcDbEntity
  8
Defpoints
 62
     0
100
AcDbPoint
 10
825.758545
 20
859.755371
 30
0.0
  0
ENDBLK
  5
138
330
12B
100
AcDbEntity
  8
0
100
AcDbBlockEnd
  0
BLOCK
  5
146
330
13A
100
AcDbEntity
  8
0
100
AcDbBlockBegin
  2
*D19
 70
     1
 71
     0
 10
0.0
 20
0.0
 30
0.0
  3
*D19
  1

  0
LINE
  5
13B
330
13A
100
AcDbEntity
  8
QUOTE
  6
Continuous
 62
    21
370
    -2
100
AcDbLine
 10
833.390381
 20
849.955371
 30
0.0
 11
833.390381
 21
844.036377
 31
0.0
  0
LINE
  5
13C
330
13A
100
AcDbEntity
  8
QUOTE
  6
Continuous
 62
    21
370
    -2
100
AcDbLine
 10
833.940369
 20
850.505359
 30
0.0
 11
833.940369
 21
844.036377
 31
0.0
  0
LINE
  5
13D
330
13A
100
AcDbEntity
  8
QUOTE
  6
Continuous
 62
    21
370
    -2
100
AcDbLine
 10
833.390381
 20
845.536377
 30
0.0
 11
820.682388
 21
845.536377
 31
0.0
  0
LINE
  5
13E
330
13A
100
AcDbEntity
  8
QUOTE
  6
Continuous
 62
    21
370
    -2
100
AcDbLine
 10
831.390381
 20
845.536377
 30
0.0
 11
829.390381
 21
845.536377
 31
0.0
  0
LINE
  5
13F
330
13A
100
AcDbEntity
  8
QUOTE
  6
Continuous
 62
    21
370
    -2
100
AcDbLine
 10
835.940369
 20
845.536377
 30
0.0
 11
837.940369
 21
845.536377
 31
0.0
  0
SOLID
  5
140
330
13A
100
AcDbEntity
  8
QUOTE
 62
    21
100
AcDbTrace
 10
831.390381
 20
845.203044
 30
0.0
 11
831.390381
 21
845.86971
 31
0.0
 12
833.390381
 22
845.536377
 32
0.0
 13
833.390381
 23
845.536377
 33
0.0
  0
SOLID
  5
141
330
13A
100
AcDbEntity
  8
QUOTE
 62
    21
100
AcDbTrace
 10
835.940369
 20
845.86971
 30
0.0
 11
835.940369
 21
845.203044
 31
0.0
 12
833.940369
 22
845.536377
 32
0.0
 13
833.940369
 23
845.536377
 33
0.0
  0
MTEXT
  5
142
330
13A
100
AcDbEntity
  8
QUOTE
 62
   131
100
AcDbMText
 10
826.085388
 20
848.567877
 30
0.0
 40
3.0
 41
0.0
 71
     5
 72
     1
  1
\A1;0.55
  7
STEFANO
 73
     1
 44
1.0
  0
POINT
  5
143
330
13A
100
AcDbEntity
  8
Defpoints
 62
     0
100
AcDbPoint
 10
833.390381
 20
850.255371
 30
0.0
  0
POINT
  5
144
330
13A
100
AcDbEntity
  8
Defpoints
 62
     0
100
AcDbPoint
 10
833.940369
 20
850.805359
 30
0.0
  0
POINT
  5
145
330
13A
100
AcDbEntity
  8
Defpoints
 62
     0
100
AcDbPoint
 10
833.940369
 20
845.536377
 30
0.0
  0
ENDBLK
  5
147
330
13A
100
AcDbEntity
  8
0
100
AcDbBlockEnd
  0
BLOCK
  5
167
330
15D
100
AcDbEntity
  8
0
100
AcDbBlockBegin
  2
*D20
 70
     1
 71
     0
 10
0.0
 20
0.0
 30
0.0
  3
*D20
  1

  0
LINE
  5
15E
330
15D
100
AcDbEntity
  8
QUOTE
  6
Continuous
 62
    21
370
    -2
100
AcDbLine
 10
543.632446
 20
883.593091
 30
0.0
 11
543.632446
 21
917.293091
 31
0.0
  0
LINE
  5
15F
330
15D
100
AcDbEntity
  8
QUOTE
  6
Continuous
 62
    21
370
    -2
100
AcDbLine
 10
563.632446
 20
754.59303
 30
0.0
 11
563.632446
 21
917.293091
 31
0.0
  0
LINE
  5
160
330
15D
100
AcDbEntity
  8
QUOTE
  6
Continuous
 62
    21
370
    -2
100
AcDbLine
 10
545.632446
 20
915.793091
 30
0.0
 11
561.632446
 21
915.793091
 31
0.0
  0
SOLID
  5
161
330
15D
100
AcDbEntity
  8
QUOTE
 62
    21
100
AcDbTrace
 10
545.632446
 20
916.126424
 30
0.0
 11
545.632446
 21
915.459757
 31
0.0
 12
543.632446
 22
915.793091
 32
0.0
 13
543.632446
 23
915.793091
 33
0.0
  0
SOLID
  5
162
330
15D
100
AcDbEntity
  8
QUOTE
 62
    21
100
AcDbTrace
 10
561.632446
 20
915.459757
 30
0.0
 11
561.632446
 21
916.126424
 31
0.0
 12
563.632446
 22
915.793091
 32
0.0
 13
563.632446
 23
915.793091
 33
0.0
  0
MTEXT
  5
163
330
15D
100
AcDbEntity
  8
QUOTE
 62
    21
100
AcDbMText
 10
553.632446
 20
918.824591
 30
0.0
 40
3.0
 41
0.0
 71
     5
 72
     1
  1
\A1;20
  7
STEFANO
 73
     1
 44
1.0
  0
POINT
  5
164
330
15D
100
AcDbEntity
  8
Defpoints
 62
     0
100
AcDbPoint
 10
543.632446
 20
883.293091
 30
0.0
  0
POINT
  5
165
330
15D
100
AcDbEntity
  8
Defpoints
 62
     0
100
AcDbPoint
 10
563.632446
 20
754.29303
 30
0.0
  0
POINT
  5
166
330
15D
100
AcDbEntity
  8
Defpoints
 62
     0
100
AcDbPoint
 10
563.632446
 20
915.793091
 30
0.0
  0
ENDBLK
  5
168
330
15D
100
AcDbEntity
  8
0
100
AcDbBlockEnd
  0
BLOCK
  5
174
330
16A
100
AcDbEntity
  8
0
100
AcDbBlockBegin
  2
*D21
 70
     1
 71
     0
 10
0.0
 20
0.0
 30
0.0
  3
*D21
  1

  0
LINE
  5
16B
330
16A
100
AcDbEntity
  8
QUOTE
  6
Continuous
 62
    21
370
    -2
100
AcDbLine
 10
555.932446
 20
884.293091
 30
0.0
 11
665.632446
 21
884.293091
 31
0.0
  0
LINE
  5
16C
330
16A
100
AcDbEntity
  8
QUOTE
  6
Continuous
 62
    21
370
    -2
100
AcDbLine
 10
563.932446
 20
755.093018
 30
0.0
 11
665.632446
 21
755.093018
 31
0.0
  0
LINE
  5
16D
330
16A
100
AcDbEntity
  8
QUOTE
  6
Continuous
 62
    21
370
    -2
100
AcDbLine
 10
664.132446
 20
882.293091
 30
0.0
 11
664.132446
 21
757.093018
 31
0.0
  0
SOLID
  5
16E
330
16A
100
AcDbEntity
  8
QUOTE
 62
    21
100
AcDbTrace
 10
664.46578
 20
882.293091
 30
0.0
 11
663.799113
 21
882.293091
 31
0.0
 12
664.132446
 22
884.293091
 32
0.0
 13
664.132446
 23
884.293091
 33
0.0
  0
SOLID
  5
16F
330
16A
100
AcDbEntity
  8
QUOTE
 62
    21
100
AcDbTrace
 10
663.799113
 20
757.093018
 30
0.0
 11
664.46578
 21
757.093018
 31
0.0
 12
664.132446
 22
755.093018
 32
0.0
 13
664.132446
 23
755.093018
 33
0.0
  0
MTEXT
  5
170
330
16A
100
AcDbEntity
  8
QUOTE
 62
    21
100
AcDbMText
 10
661.100946
 20
819.693054
 30
0.0
 40
3.0
 41
0.0
 71
     5
 72
     1
  1
\A1;129.2
  7
STEFANO
 11
0.0
 21
1.0
 31
0.0
 73
     1
 44
1.0
  0
POINT
  5
171
330
16A
100
AcDbEntity
  8
Defpoints
 62
     0
100
AcDbPoint
 10
555.632446
 20
884.293091
 30
0.0
  0
POINT
  5
172
330
16A
100
AcDbEntity
  8
Defpoints
 62
     0
100
AcDbPoint
 10
563.632446
 20
755.093018
 30
0.0
  0
POINT
  5
173
330
16A
100
AcDbEntity
  8
Defpoints
 62
     0
100
AcDbPoint
 10
664.132446
 20
755.093018
 30
0.0
  0
ENDBLK
  5
175
330
16A
100
AcDbEntity
  8
0
100
AcDbBlockEnd
  0
BLOCK
  5
181
330
177
100
AcDbEntity
  8
0
100
AcDbBlockBegin
  2
*D22
 70
     1
 71
     0
 10
0.0
 20
0.0
 30
0.0
  3
*D22
  1

  0
LINE
  5
178
330
177
100
AcDbEntity
  8
QUOTE
  6
Continuous
 62
    21
370
    -2
100
AcDbLine
 10
555.932446
 20
884.293091
 30
0.0
 11
634.132446
 21
884.293091
 31
0.0
  0
LINE
  5
179
330
177
100
AcDbEntity
  8
QUOTE
  6
Continuous
 62
    21
370
    -2
100
AcDbLine
 10
568.932446
 20
854.293091
 30
0.0
 11
634.132446
 21
854.293091
 31
0.0
  0
LINE
  5
17A
330
177
100
AcDbEntity
  8
QUOTE
  6
Continuous
 62
    21
370
    -2
100
AcDbLine
 10
632.632446
 20
882.293091
 30
0.0
 11
632.632446
 21
856.293091
 31
0.0
  0
SOLID
  5
17B
330
177
100
AcDbEntity
  8
QUOTE
 62
    21
100
AcDbTrace
 10
632.96578
 20
882.293091
 30
0.0
 11
632.299113
 21
882.293091
 31
0.0
 12
632.632446
 22
884.293091
 32
0.0
 13
632.632446
 23
884.293091
 33
0.0
  0
SOLID
  5
17C
330
177
100
AcDbEntity
  8
QUOTE
 62
    21
100
AcDbTrace
 10
632.299113
 20
856.293091
 30
0.0
 11
632.96578
 21
856.293091
 31
0.0
 12
632.632446
 22
854.293091
 32
0.0
 13
632.632446
 23
854.293091
 33
0.0
  0
MTEXT
  5
17D
330
177
100
AcDbEntity
  8
QUOTE
 62
    21
100
AcDbMText
 10
629.600946
 20
869.293091
 30
0.0
 40
3.0
 41
0.0
 71
     5
 72
     1
  1
\A1;30
  7
STEFANO
 11
0.0
 21
1.0
 31
0.0
 73
     1
 44
1.0
  0
POINT
  5
17E
330
177
100
AcDbEntity
  8
Defpoints
 62
     0
100
AcDbPoint
 10
555.632446
 20
884.293091
 30
0.0
  0
POINT
  5
17F
330
177
100
AcDbEntity
  8
Defpoints
 62
     0
100
AcDbPoint
 10
568.632446
 20
854.293091
 30
0.0
  0
POINT
  5
180
330
177
100
AcDbEntity
  8
Defpoints
 62
     0
100
AcDbPoint
 10
632.632446
 20
854.293091
 30
0.0
  0
ENDBLK
  5
182
330
177
100
AcDbEntity
  8
0
100
AcDbBlockEnd
  0
BLOCK
  5
190
330
184
100
AcDbEntity
  8
0
100
AcDbBlockBegin
  2
*D23
 70
     1
 71
     0
 10
0.0
 20
0.0
 30
0.0
  3
*D23
  1

  0
LINE
  5
185
330
184
100
AcDbEntity
  8
QUOTE
  6
Continuous
 62
    21
370
    -2
100
AcDbLine
 10
563.632446
 20
753.641473
 30
0.0
 11
563.632446
 21
713.539044
 31
0.0
  0
LINE
  5
186
330
184
100
AcDbEntity
  8
QUOTE
  6
Continuous
 62
    21
370
    -2
100
AcDbLine
 10
563.840845
 20
753.725671
 30
0.0
 11
591.698429
 21
724.878492
 31
0.0
  0
ARC
  5
187
330
184
100
AcDbEntity
  8
QUOTE
  6
Continuous
 62
    21
370
    -2
100
AcDbCircle
 10
563.632446
 20
753.941473
 30
0.0
 40
38.90242843857496
100
AcDbArc
 50
272.945939
 51
311.054253
  0
SOLID
  5
188
330
184
100
AcDbEntity
  8
QUOTE
 62
    21
100
AcDbTrace
 10
565.623217
 20
715.423678
 30
0.0
 11
565.640354
 21
714.757232
 31
0.0
 12
563.632446
 22
715.039044
 32
0.0
 13
563.632446
 23
715.039044
 33
0.0
  0
SOLID
  5
189
330
184
100
AcDbEntity
  8
QUOTE
 62
    21
100
AcDbTrace
 10
589.407839
 20
724.359965
 30
0.0
 11
588.957212
 21
724.851269
 31
0.0
 12
590.656438
 22
725.957498
 32
0.0
 13
590.656438
 23
725.957498
 33
0.0
  0
MTEXT
  5
18A
330
184
100
AcDbEntity
  8
QUOTE
 62
    21
100
AcDbMText
 10
577.081789
 20
720.653343
 30
0.0
 40
3.0
 41
0.0
 71
     5
 72
     1
  1
44
  7
STEFANO
 11
0.9271832261151832
 21
0.3746081488844591
 31
0.0
 73
     1
 44
1.0
  0
POINT
  5
18B
330
184
100
AcDbEntity
  8
Defpoints
 62
     0
100
AcDbPoint
 10
578.205613
 20
717.871793
 30
0.0
  0
POINT
  5
18C
330
184
100
AcDbEntity
  8
Defpoints
 62
     0
100
AcDbPoint
 10
563.057007
 20
754.537354
 30
0.0
  0
POINT
  5
18D
330
184
100
AcDbEntity
  8
Defpoints
 62
     0
100
AcDbPoint
 10
563.632446
 20
754.29303
 30
0.0
  0
POINT
  5
18E
330
184
100
AcDbEntity
  8
Defpoints
 62
     0
100
AcDbPoint
 10
563.632446
 20
893.29303
 30
0.0
  0
POINT
  5
18F
330
184
100
AcDbEntity
  8
Defpoints
 62
     0
100
AcDbPoint
 10
557.268494
 20
760.531494
 30
0.0
  0
ENDBLK
  5
191
330
184
100
AcDbEntity
  8
0
100
AcDbBlockEnd
  0
BLOCK
  5
19F
330
193
100
AcDbEntity
  8
0
100
AcDbBlockBegin
  2
*D24
 70
     1
 71
     0
 10
0.0
 20
0.0
 30
0.0
  3
*D24
  1

  0
LINE
  5
194
330
193
100
AcDbEntity
  8
QUOTE
  6
Continuous
 62
    21
370
    -2
100
AcDbLine
 10
563.424048
 20
753.725606
 30
0.0
 11
535.927334
 21
725.252036
 31
0.0
  0
LINE
  5
195
330
193
100
AcDbEntity
  8
QUOTE
  6
Continuous
 62
    21
370
    -2
100
AcDbLine
 10
563.632446
 20
753.641408
 30
0.0
 11
563.632446
 21
714.058412
 31
0.0
  0
ARC
  5
196
330
193
100
AcDbEntity
  8
QUOTE
  6
Continuous
 62
    21
370
    -2
100
AcDbCircle
 10
563.632446
 20
753.941408
 30
0.0
 40
38.38299519076977
100
AcDbArc
 50
228.985703
 51
267.014185
  0
SOLID
  5
197
330
193
100
AcDbEntity
  8
QUOTE
 62
    21
100
AcDbTrace
 10
538.668936
 20
725.225409
 30
0.0
 11
538.21848
 21
724.733947
 31
0.0
 12
536.969323
 22
726.331044
 32
0.0
 13
536.969323
 23
726.331044
 33
0.0
  0
SOLID
  5
198
330
193
100
AcDbEntity
  8
QUOTE
 62
    21
100
AcDbTrace
 10
561.624441
 20
715.277299
 30
0.0
 11
561.64181
 21
715.943739
 31
0.0
 12
563.632446
 22
715.558412
 32
0.0
 13
563.632446
 23
715.558412
 33
0.0
  0
MTEXT
  5
199
330
193
100
AcDbEntity
  8
QUOTE
 62
    21
100
AcDbMText
 10
550.377711
 20
721.134879
 30
0.0
 40
3.0
 41
0.0
 71
     5
 72
     1
  1
44
  7
STEFANO
 11
0.9271834877687041
 21
-0.3746075012717461
 31
0.0
 73
     1
 44
1.0
  0
POINT
  5
19A
330
193
100
AcDbEntity
  8
Defpoints
 62
     0
100
AcDbPoint
 10
549.253888
 20
718.353328
 30
0.0
  0
POINT
  5
19B
330
193
100
AcDbEntity
  8
Defpoints
 62
     0
100
AcDbPoint
 10
563.632446
 20
754.29303
 30
0.0
  0
POINT
  5
19C
330
193
100
AcDbEntity
  8
Defpoints
 62
     0
100
AcDbPoint
 10
564.207947
 20
754.537354
 30
0.0
  0
POINT
  5
19D
330
193
100
AcDbEntity
  8
Defpoints
 62
     0
100
AcDbPoint
 10
569.54071
 20
760.05957
 30
0.0
  0
POINT
  5
19E
330
193
100
AcDbEntity
  8
Defpoints
 62
     0
100
AcDbPoint
 10
563.632446
 20
893.29303
 30
0.0
  0
ENDBLK
  5
1A0
330
193
100
AcDbEntity
  8
0
100
AcDbBlockEnd
  0
BLOCK
  5
1AA
330
1A2
100
AcDbEntity
  8
0
100
AcDbBlockBegin
  2
*D25
 70
     1
 71
     0
 10
0.0
 20
0.0
 30
0.0
  3
*D25
  1

  0
LINE
  5
1A3
330
1A2
100
AcDbEntity
  8
QUOTE
  6
Continuous
 62
    21
370
    -2
100
AcDbLine
 10
554.019007
 20
730.607848
 30
0.0
 11
562.609148
 21
752.486706
 31
0.0
  0
MTEXT
  5
1A4
330
1A2
100
AcDbEntity
  8
QUOTE
 62
    21
100
AcDbMText
 10
553.480442
 20
737.531084
 30
0.0
 40
3.0
 41
0.0
 71
     5
 72
     1
  1
\A1;R 0.8
  7
STEFANO
 11
0.3654635188241396
 21
0.9308256638107255
 31
0.0
 73
     1
 44
1.0
  0
SOLID
  5
1A5
330
1A2
100
AcDbEntity
  8
QUOTE
 62
    21
100
AcDbTrace
 10
562.919424
 20
752.364885
 30
0.0
 11
562.298873
 21
752.608527
 31
0.0
 12
563.340075
 22
754.348357
 32
0.0
 13
563.340075
 23
754.348357
 33
0.0
  0
LINE
  5
1A6
330
1A2
100
AcDbEntity
  8
QUOTE
  6
Continuous
 62
    21
370
    -2
100
AcDbLine
 10
563.542446
 20
755.093018
 30
0.0
 11
563.722446
 21
755.093018
 31
0.0
  0
LINE
  5
1A7
330
1A2
100
AcDbEntity
  8
QUOTE
  6
Continuous
 62
    21
370
    -2
100
AcDbLine
 10
563.632446
 20
755.003018
 30
0.0
 11
563.632446
 21
755.183018
 31
0.0
  0
POINT
  5
1A8
330
1A2
100
AcDbEntity
  8
Defpoints
 62
     0
100
AcDbPoint
 10
563.340075
 20
754.348357
 30
0.0
  0
POINT
  5
1A9
330
1A2
100
AcDbEntity
  8
Defpoints
 62
     0
100
AcDbPoint
 10
563.632446
 20
755.093018
 30
0.0
  0
ENDBLK
  5
1AB
330
1A2
100
AcDbEntity
  8
0
100
AcDbBlockEnd
  0
BLOCK
  5
1B9
330
1AD
100
AcDbEntity
  8
0
100
AcDbBlockBegin
  2
*D26
 70
     1
 71
     0
 10
0.0
 20
0.0
 30
0.0
  3
*D26
  1

  0
LINE
  5
1AE
330
1AD
100
AcDbEntity
  8
QUOTE
  6
Continuous
 62
    21
370
    -2
100
AcDbLine
 10
557.476892
 20
760.315693
 30
0.0
 11
586.536135
 21
730.224168
 31
0.0
  0
LINE
  5
1AF
330
1AD
100
AcDbEntity
  8
QUOTE
  6
Continuous
 62
    21
370
    -2
100
AcDbLine
 10
543.590845
 20
775.702778
 30
0.0
 11
587.039707
 21
730.710465
 31
0.0
  0
LINE
  5
1B0
330
1AD
100
AcDbEntity
  8
QUOTE
  6
Continuous
 62
    21
370
    -2
100
AcDbLine
 10
585.494144
 20
731.303174
 30
0.0
 11
578.018791
 21
724.084261
 31
0.0
  0
LINE
  5
1B1
330
1AD
100
AcDbEntity
  8
QUOTE
  6
Continuous
 62
    21
370
    -2
100
AcDbLine
 10
584.055469
 20
729.913852
 30
0.0
 11
582.616794
 21
728.524531
 31
0.0
  0
LINE
  5
1B2
330
1AD
100
AcDbEntity
  8
QUOTE
  6
Continuous
 62
    21
370
    -2
100
AcDbLine
 10
587.436391
 20
733.178793
 30
0.0
 11
588.875066
 21
734.568115
 31
0.0
  0
SOLID
  5
1B3
330
1AD
100
AcDbEntity
  8
QUOTE
 62
    21
100
AcDbTrace
 10
584.287022
 20
729.674073
 30
0.0
 11
583.823915
 21
730.153632
 31
0.0
 12
585.494144
 22
731.303174
 32
0.0
 13
585.494144
 23
731.303174
 33
0.0
  0
SOLID
  5
1B4
330
1AD
100
AcDbEntity
  8
QUOTE
 62
    21
100
AcDbTrace
 10
587.204838
 20
733.418572
 30
0.0
 11
587.667945
 21
732.939014
 31
0.0
 12
585.997716
 22
731.789472
 32
0.0
 13
585.997716
 23
731.789472
 33
0.0
  0
MTEXT
  5
1B5
330
1AD
100
AcDbEntity
  8
QUOTE
 62
    21
100
AcDbMText
 10
578.953567
 20
729.201264
 30
0.0
 40
3.0
 41
0.0
 71
     5
 72
     1
  1
\A1;0.7
  7
STEFANO
 11
0.7193374695786889
 21
0.6946607840234894
 31
0.0
 73
     1
 44
1.0
  0
POINT
  5
1B6
330
1AD
100
AcDbEntity
  8
Defpoints
 62
     0
100
AcDbPoint
 10
557.268494
 20
760.531494
 30
0.0
  0
POINT
  5
1B7
330
1AD
100
AcDbEntity
  8
Defpoints
 62
     0
100
AcDbPoint
 10
543.382446
 20
775.918579
 30
0.0
  0
POINT
  5
1B8
330
1AD
100
AcDbEntity
  8
Defpoints
 62
     0
100
AcDbPoint
 10
585.997716
 20
731.789472
 30
0.0
  0
ENDBLK
  5
1BA
330
1AD
100
AcDbEntity
  8
0
100
AcDbBlockEnd
  0
BLOCK
  5
1C8
330
1BC
100
AcDbEntity
  8
0
100
AcDbBlockBegin
  2
*D27
 70
     1
 71
     0
 10
0.0
 20
0.0
 30
0.0
  3
*D27
  1

  0
LINE
  5
1BD
330
1BC
100
AcDbEntity
  8
QUOTE
  6
Continuous
 62
    21
370
    -2
100
AcDbLine
 10
569.632446
 20
842.593091
 30
0.0
 11
569.632446
 21
917.293091
 31
0.0
  0
LINE
  5
1BE
330
1BC
100
AcDbEntity
  8
QUOTE
  6
Continuous
 62
    21
370
    -2
100
AcDbLine
 10
563.632446
 20
754.59303
 30
0.0
 11
563.632446
 21
917.293091
 31
0.0
  0
LINE
  5
1BF
330
1BC
100
AcDbEntity
  8
QUOTE
  6
Continuous
 62
    21
370
    -2
100
AcDbLine
 10
563.632446
 20
915.793091
 30
0.0
 11
556.68599
 21
915.793091
 31
0.0
  0
LINE
  5
1C0
330
1BC
100
AcDbEntity
  8
QUOTE
  6
Continuous
 62
    21
370
    -2
100
AcDbLine
 10
571.632446
 20
915.793091
 30
0.0
 11
573.632446
 21
915.793091
 31
0.0
  0
LINE
  5
1C1
330
1BC
100
AcDbEntity
  8
QUOTE
  6
Continuous
 62
    21
370
    -2
100
AcDbLine
 10
561.632446
 20
915.793091
 30
0.0
 11
559.632446
 21
915.793091
 31
0.0
  0
SOLID
  5
1C2
330
1BC
100
AcDbEntity
  8
QUOTE
 62
    21
100
AcDbTrace
 10
571.632446
 20
916.126424
 30
0.0
 11
571.632446
 21
915.459757
 31
0.0
 12
569.632446
 22
915.793091
 32
0.0
 13
569.632446
 23
915.793091
 33
0.0
  0
SOLID
  5
1C3
330
1BC
100
AcDbEntity
  8
QUOTE
 62
    21
100
AcDbTrace
 10
561.632446
 20
915.459757
 30
0.0
 11
561.632446
 21
916.126424
 31
0.0
 12
563.632446
 22
915.793091
 32
0.0
 13
563.632446
 23
915.793091
 33
0.0
  0
MTEXT
  5
1C4
330
1BC
100
AcDbEntity
  8
QUOTE
 62
    21
100
AcDbMText
 10
559.17749
 20
918.824591
 30
0.0
 40
3.0
 41
0.0
 71
     5
 72
     1
  1
\A1;6
  7
STEFANO
 73
     1
 44
1.0
  0
POINT
  5
1C5
330
1BC
100
AcDbEntity
  8
Defpoints
 62
     0
100
AcDbPoint
 10
569.632446
 20
842.293091
 30
0.0
  0
POINT
  5
1C6
330
1BC
100
AcDbEntity
  8
Defpoints
 62
     0
100
AcDbPoint
 10
563.632446
 20
754.29303
 30
0.0
  0
POINT
  5
1C7
330
1BC
100
AcDbEntity
  8
Defpoints
 62
     0
100
AcDbPoint
 10
563.632446
 20
915.793091
 30
0.0
  0
ENDBLK
  5
1C9
330
1BC
100
AcDbEntity
  8
0
100
AcDbBlockEnd
  0
BLOCK
  5
1D7
330
1CB
100
AcDbEntity
  8
0
100
AcDbBlockBegin
  2
*D28
 70
     1
 71
     0
 10
0.0
 20
0.0
 30
0.0
  3
*D28
  1

  0
LINE
  5
1CC
330
1CB
100
AcDbEntity
  8
QUOTE
  6
Continuous
 62
    21
370
    -2
100
AcDbLine
 10
557.268494
 20
761.239185
 30
0.0
 11
557.268494
 21
689.793579
 31
0.0
  0
LINE
  5
1CD
330
1CB
100
AcDbEntity
  8
QUOTE
  6
Continuous
 62
    21
370
    -2
100
AcDbLine
 10
563.632446
 20
754.793018
 30
0.0
 11
563.632446
 21
689.793579
 31
0.0
  0
LINE
  5
1CE
330
1CB
100
AcDbEntity
  8
QUOTE
  6
Continuous
 62
    21
370
    -2
100
AcDbLine
 10
557.268494
 20
691.293579
 30
0.0
 11
544.562001
 21
691.293579
 31
0.0
  0
LINE
  5
1CF
330
1CB
100
AcDbEntity
  8
QUOTE
  6
Continuous
 62
    21
370
    -2
100
AcDbLine
 10
555.268494
 20
691.293579
 30
0.0
 11
553.268494
 21
691.293579
 31
0.0
  0
LINE
  5
1D0
330
1CB
100
AcDbEntity
  8
QUOTE
  6
Continuous
 62
    21
370
    -2
100
AcDbLine
 10
565.632446
 20
691.293579
 30
0.0
 11
567.632446
 21
691.293579
 31
0.0
  0
SOLID
  5
1D1
330
1CB
100
AcDbEntity
  8
QUOTE
 62
    21
100
AcDbTrace
 10
555.268494
 20
690.960246
 30
0.0
 11
555.268494
 21
691.626912
 31
0.0
 12
557.268494
 22
691.293579
 32
0.0
 13
557.268494
 23
691.293579
 33
0.0
  0
SOLID
  5
1D2
330
1CB
100
AcDbEntity
  8
QUOTE
 62
    21
100
AcDbTrace
 10
565.632446
 20
691.626912
 30
0.0
 11
565.632446
 21
690.960246
 31
0.0
 12
563.632446
 22
691.293579
 32
0.0
 13
563.632446
 23
691.293579
 33
0.0
  0
MTEXT
  5
1D3
330
1CB
100
AcDbEntity
  8
QUOTE
 62
    21
100
AcDbMText
 10
549.963501
 20
694.325079
 30
0.0
 40
3.0
 41
0.0
 71
     5
 72
     1
  1
\A1;6.36
  7
STEFANO
 73
     1
 44
1.0
  0
POINT
  5
1D4
330
1CB
100
AcDbEntity
  8
Defpoints
 62
     0
100
AcDbPoint
 10
557.268494
 20
761.539185
 30
0.0
  0
POINT
  5
1D5
330
1CB
100
AcDbEntity
  8
Defpoints
 62
     0
100
AcDbPoint
 10
563.632446
 20
755.093018
 30
0.0
  0
POINT
  5
1D6
330
1CB
100
AcDbEntity
  8
Defpoints
 62
     0
100
AcDbPoint
 10
563.632446
 20
691.293579
 30
0.0
  0
ENDBLK
  5
1D8
330
1CB
100
AcDbEntity
  8
0
100
AcDbBlockEnd
  0
BLOCK
  5
1E5
330
1DA
100
AcDbEntity
  8
0
100
AcDbBlockBegin
  2
*D29
 70
     1
 71
     0
 10
0.0
 20
0.0
 30
0.0
  3
*D29
  1

  0
LINE
  5
1DB
330
1DA
100
AcDbEntity
  8
QUOTE
  6
Continuous
 62
    21
370
    -2
100
AcDbLine
 10
563.632446
 20
754.793018
 30
0.0
 11
563.632446
 21
689.793579
 31
0.0
  0
LINE
  5
1DC
330
1DA
100
AcDbEntity
  8
QUOTE
  6
Continuous
 62
    21
370
    -2
100
AcDbLine
 10
563.632446
 20
753.99303
 30
0.0
 11
563.632446
 21
689.793579
 31
0.0
  0
LINE
  5
1DD
330
1DA
100
AcDbEntity
  8
QUOTE
  6
Continuous
 62
    21
370
    -2
100
AcDbLine
 10
565.632446
 20
691.293579
 30
0.0
 11
572.585446
 21
691.293579
 31
0.0
  0
LINE
  5
1DE
330
1DA
100
AcDbEntity
  8
QUOTE
  6
Continuous
 62
    21
370
    -2
100
AcDbLine
 10
561.632446
 20
691.293579
 30
0.0
 11
559.632446
 21
691.293579
 31
0.0
  0
SOLID
  5
1DF
330
1DA
100
AcDbEntity
  8
QUOTE
 62
    21
100
AcDbTrace
 10
561.632446
 20
690.960246
 30
0.0
 11
561.632446
 21
691.626912
 31
0.0
 12
563.632446
 22
691.293579
 32
0.0
 13
563.632446
 23
691.293579
 33
0.0
  0
SOLID
  5
1E0
330
1DA
100
AcDbEntity
  8
QUOTE
 62
    21
100
AcDbTrace
 10
565.632446
 20
691.626912
 30
0.0
 11
565.632446
 21
690.960246
 31
0.0
 12
563.632446
 22
691.293579
 32
0.0
 13
563.632446
 23
691.293579
 33
0.0
  0
MTEXT
  5
1E1
330
1DA
100
AcDbEntity
  8
QUOTE
 62
    21
100
AcDbMText
 10
570.108946
 20
694.325079
 30
0.0
 40
3.0
 41
0.0
 71
     5
 72
     1
  1
\A1;0
  7
STEFANO
 73
     1
 44
1.0
  0
POINT
  5
1E2
330
1DA
100
AcDbEntity
  8
Defpoints
 62
     0
100
AcDbPoint
 10
563.632446
 20
755.093018
 30
0.0
  0
POINT
  5
1E3
330
1DA
100
AcDbEntity
  8
Defpoints
 62
     0
100
AcDbPoint
 10
563.632446
 20
754.29303
 30
0.0
  0
POINT
  5
1E4
330
1DA
100
AcDbEntity
  8
Defpoints
 62
     0
100
AcDbPoint
 10
563.632446
 20
691.293579
 30
0.0
  0
ENDBLK
  5
1E6
330
1DA
100
AcDbEntity
  8
0
100
AcDbBlockEnd
  0
BLOCK
  5
1F2
330
1E8
100
AcDbEntity
  8
0
100
AcDbBlockBegin
  2
*D30
 70
     1
 71
     0
 10
0.0
 20
0.0
 30
0.0
  3
*D30
  1

  0
LINE
  5
1E9
330
1E8
100
AcDbEntity
  8
QUOTE
  6
Continuous
 62
    21
370
    -2
100
AcDbLine
 10
560.632446
 20
769.267834
 30
0.0
 11
560.632446
 21
948.793091
 31
0.0
  0
LINE
  5
1EA
330
1E8
100
AcDbEntity
  8
QUOTE
  6
Continuous
 62
    21
370
    -2
100
AcDbLine
 10
569.632446
 20
842.593091
 30
0.0
 11
569.632446
 21
948.793091
 31
0.0
  0
LINE
  5
1EB
330
1E8
100
AcDbEntity
  8
QUOTE
  6
Continuous
 62
    21
370
    -2
100
AcDbLine
 10
562.632446
 20
947.293091
 30
0.0
 11
567.632446
 21
947.293091
 31
0.0
  0
SOLID
  5
1EC
330
1E8
100
AcDbEntity
  8
QUOTE
 62
    21
100
AcDbTrace
 10
562.632446
 20
947.626424
 30
0.0
 11
562.632446
 21
946.959757
 31
0.0
 12
560.632446
 22
947.293091
 32
0.0
 13
560.632446
 23
947.293091
 33
0.0
  0
SOLID
  5
1ED
330
1E8
100
AcDbEntity
  8
QUOTE
 62
    21
100
AcDbTrace
 10
567.632446
 20
946.959757
 30
0.0
 11
567.632446
 21
947.626424
 31
0.0
 12
569.632446
 22
947.293091
 32
0.0
 13
569.632446
 23
947.293091
 33
0.0
  0
MTEXT
  5
1EE
330
1E8
100
AcDbEntity
  8
QUOTE
 62
    21
100
AcDbMText
 10
565.132446
 20
950.324591
 30
0.0
 40
3.0
 41
0.0
 71
     5
 72
     1
  1
\A1;9
  7
STEFANO
 73
     1
 44
1.0
  0
POINT
  5
1EF
330
1E8
100
AcDbEntity
  8
Defpoints
 62
     0
100
AcDbPoint
 10
560.632446
 20
768.967834
 30
0.0
  0
POINT
  5
1F0
330
1E8
100
AcDbEntity
  8
Defpoints
 62
     0
100
AcDbPoint
 10
569.632446
 20
842.293091
 30
0.0
  0
POINT
  5
1F1
330
1E8
100
AcDbEntity
  8
Defpoints
 62
     0
100
AcDbPoint
 10
569.632446
 20
947.293091
 30
0.0
  0
ENDBLK
  5
1F3
330
1E8
100
AcDbEntity
  8
0
100
AcDbBlockEnd
  0
BLOCK
  5
201
330
1F5
100
AcDbEntity
  8
0
100
AcDbBlockBegin
  2
*D31
 70
     1
 71
     0
 10
0.0
 20
0.0
 30
0.0
  3
*D31
  1

  0
LINE
  5
1F6
330
1F5
100
AcDbEntity
  8
QUOTE
  6
Continuous
 62
    21
370
    -2
100
AcDbLine
 10
560.420314
 20
833.080959
 30
0.0
 11
553.98498
 21
826.645625
 31
0.0
  0
ARC
  5
1F7
330
1F5
100
AcDbEntity
  8
QUOTE
  6
Continuous
 62
    21
370
    -2
100
AcDbCircle
 10
563.632446
 20
836.293091
 30
0.0
 40
12.14357724511689
100
AcDbArc
 50
206.10582
 51
215.55291
  0
ARC
  5
1F8
330
1F5
100
AcDbEntity
  8
QUOTE
  6
Continuous
 62
    21
370
    -2
100
AcDbCircle
 10
563.632446
 20
836.293091
 30
0.0
 40
12.14357724511689
100
AcDbArc
 50
279.44709
 51
288.89418
  0
SOLID
  5
1F9
330
1F5
100
AcDbEntity
  8
QUOTE
 62
    21
100
AcDbTrace
 10
553.498376
 20
829.016661
 30
0.0
 11
554.006999
 21
829.447645
 31
0.0
 12
555.04564
 22
827.706285
 32
0.0
 13
555.04564
 23
827.706285
 33
0.0
  0
SOLID
  5
1FA
330
1F5
100
AcDbEntity
  8
QUOTE
 62
    21
100
AcDbTrace
 10
565.598204
 20
824.646411
 30
0.0
 11
565.653103
 21
823.982008
 31
0.0
 12
563.632446
 22
824.149514
 32
0.0
 13
563.632446
 23
824.149514
 33
0.0
  0
MTEXT
  5
1FB
330
1F5
100
AcDbEntity
  8
QUOTE
 62
    21
100
AcDbMText
 10
560.143109
 20
827.869086
 30
0.0
 40
3.0
 41
0.0
 71
     5
 72
     1
  1
45
  7
STEFANO
 11
0.9238795325112868
 21
-0.3826834323650903
 31
0.0
 73
     1
 44
1.0
  0
POINT
  5
1FC
330
1F5
100
AcDbEntity
  8
Defpoints
 62
     0
100
AcDbPoint
 10
558.9853
 20
825.073888
 30
0.0
  0
POINT
  5
1FD
330
1F5
100
AcDbEntity
  8
Defpoints
 62
     0
100
AcDbPoint
 10
563.632446
 20
754.29303
 30
0.0
  0
POINT
  5
1FE
330
1F5
100
AcDbEntity
  8
Defpoints
 62
     0
100
AcDbPoint
 10
560.632446
 20
833.293091
 30
0.0
  0
POINT
  5
1FF
330
1F5
100
AcDbEntity
  8
Defpoints
 62
     0
100
AcDbPoint
 10
569.632446
 20
842.293091
 30
0.0
  0
POINT
  5
200
330
1F5
100
AcDbEntity
  8
Defpoints
 62
     0
100
AcDbPoint
 10
563.632446
 20
893.29303
 30
0.0
  0
ENDBLK
  5
202
330
1F5
100
AcDbEntity
  8
0
100
AcDbBlockEnd
  0
BLOCK
  5
20E
330
204
100
AcDbEntity
  8
0
100
AcDbBlockBegin
  2
*D32
 70
     1
 71
     0
 10
0.0
 20
0.0
 30
0.0
  3
*D32
  1

  0
LINE
  5
205
330
204
100
AcDbEntity
  8
QUOTE
  6
Continuous
 62
    21
370
    -2
100
AcDbLine
 10
568.932446
 20
854.293091
 30
0.0
 11
602.632385
 21
854.293091
 31
0.0
  0
LINE
  5
206
330
204
100
AcDbEntity
  8
QUOTE
  6
Continuous
 62
    21
370
    -2
100
AcDbLine
 10
569.932446
 20
842.293091
 30
0.0
 11
602.632385
 21
842.293091
 31
0.0
  0
LINE
  5
207
330
204
100
AcDbEntity
  8
QUOTE
  6
Continuous
 62
    21
370
    -2
100
AcDbLine
 10
601.132385
 20
852.293091
 30
0.0
 11
601.132385
 21
844.293091
 31
0.0
  0
SOLID
  5
208
330
204
100
AcDbEntity
  8
QUOTE
 62
    21
100
AcDbTrace
 10
601.465719
 20
852.293091
 30
0.0
 11
600.799052
 21
852.293091
 31
0.0
 12
601.132385
 22
854.293091
 32
0.0
 13
601.132385
 23
854.293091
 33
0.0
  0
SOLID
  5
209
330
204
100
AcDbEntity
  8
QUOTE
 62
    21
100
AcDbTrace
 10
600.799052
 20
844.293091
 30
0.0
 11
601.465719
 21
844.293091
 31
0.0
 12
601.132385
 22
842.293091
 32
0.0
 13
601.132385
 23
842.293091
 33
0.0
  0
MTEXT
  5
20A
330
204
100
AcDbEntity
  8
QUOTE
 62
    21
100
AcDbMText
 10
598.126385
 20
848.293091
 30
0.0
 40
3.0
 41
0.0
 71
     5
 72
     1
  1
\A1;12
  7
STEFANO
 11
0.0
 21
1.0
 31
0.0
 73
     1
 44
1.0
  0
POINT
  5
20B
330
204
100
AcDbEntity
  8
Defpoints
 62
     0
100
AcDbPoint
 10
568.632446
 20
854.293091
 30
0.0
  0
POINT
  5
20C
330
204
100
AcDbEntity
  8
Defpoints
 62
     0
100
AcDbPoint
 10
569.632446
 20
842.293091
 30
0.0
  0
POINT
  5
20D
330
204
100
AcDbEntity
  8
Defpoints
 62
     0
100
AcDbPoint
 10
601.132385
 20
842.293091
 30
0.0
  0
ENDBLK
  5
20F
330
204
100
AcDbEntity
  8
0
100
AcDbBlockEnd
  0
BLOCK
  5
21B
330
211
100
AcDbEntity
  8
0
100
AcDbBlockBegin
  2
*D33
 70
     1
 71
     0
 10
0.0
 20
0.0
 30
0.0
  3
*D33
  1

  0
LINE
  5
212
330
211
100
AcDbEntity
  8
QUOTE
  6
Continuous
 62
    21
370
    -2
100
AcDbLine
 10
563.632446
 20
753.99303
 30
0.0
 11
563.632446
 21
658.393555
 31
0.0
  0
LINE
  5
213
330
211
100
AcDbEntity
  8
QUOTE
  6
Continuous
 62
    21
370
    -2
100
AcDbLine
 10
543.382446
 20
858.043079
 30
0.0
 11
543.382446
 21
658.393555
 31
0.0
  0
LINE
  5
214
330
211
100
AcDbEntity
  8
QUOTE
  6
Continuous
 62
    21
370
    -2
100
AcDbLine
 10
561.632446
 20
659.893555
 30
0.0
 11
545.382446
 21
659.893555
 31
0.0
  0
SOLID
  5
215
330
211
100
AcDbEntity
  8
QUOTE
 62
    21
100
AcDbTrace
 10
561.632446
 20
659.560221
 30
0.0
 11
561.632446
 21
660.226888
 31
0.0
 12
563.632446
 22
659.893555
 32
0.0
 13
563.632446
 23
659.893555
 33
0.0
  0
SOLID
  5
216
330
211
100
AcDbEntity
  8
QUOTE
 62
    21
100
AcDbTrace
 10
545.382446
 20
660.226888
 30
0.0
 11
545.382446
 21
659.560221
 31
0.0
 12
543.382446
 22
659.893555
 32
0.0
 13
543.382446
 23
659.893555
 33
0.0
  0
MTEXT
  5
217
330
211
100
AcDbEntity
  8
QUOTE
 62
    21
100
AcDbMText
 10
553.507446
 20
662.925055
 30
0.0
 40
3.0
 41
0.0
 71
     5
 72
     1
  1
\A1;20.25
  7
STEFANO
 73
     1
 44
1.0
  0
POINT
  5
218
330
211
100
AcDbEntity
  8
Defpoints
 62
     0
100
AcDbPoint
 10
563.632446
 20
754.29303
 30
0.0
  0
POINT
  5
219
330
211
100
AcDbEntity
  8
Defpoints
 62
     0
100
AcDbPoint
 10
543.382446
 20
858.343079
 30
0.0
  0
POINT
  5
21A
330
211
100
AcDbEntity
  8
Defpoints
 62
     0
100
AcDbPoint
 10
543.382446
 20
659.893555
 30
0.0
  0
ENDBLK
  5
21C
330
211
100
AcDbEntity
  8
0
100
AcDbBlockEnd
  0
BLOCK
  5
22A
330
21E
100
AcDbEntity
  8
0
100
AcDbBlockBegin
  2
*D34
 70
     1
 71
     0
 10
0.0
 20
0.0
 30
0.0
  3
*D34
  1

  0
LINE
  5
21F
330
21E
100
AcDbEntity
  8
QUOTE
  6
Continuous
 62
    21
370
    -2
100
AcDbLine
 10
543.632495
 20
867.293091
 30
0.0
 11
536.109375
 21
867.293091
 31
0.0
  0
LINE
  5
220
330
21E
100
AcDbEntity
  8
QUOTE
  6
Continuous
 62
    21
370
    -2
100
AcDbLine
 10
543.332446
 20
867.593079
 30
0.0
 11
536.109375
 21
867.593079
 31
0.0
  0
LINE
  5
221
330
21E
100
AcDbEntity
  8
QUOTE
  6
Continuous
 62
    21
370
    -2
100
AcDbLine
 10
537.609375
 20
867.293091
 30
0.0
 11
537.609375
 21
856.899552
 31
0.0
  0
LINE
  5
222
330
21E
100
AcDbEntity
  8
QUOTE
  6
Continuous
 62
    21
370
    -2
100
AcDbLine
 10
537.609375
 20
865.293091
 30
0.0
 11
537.609375
 21
863.293091
 31
0.0
  0
LINE
  5
223
330
21E
100
AcDbEntity
  8
QUOTE
  6
Continuous
 62
    21
370
    -2
100
AcDbLine
 10
537.609375
 20
869.593079
 30
0.0
 11
537.609375
 21
871.593079
 31
0.0
  0
SOLID
  5
224
330
21E
100
AcDbEntity
  8
QUOTE
 62
    21
100
AcDbTrace
 10
537.942708
 20
865.293091
 30
0.0
 11
537.276042
 21
865.293091
 31
0.0
 12
537.609375
 22
867.293091
 32
0.0
 13
537.609375
 23
867.293091
 33
0.0
  0
SOLID
  5
225
330
21E
100
AcDbEntity
  8
QUOTE
 62
    21
100
AcDbTrace
 10
537.276042
 20
869.593079
 30
0.0
 11
537.942708
 21
869.593079
 31
0.0
 12
537.609375
 22
867.593079
 32
0.0
 13
537.609375
 23
867.593079
 33
0.0
  0
MTEXT
  5
226
330
21E
100
AcDbEntity
  8
QUOTE
 62
   131
100
AcDbMText
 10
534.577875
 20
861.128052
 30
0.0
 40
3.0
 41
0.0
 71
     5
 72
     1
  1
\A1;0.3
  7
STEFANO
 11
0.0
 21
1.0
 31
0.0
 73
     1
 44
1.0
  0
POINT
  5
227
330
21E
100
AcDbEntity
  8
Defpoints
 62
     0
100
AcDbPoint
 10
543.932495
 20
867.293091
 30
0.0
  0
POINT
  5
228
330
21E
100
AcDbEntity
  8
Defpoints
 62
     0
100
AcDbPoint
 10
543.632446
 20
867.593079
 30
0.0
  0
POINT
  5
229
330
21E
100
AcDbEntity
  8
Defpoints
 62
     0
100
AcDbPoint
 10
537.609375
 20
867.593079
 30
0.0
  0
ENDBLK
  5
22B
330
21E
100
AcDbEntity
  8
0
100
AcDbBlockEnd
  0
BLOCK
  5
239
330
22D
100
AcDbEntity
  8
0
100
AcDbBlockBegin
  2
*D35
 70
     1
 71
     0
 10
0.0
 20
0.0
 30
0.0
  3
*D35
  1

  0
LINE
  5
22E
330
22D
100
AcDbEntity
  8
QUOTE
  6
Continuous
 62
    21
370
    -2
100
AcDbLine
 10
543.632495
 20
858.893066
 30
0.0
 11
539.354614
 21
858.893066
 31
0.0
  0
LINE
  5
22F
330
22D
100
AcDbEntity
  8
QUOTE
  6
Continuous
 62
    21
370
    -2
100
AcDbLine
 10
543.082446
 20
858.343079
 30
0.0
 11
539.354614
 21
858.343079
 31
0.0
  0
LINE
  5
230
330
22D
100
AcDbEntity
  8
QUOTE
  6
Continuous
 62
    21
370
    -2
100
AcDbLine
 10
540.854614
 20
858.343079
 30
0.0
 11
540.854614
 21
845.635086
 31
0.0
  0
LINE
  5
231
330
22D
100
AcDbEntity
  8
QUOTE
  6
Continuous
 62
    21
370
    -2
100
AcDbLine
 10
540.854614
 20
860.893066
 30
0.0
 11
540.854614
 21
862.893066
 31
0.0
  0
LINE
  5
232
330
22D
100
AcDbEntity
  8
QUOTE
  6
Continuous
 62
    21
370
    -2
100
AcDbLine
 10
540.854614
 20
856.343079
 30
0.0
 11
540.854614
 21
854.343079
 31
0.0
  0
SOLID
  5
233
330
22D
100
AcDbEntity
  8
QUOTE
 62
    21
100
AcDbTrace
 10
540.521281
 20
860.893066
 30
0.0
 11
541.187948
 21
860.893066
 31
0.0
 12
540.854614
 22
858.893066
 32
0.0
 13
540.854614
 23
858.893066
 33
0.0
  0
SOLID
  5
234
330
22D
100
AcDbEntity
  8
QUOTE
 62
    21
100
AcDbTrace
 10
541.187948
 20
856.343079
 30
0.0
 11
540.521281
 21
856.343079
 31
0.0
 12
540.854614
 22
858.343079
 32
0.0
 13
540.854614
 23
858.343079
 33
0.0
  0
MTEXT
  5
235
330
22D
100
AcDbEntity
  8
QUOTE
 62
   131
100
AcDbMText
 10
537.823114
 20
851.038086
 30
0.0
 40
3.0
 41
0.0
 71
     5
 72
     1
  1
\A1;0.55
  7
STEFANO
 11
0.0
 21
1.0
 31
0.0
 73
     1
 44
1.0
  0
POINT
  5
236
330
22D
100
AcDbEntity
  8
Defpoints
 62
     0
100
AcDbPoint
 10
543.932495
 20
858.893066
 30
0.0
  0
POINT
  5
237
330
22D
100
AcDbEntity
  8
Defpoints
 62
     0
100
AcDbPoint
 10
543.382446
 20
858.343079
 30
0.0
  0
POINT
  5
238
330
22D
100
AcDbEntity
  8
Defpoints
 62
     0
100
AcDbPoint
 10
540.854614
 20
858.343079
 30
0.0
  0
ENDBLK
  5
23A
330
22D
100
AcDbEntity
  8
0
100
AcDbBlockEnd
  0
ENDSEC
  0
SECTION
  2
ENTITIES
  0
DIMENSION
  5
50
330
1F
100
AcDbEntity
  8
QUOTE
  6
Continuous
 62
    21
 60
     1
100
AcDbDimension
  2
*D2
 10
1210.299683
 20
946.537598
 30
0.0
 11
1200.174683
 21
949.569098
 31
0.0
 70
    32
  1
20.25
 71
     5
 42
20.25
  3
STEFANO
100
AcDbAlignedDimension
 13
1190.049683
 23
892.416504
 33
0.0
 14
1210.299683
 24
763.666504
 34
0.0
100
AcDbRotatedDimension
1001
ACAD
1000
DSTYLE
1002
{
1070
   178
1070
   131
1070
    44
1040
1.5
1070
   147
1040
1.5
1070
   140
1040
3.0
1002
}
  0
DIMENSION
  5
5D
330
1F
100
AcDbEntity
  8
QUOTE
  6
Continuous
 62
    21
 60
     1
100
AcDbDimension
  2
*D3
 10
1216.299683
 20
915.037598
 30
0.0
 11
1211.799683
 21
918.069098
 31
0.0
 70
    32
  1
9
 71
     5
 42
9.0
  3
STEFANO
100
AcDbAlignedDimension
 13
1207.299683
 23
778.341248
 33
0.0
 14
1216.299683
 24
851.666504
 34
0.0
100
AcDbRotatedDimension
1001
ACAD
1000
DSTYLE
1002
{
1070
   178
1070
   131
1070
    44
1040
1.5
1070
   147
1040
1.5
1070
   140
1040
3.0
1002
}
  0
DIMENSION
  5
6A
330
1F
100
AcDbEntity
  8
QUOTE
  6
Continuous
 62
    21
 60
     1
100
AcDbDimension
  2
*D4
 10
958.284729
 20
682.726562
 30
0.0
 11
983.284729
 21
685.758063
 31
0.0
 70
    33
  1
50
 71
     5
 42
50.0
  3
STEFANO
100
AcDbAlignedDimension
 13
1008.284729
 23
767.802063
 33
0.0
 14
958.284729
 24
767.802063
 34
0.0
1001
ACAD
1000
DSTYLE
1002
{
1070
   280
1070
     0
1070
   344
1005
0
1070
   343
1005
0
1070
    76
1070
     0
1070
    75
1070
     0
1070
    44
1040
1.5
1070
   147
1040
1.5
1070
   140
1040
3.0
1002
}
  0
DIMENSION
  5
77
330
1F
100
AcDbEntity
  8
QUOTE
  6
Continuous
 62
    21
 60
     1
100
AcDbDimension
  2
*D5
 10
659.146484
 20
691.29303
 30
0.0
 11
684.146484
 21
694.32453
 31
0.0
 70
    33
  1
50
 71
     5
 42
50.0
  3
STEFANO
100
AcDbAlignedDimension
 13
709.146484
 23
775.918579
 33
0.0
 14
659.146484
 24
775.918579
 34
0.0
1001
ACAD
1000
DSTYLE
1002
{
1070
   280
1070
     0
1070
   344
1005
0
1070
   343
1005
0
1070
    76
1070
     0
1070
    75
1070
     0
1070
    44
1040
1.5
1070
   147
1040
1.5
1070
   140
1040
3.0
1002
}
  0
DIMENSION
  5
84
330
1F
100
AcDbEntity
  8
QUOTE
  6
Continuous
 62
    21
 60
     1
100
AcDbDimension
  2
*D6
 10
853.640381
 20
907.705322
 30
0.0
 11
843.515381
 21
910.736822
 31
0.0
 70
    32
  1
20.25
 71
     5
 42
20.25
  3
STEFANO
100
AcDbAlignedDimension
 13
833.390381
 23
874.955322
 33
0.0
 14
853.640381
 24
746.205322
 34
0.0
100
AcDbRotatedDimension
1001
ACAD
1000
DSTYLE
1002
{
1070
    44
1040
1.5
1070
   147
1040
1.5
1070
   140
1040
3.0
1002
}
  0
DIMENSION
  5
91
330
1F
100
AcDbEntity
  8
QUOTE
  6
Continuous
 62
    21
 60
     1
100
AcDbDimension
  2
*D7
 10
954.366882
 20
747.00531
 30
0.0
 11
951.335382
 21
811.605316
 31
0.0
 70
    32
  1
129.2
 71
     5
 42
129.200012
  3
STEFANO
100
AcDbAlignedDimension
 13
845.640381
 23
876.205322
 33
0.0
 14
853.640381
 24
747.00531
 34
0.0
 50
90.0
100
AcDbRotatedDimension
1001
ACAD
1000
DSTYLE
1002
{
1070
   280
1070
     0
1070
   344
1005
0
1070
   343
1005
0
1070
    76
1070
     0
1070
    75
1070
     0
1070
    44
1040
1.5
1070
   147
1040
1.5
1070
   140
1040
3.0
1002
}
  0
DIMENSION
  5
9E
330
1F
100
AcDbEntity
  8
QUOTE
  6
Continuous
 62
    21
 60
     1
100
AcDbDimension
  2
*D8
 10
922.91687
 20
846.405334
 30
0.0
 11
919.88537
 21
861.305328
 31
0.0
 70
    32
  1
29.8
 71
     5
 42
29.799988
  3
STEFANO
100
AcDbAlignedDimension
 13
845.640381
 23
876.205322
 33
0.0
 14
858.440369
 24
846.405334
 34
0.0
 50
90.0
100
AcDbRotatedDimension
1001
ACAD
1000
DSTYLE
1002
{
1070
   280
1070
     0
1070
   344
1005
0
1070
   343
1005
0
1070
    76
1070
     0
1070
    75
1070
     0
1070
    44
1040
1.5
1070
   147
1040
1.5
1070
   140
1040
3.0
1002
}
  0
DIMENSION
  5
AB
330
1F
100
AcDbEntity
  8
QUOTE
  6
Continuous
 62
    21
 60
     1
100
AcDbDimension
  2
*D9
 10
847.276367
 20
751.93988
 30
0.0
 11
867.01558
 21
712.245002
 31
0.0
 70
    34
  1
44
 71
     5
 42
0.767945
  3
STEFANO
100
AcDb2LineAngularDimension
 13
853.640381
 23
746.205322
 33
0.0
 14
853.640381
 24
885.205322
 34
0.0
 15
852.81311
 25
746.206421
 35
0.0
 16
868.139401
 26
709.463451
 36
0.0
1001
ACAD
1000
DSTYLE
1002
{
1070
    44
1040
1.5
1070
   147
1040
1.5
1070
   140
1040
3.0
1070
   284
1070
    12
1002
}
  0
DIMENSION
  5
BA
330
1F
100
AcDbEntity
  8
QUOTE
  6
Continuous
 62
    21
 60
     1
100
AcDbDimension
  2
*D10
 10
853.640381
 20
885.205322
 30
0.0
 11
840.551763
 21
712.954329
 31
0.0
 70
    34
  1
44
 71
     5
 42
0.767944
  3
STEFANO
100
AcDb2LineAngularDimension
 13
854.46759
 23
746.206421
 33
0.0
 14
859.796143
 24
751.724304
 34
0.0
 15
853.640381
 25
746.205322
 35
0.0
 16
839.427944
 26
710.172777
 36
0.0
1001
ACAD
1000
DSTYLE
1002
{
1070
    44
1040
1.5
1070
   147
1040
1.5
1070
   140
1040
3.0
1070
   284
1070
    12
1002
}
  0
DIMENSION
  5
C9
330
1F
100
AcDbEntity
  8
QUOTE
  6
Continuous
 62
    21
 60
     1
100
AcDbDimension
  2
*D11
 10
853.640381
 20
747.00531
 30
0.0
 11
846.598707
 21
729.070824
 31
0.0
 70
   164
  1
R 1.15
 71
     5
 42
1.15
  3
STEFANO
100
AcDbRadialDimension
 15
853.220088
 25
745.934864
 35
0.0
 40
0.0
1001
ACAD
1000
DSTYLE
1002
{
1070
   172
1070
     0
1070
   147
1040
1.5
1070
   140
1040
3.0
1002
}
  0
DIMENSION
  5
D4
330
1F
100
AcDbEntity
  8
QUOTE
  6
Continuous
 62
    21
 60
     1
100
AcDbDimension
  2
*D12
 10
853.640381
 20
907.705383
 30
0.0
 11
849.185425
 21
907.705383
 31
0.0
 70
   160
  1
6
 71
     5
 42
5.999939
  3
STEFANO
100
AcDbAlignedDimension
 13
859.64032
 23
834.205322
 33
0.0
 14
853.640381
 24
746.205322
 34
0.0
100
AcDbRotatedDimension
1001
ACAD
1000
DSTYLE
1002
{
1070
   280
1070
     0
1070
   344
1005
0
1070
   343
1005
0
1070
    76
1070
     0
1070
    75
1070
     0
1070
   279
1070
     0
1070
    44
1040
1.5
1070
   147
1040
1.5
1070
   140
1040
3.0
1002
}
  0
DIMENSION
  5
E3
330
1F
100
AcDbEntity
  8
QUOTE
  6
Continuous
 62
    21
 60
     1
100
AcDbDimension
  2
*D13
 10
853.640381
 20
682.741394
 30
0.0
 11
839.971375
 21
682.741394
 31
0.0
 70
   160
  1
6.36
 71
     5
 42
6.364014
  3
STEFANO
100
AcDbAlignedDimension
 13
847.276367
 23
753.422607
 33
0.0
 14
853.640381
 24
747.00531
 34
0.0
100
AcDbRotatedDimension
1001
ACAD
1000
DSTYLE
1002
{
1070
   279
1070
     0
1070
    44
1040
1.5
1070
   147
1040
1.5
1070
   140
1040
3.0
1002
}
  0
DIMENSION
  5
F2
330
1F
100
AcDbEntity
  8
QUOTE
  6
Continuous
 62
    21
 60
     1
100
AcDbDimension
  2
*D14
 10
853.640381
 20
682.755798
 30
0.0
 11
860.116881
 21
685.787298
 31
0.0
 70
    32
  1
0
 71
     5
 42
0.0
  3
STEFANO
100
AcDbAlignedDimension
 13
853.640381
 23
747.00531
 33
0.0
 14
853.640381
 24
746.205322
 34
0.0
100
AcDbRotatedDimension
1001
ACAD
1000
DSTYLE
1002
{
1070
    44
1040
1.5
1070
   147
1040
1.5
1070
   140
1040
3.0
1002
}
  0
DIMENSION
  5
100
330
1F
100
AcDbEntity
  8
QUOTE
  6
Continuous
 62
    21
 60
     1
100
AcDbDimension
  2
*D15
 10
859.64032
 20
939.205383
 30
0.0
 11
855.14035
 21
942.236883
 31
0.0
 70
    32
  1
9
 71
     5
 42
8.999939
  3
STEFANO
100
AcDbAlignedDimension
 13
850.640381
 23
760.880066
 33
0.0
 14
859.64032
 24
834.205322
 34
0.0
100
AcDbRotatedDimension
1001
ACAD
1000
DSTYLE
1002
{
1070
    44
1040
1.5
1070
   147
1040
1.5
1070
   140
1040
3.0
1002
}
  0
DIMENSION
  5
10D
330
1F
100
AcDbEntity
  8
QUOTE
  6
Continuous
 62
    21
 60
     1
100
AcDbDimension
  2
*D16
 10
853.640381
 20
885.205322
 30
0.0
 11
850.151054
 21
819.781323
 31
0.0
 70
    34
  1
45
 71
     5
 42
0.785395
  3
STEFANO
100
AcDb2LineAngularDimension
 13
850.640381
 23
825.205322
 33
0.0
 14
859.64032
 24
834.205322
 34
0.0
 15
853.640381
 25
746.205322
 35
0.0
 16
848.99325
 26
816.986123
 36
0.0
1001
ACAD
1000
DSTYLE
1002
{
1070
    44
1040
1.5
1070
   147
1040
1.5
1070
   140
1040
3.0
1070
   284
1070
    12
1002
}
  0
DIMENSION
  5
11C
330
1F
100
AcDbEntity
  8
QUOTE
  6
Continuous
 62
    21
 60
     1
100
AcDbDimension
  2
*D17
 10
891.41687
 20
834.205322
 30
0.0
 11
891.41687
 21
826.90033
 31
0.0
 70
   160
  1
12.2
 71
     5
 42
12.200012
  3
STEFANO
100
AcDbAlignedDimension
 13
858.440369
 23
846.405334
 33
0.0
 14
859.64032
 24
834.205322
 34
0.0
 50
90.0
100
AcDbRotatedDimension
1001
ACAD
1000
DSTYLE
1002
{
1070
   280
1070
     0
1070
   344
1005
0
1070
   343
1005
0
1070
    76
1070
     0
1070
    75
1070
     0
1070
   279
1070
     0
1070
    44
1040
1.5
1070
   147
1040
1.5
1070
   140
1040
3.0
1002
}
  0
DIMENSION
  5
12A
330
1F
100
AcDbEntity
  8
QUOTE
  6
Continuous
 62
    21
 60
     1
100
AcDbDimension
  2
*D18
 10
825.758545
 20
859.755371
 30
0.0
 11
825.758545
 21
867.060364
 31
0.0
 70
   160
  1
0.55
 71
     5
 42
0.550049
  3
STEFANO
100
AcDbAlignedDimension
 13
833.940369
 23
859.205322
 33
0.0
 14
833.390381
 24
859.755371
 34
0.0
 50
90.0
100
AcDbRotatedDimension
1001
ACAD
1000
DSTYLE
1002
{
1070
   279
1070
     0
1070
   178
1070
   131
1070
    44
1040
1.5
1070
   147
1040
1.5
1070
   140
1040
3.0
1002
}
  0
DIMENSION
  5
139
330
1F
100
AcDbEntity
  8
QUOTE
  6
Continuous
 62
    21
 60
     1
100
AcDbDimension
  2
*D19
 10
833.940369
 20
845.536377
 30
0.0
 11
826.085388
 21
845.536377
 31
0.0
 70
   160
  1
0.55
 71
     5
 42
0.549988
  3
STEFANO
100
AcDbAlignedDimension
 13
833.390381
 23
850.255371
 33
0.0
 14
833.940369
 24
850.805359
 34
0.0
100
AcDbRotatedDimension
1001
ACAD
1000
DSTYLE
1002
{
1070
   279
1070
     0
1070
   178
1070
   131
1070
    44
1040
1.5
1070
   147
1040
1.5
1070
   140
1040
3.0
1002
}
  0
LINE
  5
148
330
1F
100
AcDbEntity
  8
DISEGNO
  6
Continuous
 62
     7
100
AcDbLine
 10
557.268541
 20
760.823238
 30
0.0
 11
563.452668
 21
754.419387
 31
0.0
  0
LINE
  5
149
330
1F
100
AcDbEntity
  8
DISEGNO
  6
Continuous
 62
     7
100
AcDbLine
 10
557.268511
 20
761.627079
 30
0.0
 11
557.268511
 21
760.823238
 31
0.0
  0
LINE
  5
14A
330
1F
100
AcDbEntity
  8
DISEGNO
  6
Continuous
 62
     7
100
AcDbLine
 10
552.382473
 20
766.513117
 30
0.0
 11
557.268511
 21
761.627079
 31
0.0
  0
LINE
  5
14B
330
1F
100
AcDbEntity
  8
DISEGNO
  6
Continuous
 62
     7
100
AcDbLine
 10
552.382473
 20
833.293092
 30
0.0
 11
552.382473
 21
766.513117
 31
0.0
  0
LINE
  5
14C
330
1F
100
AcDbEntity
  8
DISEGNO
  6
Continuous
 62
     7
100
AcDbLine
 10
568.632473
 20
854.293092
 30
0.0
 11
556.632473
 21
854.293092
 31
0.0
  0
LINE
  5
14D
330
1F
100
AcDbEntity
  8
DISEGNO
  6
Continuous
 62
     7
100
AcDbLine
 10
569.632473
 20
853.293092
 30
0.0
 11
568.632473
 21
854.293092
 31
0.0
  0
LINE
  5
14E
330
1F
100
AcDbEntity
  8
DISEGNO
  6
Continuous
 62
     7
100
AcDbLine
 10
569.632473
 20
842.293092
 30
0.0
 11
569.632473
 21
853.293092
 31
0.0
  0
LINE
  5
14F
330
1F
100
AcDbEntity
  8
DISEGNO
  6
Continuous
 62
     7
100
AcDbLine
 10
560.632473
 20
833.293092
 30
0.0
 11
569.632473
 21
842.293092
 31
0.0
  0
LINE
  5
150
330
1F
100
AcDbEntity
  8
DISEGNO
  6
Continuous
 62
     7
100
AcDbLine
 10
560.632473
 20
768.348628
 30
0.0
 11
560.632473
 21
833.293092
 31
0.0
  0
LINE
  5
151
330
1F
100
AcDbEntity
  8
DISEGNO
  6
Continuous
 62
     7
100
AcDbLine
 10
563.812335
 20
754.419366
 30
0.0
 11
569.093219
 21
759.887882
 31
0.0
  0
LINE
  5
152
330
1F
100
AcDbEntity
  8
DISEGNO
  6
Continuous
 62
     7
100
AcDbLine
 10
543.932478
 20
858.893092
 30
0.0
 11
543.382473
 21
858.343092
 31
0.0
  0
LINE
  5
153
330
1F
100
AcDbEntity
  8
DISEGNO
  6
Continuous
 62
     7
100
AcDbLine
 10
547.132477
 20
858.893092
 30
0.0
 11
543.932478
 21
858.893092
 31
0.0
  0
LINE
  5
154
330
1F
100
AcDbEntity
  8
DISEGNO
  6
Continuous
 62
     7
100
AcDbLine
 10
547.132478
 20
867.293092
 30
0.0
 11
547.132477
 21
858.893092
 31
0.0
  0
LINE
  5
155
330
1F
100
AcDbEntity
  8
DISEGNO
  6
Continuous
 62
     7
100
AcDbLine
 10
543.932473
 20
867.293092
 30
0.0
 11
547.132478
 21
867.293092
 31
0.0
  0
LINE
  5
156
330
1F
100
AcDbEntity
  8
DISEGNO
  6
Continuous
 62
     7
100
AcDbLine
 10
543.632473
 20
867.593092
 30
0.0
 11
543.932473
 21
867.293092
 31
0.0
  0
LINE
  5
157
330
1F
100
AcDbEntity
  8
DISEGNO
  6
Continuous
 62
     7
100
AcDbLine
 10
543.632473
 20
883.293092
 30
0.0
 11
543.632473
 21
867.593092
 31
0.0
  0
LINE
  5
158
330
1F
100
AcDbEntity
  8
DISEGNO
  6
Continuous
 62
     7
100
AcDbLine
 10
544.632473
 20
884.293092
 30
0.0
 11
543.632473
 21
883.293092
 31
0.0
  0
LINE
  5
159
330
1F
100
AcDbEntity
  8
DISEGNO
  6
Continuous
 62
     7
100
AcDbLine
 10
555.632473
 20
884.293092
 30
0.0
 11
544.632473
 21
884.293092
 31
0.0
  0
LINE
  5
15A
330
1F
100
AcDbEntity
  8
DISEGNO
  6
Continuous
 62
     7
100
AcDbLine
 10
556.632473
 20
883.293092
 30
0.0
 11
555.632473
 21
884.293092
 31
0.0
  0
LINE
  5
15B
330
1F
100
AcDbEntity
  8
DISEGNO
  6
Continuous
 62
     7
100
AcDbLine
 10
556.632473
 20
854.293092
 30
0.0
 11
556.632473
 21
883.293092
 31
0.0
  0
DIMENSION
  5
15C
330
1F
100
AcDbEntity
  8
QUOTE
  6
Continuous
 62
    21
 60
     1
100
AcDbDimension
  2
*D20
 10
563.632446
 20
915.793091
 30
0.0
 11
553.632446
 21
918.824591
 31
0.0
 70
    32
  1
20
 71
     5
 42
20.0
  3
STEFANO
100
AcDbAlignedDimension
 13
543.632446
 23
883.293091
 33
0.0
 14
563.632446
 24
754.29303
 34
0.0
100
AcDbRotatedDimension
1001
ACAD
1000
DSTYLE
1002
{
1070
    44
1040
1.5
1070
   147
1040
1.5
1070
   140
1040
3.0
1002
}
  0
DIMENSION
  5
169
330
1F
100
AcDbEntity
  8
QUOTE
  6
Continuous
 62
    21
 60
     1
100
AcDbDimension
  2
*D21
 10
664.132446
 20
755.093018
 30
0.0
 11
661.100946
 21
819.693054
 31
0.0
 70
    32
  1
129.2
 71
     5
 42
129.200073
  3
STEFANO
100
AcDbAlignedDimension
 13
555.632446
 23
884.293091
 33
0.0
 14
563.632446
 24
755.093018
 34
0.0
 50
90.0
100
AcDbRotatedDimension
1001
ACAD
1000
DSTYLE
1002
{
1070
   280
1070
     0
1070
   344
1005
0
1070
   343
1005
0
1070
    76
1070
     0
1070
    75
1070
     0
1070
    44
1040
1.5
1070
   147
1040
1.5
1070
   140
1040
3.0
1002
}
  0
DIMENSION
  5
176
330
1F
100
AcDbEntity
  8
QUOTE
  6
Continuous
 62
    21
 60
     1
100
AcDbDimension
  2
*D22
 10
632.632446
 20
854.293091
 30
0.0
 11
629.600946
 21
869.293091
 31
0.0
 70
    32
  1
30
 71
     5
 42
30.0
  3
STEFANO
100
AcDbAlignedDimension
 13
555.632446
 23
884.293091
 33
0.0
 14
568.632446
 24
854.293091
 34
0.0
 50
90.0
100
AcDbRotatedDimension
1001
ACAD
1000
DSTYLE
1002
{
1070
   280
1070
     0
1070
   344
1005
0
1070
   343
1005
0
1070
    76
1070
     0
1070
    75
1070
     0
1070
    44
1040
1.5
1070
   147
1040
1.5
1070
   140
1040
3.0
1002
}
  0
DIMENSION
  5
183
330
1F
100
AcDbEntity
  8
QUOTE
  6
Continuous
 62
    21
 60
     1
100
AcDbDimension
  2
*D23
 10
557.268494
 20
760.531494
 30
0.0
 11
577.081789
 21
720.653343
 31
0.0
 70
    34
  1
44
 71
     5
 42
0.767948
  3
STEFANO
100
AcDb2LineAngularDimension
 13
563.632446
 23
754.29303
 33
0.0
 14
563.632446
 24
893.29303
 34
0.0
 15
563.057007
 25
754.537354
 35
0.0
 16
578.205613
 26
717.871793
 36
0.0
1001
ACAD
1000
DSTYLE
1002
{
1070
    44
1040
1.5
1070
   147
1040
1.5
1070
   140
1040
3.0
1070
   284
1070
    12
1002
}
  0
DIMENSION
  5
192
330
1F
100
AcDbEntity
  8
QUOTE
  6
Continuous
 62
    21
 60
     1
100
AcDbDimension
  2
*D24
 10
563.632446
 20
893.29303
 30
0.0
 11
550.377711
 21
721.134879
 31
0.0
 70
    34
  1
44
 71
     5
 42
0.767947
  3
STEFANO
100
AcDb2LineAngularDimension
 13
564.207947
 23
754.537354
 33
0.0
 14
569.54071
 24
760.05957
 34
0.0
 15
563.632446
 25
754.29303
 35
0.0
 16
549.253888
 26
718.353328
 36
0.0
1001
ACAD
1000
DSTYLE
1002
{
1070
    44
1040
1.5
1070
   147
1040
1.5
1070
   140
1040
3.0
1070
   284
1070
    12
1002
}
  0
DIMENSION
  5
1A1
330
1F
100
AcDbEntity
  8
QUOTE
  6
Continuous
 62
    21
 60
     1
100
AcDbDimension
  2
*D25
 10
563.632446
 20
755.093018
 30
0.0
 11
556.30224
 21
736.423181
 31
0.0
 70
   164
  1
R 0.8
 71
     5
 42
0.8
  3
STEFANO
100
AcDbRadialDimension
 15
563.340075
 25
754.348357
 35
0.0
 40
0.0
1001
ACAD
1000
DSTYLE
1002
{
1070
   172
1070
     0
1070
   147
1040
1.5
1070
   140
1040
3.0
1002
}
  0
DIMENSION
  5
1AC
330
1F
100
AcDbEntity
  8
QUOTE
  6
Continuous
 62
    21
 60
     1
100
AcDbDimension
  2
*D26
 10
585.997716
 20
731.789472
 30
0.0
 11
581.059431
 21
727.020593
 31
0.0
 70
   160
  1
0.7
 71
     5
 42
0.70005
  3
STEFANO
100
AcDbAlignedDimension
 13
557.268494
 23
760.531494
 33
0.0
 14
543.382446
 24
775.918579
 34
0.0
 50
44.000192
100
AcDbRotatedDimension
1001
ACAD
1000
DSTYLE
1002
{
1070
   279
1070
     0
1070
    44
1040
1.5
1070
   147
1040
1.5
1070
   140
1040
3.0
1002
}
  0
DIMENSION
  5
1BB
330
1F
100
AcDbEntity
  8
QUOTE
  6
Continuous
 62
    21
 60
     1
100
AcDbDimension
  2
*D27
 10
563.632446
 20
915.793091
 30
0.0
 11
559.17749
 21
915.793091
 31
0.0
 70
   160
  1
6
 71
     5
 42
6.0
  3
STEFANO
100
AcDbAlignedDimension
 13
569.632446
 23
842.293091
 33
0.0
 14
563.632446
 24
754.29303
 34
0.0
100
AcDbRotatedDimension
1001
ACAD
1000
DSTYLE
1002
{
1070
   280
1070
     0
1070
   344
1005
0
1070
   343
1005
0
1070
    76
1070
     0
1070
    75
1070
     0
1070
   279
1070
     0
1070
    44
1040
1.5
1070
   147
1040
1.5
1070
   140
1040
3.0
1002
}
  0
DIMENSION
  5
1CA
330
1F
100
AcDbEntity
  8
QUOTE
  6
Continuous
 62
    21
 60
     1
100
AcDbDimension
  2
*D28
 10
563.632446
 20
691.293579
 30
0.0
 11
549.963501
 21
691.293579
 31
0.0
 70
   160
  1
6.36
 71
     5
 42
6.363953
  3
STEFANO
100
AcDbAlignedDimension
 13
557.268494
 23
761.539185
 33
0.0
 14
563.632446
 24
755.093018
 34
0.0
100
AcDbRotatedDimension
1001
ACAD
1000
DSTYLE
1002
{
1070
   279
1070
     0
1070
    44
1040
1.5
1070
   147
1040
1.5
1070
   140
1040
3.0
1002
}
  0
DIMENSION
  5
1D9
330
1F
100
AcDbEntity
  8
QUOTE
  6
Continuous
 62
    21
 60
     1
100
AcDbDimension
  2
*D29
 10
563.632446
 20
691.293579
 30
0.0
 11
570.108946
 21
694.325079
 31
0.0
 70
    32
  1
0
 71
     5
 42
0.0
  3
STEFANO
100
AcDbAlignedDimension
 13
563.632446
 23
755.093018
 33
0.0
 14
563.632446
 24
754.29303
 34
0.0
100
AcDbRotatedDimension
1001
ACAD
1000
DSTYLE
1002
{
1070
    44
1040
1.5
1070
   147
1040
1.5
1070
   140
1040
3.0
1002
}
  0
DIMENSION
  5
1E7
330
1F
100
AcDbEntity
  8
QUOTE
  6
Continuous
 62
    21
 60
     1
100
AcDbDimension
  2
*D30
 10
569.632446
 20
947.293091
 30
0.0
 11
565.132446
 21
950.324591
 31
0.0
 70
    32
  1
9
 71
     5
 42
9.0
  3
STEFANO
100
AcDbAlignedDimension
 13
560.632446
 23
768.967834
 33
0.0
 14
569.632446
 24
842.293091
 34
0.0
100
AcDbRotatedDimension
1001
ACAD
1000
DSTYLE
1002
{
1070
    44
1040
1.5
1070
   147
1040
1.5
1070
   140
1040
3.0
1002
}
  0
DIMENSION
  5
1F4
330
1F
100
AcDbEntity
  8
QUOTE
  6
Continuous
 62
    21
 60
     1
100
AcDbDimension
  2
*D31
 10
563.632446
 20
893.29303
 30
0.0
 11
560.143109
 21
827.869086
 31
0.0
 70
    34
  1
45
 71
     5
 42
0.785398
  3
STEFANO
100
AcDb2LineAngularDimension
 13
560.632446
 23
833.293091
 33
0.0
 14
569.632446
 24
842.293091
 34
0.0
 15
563.632446
 25
754.29303
 35
0.0
 16
558.9853
 26
825.073888
 36
0.0
1001
ACAD
1000
DSTYLE
1002
{
1070
    44
1040
1.5
1070
   147
1040
1.5
1070
   140
1040
3.0
1070
   284
1070
    12
1002
}
  0
DIMENSION
  5
203
330
1F
100
AcDbEntity
  8
QUOTE
  6
Continuous
 62
    21
 60
     1
100
AcDbDimension
  2
*D32
 10
601.132385
 20
842.293091
 30
0.0
 11
598.126385
 21
848.293091
 31
0.0
 70
    32
  1
12
 71
     5
 42
12.0
  3
STEFANO
100
AcDbAlignedDimension
 13
568.632446
 23
854.293091
 33
0.0
 14
569.632446
 24
842.293091
 34
0.0
 50
90.0
100
AcDbRotatedDimension
1001
ACAD
1000
DSTYLE
1002
{
1070
   280
1070
     0
1070
   344
1005
0
1070
   343
1005
0
1070
    76
1070
     0
1070
    75
1070
     0
1070
    44
1040
1.5
1070
   147
1040
1.5
1070
   140
1040
3.0
1002
}
  0
DIMENSION
  5
210
330
1F
100
AcDbEntity
  8
QUOTE
  6
Continuous
 62
    21
 60
     1
100
AcDbDimension
  2
*D33
 10
543.382446
 20
659.893555
 30
0.0
 11
553.507446
 21
662.925055
 31
0.0
 70
    32
  1
20.25
 71
     5
 42
20.25
  3
STEFANO
100
AcDbAlignedDimension
 13
563.632446
 23
754.29303
 33
0.0
 14
543.382446
 24
858.343079
 34
0.0
100
AcDbRotatedDimension
1001
ACAD
1000
DSTYLE
1002
{
1070
   280
1070
     0
1070
   344
1005
0
1070
   343
1005
0
1070
    76
1070
     0
1070
    75
1070
     0
1070
    44
1040
1.5
1070
   147
1040
1.5
1070
   140
1040
3.0
1002
}
  0
DIMENSION
  5
21D
330
1F
100
AcDbEntity
  8
QUOTE
  6
Continuous
 62
    21
 60
     1
100
AcDbDimension
  2
*D34
 10
537.609375
 20
867.593079
 30
0.0
 11
537.609375
 21
861.128052
 31
0.0
 70
   160
  1
0.3
 71
     5
 42
0.299988
  3
STEFANO
100
AcDbAlignedDimension
 13
543.932495
 23
867.293091
 33
0.0
 14
543.632446
 24
867.593079
 34
0.0
 50
90.0
100
AcDbRotatedDimension
1001
ACAD
1000
DSTYLE
1002
{
1070
   279
1070
     0
1070
   178
1070
   131
1070
    44
1040
1.5
1070
   147
1040
1.5
1070
   140
1040
3.0
1002
}
  0
DIMENSION
  5
22C
330
1F
100
AcDbEntity
  8
QUOTE
  6
Continuous
 62
    21
 60
     1
100
AcDbDimension
  2
*D35
 10
540.854614
 20
858.343079
 30
0.0
 11
540.854614
 21
851.038086
 31
0.0
 70
   160
  1
0.55
 71
     5
 42
0.549988
  3
STEFANO
100
AcDbAlignedDimension
 13
543.932495
 23
858.893066
 33
0.0
 14
543.382446
 24
858.343079
 34
0.0
 50
90.0
100
AcDbRotatedDimension
1001
ACAD
1000
DSTYLE
1002
{
1070
   280
1070
     0
1070
   344
1005
0
1070
   343
1005
0
1070
    76
1070
     0
1070
    75
1070
     0
1070
   279
1070
     0
1070
   178
1070
   131
1070
    44
1040
1.5
1070
   147
1040
1.5
1070
   140
1040
3.0
1002
}
  0
LINE
  5
23B
330
1F
100
AcDbEntity
  8
DISEGNO
  6
Continuous
 62
     7
100
AcDbLine
 10
543.382473
 20
858.343092
 30
0.0
 11
543.382473
 21
842.293092
 31
0.0
  0
LINE
  5
23C
330
1F
100
AcDbEntity
  8
DISEGNO
  6
Continuous
 62
     7
100
AcDbLine
 10
543.382473
 20
842.293092
 30
0.0
 11
552.382473
 21
833.293092
 31
0.0
  0
LINE
  5
23D
330
1F
100
AcDbEntity
  8
DISEGNO
  6
Continuous
 62
     7
100
AcDbLine
 10
560.632473
 20
768.348628
 30
0.0
 11
569.093219
 21
759.887882
 31
0.0
  0
ARC
  5
23E
330
1F
100
AcDbEntity
  8
DISEGNO
  6
Continuous
 62
     7
100
AcDbCircle
 10
-563.6325
 20
754.593031
 30
0.0
 40
0.25
210
0.0
220
0.0
230
-1.0
100
AcDbArc
 50
224.0
 51
316.0
  0
ENDSEC
  0
SECTION
  2
OBJECTS
  0
DICTIONARY
  5
C
330
0
100
AcDbDictionary
281
     1
  3
ACAD_GROUP
350
D
  3
ACAD_LAYOUT
350
1A
  3
ACAD_MLINESTYLE
350
17
  3
ACAD_PLOTSETTINGS
350
19
  3
ACAD_PLOTSTYLENAME
350
E
  3
ACAD_TABLESTYLE
350
23F
  3
ACAD_VISUALSTYLE
350
2A
  0
DICTIONARY
  5
D
102
{ACAD_REACTORS
330
C
102
}
330
C
100
AcDbDictionary
281
     1
  0
DICTIONARY
  5
1A
102
{ACAD_REACTORS
330
C
102
}
330
C
100
AcDbDictionary
281
     1
  3
Layout1
350
1E
  3
Layout2
350
26
  3
Model
350
22
  0
DICTIONARY
  5
17
102
{ACAD_REACTORS
330
C
102
}
330
C
100
AcDbDictionary
281
     1
  3
Standard
350
18
  0
DICTIONARY
  5
19
102
{ACAD_REACTORS
330
C
102
}
330
C
100
AcDbDictionary
281
     1
  0
ACDBDICTIONARYWDFLT
  5
E
102
{ACAD_REACTORS
330
C
102
}
330
C
100
AcDbDictionary
281
     1
  3
Normal
350
F
100
AcDbDictionaryWithDefault
340
F
  0
DICTIONARY
  5
23F
102
{ACAD_REACTORS
330
C
102
}
330
C
100
AcDbDictionary
281
     1
  0
DICTIONARY
  5
2A
102
{ACAD_REACTORS
330
C
102
}
330
C
100
AcDbDictionary
281
     1
  3
2dWireframe
350
2F
  3
3D Hidden
350
31
  3
3dWireframe
350
30
  3
Basic
350
32
  3
Brighten
350
36
  3
ColorChange
350
3A
  3
Conceptual
350
34
  3
Dim
350
35
  3
Facepattern
350
39
  3
Flat
350
2B
  3
FlatWithEdges
350
2C
  3
Gouraud
350
2D
  3
GouraudWithEdges
350
2E
  3
Linepattern
350
38
  3
Realistic
350
33
  3
Thicken
350
37
  0
LAYOUT
  5
1E
102
{ACAD_REACTORS
330
1A
102
}
330
1A
100
AcDbPlotSettings
  1

  2
none_device
  4

  6

 40
0.0
 41
0.0
 42
0.0
 43
0.0
 44
0.0
 45
0.0
 46
0.0
 47
0.0
 48
0.0
 49
0.0
140
0.0
141
0.0
142
1.0
143
1.0
 70
   688
 72
     0
 73
     0
 74
     5
  7

 75
    16
 76
     0
 77
     2
 78
   300
147
1.0
148
0.0
149
0.0
100
AcDbLayout
  1
Layout1
 70
     1
 71
     1
 10
0.0
 20
0.0
 11
420.0
 21
297.0
 12
0.0
 22
0.0
 32
0.0
 14
1.000000E+20
 24
1.000000E+20
 34
1.000000E+20
 15
-1.000000E+20
 25
-1.000000E+20
 35
-1.000000E+20
146
0.0
 13
0.0
 23
0.0
 33
0.0
 16
1.0
 26
0.0
 36
0.0
 17
0.0
 27
1.0
 37
0.0
 76
     0
330
1B
  0
LAYOUT
  5
26
102
{ACAD_REACTORS
330
1A
102
}
330
1A
100
AcDbPlotSettings
  1

  2
none_device
  4

  6

 40
0.0
 41
0.0
 42
0.0
 43
0.0
 44
0.0
 45
0.0
 46
0.0
 47
0.0
 48
0.0
 49
0.0
140
0.0
141
0.0
142
1.0
143
1.0
 70
   688
 72
     0
 73
     0
 74
     5
  7

 75
    16
 76
     0
 77
     2
 78
   300
147
1.0
148
0.0
149
0.0
100
AcDbLayout
  1
Layout2
 70
     1
 71
     2
 10
0.0
 20
0.0
 11
0.0
 21
0.0
 12
0.0
 22
0.0
 32
0.0
 14
0.0
 24
0.0
 34
0.0
 15
0.0
 25
0.0
 35
0.0
146
0.0
 13
0.0
 23
0.0
 33
0.0
 16
1.0
 26
0.0
 36
0.0
 17
0.0
 27
1.0
 37
0.0
 76
     0
330
23
  0
LAYOUT
  5
22
102
{ACAD_REACTORS
330
1A
102
}
330
1A
100
AcDbPlotSettings
  1

  2
none_device
  4

  6

 40
0.0
 41
0.0
 42
0.0
 43
0.0
 44
0.0
 45
0.0
 46
0.0
 47
0.0
 48
0.0
 49
0.0
140
0.0
141
0.0
142
1.0
143
1.0
 70
  1712
 72
     0
 73
     0
 74
     0
  7

 75
     0
 76
     0
 77
     2
 78
   300
147
1.0
148
0.0
149
0.0
100
AcDbLayout
  1
Model
 70
     1
 71
     0
 10
0.0
 20
0.0
 11
420.0
 21
297.0
 12
0.0
 22
0.0
 32
0.0
 14
1.000000E+20
 24
1.000000E+20
 34
1.000000E+20
 15
-1.000000E+20
 25
-1.000000E+20
 35
-1.000000E+20
146
0.0
 13
0.0
 23
0.0
 33
0.0
 16
1.0
 26
0.0
 36
0.0
 17
0.0
 27
1.0
 37
0.0
 76
     0
330
1F
331
29
  0
MLINESTYLE
  5
18
102
{ACAD_REACTORS
330
17
102
}
330
17
100
AcDbMlineStyle
  2
Standard
 70
     0
  3

 62
   256
 51
90.0
 52
90.0
 71
     2
 49
0.5
 62
   256
  6
BYLAYER
 49
-0.5
 62
   256
  6
BYLAYER
  0
ACDBPLACEHOLDER
  5
F
102
{ACAD_REACTORS
330
E
102
}
330
E
  0
VISUALSTYLE
  5
2F
102
{ACAD_REACTORS
330
2A
102
}
330
2A
100
AcDbVisualStyle
  2
2dWireframe
 70
     4
 71
     0
 72
     2
 73
     0
 90
        0
 40
-0.6
 41
-30.0
 62
     5
 63
     7
421
 16777215
 74
     1
 91
        4
 64
     7
 65
   257
 75
     1
175
     1
 42
1.0
 92
        0
 66
   257
 43
1.0
 76
     1
 77
     6
 78
     2
 67
     7
 79
     5
170
     0
171
     0
290
     0
174
     0
 93
        1
 44
0.0
173
     0
291
     0
 45
0.0
1001
ACAD
1000
AcDbSavedByObjectVersion
1070
     0
  0
VISUALSTYLE
  5
31
102
{ACAD_REACTORS
330
2A
102
}
330
2A
100
AcDbVisualStyle
  2
3D Hidden
 70
     6
 71
     1
 72
     2
 73
     2
 90
        0
 40
-0.6
 41
-30.0
 62
     5
 63
     7
421
 16777215
 74
     2
 91
        2
 64
     7
 65
   257
 75
     2
175
     1
 42
40.0
 92
        0
 66
   257
 43
1.0
 76
     1
 77
     6
 78
     2
 67
     7
 79
     3
170
     0
171
     0
290
     0
174
     0
 93
        1
 44
0.0
173
     0
291
     0
 45
0.0
1001
ACAD
1000
AcDbSavedByObjectVersion
1070
     0
  0
VISUALSTYLE
  5
30
102
{ACAD_REACTORS
330
2A
102
}
330
2A
100
AcDbVisualStyle
  2
3dWireframe
 70
     5
 71
     0
 72
     2
 73
     0
 90
        0
 40
-0.6
 41
-30.0
 62
     5
 63
     7
421
 16777215
 74
     1
 91
        4
 64
     7
 65
   257
 75
     1
175
     1
 42
1.0
 92
        0
 66
   257
 43
1.0
 76
     1
 77
     6
 78
     2
 67
     7
 79
     5
170
     0
171
     0
290
     0
174
     0
 93
        1
 44
0.0
173
     0
291
     0
 45
0.0
1001
ACAD
1000
AcDbSavedByObjectVersion
1070
     0
  0
VISUALSTYLE
  5
32
102
{ACAD_REACTORS
330
2A
102
}
330
2A
100
AcDbVisualStyle
  2
Basic
 70
     7
 71
     1
 72
     0
 73
     1
 90
        0
 40
-0.6
 41
-30.0
 62
     5
 63
     7
421
 16777215
 74
     0
 91
        4
 64
     7
 65
   257
 75
     1
175
     1
 42
1.0
 92
        8
 66
     7
 43
1.0
 76
     1
 77
     6
 78
     2
 67
     7
 79
     5
170
     0
171
     0
290
     0
174
     0
 93
        1
 44
0.0
173
     0
291
     1
 45
0.0
1001
ACAD
1000
AcDbSavedByObjectVersion
1070
     0
  0
VISUALSTYLE
  5
36
102
{ACAD_REACTORS
330
2A
102
}
330
2A
100
AcDbVisualStyle
  2
Brighten
 70
    12
 71
     2
 72
     2
 73
     0
 90
        0
 40
-0.6
 41
-30.0
 62
     5
 63
     7
421
 16777215
 74
     1
 91
        4
 64
     7
 65
   257
 75
     1
175
     1
 42
1.0
 92
        8
 66
     7
 43
1.0
 76
     1
 77
     6
 78
     2
 67
     7
 79
     5
170
     0
171
     0
290
     0
174
     0
 93
        1
 44
50.0
173
     0
291
     1
 45
0.0
1001
ACAD
1000
AcDbSavedByObjectVersion
1070
     0
  0
VISUALSTYLE
  5
3A
102
{ACAD_REACTORS
330
2A
102
}
330
2A
100
AcDbVisualStyle
  2
ColorChange
 70
    16
 71
     2
 72
     2
 73
     3
 90
        0
 40
-0.6
 41
-30.0
 62
     5
 63
     8
421
  8421504
 74
     1
 91
        4
 64
     7
 65
   257
 75
     1
175
     1
 42
1.0
 92
        8
 66
     8
424
  8421504
 43
1.0
 76
     1
 77
     6
 78
     2
 67
     7
 79
     5
170
     0
171
     0
290
     0
174
     0
 93
        1
 44
0.0
173
     0
291
     1
 45
0.0
1001
ACAD
1000
AcDbSavedByObjectVersion
1070
     0
  0
VISUALSTYLE
  5
34
102
{ACAD_REACTORS
330
2A
102
}
330
2A
100
AcDbVisualStyle
  2
Conceptual
 70
     9
 71
     3
 72
     2
 73
     0
 90
        0
 40
-0.6
 41
-30.0
 62
     5
 63
     7
421
 16777215
 74
     2
 91
        2
 64
     7
 65
   257
 75
     1
175
     1
 42
40.0
 92
        8
 66
     7
 43
1.0
 76
     1
 77
     6
 78
     2
 67
     7
 79
     3
170
     0
171
     0
290
     0
174
     0
 93
        1
 44
0.0
173
     0
291
     0
 45
0.0
1001
ACAD
1000
AcDbSavedByObjectVersion
1070
     0
  0
VISUALSTYLE
  5
35
102
{ACAD_REACTORS
330
2A
102
}
330
2A
100
AcDbVisualStyle
  2
Dim
 70
    11
 71
     2
 72
     2
 73
     0
 90
        0
 40
-0.6
 41
-30.0
 62
     5
 63
     7
421
 16777215
 74
     1
 91
        4
 64
     7
 65
   257
 75
     1
175
     1
 42
1.0
 92
        8
 66
     7
 43
1.0
 76
     1
 77
     6
 78
     2
 67
     7
 79
     5
170
     0
171
     0
290
     0
174
     0
 93
        1
 44
-50.0
173
     0
291
     1
 45
0.0
1001
ACAD
1000
AcDbSavedByObjectVersion
1070
     0
  0
VISUALSTYLE
  5
39
102
{ACAD_REACTORS
330
2A
102
}
330
2A
100
AcDbVisualStyle
  2
Facepattern
 70
    15
 71
     2
 72
     2
 73
     0
 90
        0
 40
-0.6
 41
-30.0
 62
     5
 63
     7
421
 16777215
 74
     1
 91
        4
 64
     7
 65
   257
 75
     1
175
     1
 42
1.0
 92
        8
 66
     7
 43
1.0
 76
     1
 77
     6
 78
     2
 67
     7
 79
     5
170
     0
171
     0
290
     0
174
     0
 93
        1
 44
0.0
173
     0
291
     1
 45
0.0
1001
ACAD
1000
AcDbSavedByObjectVersion
1070
     0
  0
VISUALSTYLE
  5
2B
102
{ACAD_REACTORS
330
2A
102
}
330
2A
100
AcDbVisualStyle
  2
Flat
 70
     0
 71
     2
 72
     1
 73
     1
 90
        2
 40
-0.6
 41
30.0
 62
     5
 63
     7
421
 16777215
 74
     0
 91
        4
 64
     7
 65
   257
 75
     1
175
     1
 42
1.0
 92
        8
 66
     7
 43
1.0
 76
     1
 77
     6
 78
     2
 67
     7
 79
     5
170
     0
171
     0
290
     0
174
     0
 93
       13
 44
0.0
173
     0
291
     1
 45
0.0
1001
ACAD
1000
AcDbSavedByObjectVersion
1070
     0
  0
VISUALSTYLE
  5
2C
102
{ACAD_REACTORS
330
2A
102
}
330
2A
100
AcDbVisualStyle
  2
FlatWithEdges
 70
     1
 71
     2
 72
     1
 73
     1
 90
        2
 40
-0.6
 41
30.0
 62
     5
 63
     7
421
 16777215
 74
     1
 91
        4
 64
     7
 65
   257
 75
     1
175
     1
 42
1.0
 92
        0
 66
   257
 43
1.0
 76
     1
 77
     6
 78
     2
 67
     7
 79
     5
170
     0
171
     0
290
     0
174
     0
 93
       13
 44
0.0
173
     0
291
     1
 45
0.0
1001
ACAD
1000
AcDbSavedByObjectVersion
1070
     0
  0
VISUALSTYLE
  5
2D
102
{ACAD_REACTORS
330
2A
102
}
330
2A
100
AcDbVisualStyle
  2
Gouraud
 70
     2
 71
     2
 72
     2
 73
     1
 90
        2
 40
-0.6
 41
30.0
 62
     5
 63
     7
421
 16777215
 74
     0
 91
        4
 64
     7
 65
   257
 75
     1
175
     1
 42
1.0
 92
        0
 66
     7
 43
1.0
 76
     1
 77
     6
 78
     2
 67
     7
 79
     5
170
     0
171
     0
290
     0
174
     0
 93
       13
 44
0.0
173
     0
291
     1
 45
0.0
1001
ACAD
1000
AcDbSavedByObjectVersion
1070
     0
  0
VISUALSTYLE
  5
2E
102
{ACAD_REACTORS
330
2A
102
}
330
2A
100
AcDbVisualStyle
  2
GouraudWithEdges
 70
     3
 71
     2
 72
     2
 73
     1
 90
        2
 40
-0.6
 41
30.0
 62
     5
 63
     7
421
 16777215
 74
     1
 91
        4
 64
     7
 65
   257
 75
     1
175
     1
 42
1.0
 92
        0
 66
   257
 43
1.0
 76
     1
 77
     6
 78
     2
 67
     7
 79
     5
170
     0
171
     0
290
     0
174
     0
 93
       13
 44
0.0
173
     0
291
     1
 45
0.0
1001
ACAD
1000
AcDbSavedByObjectVersion
1070
     0
  0
VISUALSTYLE
  5
38
102
{ACAD_REACTORS
330
2A
102
}
330
2A
100
AcDbVisualStyle
  2
Linepattern
 70
    14
 71
     2
 72
     2
 73
     0
 90
        0
 40
-0.6
 41
-30.0
 62
     5
 63
     7
421
 16777215
 74
     1
 91
        4
 64
     7
 65
   257
 75
     7
175
     7
 42
1.0
 92
        8
 66
     7
 43
1.0
 76
     1
 77
     6
 78
     2
 67
     7
 79
     5
170
     0
171
     0
290
     0
174
     0
 93
        1
 44
0.0
173
     0
291
     1
 45
0.0
1001
ACAD
1000
AcDbSavedByObjectVersion
1070
     0
  0
VISUALSTYLE
  5
33
102
{ACAD_REACTORS
330
2A
102
}
330
2A
100
AcDbVisualStyle
  2
Realistic
 70
     8
 71
     2
 72
     2
 73
     0
 90
        0
 40
-0.6
 41
-30.0
 62
     5
 63
     7
421
 16777215
 74
     1
 91
        0
 64
     7
 65
   257
 75
     1
175
     1
 42
1.0
 92
        8
 66
     8
424
  7895160
 43
1.0
 76
     1
 77
     6
 78
     2
 67
     7
 79
     5
170
     0
171
     0
290
     0
174
     0
 93
       13
 44
0.0
173
     0
291
     0
 45
0.0
1001
ACAD
1000
AcDbSavedByObjectVersion
1070
     0
  0
VISUALSTYLE
  5
37
102
{ACAD_REACTORS
330
2A
102
}
330
2A
100
AcDbVisualStyle
  2
Thicken
 70
    13
 71
     2
 72
     2
 73
     0
 90
        0
 40
-0.6
 41
-30.0
 62
     5
 63
     7
421
 16777215
 74
     1
 91
        4
 64
     7
 65
   257
 75
     1
175
     1
 42
1.0
 92
       12
 66
     7
 43
1.0
 76
     1
 77
     6
 78
     2
 67
     7
 79
     5
170
     0
171
     0
290
     0
174
     0
 93
        1
 44
0.0
173
     0
291
     1
 45
0.0
1001
ACAD
1000
AcDbSavedByObjectVersion
1070
     0
  0
ENDSEC
  0
EOF
