  0
SECTION
  2
HEADER
  9
$ACADVER
  1
AC1018
  9
$ACADMAINTVER
 70
     0
  9
$DWGCODEPAGE
  3
ANSI_1252
  9
$INSBASE
 10
0.0
 20
0.0
 30
0.0
  9
$EXTMIN
 10
1.000000E+20
 20
1.000000E+20
 30
1.000000E+20
  9
$EXTMAX
 10
-1.000000E+20
 20
-1.000000E+20
 30
-1.000000E+20
  9
$LIMMIN
 10
0.0
 20
0.0
  9
$LIMMAX
 10
420.0
 20
297.0
  9
$ORTHOMODE
 70
     0
  9
$REGENMODE
 70
     1
  9
$FILLMODE
 70
     1
  9
$QTEXTMODE
 70
     0
  9
$MIRRTEXT
 70
     1
  9
$LTSCALE
 40
1.0
  9
$ATTMODE
 70
     1
  9
$TEXTSIZE
 40
2.5
  9
$TRACEWID
 40
1.0
  9
$TEXTSTYLE
  7
Standard
  9
$CLAYER
  8
0
  9
$CELTYPE
  6
ByLayer
  9
$CECOLOR
 62
   256
  9
$CELTSCALE
 40
1.0
  9
$DISPSILH
 70
     0
  9
$DIMSCALE
 40
1.0
  9
$DIMASZ
 40
2.5
  9
$DIMEXO
 40
0.625
  9
$DIMDLI
 40
3.75
  9
$DIMRND
 40
0.0
  9
$DIMDLE
 40
0.0
  9
$DIMEXE
 40
1.25
  9
$DIMTP
 40
0.0
  9
$DIMTM
 40
0.0
  9
$DIMTXT
 40
2.5
  9
$DIMCEN
 40
2.5
  9
$DIMTSZ
 40
0.0
  9
$DIMTOL
 70
     0
  9
$DIMLIM
 70
     0
  9
$DIMTIH
 70
     0
  9
$DIMTOH
 70
     0
  9
$DIMSE1
 70
     0
  9
$DIMSE2
 70
     0
  9
$DIMTAD
 70
     1
  9
$DIMZIN
 70
     8
  9
$DIMBLK
  1

  9
$DIMASO
 70
     1
  9
$DIMSHO
 70
     1
  9
$DIMPOST
  1

  9
$DIMAPOST
  1

  9
$DIMALT
 70
     0
  9
$DIMALTD
 70
     3
  9
$DIMALTF
 40
0.03937
  9
$DIMLFAC
 40
1.0
  9
$DIMTOFL
 70
     1
  9
$DIMTVP
 40
0.0
  9
$DIMTIX
 70
     0
  9
$DIMSOXD
 70
     0
  9
$DIMSAH
 70
     0
  9
$DIMBLK1
  1

  9
$DIMBLK2
  1

  9
$DIMSTYLE
  2
ISO-25
  9
$DIMCLRD
 70
     0
  9
$DIMCLRE
 70
     0
  9
$DIMCLRT
 70
     0
  9
$DIMTFAC
 40
1.0
  9
$DIMGAP
 40
0.625
  9
$DIMJUST
 70
     0
  9
$DIMSD1
 70
     0
  9
$DIMSD2
 70
     0
  9
$DIMTOLJ
 70
     0
  9
$DIMTZIN
 70
     8
  9
$DIMALTZ
 70
     0
  9
$DIMALTTZ
 70
     0
  9
$DIMUPT
 70
     0
  9
$DIMDEC
 70
     2
  9
$DIMTDEC
 70
     2
  9
$DIMALTU
 70
     2
  9
$DIMALTTD
 70
     3
  9
$DIMTXSTY
  7
Standard
  9
$DIMAUNIT
 70
     0
  9
$DIMADEC
 70
     0
  9
$DIMALTRND
 40
0.0
  9
$DIMAZIN
 70
     0
  9
$DIMDSEP
 70
    44
  9
$DIMATFIT
 70
     3
  9
$DIMFRAC
 70
     0
  9
$DIMLDRBLK
  1

  9
$DIMLUNIT
 70
     2
  9
$DIMLWD
 70
    -2
  9
$DIMLWE
 70
    -2
  9
$DIMTMOVE
 70
     0
  9
$LUNITS
 70
     2
  9
$LUPREC
 70
     4
  9
$SKETCHINC
 40
1.0
  9
$FILLETRAD
 40
10.0
  9
$AUNITS
 70
     0
  9
$AUPREC
 70
     0
  9
$MENU
  1
.
  9
$ELEVATION
 40
0.0
  9
$PELEVATION
 40
0.0
  9
$THICKNESS
 40
0.0
  9
$LIMCHECK
 70
     0
  9
$CHAMFERA
 40
10.0
  9
$CHAMFERB
 40
10.0
  9
$CHAMFERC
 40
20.0
  9
$CHAMFERD
 40
0.0
  9
$SKPOLY
 70
     0
  9
$TDCREATE
 40
2455027.472673368
  9
$TDUCREATE
 40
2455027.389340035
  9
$TDUPDATE
 40
2455027.47267338
  9
$TDUUPDATE
 40
2455027.389340046
  9
$TDINDWG
 40
0.0000000116
  9
$TDUSRTIMER
 40
0.0000000116
  9
$USRTIMER
 70
     1
  9
$ANGBASE
 50
0.0
  9
$ANGDIR
 70
     0
  9
$PDMODE
 70
     0
  9
$PDSIZE
 40
0.0
  9
$PLINEWID
 40
0.0
  9
$SPLFRAME
 70
     0
  9
$SPLINETYPE
 70
     6
  9
$SPLINESEGS
 70
     8
  9
$HANDSEED
  5
1F0
  9
$SURFTAB1
 70
     6
  9
$SURFTAB2
 70
     6
  9
$SURFTYPE
 70
     6
  9
$SURFU
 70
     6
  9
$SURFV
 70
     6
  9
$UCSBASE
  2

  9
$UCSNAME
  2

  9
$UCSORG
 10
0.0
 20
0.0
 30
0.0
  9
$UCSXDIR
 10
1.0
 20
0.0
 30
0.0
  9
$UCSYDIR
 10
0.0
 20
1.0
 30
0.0
  9
$UCSORTHOREF
  2

  9
$UCSORTHOVIEW
 70
     0
  9
$UCSORGTOP
 10
0.0
 20
0.0
 30
0.0
  9
$UCSORGBOTTOM
 10
0.0
 20
0.0
 30
0.0
  9
$UCSORGLEFT
 10
0.0
 20
0.0
 30
0.0
  9
$UCSORGRIGHT
 10
0.0
 20
0.0
 30
0.0
  9
$UCSORGFRONT
 10
0.0
 20
0.0
 30
0.0
  9
$UCSORGBACK
 10
0.0
 20
0.0
 30
0.0
  9
$PUCSBASE
  2

  9
$PUCSNAME
  2

  9
$PUCSORG
 10
0.0
 20
0.0
 30
0.0
  9
$PUCSXDIR
 10
1.0
 20
0.0
 30
0.0
  9
$PUCSYDIR
 10
0.0
 20
1.0
 30
0.0
  9
$PUCSORTHOREF
  2

  9
$PUCSORTHOVIEW
 70
     0
  9
$PUCSORGTOP
 10
0.0
 20
0.0
 30
0.0
  9
$PUCSORGBOTTOM
 10
0.0
 20
0.0
 30
0.0
  9
$PUCSORGLEFT
 10
0.0
 20
0.0
 30
0.0
  9
$PUCSORGRIGHT
 10
0.0
 20
0.0
 30
0.0
  9
$PUCSORGFRONT
 10
0.0
 20
0.0
 30
0.0
  9
$PUCSORGBACK
 10
0.0
 20
0.0
 30
0.0
  9
$USERI1
 70
     0
  9
$USERI2
 70
     0
  9
$USERI3
 70
     0
  9
$USERI4
 70
     0
  9
$USERI5
 70
     0
  9
$USERR1
 40
0.0
  9
$USERR2
 40
0.0
  9
$USERR3
 40
0.0
  9
$USERR4
 40
0.0
  9
$USERR5
 40
0.0
  9
$WORLDVIEW
 70
     1
  9
$SHADEDGE
 70
     3
  9
$SHADEDIF
 70
    70
  9
$TILEMODE
 70
     1
  9
$MAXACTVP
 70
    64
  9
$PINSBASE
 10
0.0
 20
0.0
 30
0.0
  9
$PLIMCHECK
 70
     0
  9
$PEXTMIN
 10
1.000000E+20
 20
1.000000E+20
 30
1.000000E+20
  9
$PEXTMAX
 10
-1.000000E+20
 20
-1.000000E+20
 30
-1.000000E+20
  9
$PLIMMIN
 10
0.0
 20
0.0
  9
$PLIMMAX
 10
420.0
 20
297.0
  9
$UNITMODE
 70
     0
  9
$VISRETAIN
 70
     1
  9
$PLINEGEN
 70
     0
  9
$PSLTSCALE
 70
     1
  9
$TREEDEPTH
 70
  3020
  9
$CMLSTYLE
  2
Standard
  9
$CMLJUST
 70
     0
  9
$CMLSCALE
 40
20.0
  9
$PROXYGRAPHICS
 70
     1
  9
$MEASUREMENT
 70
     1
  9
$CELWEIGHT
370
    -1
  9
$ENDCAPS
280
     0
  9
$JOINSTYLE
280
     0
  9
$LWDISPLAY
290
     0
  9
$INSUNITS
 70
     4
  9
$HYPERLINKBASE
  1

  9
$STYLESHEET
  1

  9
$XEDIT
290
     1
  9
$CEPSNTYPE
380
     0
  9
$PSTYLEMODE
290
     1
  9
$FINGERPRINTGUID
  2
{031BC55E-9619-48A1-837D-08FE87BA5D6C}
  9
$VERSIONGUID
  2
{FAEB1C32-E019-11D5-929B-00C0DF256EC4}
  9
$EXTNAMES
290
     1
  9
$PSVPSCALE
 40
0.0
  9
$OLESTARTUP
290
     0
  9
$SORTENTS
280
   127
  9
$INDEXCTL
280
     0
  9
$HIDETEXT
280
     1
  9
$XCLIPFRAME
290
     0
  9
$HALOGAP
280
     0
  9
$OBSCOLOR
 70
   257
  9
$OBSLTYPE
280
     0
  9
$INTERSECTIONDISPLAY
280
     0
  9
$INTERSECTIONCOLOR
 70
   257
  9
$DIMASSOC
280
     2
  9
$PROJECTNAME
  1

  0
ENDSEC
  0
SECTION
  2
CLASSES
  0
CLASS
  1
ACDBDICTIONARYWDFLT
  2
AcDbDictionaryWithDefault
  3
ObjectDBX Classes
 90
        0
 91
        3
280
     0
281
     0
  0
CLASS
  1
VISUALSTYLE
  2
AcDbVisualStyle
  3
ObjectDBX Classes
 90
     4095
 91
        3
280
     0
281
     0
  0
ENDSEC
  0
SECTION
  2
TABLES
  0
TABLE
  2
VPORT
  5
8
330
0
100
AcDbSymbolTable
 70
     1
  0
VPORT
  5
29
330
8
100
AcDbSymbolTableRecord
100
AcDbViewportTableRecord
  2
*Active
 70
     0
 10
0.0
 20
0.0
 11
1.0
 21
1.0
 12
344.186916
 22
148.5
 13
0.0
 23
0.0
 14
10.0
 24
10.0
 15
10.0
 25
10.0
 16
0.0
 26
0.0
 36
1.0
 17
0.0
 27
0.0
 37
0.0
 40
297.0
 41
1.972973
 42
50.0
 43
0.0
 44
0.0
 50
0.0
 51
0.0
 71
     0
 72
   100
 73
     1
 74
     3
 75
     0
 76
     0
 77
     0
 78
     0
281
     0
 65
     1
110
0.0
120
0.0
130
0.0
111
1.0
121
0.0
131
0.0
112
0.0
122
1.0
132
0.0
 79
     0
146
0.0
  0
ENDTAB
  0
TABLE
  2
LTYPE
  5
5
330
0
100
AcDbSymbolTable
 70
     1
  0
LTYPE
  5
14
330
5
100
AcDbSymbolTableRecord
100
AcDbLinetypeTableRecord
  2
ByBlock
 70
     0
  3

 72
    65
 73
     0
 40
0.0
  0
LTYPE
  5
15
330
5
100
AcDbSymbolTableRecord
100
AcDbLinetypeTableRecord
  2
ByLayer
 70
     0
  3

 72
    65
 73
     0
 40
0.0
  0
LTYPE
  5
16
330
5
100
AcDbSymbolTableRecord
100
AcDbLinetypeTableRecord
  2
Continuous
 70
     0
  3
Solid line
 72
    65
 73
     0
 40
0.0
  0
ENDTAB
  0
TABLE
  2
LAYER
  5
2
330
0
100
AcDbSymbolTable
 70
    11
  0
LAYER
  5
10
330
2
100
AcDbSymbolTableRecord
100
AcDbLayerTableRecord
  2
0
 70
     0
 62
     7
  6
Continuous
370
    -3
390
F
  0
LAYER
  5
3B
330
2
100
AcDbSymbolTableRecord
100
AcDbLayerTableRecord
  2
DISEGNO
 70
     0
 62
     7
  6
Continuous
370
    -3
390
F
  0
LAYER
  5
3C
330
2
100
AcDbSymbolTableRecord
100
AcDbLayerTableRecord
  2
ASSI
 70
     0
 62
     7
  6
Continuous
370
    -3
390
F
  0
LAYER
  5
3D
330
2
100
AcDbSymbolTableRecord
100
AcDbLayerTableRecord
  2
QUOTE
 70
     0
 62
     7
  6
Continuous
370
    -3
390
F
  0
LAYER
  5
3E
330
2
100
AcDbSymbolTableRecord
100
AcDbLayerTableRecord
  2
TEMPRA
 70
     0
 62
     7
  6
Continuous
370
    -3
390
F
  0
LAYER
  5
3F
330
2
100
AcDbSymbolTableRecord
100
AcDbLayerTableRecord
  2
MARCATURA
 70
     0
 62
     7
  6
Continuous
370
    -3
390
F
  0
LAYER
  5
40
330
2
100
AcDbSymbolTableRecord
100
AcDbLayerTableRecord
  2
TESTO
 70
     0
 62
     7
  6
Continuous
370
    -3
390
F
  0
LAYER
  5
41
330
2
100
AcDbSymbolTableRecord
100
AcDbLayerTableRecord
  2
SEZIONE
 70
     0
 62
     7
  6
Continuous
370
    -3
390
F
  0
LAYER
  5
42
330
2
100
AcDbSymbolTableRecord
100
AcDbLayerTableRecord
  2
TRATTEGGIO
 70
     0
 62
     7
  6
Continuous
370
    -3
390
F
  0
LAYER
  5
43
330
2
100
AcDbSymbolTableRecord
100
AcDbLayerTableRecord
  2
CARTIGLIO
 70
     0
 62
     7
  6
Continuous
370
    -3
390
F
  0
LAYER
  5
52
330
2
100
AcDbSymbolTableRecord
100
AcDbLayerTableRecord
  2
Defpoints
 70
     0
 62
     7
  6
Continuous
290
     0
370
    -3
390
F
  0
ENDTAB
  0
TABLE
  2
STYLE
  5
3
330
0
100
AcDbSymbolTable
 70
     4
  0
STYLE
  5
11
330
3
100
AcDbSymbolTableRecord
100
AcDbTextStyleTableRecord
  2
Standard
 70
     0
 40
0.0
 41
1.0
 50
0.0
 71
     0
 42
2.5
  3
txt
  4

  0
STYLE
  5
44
330
3
100
AcDbSymbolTableRecord
100
AcDbTextStyleTableRecord
  2
Default
 70
     0
 40
0.0
 41
1.0
 50
0.0
 71
     0
 42
0.2
  3

  4

1001
ACAD
1000
txt
1071
        0
  0
STYLE
  5
45
330
3
100
AcDbSymbolTableRecord
100
AcDbTextStyleTableRecord
  2
ANSI
 70
     0
 40
0.0
 41
1.0
 50
0.0
 71
     0
 42
0.2
  3

  4

1001
ACAD
1000
txt
1071
        0
  0
STYLE
  5
46
330
3
100
AcDbSymbolTableRecord
100
AcDbTextStyleTableRecord
  2
STEFANO
 70
     0
 40
0.0
 41
1.0
 50
0.0
 71
     0
 42
0.2
  3

  4

1001
ACAD
1000
Arial
1071
        0
  0
ENDTAB
  0
TABLE
  2
VIEW
  5
6
330
0
100
AcDbSymbolTable
 70
     0
  0
ENDTAB
  0
TABLE
  2
UCS
  5
7
330
0
100
AcDbSymbolTable
 70
     0
  0
ENDTAB
  0
TABLE
  2
APPID
  5
9
330
0
100
AcDbSymbolTable
 70
     1
  0
APPID
  5
12
330
9
100
AcDbSymbolTableRecord
100
AcDbRegAppTableRecord
  2
ACAD
 70
     0
  0
ENDTAB
  0
TABLE
  2
DIMSTYLE
  5
A
330
0
100
AcDbSymbolTable
 70
     4
100
AcDbDimStyleTable
  0
DIMSTYLE
105
27
330
A
100
AcDbSymbolTableRecord
100
AcDbDimStyleTableRecord
  2
ISO-25
 70
     0
 41
2.5
 42
0.625
 43
3.75
 44
1.25
 73
     0
 74
     0
 77
     1
 78
     8
140
2.5
141
2.5
143
0.03937
147
0.625
171
     3
172
     1
271
     2
272
     2
274
     3
278
    44
283
     0
284
     8
340
11
  0
DIMSTYLE
105
47
330
A
100
AcDbSymbolTableRecord
100
AcDbDimStyleTableRecord
  2
Default
 70
     0
  3
<>
 41
4.375
 42
1.05
 44
2.1
 73
     0
 74
     0
 77
     1
 78
     8
 79
    10
140
3.5
146
0.4
147
1.75
178
     1
179
     1
271
     2
272
     3
284
     8
340
44
341
48
342
48
  0
DIMSTYLE
105
4F
330
A
100
AcDbSymbolTableRecord
100
AcDbDimStyleTableRecord
  2
ANSI
 70
     0
  3
<>
 41
4.375
 42
1.05
 44
2.1
 78
    12
 79
    15
140
3.5
147
1.75
178
     1
179
     1
271
     3
272
     3
284
    12
340
45
341
48
342
48
  0
DIMSTYLE
105
50
102
{ACAD_REACTORS
330
51
330
62
330
73
330
82
330
91
330
A1
330
B1
330
C0
330
CF
330
DE
330
ED
330
FA
330
109
330
116
330
123
330
132
330
141
330
150
330
15F
330
16E
330
17D
330
188
330
196
330
1A4
330
1B3
330
1C2
330
1CD
102
}
330
A
100
AcDbSymbolTableRecord
100
AcDbDimStyleTableRecord
  2
STEFANO
 70
     0
  3
<>
 41
3.0
 42
0.9
 44
1.2
 73
     0
 74
     0
 77
     1
 78
     8
 79
    10
140
3.0
146
0.6
147
1.5
176
    21
177
    21
178
    21
179
     1
271
     2
272
     2
284
     8
340
46
  0
ENDTAB
  0
TABLE
  2
BLOCK_RECORD
  5
1
330
0
100
AcDbSymbolTable
 70
    29
  0
BLOCK_RECORD
  5
1F
330
1
100
AcDbSymbolTableRecord
100
AcDbBlockTableRecord
  2
*Model_Space
340
22
  0
BLOCK_RECORD
  5
1B
330
1
100
AcDbSymbolTableRecord
100
AcDbBlockTableRecord
  2
*Paper_Space
340
1E
  0
BLOCK_RECORD
  5
23
330
1
100
AcDbSymbolTableRecord
100
AcDbBlockTableRecord
  2
*Paper_Space0
340
26
  0
BLOCK_RECORD
  5
48
330
1
100
AcDbSymbolTableRecord
100
AcDbBlockTableRecord
  2
_CLOSED
340
0
  0
BLOCK_RECORD
  5
53
330
1
100
AcDbSymbolTableRecord
100
AcDbBlockTableRecord
  2
*D2
340
0
  0
BLOCK_RECORD
  5
63
330
1
100
AcDbSymbolTableRecord
100
AcDbBlockTableRecord
  2
*D3
340
0
  0
BLOCK_RECORD
  5
74
330
1
100
AcDbSymbolTableRecord
100
AcDbBlockTableRecord
  2
*D4
340
0
  0
BLOCK_RECORD
  5
83
330
1
100
AcDbSymbolTableRecord
100
AcDbBlockTableRecord
  2
*D5
340
0
  0
BLOCK_RECORD
  5
92
330
1
100
AcDbSymbolTableRecord
100
AcDbBlockTableRecord
  2
*D6
340
0
  0
BLOCK_RECORD
  5
A2
330
1
100
AcDbSymbolTableRecord
100
AcDbBlockTableRecord
  2
*D7
340
0
  0
BLOCK_RECORD
  5
B2
330
1
100
AcDbSymbolTableRecord
100
AcDbBlockTableRecord
  2
*D8
340
0
  0
BLOCK_RECORD
  5
C1
330
1
100
AcDbSymbolTableRecord
100
AcDbBlockTableRecord
  2
*D9
340
0
  0
BLOCK_RECORD
  5
D0
330
1
100
AcDbSymbolTableRecord
100
AcDbBlockTableRecord
  2
*D10
340
0
  0
BLOCK_RECORD
  5
DF
330
1
100
AcDbSymbolTableRecord
100
AcDbBlockTableRecord
  2
*D11
340
0
  0
BLOCK_RECORD
  5
EE
330
1
100
AcDbSymbolTableRecord
100
AcDbBlockTableRecord
  2
*D12
340
0
  0
BLOCK_RECORD
  5
FB
330
1
100
AcDbSymbolTableRecord
100
AcDbBlockTableRecord
  2
*D13
340
0
  0
BLOCK_RECORD
  5
10A
330
1
100
AcDbSymbolTableRecord
100
AcDbBlockTableRecord
  2
*D14
340
0
  0
BLOCK_RECORD
  5
117
330
1
100
AcDbSymbolTableRecord
100
AcDbBlockTableRecord
  2
*D15
340
0
  0
BLOCK_RECORD
  5
124
330
1
100
AcDbSymbolTableRecord
100
AcDbBlockTableRecord
  2
*D16
340
0
  0
BLOCK_RECORD
  5
133
330
1
100
AcDbSymbolTableRecord
100
AcDbBlockTableRecord
  2
*D17
340
0
  0
BLOCK_RECORD
  5
142
330
1
100
AcDbSymbolTableRecord
100
AcDbBlockTableRecord
  2
*D18
340
0
  0
BLOCK_RECORD
  5
151
330
1
100
AcDbSymbolTableRecord
100
AcDbBlockTableRecord
  2
*D19
340
0
  0
BLOCK_RECORD
  5
160
330
1
100
AcDbSymbolTableRecord
100
AcDbBlockTableRecord
  2
*D20
340
0
  0
BLOCK_RECORD
  5
16F
330
1
100
AcDbSymbolTableRecord
100
AcDbBlockTableRecord
  2
*D21
340
0
  0
BLOCK_RECORD
  5
17E
330
1
100
AcDbSymbolTableRecord
100
AcDbBlockTableRecord
  2
*D22
340
0
  0
BLOCK_RECORD
  5
189
330
1
100
AcDbSymbolTableRecord
100
AcDbBlockTableRecord
  2
*D23
340
0
  0
BLOCK_RECORD
  5
197
330
1
100
AcDbSymbolTableRecord
100
AcDbBlockTableRecord
  2
*D24
340
0
  0
BLOCK_RECORD
  5
1A5
330
1
100
AcDbSymbolTableRecord
100
AcDbBlockTableRecord
  2
*D25
340
0
  0
BLOCK_RECORD
  5
1B4
330
1
100
AcDbSymbolTableRecord
100
AcDbBlockTableRecord
  2
*D26
340
0
  0
BLOCK_RECORD
  5
1C3
330
1
100
AcDbSymbolTableRecord
100
AcDbBlockTableRecord
  2
*D27
340
0
  0
BLOCK_RECORD
  5
1CE
330
1
100
AcDbSymbolTableRecord
100
AcDbBlockTableRecord
  2
*D28
340
0
  0
ENDTAB
  0
ENDSEC
  0
SECTION
  2
BLOCKS
  0
BLOCK
  5
20
330
1F
100
AcDbEntity
  8
0
100
AcDbBlockBegin
  2
*Model_Space
 70
     0
 71
     0
 10
0.0
 20
0.0
 30
0.0
  3
*Model_Space
  1

  0
ENDBLK
  5
21
330
1F
100
AcDbEntity
  8
0
100
AcDbBlockEnd
  0
BLOCK
  5
1C
330
1B
100
AcDbEntity
 67
     1
  8
0
100
AcDbBlockBegin
  2
*Paper_Space
 70
     0
 71
     0
 10
0.0
 20
0.0
 30
0.0
  3
*Paper_Space
  1

  0
ENDBLK
  5
1D
330
1B
100
AcDbEntity
 67
     1
  8
0
100
AcDbBlockEnd
  0
BLOCK
  5
24
330
23
100
AcDbEntity
  8
0
100
AcDbBlockBegin
  2
*Paper_Space0
 70
     0
 71
     0
 10
0.0
 20
0.0
 30
0.0
  3
*Paper_Space0
  1

  0
ENDBLK
  5
25
330
23
100
AcDbEntity
  8
0
100
AcDbBlockEnd
  0
BLOCK
  5
49
330
48
100
AcDbEntity
  8
0
100
AcDbBlockBegin
  2
_CLOSED
 70
     0
 71
     0
 10
0.0
 20
0.0
 30
0.0
  3
_CLOSED
  1

  0
LINE
  5
4B
330
48
100
AcDbEntity
  8
0
  6
ByBlock
 62
     0
370
    -2
100
AcDbLine
 10
-1.0
 20
0.166667
 30
0.0
 11
0.0
 21
0.0
 31
0.0
  0
LINE
  5
4C
330
48
100
AcDbEntity
  8
0
  6
ByBlock
 62
     0
370
    -2
100
AcDbLine
 10
0.0
 20
0.0
 30
0.0
 11
-1.0
 21
-0.166667
 31
0.0
  0
LINE
  5
4D
330
48
100
AcDbEntity
  8
0
  6
ByBlock
 62
     0
370
    -2
100
AcDbLine
 10
-1.0
 20
0.166667
 30
0.0
 11
-1.0
 21
-0.166667
 31
0.0
  0
LINE
  5
4E
330
48
100
AcDbEntity
  8
0
  6
ByBlock
 62
     0
370
    -2
100
AcDbLine
 10
0.0
 20
0.0
 30
0.0
 11
-1.0
 21
0.0
 31
0.0
  0
ENDBLK
  5
4A
330
48
100
AcDbEntity
  8
0
100
AcDbBlockEnd
  0
BLOCK
  5
60
330
53
100
AcDbEntity
  8
0
100
AcDbBlockBegin
  2
*D2
 70
     1
 71
     0
 10
0.0
 20
0.0
 30
0.0
  3
*D2
  1

  0
LINE
  5
54
330
53
100
AcDbEntity
  8
0
  6
Continuous
 62
    21
370
    -2
100
AcDbLine
 10
69.696014
 20
94.156038
 30
0.0
 11
69.696014
 21
80.905778
 31
0.0
  0
LINE
  5
55
330
53
100
AcDbEntity
  8
0
  6
Continuous
 62
    21
370
    -2
100
AcDbLine
 10
70.832411
 20
93.919642
 30
0.0
 11
79.701759
 21
85.050293
 31
0.0
  0
ARC
  5
56
330
53
100
AcDbEntity
  8
0
  6
Continuous
 62
    21
370
    -2
100
AcDbCircle
 10
69.696014
 20
95.056038
 30
0.0
 40
12.95026007036423
100
AcDbArc
 50
243.394508
 51
256.697254
  0
ARC
  5
57
330
53
100
AcDbEntity
  8
0
  6
Continuous
 62
    21
370
    -2
100
AcDbCircle
 10
69.696014
 20
95.056038
 30
0.0
 40
12.95026007036423
100
AcDbArc
 50
328.302746
 51
341.605492
  0
SOLID
  5
58
330
53
100
AcDbEntity
  8
0
 62
    21
100
AcDbTrace
 10
66.658293
 20
81.956627
 30
0.0
 11
66.77412
 21
82.949896
 31
0.0
 12
69.696014
 22
82.105778
 32
0.0
 13
69.696014
 23
82.105778
 33
0.0
  0
SOLID
  5
59
330
53
100
AcDbEntity
  8
0
 62
    21
100
AcDbTrace
 10
80.322441
 20
88.561794
 30
0.0
 11
81.106691
 21
87.941349
 31
0.0
 12
78.853231
 22
85.898821
 32
0.0
 13
78.853231
 23
85.898821
 33
0.0
  0
MTEXT
  5
5A
330
53
100
AcDbEntity
  8
0
 62
    21
100
AcDbMText
 10
73.494056
 20
85.886755
 30
0.0
 40
3.0
 41
0.0
 71
     5
 72
     1
  1
45
  7
STEFANO
 11
0.9238795325112868
 21
0.3826834323650896
 31
0.0
 73
     1
 44
1.0
  0
POINT
  5
5B
330
53
100
AcDbEntity
  8
Defpoints
 62
     0
100
AcDbPoint
 10
74.651864
 20
83.091558
 30
0.0
  0
POINT
  5
5C
330
53
100
AcDbEntity
  8
Defpoints
 62
     0
100
AcDbPoint
 10
70.196014
 20
94.556038
 30
0.0
  0
POINT
  5
5D
330
53
100
AcDbEntity
  8
Defpoints
 62
     0
100
AcDbPoint
 10
69.696014
 20
95.056038
 30
0.0
  0
POINT
  5
5E
330
53
100
AcDbEntity
  8
Defpoints
 62
     0
100
AcDbPoint
 10
69.696014
 20
108.556038
 30
0.0
  0
POINT
  5
5F
330
53
100
AcDbEntity
  8
Defpoints
 62
     0
100
AcDbPoint
 10
69.696014
 20
95.056038
 30
0.0
  0
ENDBLK
  5
61
330
53
100
AcDbEntity
  8
0
100
AcDbBlockEnd
  0
BLOCK
  5
71
330
63
100
AcDbEntity
  8
0
100
AcDbBlockBegin
  2
*D3
 70
     1
 71
     0
 10
0.0
 20
0.0
 30
0.0
  3
*D3
  1

  0
LINE
  5
64
330
63
100
AcDbEntity
  8
0
  6
Continuous
 62
    21
370
    -2
100
AcDbLine
 10
79.847681
 20
96.396563
 30
0.0
 11
81.508591
 21
103.642647
 31
0.0
  0
LINE
  5
65
330
63
100
AcDbEntity
  8
0
  6
Continuous
 62
    21
370
    -2
100
AcDbLine
 10
84.559618
 20
93.919642
 30
0.0
 11
80.604845
 21
89.964868
 31
0.0
  0
LINE
  5
66
330
63
100
AcDbEntity
  8
0
  6
Continuous
 62
    21
370
    -2
100
AcDbLine
 10
85.696014
 20
94.156038
 30
0.0
 11
85.696014
 21
87.856037
 31
0.0
  0
ARC
  5
67
330
63
100
AcDbEntity
  8
0
  6
Continuous
 62
    21
370
    -2
100
AcDbCircle
 10
85.696014
 20
95.056038
 30
0.0
 40
6.000001367569434
100
AcDbArc
 50
167.089965
 51
196.044982
  0
ARC
  5
68
330
63
100
AcDbEntity
  8
0
  6
Continuous
 62
    21
370
    -2
100
AcDbCircle
 10
85.696014
 20
95.056038
 30
0.0
 40
6.000001367569434
100
AcDbArc
 50
298.955018
 51
327.910035
  0
SOLID
  5
69
330
63
100
AcDbEntity
  8
0
 62
    21
100
AcDbTrace
 10
79.499028
 20
93.143748
 30
0.0
 11
80.360458
 21
93.651624
 31
0.0
 12
81.453373
 22
90.813396
 32
0.0
 13
81.453373
 23
90.813396
 33
0.0
  0
SOLID
  5
6A
330
63
100
AcDbEntity
  8
0
 62
    21
100
AcDbTrace
 10
88.475752
 20
90.290159
 30
0.0
 11
88.725752
 21
89.321913
 31
0.0
 12
85.696014
 22
89.056037
 32
0.0
 13
85.696014
 23
89.056037
 33
0.0
  0
MTEXT
  5
6B
330
63
100
AcDbEntity
  8
0
 62
    21
100
AcDbMText
 10
83.627158
 20
99.343645
 30
0.0
 40
3.0
 41
0.0
 71
     5
 72
     1
  1
45
  7
STEFANO
 11
-0.223420840313216
 21
-0.9747220773706403
 31
0.0
 73
     1
 44
1.0
  0
POINT
  5
6C
330
63
100
AcDbEntity
  8
Defpoints
 62
     0
100
AcDbPoint
 10
83.399913
 20
89.512759
 30
0.0
  0
POINT
  5
6D
330
63
100
AcDbEntity
  8
Defpoints
 62
     0
100
AcDbPoint
 10
85.696014
 20
95.056038
 30
0.0
  0
POINT
  5
6E
330
63
100
AcDbEntity
  8
Defpoints
 62
     0
100
AcDbPoint
 10
85.196014
 20
94.556038
 30
0.0
  0
POINT
  5
6F
330
63
100
AcDbEntity
  8
Defpoints
 62
     0
100
AcDbPoint
 10
85.696014
 20
95.056038
 30
0.0
  0
POINT
  5
70
330
63
100
AcDbEntity
  8
Defpoints
 62
     0
100
AcDbPoint
 10
85.696014
 20
138.756042
 30
0.0
  0
ENDBLK
  5
72
330
63
100
AcDbEntity
  8
0
100
AcDbBlockEnd
  0
BLOCK
  5
80
330
74
100
AcDbEntity
  8
0
100
AcDbBlockBegin
  2
*D4
 70
     1
 71
     0
 10
0.0
 20
0.0
 30
0.0
  3
*D4
  1

  0
LINE
  5
75
330
74
100
AcDbEntity
  8
0
  6
Continuous
 62
    21
370
    -2
100
AcDbLine
 10
69.596017
 20
139.55603
 30
0.0
 11
34.113376
 21
139.55603
 31
0.0
  0
LINE
  5
76
330
74
100
AcDbEntity
  8
0
  6
Continuous
 62
    21
370
    -2
100
AcDbLine
 10
69.059612
 20
138.119652
 30
0.0
 11
44.769359
 21
113.829863
 31
0.0
  0
ARC
  5
77
330
74
100
AcDbEntity
  8
0
  6
Continuous
 62
    21
370
    -2
100
AcDbCircle
 10
70.496017
 20
139.55603
 30
0.0
 40
35.18264162800989
100
AcDbArc
 50
184.887054
 51
220.1124
  0
SOLID
  5
78
330
74
100
AcDbEntity
  8
0
 62
    21
100
AcDbTrace
 10
35.940825
 20
136.580075
 30
0.0
 11
34.941734
 21
136.537441
 31
0.0
 12
35.313376
 22
139.55603
 32
0.0
 13
35.313376
 23
139.55603
 33
0.0
  0
SOLID
  5
79
330
74
100
AcDbEntity
  8
0
 62
    21
100
AcDbTrace
 10
43.220658
 20
116.550081
 30
0.0
 11
43.957276
 21
117.22639
 31
0.0
 12
45.617896
 22
114.678383
 32
0.0
 13
45.617896
 23
114.678383
 33
0.0
  0
MTEXT
  5
7A
330
74
100
AcDbEntity
  8
0
 62
    21
100
AcDbMText
 10
40.786634
 20
127.250167
 30
0.0
 40
3.0
 41
0.0
 71
     5
 72
     1
  1
45
  7
STEFANO
 11
0.3826790269346231
 21
-0.9238813572880287
 31
0.0
 73
     1
 44
1.0
  0
POINT
  5
7B
330
74
100
AcDbEntity
  8
Defpoints
 62
     0
100
AcDbPoint
 10
37.991431
 20
126.092371
 30
0.0
  0
POINT
  5
7C
330
74
100
AcDbEntity
  8
Defpoints
 62
     0
100
AcDbPoint
 10
69.696014
 20
138.756042
 30
0.0
  0
POINT
  5
7D
330
74
100
AcDbEntity
  8
Defpoints
 62
     0
100
AcDbPoint
 10
70.496017
 20
139.55603
 30
0.0
  0
POINT
  5
7E
330
74
100
AcDbEntity
  8
Defpoints
 62
     0
100
AcDbPoint
 10
74.696014
 20
139.55603
 30
0.0
  0
POINT
  5
7F
330
74
100
AcDbEntity
  8
Defpoints
 62
     0
100
AcDbPoint
 10
70.496017
 20
139.55603
 30
0.0
  0
ENDBLK
  5
81
330
74
100
AcDbEntity
  8
0
100
AcDbBlockEnd
  0
BLOCK
  5
8F
330
83
100
AcDbEntity
  8
0
100
AcDbBlockBegin
  2
*D5
 70
     1
 71
     0
 10
0.0
 20
0.0
 30
0.0
  3
*D5
  1

  0
LINE
  5
84
330
83
100
AcDbEntity
  8
0
  6
Continuous
 62
    21
370
    -2
100
AcDbLine
 10
86.332417
 20
138.119652
 30
0.0
 11
98.467314
 21
125.984986
 31
0.0
  0
LINE
  5
85
330
83
100
AcDbEntity
  8
0
  6
Continuous
 62
    21
370
    -2
100
AcDbLine
 10
85.796011
 20
139.55603
 30
0.0
 11
104.088549
 21
139.55603
 31
0.0
  0
ARC
  5
86
330
83
100
AcDbEntity
  8
0
  6
Continuous
 62
    21
370
    -2
100
AcDbCircle
 10
84.896011
 20
139.55603
 30
0.0
 40
17.99253732615245
100
AcDbArc
 50
324.564905
 51
350.435642
  0
SOLID
  5
87
330
83
100
AcDbEntity
  8
0
 62
    21
100
AcDbTrace
 10
99.174041
 20
129.447155
 30
0.0
 11
99.937642
 21
128.801467
 31
0.0
 12
97.618778
 22
126.833506
 32
0.0
 13
97.618778
 23
126.833506
 33
0.0
  0
SOLID
  5
88
330
83
100
AcDbEntity
  8
0
 62
    21
100
AcDbTrace
 10
103.136704
 20
136.52479
 30
0.0
 11
102.140186
 21
136.608158
 31
0.0
 12
102.888549
 22
139.55603
 32
0.0
 13
102.888549
 23
139.55603
 33
0.0
  0
MTEXT
  5
89
330
83
100
AcDbEntity
  8
0
 62
    21
100
AcDbMText
 10
98.723778
 20
133.828459
 30
0.0
 40
3.0
 41
0.0
 71
     5
 72
     1
  1
45
  7
STEFANO
 11
0.3826790269346238
 21
0.9238813572880283
 31
0.0
 73
     1
 44
1.0
  0
POINT
  5
8A
330
83
100
AcDbEntity
  8
Defpoints
 62
     0
100
AcDbPoint
 10
101.518981
 20
132.670664
 30
0.0
  0
POINT
  5
8B
330
83
100
AcDbEntity
  8
Defpoints
 62
     0
100
AcDbPoint
 10
84.896011
 20
139.55603
 30
0.0
  0
POINT
  5
8C
330
83
100
AcDbEntity
  8
Defpoints
 62
     0
100
AcDbPoint
 10
85.696014
 20
138.756042
 30
0.0
  0
POINT
  5
8D
330
83
100
AcDbEntity
  8
Defpoints
 62
     0
100
AcDbPoint
 10
84.896011
 20
139.55603
 30
0.0
  0
POINT
  5
8E
330
83
100
AcDbEntity
  8
Defpoints
 62
     0
100
AcDbPoint
 10
80.696014
 20
139.55603
 30
0.0
  0
ENDBLK
  5
90
330
83
100
AcDbEntity
  8
0
100
AcDbBlockEnd
  0
BLOCK
  5
9F
330
92
100
AcDbEntity
  8
0
100
AcDbBlockBegin
  2
*D6
 70
     1
 71
     0
 10
0.0
 20
0.0
 30
0.0
  3
*D6
  1

  0
LINE
  5
93
330
92
100
AcDbEntity
  8
0
  6
Continuous
 62
    21
370
    -2
100
AcDbLine
 10
70.696014
 20
79.65603
 30
0.0
 11
70.696014
 21
66.298054
 31
0.0
  0
LINE
  5
94
330
92
100
AcDbEntity
  8
0
  6
Continuous
 62
    21
370
    -2
100
AcDbLine
 10
72.332411
 20
78.919634
 30
0.0
 11
80.777926
 21
70.474118
 31
0.0
  0
ARC
  5
95
330
92
100
AcDbEntity
  8
0
  6
Continuous
 62
    21
370
    -2
100
AcDbCircle
 10
70.696014
 20
80.55603
 30
0.0
 40
13.05797647271372
100
AcDbArc
 50
243.614958
 51
256.807479
  0
ARC
  5
96
330
92
100
AcDbEntity
  8
0
  6
Continuous
 62
    21
370
    -2
100
AcDbCircle
 10
70.696014
 20
80.55603
 30
0.0
 40
13.05797647271372
100
AcDbArc
 50
328.192521
 51
341.385042
  0
SOLID
  5
97
330
92
100
AcDbEntity
  8
0
 62
    21
100
AcDbTrace
 10
67.658437
 20
67.345981
 30
0.0
 11
67.77331
 21
68.339361
 31
0.0
 12
70.696014
 22
67.498054
 32
0.0
 13
70.696014
 23
67.498054
 33
0.0
  0
SOLID
  5
98
330
92
100
AcDbEntity
  8
0
 62
    21
100
AcDbTrace
 10
81.401168
 20
73.984205
 30
0.0
 11
82.184821
 21
73.363006
 31
0.0
 12
79.929398
 22
71.322647
 32
0.0
 13
79.929398
 23
71.322647
 33
0.0
  0
MTEXT
  5
99
330
92
100
AcDbEntity
  8
0
 62
    21
100
AcDbMText
 10
74.535277
 20
71.287231
 30
0.0
 40
3.0
 41
0.0
 71
     5
 72
     1
  1
45
  7
STEFANO
 11
0.9238795325112866
 21
0.3826834323650903
 31
0.0
 73
     1
 44
1.0
  0
POINT
  5
9A
330
92
100
AcDbEntity
  8
Defpoints
 62
     0
100
AcDbPoint
 10
75.693086
 20
68.492033
 30
0.0
  0
POINT
  5
9B
330
92
100
AcDbEntity
  8
Defpoints
 62
     0
100
AcDbPoint
 10
71.696014
 20
79.55603
 30
0.0
  0
POINT
  5
9C
330
92
100
AcDbEntity
  8
Defpoints
 62
     0
100
AcDbPoint
 10
70.696014
 20
80.55603
 30
0.0
  0
POINT
  5
9D
330
92
100
AcDbEntity
  8
Defpoints
 62
     0
100
AcDbPoint
 10
70.696014
 20
94.556038
 30
0.0
  0
POINT
  5
9E
330
92
100
AcDbEntity
  8
Defpoints
 62
     0
100
AcDbPoint
 10
70.696014
 20
80.55603
 30
0.0
  0
ENDBLK
  5
A0
330
92
100
AcDbEntity
  8
0
100
AcDbBlockEnd
  0
BLOCK
  5
AF
330
A2
100
AcDbEntity
  8
0
100
AcDbBlockBegin
  2
*D7
 70
     1
 71
     0
 10
0.0
 20
0.0
 30
0.0
  3
*D7
  1

  0
LINE
  5
A3
330
A2
100
AcDbEntity
  8
0
  6
Continuous
 62
    21
370
    -2
100
AcDbLine
 10
83.059618
 20
78.919634
 30
0.0
 11
74.310132
 21
70.170148
 31
0.0
  0
LINE
  5
A4
330
A2
100
AcDbEntity
  8
0
  6
Continuous
 62
    21
370
    -2
100
AcDbLine
 10
84.696014
 20
79.65603
 30
0.0
 11
84.696014
 21
65.868174
 31
0.0
  0
ARC
  5
A5
330
A2
100
AcDbEntity
  8
0
  6
Continuous
 62
    21
370
    -2
100
AcDbCircle
 10
84.696014
 20
80.55603
 30
0.0
 40
13.4878559312358
100
AcDbArc
 50
199.459448
 51
212.229724
  0
ARC
  5
A6
330
A2
100
AcDbEntity
  8
0
  6
Continuous
 62
    21
370
    -2
100
AcDbCircle
 10
84.696014
 20
80.55603
 30
0.0
 40
13.4878559312358
100
AcDbArc
 50
282.770276
 51
295.540552
  0
SOLID
  5
A7
330
A2
100
AcDbEntity
  8
0
 62
    21
100
AcDbTrace
 10
72.895734
 20
73.050711
 30
0.0
 11
73.677092
 21
73.674793
 31
0.0
 12
75.15866
 22
71.018676
 32
0.0
 13
75.15866
 23
71.018676
 33
0.0
  0
SOLID
  5
A8
330
A2
100
AcDbEntity
  8
0
 62
    21
100
AcDbTrace
 10
87.621799
 20
67.898706
 30
0.0
 11
87.73301
 21
66.904909
 31
0.0
 12
84.696014
 22
67.068174
 32
0.0
 13
84.696014
 23
67.068174
 33
0.0
  0
MTEXT
  5
A9
330
A2
100
AcDbEntity
  8
0
 62
    21
100
AcDbMText
 10
80.692244
 20
70.890074
 30
0.0
 40
3.0
 41
0.0
 71
     5
 72
     1
  1
45
  7
STEFANO
 11
0.9238795325112866
 21
-0.3826834323650902
 31
0.0
 73
     1
 44
1.0
  0
POINT
  5
AA
330
A2
100
AcDbEntity
  8
Defpoints
 62
     0
100
AcDbPoint
 10
79.534435
 20
68.094876
 30
0.0
  0
POINT
  5
AB
330
A2
100
AcDbEntity
  8
Defpoints
 62
     0
100
AcDbPoint
 10
84.696014
 20
80.55603
 30
0.0
  0
POINT
  5
AC
330
A2
100
AcDbEntity
  8
Defpoints
 62
     0
100
AcDbPoint
 10
83.696014
 20
79.55603
 30
0.0
  0
POINT
  5
AD
330
A2
100
AcDbEntity
  8
Defpoints
 62
     0
100
AcDbPoint
 10
84.696014
 20
80.55603
 30
0.0
  0
POINT
  5
AE
330
A2
100
AcDbEntity
  8
Defpoints
 62
     0
100
AcDbPoint
 10
84.696014
 20
94.556038
 30
0.0
  0
ENDBLK
  5
B0
330
A2
100
AcDbEntity
  8
0
100
AcDbBlockEnd
  0
BLOCK
  5
BE
330
B2
100
AcDbEntity
  8
0
100
AcDbBlockBegin
  2
*D8
 70
     1
 71
     0
 10
0.0
 20
0.0
 30
0.0
  3
*D8
  1

  0
LINE
  5
B3
330
B2
100
AcDbEntity
  8
0
  6
Continuous
 62
    21
370
    -2
100
AcDbLine
 10
70.696014
 20
93.656038
 30
0.0
 11
70.696014
 21
60.456048
 31
0.0
  0
LINE
  5
B4
330
B2
100
AcDbEntity
  8
0
  6
Continuous
 62
    21
370
    -2
100
AcDbLine
 10
77.696014
 20
78.856042
 30
0.0
 11
77.696014
 21
60.456048
 31
0.0
  0
LINE
  5
B5
330
B2
100
AcDbEntity
  8
0
  6
Continuous
 62
    21
370
    -2
100
AcDbLine
 10
70.696014
 20
61.656048
 30
0.0
 11
62.272013
 21
61.656048
 31
0.0
  0
LINE
  5
B6
330
B2
100
AcDbEntity
  8
0
  6
Continuous
 62
    21
370
    -2
100
AcDbLine
 10
67.696014
 20
61.656048
 30
0.0
 11
64.696014
 21
61.656048
 31
0.0
  0
LINE
  5
B7
330
B2
100
AcDbEntity
  8
0
  6
Continuous
 62
    21
370
    -2
100
AcDbLine
 10
80.696014
 20
61.656048
 30
0.0
 11
83.696014
 21
61.656048
 31
0.0
  0
SOLID
  5
B8
330
B2
100
AcDbEntity
  8
0
 62
    21
100
AcDbTrace
 10
67.696014
 20
61.156048
 30
0.0
 11
67.696014
 21
62.156048
 31
0.0
 12
70.696014
 22
61.656048
 32
0.0
 13
70.696014
 23
61.656048
 33
0.0
  0
SOLID
  5
B9
330
B2
100
AcDbEntity
  8
0
 62
    21
100
AcDbTrace
 10
80.696014
 20
62.156048
 30
0.0
 11
80.696014
 21
61.156048
 31
0.0
 12
77.696014
 22
61.656048
 32
0.0
 13
77.696014
 23
61.656048
 33
0.0
  0
MTEXT
  5
BA
330
B2
100
AcDbEntity
  8
0
 62
    21
100
AcDbMText
 10
64.741013
 20
64.656048
 30
0.0
 40
3.0
 41
0.0
 71
     5
 72
     1
  1
\A1;7
  7
STEFANO
 73
     1
 44
1.0
  0
POINT
  5
BB
330
B2
100
AcDbEntity
  8
Defpoints
 62
     0
100
AcDbPoint
 10
70.696014
 20
94.556038
 30
0.0
  0
POINT
  5
BC
330
B2
100
AcDbEntity
  8
Defpoints
 62
     0
100
AcDbPoint
 10
77.696014
 20
79.756042
 30
0.0
  0
POINT
  5
BD
330
B2
100
AcDbEntity
  8
Defpoints
 62
     0
100
AcDbPoint
 10
77.696014
 20
61.656048
 30
0.0
  0
ENDBLK
  5
BF
330
B2
100
AcDbEntity
  8
0
100
AcDbBlockEnd
  0
BLOCK
  5
CD
330
C1
100
AcDbEntity
  8
0
100
AcDbBlockBegin
  2
*D9
 70
     1
 71
     0
 10
0.0
 20
0.0
 30
0.0
  3
*D9
  1

  0
LINE
  5
C2
330
C1
100
AcDbEntity
  8
0
  6
Continuous
 62
    21
370
    -2
100
AcDbLine
 10
84.696014
 20
79.65603
 30
0.0
 11
84.696014
 21
60.55605
 31
0.0
  0
LINE
  5
C3
330
C1
100
AcDbEntity
  8
0
  6
Continuous
 62
    21
370
    -2
100
AcDbLine
 10
77.696014
 20
78.856042
 30
0.0
 11
77.696014
 21
60.55605
 31
0.0
  0
LINE
  5
C4
330
C1
100
AcDbEntity
  8
0
  6
Continuous
 62
    21
370
    -2
100
AcDbLine
 10
77.696014
 20
61.75605
 30
0.0
 11
69.272013
 21
61.75605
 31
0.0
  0
LINE
  5
C5
330
C1
100
AcDbEntity
  8
0
  6
Continuous
 62
    21
370
    -2
100
AcDbLine
 10
87.696014
 20
61.75605
 30
0.0
 11
90.696014
 21
61.75605
 31
0.0
  0
LINE
  5
C6
330
C1
100
AcDbEntity
  8
0
  6
Continuous
 62
    21
370
    -2
100
AcDbLine
 10
74.696014
 20
61.75605
 30
0.0
 11
71.696014
 21
61.75605
 31
0.0
  0
SOLID
  5
C7
330
C1
100
AcDbEntity
  8
0
 62
    21
100
AcDbTrace
 10
87.696014
 20
62.25605
 30
0.0
 11
87.696014
 21
61.25605
 31
0.0
 12
84.696014
 22
61.75605
 32
0.0
 13
84.696014
 23
61.75605
 33
0.0
  0
SOLID
  5
C8
330
C1
100
AcDbEntity
  8
0
 62
    21
100
AcDbTrace
 10
74.696014
 20
61.25605
 30
0.0
 11
74.696014
 21
62.25605
 31
0.0
 12
77.696014
 22
61.75605
 32
0.0
 13
77.696014
 23
61.75605
 33
0.0
  0
MTEXT
  5
C9
330
C1
100
AcDbEntity
  8
0
 62
    21
100
AcDbMText
 10
71.741013
 20
64.75605
 30
0.0
 40
3.0
 41
0.0
 71
     5
 72
     1
  1
\A1;7
  7
STEFANO
 73
     1
 44
1.0
  0
POINT
  5
CA
330
C1
100
AcDbEntity
  8
Defpoints
 62
     0
100
AcDbPoint
 10
84.696014
 20
80.55603
 30
0.0
  0
POINT
  5
CB
330
C1
100
AcDbEntity
  8
Defpoints
 62
     0
100
AcDbPoint
 10
77.696014
 20
79.756042
 30
0.0
  0
POINT
  5
CC
330
C1
100
AcDbEntity
  8
Defpoints
 62
     0
100
AcDbPoint
 10
77.696014
 20
61.75605
 30
0.0
  0
ENDBLK
  5
CE
330
C1
100
AcDbEntity
  8
0
100
AcDbBlockEnd
  0
BLOCK
  5
DC
330
D0
100
AcDbEntity
  8
0
100
AcDbBlockBegin
  2
*D10
 70
     1
 71
     0
 10
0.0
 20
0.0
 30
0.0
  3
*D10
  1

  0
LINE
  5
D1
330
D0
100
AcDbEntity
  8
0
  6
Continuous
 62
    21
370
    -2
100
AcDbLine
 10
69.696014
 20
139.656042
 30
0.0
 11
69.696014
 21
167.856036
 31
0.0
  0
LINE
  5
D2
330
D0
100
AcDbEntity
  8
0
  6
Continuous
 62
    21
370
    -2
100
AcDbLine
 10
77.696014
 20
80.656042
 30
0.0
 11
77.696014
 21
167.856036
 31
0.0
  0
LINE
  5
D3
330
D0
100
AcDbEntity
  8
0
  6
Continuous
 62
    21
370
    -2
100
AcDbLine
 10
69.696014
 20
166.656036
 30
0.0
 11
61.254013
 21
166.656036
 31
0.0
  0
LINE
  5
D4
330
D0
100
AcDbEntity
  8
0
  6
Continuous
 62
    21
370
    -2
100
AcDbLine
 10
66.696014
 20
166.656036
 30
0.0
 11
63.696014
 21
166.656036
 31
0.0
  0
LINE
  5
D5
330
D0
100
AcDbEntity
  8
0
  6
Continuous
 62
    21
370
    -2
100
AcDbLine
 10
80.696014
 20
166.656036
 30
0.0
 11
83.696014
 21
166.656036
 31
0.0
  0
SOLID
  5
D6
330
D0
100
AcDbEntity
  8
0
 62
    21
100
AcDbTrace
 10
66.696014
 20
166.156036
 30
0.0
 11
66.696014
 21
167.156036
 31
0.0
 12
69.696014
 22
166.656036
 32
0.0
 13
69.696014
 23
166.656036
 33
0.0
  0
SOLID
  5
D7
330
D0
100
AcDbEntity
  8
0
 62
    21
100
AcDbTrace
 10
80.696014
 20
167.156036
 30
0.0
 11
80.696014
 21
166.156036
 31
0.0
 12
77.696014
 22
166.656036
 32
0.0
 13
77.696014
 23
166.656036
 33
0.0
  0
MTEXT
  5
D8
330
D0
100
AcDbEntity
  8
0
 62
    21
100
AcDbMText
 10
63.741013
 20
169.687536
 30
0.0
 40
3.0
 41
0.0
 71
     5
 72
     1
  1
\A1;8
  7
STEFANO
 73
     1
 44
1.0
  0
POINT
  5
D9
330
D0
100
AcDbEntity
  8
Defpoints
 62
     0
100
AcDbPoint
 10
69.696014
 20
138.756042
 30
0.0
  0
POINT
  5
DA
330
D0
100
AcDbEntity
  8
Defpoints
 62
     0
100
AcDbPoint
 10
77.696014
 20
79.756042
 30
0.0
  0
POINT
  5
DB
330
D0
100
AcDbEntity
  8
Defpoints
 62
     0
100
AcDbPoint
 10
77.696014
 20
166.656036
 30
0.0
  0
ENDBLK
  5
DD
330
D0
100
AcDbEntity
  8
0
100
AcDbBlockEnd
  0
BLOCK
  5
EB
330
DF
100
AcDbEntity
  8
0
100
AcDbBlockBegin
  2
*D11
 70
     1
 71
     0
 10
0.0
 20
0.0
 30
0.0
  3
*D11
  1

  0
LINE
  5
E0
330
DF
100
AcDbEntity
  8
0
  6
Continuous
 62
    21
370
    -2
100
AcDbLine
 10
85.696014
 20
95.956038
 30
0.0
 11
85.696014
 21
167.706042
 31
0.0
  0
LINE
  5
E1
330
DF
100
AcDbEntity
  8
0
  6
Continuous
 62
    21
370
    -2
100
AcDbLine
 10
77.696014
 20
80.656042
 30
0.0
 11
77.696014
 21
167.706042
 31
0.0
  0
LINE
  5
E2
330
DF
100
AcDbEntity
  8
0
  6
Continuous
 62
    21
370
    -2
100
AcDbLine
 10
77.696014
 20
166.506042
 30
0.0
 11
69.254013
 21
166.506042
 31
0.0
  0
LINE
  5
E3
330
DF
100
AcDbEntity
  8
0
  6
Continuous
 62
    21
370
    -2
100
AcDbLine
 10
88.696014
 20
166.506042
 30
0.0
 11
91.696014
 21
166.506042
 31
0.0
  0
LINE
  5
E4
330
DF
100
AcDbEntity
  8
0
  6
Continuous
 62
    21
370
    -2
100
AcDbLine
 10
74.696014
 20
166.506042
 30
0.0
 11
71.696014
 21
166.506042
 31
0.0
  0
SOLID
  5
E5
330
DF
100
AcDbEntity
  8
0
 62
    21
100
AcDbTrace
 10
88.696014
 20
167.006042
 30
0.0
 11
88.696014
 21
166.006042
 31
0.0
 12
85.696014
 22
166.506042
 32
0.0
 13
85.696014
 23
166.506042
 33
0.0
  0
SOLID
  5
E6
330
DF
100
AcDbEntity
  8
0
 62
    21
100
AcDbTrace
 10
74.696014
 20
166.006042
 30
0.0
 11
74.696014
 21
167.006042
 31
0.0
 12
77.696014
 22
166.506042
 32
0.0
 13
77.696014
 23
166.506042
 33
0.0
  0
MTEXT
  5
E7
330
DF
100
AcDbEntity
  8
0
 62
    21
100
AcDbMText
 10
71.741013
 20
169.537542
 30
0.0
 40
3.0
 41
0.0
 71
     5
 72
     1
  1
\A1;8
  7
STEFANO
 73
     1
 44
1.0
  0
POINT
  5
E8
330
DF
100
AcDbEntity
  8
Defpoints
 62
     0
100
AcDbPoint
 10
85.696014
 20
95.056038
 30
0.0
  0
POINT
  5
E9
330
DF
100
AcDbEntity
  8
Defpoints
 62
     0
100
AcDbPoint
 10
77.696014
 20
79.756042
 30
0.0
  0
POINT
  5
EA
330
DF
100
AcDbEntity
  8
Defpoints
 62
     0
100
AcDbPoint
 10
77.696014
 20
166.506042
 30
0.0
  0
ENDBLK
  5
EC
330
DF
100
AcDbEntity
  8
0
100
AcDbBlockEnd
  0
BLOCK
  5
F8
330
EE
100
AcDbEntity
  8
0
100
AcDbBlockBegin
  2
*D12
 70
     1
 71
     0
 10
0.0
 20
0.0
 30
0.0
  3
*D12
  1

  0
LINE
  5
EF
330
EE
100
AcDbEntity
  8
0
  6
Continuous
 62
    21
370
    -2
100
AcDbLine
 10
69.296014
 20
94.556038
 30
0.0
 11
50.346013
 21
94.556038
 31
0.0
  0
LINE
  5
F0
330
EE
100
AcDbEntity
  8
0
  6
Continuous
 62
    21
370
    -2
100
AcDbLine
 10
69.796014
 20
109.556038
 30
0.0
 11
50.346013
 21
109.556038
 31
0.0
  0
LINE
  5
F1
330
EE
100
AcDbEntity
  8
0
  6
Continuous
 62
    21
370
    -2
100
AcDbLine
 10
51.546013
 20
97.556038
 30
0.0
 11
51.546013
 21
106.556038
 31
0.0
  0
SOLID
  5
F2
330
EE
100
AcDbEntity
  8
0
 62
    21
100
AcDbTrace
 10
51.046013
 20
97.556038
 30
0.0
 11
52.046013
 21
97.556038
 31
0.0
 12
51.546013
 22
94.556038
 32
0.0
 13
51.546013
 23
94.556038
 33
0.0
  0
SOLID
  5
F3
330
EE
100
AcDbEntity
  8
0
 62
    21
100
AcDbTrace
 10
52.046013
 20
106.556038
 30
0.0
 11
51.046013
 21
106.556038
 31
0.0
 12
51.546013
 22
109.556038
 32
0.0
 13
51.546013
 23
109.556038
 33
0.0
  0
MTEXT
  5
F4
330
EE
100
AcDbEntity
  8
0
 62
    21
100
AcDbMText
 10
48.514513
 20
102.056038
 30
0.0
 40
3.0
 41
0.0
 71
     5
 72
     1
  1
\A1;15
  7
STEFANO
 11
0.0
 21
1.0
 31
0.0
 73
     1
 44
1.0
  0
POINT
  5
F5
330
EE
100
AcDbEntity
  8
Defpoints
 62
     0
100
AcDbPoint
 10
70.196014
 20
94.556038
 30
0.0
  0
POINT
  5
F6
330
EE
100
AcDbEntity
  8
Defpoints
 62
     0
100
AcDbPoint
 10
70.696014
 20
109.556038
 30
0.0
  0
POINT
  5
F7
330
EE
100
AcDbEntity
  8
Defpoints
 62
     0
100
AcDbPoint
 10
51.546013
 20
109.556038
 30
0.0
  0
ENDBLK
  5
F9
330
EE
100
AcDbEntity
  8
0
100
AcDbBlockEnd
  0
BLOCK
  5
107
330
FB
100
AcDbEntity
  8
0
100
AcDbBlockBegin
  2
*D13
 70
     1
 71
     0
 10
0.0
 20
0.0
 30
0.0
  3
*D13
  1

  0
LINE
  5
FC
330
FB
100
AcDbEntity
  8
0
  6
Continuous
 62
    21
370
    -2
100
AcDbLine
 10
68.796014
 20
110.556038
 30
0.0
 11
59.496007
 21
110.556038
 31
0.0
  0
LINE
  5
FD
330
FB
100
AcDbEntity
  8
0
  6
Continuous
 62
    21
370
    -2
100
AcDbLine
 10
68.796014
 20
108.556038
 30
0.0
 11
59.496007
 21
108.556038
 31
0.0
  0
LINE
  5
FE
330
FB
100
AcDbEntity
  8
0
  6
Continuous
 62
    21
370
    -2
100
AcDbLine
 10
60.696007
 20
108.556038
 30
0.0
 11
60.696007
 21
100.109536
 31
0.0
  0
LINE
  5
FF
330
FB
100
AcDbEntity
  8
0
  6
Continuous
 62
    21
370
    -2
100
AcDbLine
 10
60.696007
 20
113.556038
 30
0.0
 11
60.696007
 21
116.556038
 31
0.0
  0
LINE
  5
100
330
FB
100
AcDbEntity
  8
0
  6
Continuous
 62
    21
370
    -2
100
AcDbLine
 10
60.696007
 20
105.556038
 30
0.0
 11
60.696007
 21
102.556038
 31
0.0
  0
SOLID
  5
101
330
FB
100
AcDbEntity
  8
0
 62
    21
100
AcDbTrace
 10
60.196007
 20
113.556038
 30
0.0
 11
61.196007
 21
113.556038
 31
0.0
 12
60.696007
 22
110.556038
 32
0.0
 13
60.696007
 23
110.556038
 33
0.0
  0
SOLID
  5
102
330
FB
100
AcDbEntity
  8
0
 62
    21
100
AcDbTrace
 10
61.196007
 20
105.556038
 30
0.0
 11
60.196007
 21
105.556038
 31
0.0
 12
60.696007
 22
108.556038
 32
0.0
 13
60.696007
 23
108.556038
 33
0.0
  0
MTEXT
  5
103
330
FB
100
AcDbEntity
  8
0
 62
    21
100
AcDbMText
 10
57.690007
 20
102.601036
 30
0.0
 40
3.0
 41
0.0
 71
     5
 72
     1
  1
\A1;2
  7
STEFANO
 11
0.0
 21
1.0
 31
0.0
 73
     1
 44
1.0
  0
POINT
  5
104
330
FB
100
AcDbEntity
  8
Defpoints
 62
     0
100
AcDbPoint
 10
69.696014
 20
110.556038
 30
0.0
  0
POINT
  5
105
330
FB
100
AcDbEntity
  8
Defpoints
 62
     0
100
AcDbPoint
 10
69.696014
 20
108.556038
 30
0.0
  0
POINT
  5
106
330
FB
100
AcDbEntity
  8
Defpoints
 62
     0
100
AcDbPoint
 10
60.696007
 20
108.556038
 30
0.0
  0
ENDBLK
  5
108
330
FB
100
AcDbEntity
  8
0
100
AcDbBlockEnd
  0
BLOCK
  5
114
330
10A
100
AcDbEntity
  8
0
100
AcDbBlockBegin
  2
*D14
 70
     1
 71
     0
 10
0.0
 20
0.0
 30
0.0
  3
*D14
  1

  0
LINE
  5
10B
330
10A
100
AcDbEntity
  8
0
  6
Continuous
 62
    21
370
    -2
100
AcDbLine
 10
85.796011
 20
139.55603
 30
0.0
 11
115.896007
 21
139.55603
 31
0.0
  0
LINE
  5
10C
330
10A
100
AcDbEntity
  8
0
  6
Continuous
 62
    21
370
    -2
100
AcDbLine
 10
85.596014
 20
94.556038
 30
0.0
 11
115.896007
 21
94.556038
 31
0.0
  0
LINE
  5
10D
330
10A
100
AcDbEntity
  8
0
  6
Continuous
 62
    21
370
    -2
100
AcDbLine
 10
114.696007
 20
136.55603
 30
0.0
 11
114.696007
 21
97.556038
 31
0.0
  0
SOLID
  5
10E
330
10A
100
AcDbEntity
  8
0
 62
    21
100
AcDbTrace
 10
115.196007
 20
136.55603
 30
0.0
 11
114.196007
 21
136.55603
 31
0.0
 12
114.696007
 22
139.55603
 32
0.0
 13
114.696007
 23
139.55603
 33
0.0
  0
SOLID
  5
10F
330
10A
100
AcDbEntity
  8
0
 62
    21
100
AcDbTrace
 10
114.196007
 20
97.556038
 30
0.0
 11
115.196007
 21
97.556038
 31
0.0
 12
114.696007
 22
94.556038
 32
0.0
 13
114.696007
 23
94.556038
 33
0.0
  0
MTEXT
  5
110
330
10A
100
AcDbEntity
  8
0
 62
    21
100
AcDbMText
 10
111.670507
 20
117.056034
 30
0.0
 40
3.0
 41
0.0
 71
     5
 72
     1
  1
\A1;45
  7
STEFANO
 11
0.0
 21
1.0
 31
0.0
 73
     1
 44
1.0
  0
POINT
  5
111
330
10A
100
AcDbEntity
  8
Defpoints
 62
     0
100
AcDbPoint
 10
84.896011
 20
139.55603
 30
0.0
  0
POINT
  5
112
330
10A
100
AcDbEntity
  8
Defpoints
 62
     0
100
AcDbPoint
 10
84.696014
 20
94.556038
 30
0.0
  0
POINT
  5
113
330
10A
100
AcDbEntity
  8
Defpoints
 62
     0
100
AcDbPoint
 10
114.696007
 20
94.556038
 30
0.0
  0
ENDBLK
  5
115
330
10A
100
AcDbEntity
  8
0
100
AcDbBlockEnd
  0
BLOCK
  5
121
330
117
100
AcDbEntity
  8
0
100
AcDbBlockBegin
  2
*D15
 70
     1
 71
     0
 10
0.0
 20
0.0
 30
0.0
  3
*D15
  1

  0
LINE
  5
118
330
117
100
AcDbEntity
  8
0
  6
Continuous
 62
    21
370
    -2
100
AcDbLine
 10
85.596014
 20
94.556038
 30
0.0
 11
108.996013
 21
94.556038
 31
0.0
  0
LINE
  5
119
330
117
100
AcDbEntity
  8
0
  6
Continuous
 62
    21
370
    -2
100
AcDbLine
 10
72.596014
 20
79.55603
 30
0.0
 11
108.996013
 21
79.55603
 31
0.0
  0
LINE
  5
11A
330
117
100
AcDbEntity
  8
0
  6
Continuous
 62
    21
370
    -2
100
AcDbLine
 10
107.796013
 20
91.556038
 30
0.0
 11
107.796013
 21
82.55603
 31
0.0
  0
SOLID
  5
11B
330
117
100
AcDbEntity
  8
0
 62
    21
100
AcDbTrace
 10
108.296013
 20
91.556038
 30
0.0
 11
107.296013
 21
91.556038
 31
0.0
 12
107.796013
 22
94.556038
 32
0.0
 13
107.796013
 23
94.556038
 33
0.0
  0
SOLID
  5
11C
330
117
100
AcDbEntity
  8
0
 62
    21
100
AcDbTrace
 10
107.296013
 20
82.55603
 30
0.0
 11
108.296013
 21
82.55603
 31
0.0
 12
107.796013
 22
79.55603
 32
0.0
 13
107.796013
 23
79.55603
 33
0.0
  0
MTEXT
  5
11D
330
117
100
AcDbEntity
  8
0
 62
    21
100
AcDbMText
 10
104.764513
 20
87.056034
 30
0.0
 40
3.0
 41
0.0
 71
     5
 72
     1
  1
\A1;15
  7
STEFANO
 11
0.0
 21
1.0
 31
0.0
 73
     1
 44
1.0
  0
POINT
  5
11E
330
117
100
AcDbEntity
  8
Defpoints
 62
     0
100
AcDbPoint
 10
84.696014
 20
94.556038
 30
0.0
  0
POINT
  5
11F
330
117
100
AcDbEntity
  8
Defpoints
 62
     0
100
AcDbPoint
 10
71.696014
 20
79.55603
 30
0.0
  0
POINT
  5
120
330
117
100
AcDbEntity
  8
Defpoints
 62
     0
100
AcDbPoint
 10
107.796013
 20
79.55603
 30
0.0
  0
ENDBLK
  5
122
330
117
100
AcDbEntity
  8
0
100
AcDbBlockEnd
  0
BLOCK
  5
130
330
124
100
AcDbEntity
  8
0
100
AcDbBlockBegin
  2
*D16
 70
     1
 71
     0
 10
0.0
 20
0.0
 30
0.0
  3
*D16
  1

  0
LINE
  5
125
330
124
100
AcDbEntity
  8
0
  6
Continuous
 62
    21
370
    -2
100
AcDbLine
 10
73.796014
 20
139.55603
 30
0.0
 11
58.996007
 21
139.55603
 31
0.0
  0
LINE
  5
126
330
124
100
AcDbEntity
  8
0
  6
Continuous
 62
    21
370
    -2
100
AcDbLine
 10
68.796014
 20
138.756042
 30
0.0
 11
58.996007
 21
138.756042
 31
0.0
  0
LINE
  5
127
330
124
100
AcDbEntity
  8
0
  6
Continuous
 62
    21
370
    -2
100
AcDbLine
 10
60.196007
 20
139.55603
 30
0.0
 11
60.196007
 21
151.452539
 31
0.0
  0
LINE
  5
128
330
124
100
AcDbEntity
  8
0
  6
Continuous
 62
    21
370
    -2
100
AcDbLine
 10
60.196007
 20
142.55603
 30
0.0
 11
60.196007
 21
145.55603
 31
0.0
  0
LINE
  5
129
330
124
100
AcDbEntity
  8
0
  6
Continuous
 62
    21
370
    -2
100
AcDbLine
 10
60.196007
 20
135.756042
 30
0.0
 11
60.196007
 21
132.756042
 31
0.0
  0
SOLID
  5
12A
330
124
100
AcDbEntity
  8
0
 62
    21
100
AcDbTrace
 10
59.696007
 20
142.55603
 30
0.0
 11
60.696007
 21
142.55603
 31
0.0
 12
60.196007
 22
139.55603
 32
0.0
 13
60.196007
 23
139.55603
 33
0.0
  0
SOLID
  5
12B
330
124
100
AcDbEntity
  8
0
 62
    21
100
AcDbTrace
 10
60.696007
 20
135.756042
 30
0.0
 11
59.696007
 21
135.756042
 31
0.0
 12
60.196007
 22
138.756042
 32
0.0
 13
60.196007
 23
138.756042
 33
0.0
  0
MTEXT
  5
12C
330
124
100
AcDbEntity
  8
0
 62
    21
100
AcDbMText
 10
57.164507
 20
147.221039
 30
0.0
 40
3.0
 41
0.0
 71
     5
 72
     1
  1
\A1;0.8
  7
STEFANO
 11
0.0
 21
1.0
 31
0.0
 73
     1
 44
1.0
  0
POINT
  5
12D
330
124
100
AcDbEntity
  8
Defpoints
 62
     0
100
AcDbPoint
 10
74.696014
 20
139.55603
 30
0.0
  0
POINT
  5
12E
330
124
100
AcDbEntity
  8
Defpoints
 62
     0
100
AcDbPoint
 10
69.696014
 20
138.756042
 30
0.0
  0
POINT
  5
12F
330
124
100
AcDbEntity
  8
Defpoints
 62
     0
100
AcDbPoint
 10
60.196007
 20
138.756042
 30
0.0
  0
ENDBLK
  5
131
330
124
100
AcDbEntity
  8
0
100
AcDbBlockEnd
  0
BLOCK
  5
13F
330
133
100
AcDbEntity
  8
0
100
AcDbBlockBegin
  2
*D17
 70
     1
 71
     0
 10
0.0
 20
0.0
 30
0.0
  3
*D17
  1

  0
LINE
  5
134
330
133
100
AcDbEntity
  8
0
  6
Continuous
 62
    21
370
    -2
100
AcDbLine
 10
85.796011
 20
139.55603
 30
0.0
 11
95.896007
 21
139.55603
 31
0.0
  0
LINE
  5
135
330
133
100
AcDbEntity
  8
0
  6
Continuous
 62
    21
370
    -2
100
AcDbLine
 10
86.596014
 20
138.756042
 30
0.0
 11
95.896007
 21
138.756042
 31
0.0
  0
LINE
  5
136
330
133
100
AcDbEntity
  8
0
  6
Continuous
 62
    21
370
    -2
100
AcDbLine
 10
94.696007
 20
139.55603
 30
0.0
 11
94.696007
 21
151.452539
 31
0.0
  0
LINE
  5
137
330
133
100
AcDbEntity
  8
0
  6
Continuous
 62
    21
370
    -2
100
AcDbLine
 10
94.696007
 20
142.55603
 30
0.0
 11
94.696007
 21
145.55603
 31
0.0
  0
LINE
  5
138
330
133
100
AcDbEntity
  8
0
  6
Continuous
 62
    21
370
    -2
100
AcDbLine
 10
94.696007
 20
135.756042
 30
0.0
 11
94.696007
 21
132.756042
 31
0.0
  0
SOLID
  5
139
330
133
100
AcDbEntity
  8
0
 62
    21
100
AcDbTrace
 10
94.196007
 20
142.55603
 30
0.0
 11
95.196007
 21
142.55603
 31
0.0
 12
94.696007
 22
139.55603
 32
0.0
 13
94.696007
 23
139.55603
 33
0.0
  0
SOLID
  5
13A
330
133
100
AcDbEntity
  8
0
 62
    21
100
AcDbTrace
 10
95.196007
 20
135.756042
 30
0.0
 11
94.196007
 21
135.756042
 31
0.0
 12
94.696007
 22
138.756042
 32
0.0
 13
94.696007
 23
138.756042
 33
0.0
  0
MTEXT
  5
13B
330
133
100
AcDbEntity
  8
0
 62
    21
100
AcDbMText
 10
91.664507
 20
147.221039
 30
0.0
 40
3.0
 41
0.0
 71
     5
 72
     1
  1
\A1;0.8
  7
STEFANO
 11
0.0
 21
1.0
 31
0.0
 73
     1
 44
1.0
  0
POINT
  5
13C
330
133
100
AcDbEntity
  8
Defpoints
 62
     0
100
AcDbPoint
 10
84.896011
 20
139.55603
 30
0.0
  0
POINT
  5
13D
330
133
100
AcDbEntity
  8
Defpoints
 62
     0
100
AcDbPoint
 10
85.696014
 20
138.756042
 30
0.0
  0
POINT
  5
13E
330
133
100
AcDbEntity
  8
Defpoints
 62
     0
100
AcDbPoint
 10
94.696007
 20
138.756042
 30
0.0
  0
ENDBLK
  5
140
330
133
100
AcDbEntity
  8
0
100
AcDbBlockEnd
  0
BLOCK
  5
14E
330
142
100
AcDbEntity
  8
0
100
AcDbBlockBegin
  2
*D18
 70
     1
 71
     0
 10
0.0
 20
0.0
 30
0.0
  3
*D18
  1

  0
LINE
  5
143
330
142
100
AcDbEntity
  8
0
  6
Continuous
 62
    21
370
    -2
100
AcDbLine
 10
69.296014
 20
94.556038
 30
0.0
 11
59.346013
 21
94.556038
 31
0.0
  0
LINE
  5
144
330
142
100
AcDbEntity
  8
0
  6
Continuous
 62
    21
370
    -2
100
AcDbLine
 10
68.796014
 20
95.056038
 30
0.0
 11
59.346013
 21
95.056038
 31
0.0
  0
LINE
  5
145
330
142
100
AcDbEntity
  8
0
  6
Continuous
 62
    21
370
    -2
100
AcDbLine
 10
60.546013
 20
94.556038
 30
0.0
 11
60.546013
 21
82.652037
 31
0.0
  0
LINE
  5
146
330
142
100
AcDbEntity
  8
0
  6
Continuous
 62
    21
370
    -2
100
AcDbLine
 10
60.546013
 20
91.556038
 30
0.0
 11
60.546013
 21
88.556038
 31
0.0
  0
LINE
  5
147
330
142
100
AcDbEntity
  8
0
  6
Continuous
 62
    21
370
    -2
100
AcDbLine
 10
60.546013
 20
98.056038
 30
0.0
 11
60.546013
 21
101.056038
 31
0.0
  0
SOLID
  5
148
330
142
100
AcDbEntity
  8
0
 62
    21
100
AcDbTrace
 10
61.046013
 20
91.556038
 30
0.0
 11
60.046013
 21
91.556038
 31
0.0
 12
60.546013
 22
94.556038
 32
0.0
 13
60.546013
 23
94.556038
 33
0.0
  0
SOLID
  5
149
330
142
100
AcDbEntity
  8
0
 62
    21
100
AcDbTrace
 10
60.046013
 20
98.056038
 30
0.0
 11
61.046013
 21
98.056038
 31
0.0
 12
60.546013
 22
95.056038
 32
0.0
 13
60.546013
 23
95.056038
 33
0.0
  0
MTEXT
  5
14A
330
142
100
AcDbEntity
  8
0
 62
    21
100
AcDbMText
 10
57.514513
 20
86.891037
 30
0.0
 40
3.0
 41
0.0
 71
     5
 72
     1
  1
\A1;0.5
  7
STEFANO
 11
0.0
 21
1.0
 31
0.0
 73
     1
 44
1.0
  0
POINT
  5
14B
330
142
100
AcDbEntity
  8
Defpoints
 62
     0
100
AcDbPoint
 10
70.196014
 20
94.556038
 30
0.0
  0
POINT
  5
14C
330
142
100
AcDbEntity
  8
Defpoints
 62
     0
100
AcDbPoint
 10
69.696014
 20
95.056038
 30
0.0
  0
POINT
  5
14D
330
142
100
AcDbEntity
  8
Defpoints
 62
     0
100
AcDbPoint
 10
60.546013
 20
95.056038
 30
0.0
  0
ENDBLK
  5
14F
330
142
100
AcDbEntity
  8
0
100
AcDbBlockEnd
  0
BLOCK
  5
15D
330
151
100
AcDbEntity
  8
0
100
AcDbBlockBegin
  2
*D19
 70
     1
 71
     0
 10
0.0
 20
0.0
 30
0.0
  3
*D19
  1

  0
LINE
  5
152
330
151
100
AcDbEntity
  8
0
  6
Continuous
 62
    21
370
    -2
100
AcDbLine
 10
85.596014
 20
94.556038
 30
0.0
 11
97.896007
 21
94.556038
 31
0.0
  0
LINE
  5
153
330
151
100
AcDbEntity
  8
0
  6
Continuous
 62
    21
370
    -2
100
AcDbLine
 10
86.596014
 20
95.056038
 30
0.0
 11
97.896007
 21
95.056038
 31
0.0
  0
LINE
  5
154
330
151
100
AcDbEntity
  8
0
  6
Continuous
 62
    21
370
    -2
100
AcDbLine
 10
96.696007
 20
95.056038
 30
0.0
 11
96.696007
 21
106.960039
 31
0.0
  0
LINE
  5
155
330
151
100
AcDbEntity
  8
0
  6
Continuous
 62
    21
370
    -2
100
AcDbLine
 10
96.696007
 20
91.556038
 30
0.0
 11
96.696007
 21
88.556038
 31
0.0
  0
LINE
  5
156
330
151
100
AcDbEntity
  8
0
  6
Continuous
 62
    21
370
    -2
100
AcDbLine
 10
96.696007
 20
98.056038
 30
0.0
 11
96.696007
 21
101.056038
 31
0.0
  0
SOLID
  5
157
330
151
100
AcDbEntity
  8
0
 62
    21
100
AcDbTrace
 10
97.196007
 20
91.556038
 30
0.0
 11
96.196007
 21
91.556038
 31
0.0
 12
96.696007
 22
94.556038
 32
0.0
 13
96.696007
 23
94.556038
 33
0.0
  0
SOLID
  5
158
330
151
100
AcDbEntity
  8
0
 62
    21
100
AcDbTrace
 10
96.196007
 20
98.056038
 30
0.0
 11
97.196007
 21
98.056038
 31
0.0
 12
96.696007
 22
95.056038
 32
0.0
 13
96.696007
 23
95.056038
 33
0.0
  0
MTEXT
  5
159
330
151
100
AcDbEntity
  8
0
 62
    21
100
AcDbMText
 10
93.664507
 20
102.721039
 30
0.0
 40
3.0
 41
0.0
 71
     5
 72
     1
  1
\A1;0.5
  7
STEFANO
 11
0.0
 21
1.0
 31
0.0
 73
     1
 44
1.0
  0
POINT
  5
15A
330
151
100
AcDbEntity
  8
Defpoints
 62
     0
100
AcDbPoint
 10
84.696014
 20
94.556038
 30
0.0
  0
POINT
  5
15B
330
151
100
AcDbEntity
  8
Defpoints
 62
     0
100
AcDbPoint
 10
85.696014
 20
95.056038
 30
0.0
  0
POINT
  5
15C
330
151
100
AcDbEntity
  8
Defpoints
 62
     0
100
AcDbPoint
 10
96.696007
 20
95.056038
 30
0.0
  0
ENDBLK
  5
15E
330
151
100
AcDbEntity
  8
0
100
AcDbBlockEnd
  0
BLOCK
  5
16C
330
160
100
AcDbEntity
  8
0
100
AcDbBlockBegin
  2
*D20
 70
     1
 71
     0
 10
0.0
 20
0.0
 30
0.0
  3
*D20
  1

  0
LINE
  5
161
330
160
100
AcDbEntity
  8
0
  6
Continuous
 62
    21
370
    -2
100
AcDbLine
 10
72.596014
 20
79.55603
 30
0.0
 11
99.996013
 21
79.55603
 31
0.0
  0
LINE
  5
162
330
160
100
AcDbEntity
  8
0
  6
Continuous
 62
    21
370
    -2
100
AcDbLine
 10
85.596014
 20
80.55603
 30
0.0
 11
99.996013
 21
80.55603
 31
0.0
  0
LINE
  5
163
330
160
100
AcDbEntity
  8
0
  6
Continuous
 62
    21
370
    -2
100
AcDbLine
 10
98.796013
 20
79.55603
 30
0.0
 11
98.796013
 21
71.549028
 31
0.0
  0
LINE
  5
164
330
160
100
AcDbEntity
  8
0
  6
Continuous
 62
    21
370
    -2
100
AcDbLine
 10
98.796013
 20
76.55603
 30
0.0
 11
98.796013
 21
73.55603
 31
0.0
  0
LINE
  5
165
330
160
100
AcDbEntity
  8
0
  6
Continuous
 62
    21
370
    -2
100
AcDbLine
 10
98.796013
 20
83.55603
 30
0.0
 11
98.796013
 21
86.55603
 31
0.0
  0
SOLID
  5
166
330
160
100
AcDbEntity
  8
0
 62
    21
100
AcDbTrace
 10
99.296013
 20
76.55603
 30
0.0
 11
98.296013
 21
76.55603
 31
0.0
 12
98.796013
 22
79.55603
 32
0.0
 13
98.796013
 23
79.55603
 33
0.0
  0
SOLID
  5
167
330
160
100
AcDbEntity
  8
0
 62
    21
100
AcDbTrace
 10
98.296013
 20
83.55603
 30
0.0
 11
99.296013
 21
83.55603
 31
0.0
 12
98.796013
 22
80.55603
 32
0.0
 13
98.796013
 23
80.55603
 33
0.0
  0
MTEXT
  5
168
330
160
100
AcDbEntity
  8
0
 62
    21
100
AcDbMText
 10
95.790013
 20
73.601028
 30
0.0
 40
3.0
 41
0.0
 71
     5
 72
     1
  1
\A1;1
  7
STEFANO
 11
0.0
 21
1.0
 31
0.0
 73
     1
 44
1.0
  0
POINT
  5
169
330
160
100
AcDbEntity
  8
Defpoints
 62
     0
100
AcDbPoint
 10
71.696014
 20
79.55603
 30
0.0
  0
POINT
  5
16A
330
160
100
AcDbEntity
  8
Defpoints
 62
     0
100
AcDbPoint
 10
84.696014
 20
80.55603
 30
0.0
  0
POINT
  5
16B
330
160
100
AcDbEntity
  8
Defpoints
 62
     0
100
AcDbPoint
 10
98.796013
 20
80.55603
 30
0.0
  0
ENDBLK
  5
16D
330
160
100
AcDbEntity
  8
0
100
AcDbBlockEnd
  0
BLOCK
  5
17B
330
16F
100
AcDbEntity
  8
0
100
AcDbBlockBegin
  2
*D21
 70
     1
 71
     0
 10
0.0
 20
0.0
 30
0.0
  3
*D21
  1

  0
LINE
  5
170
330
16F
100
AcDbEntity
  8
0
  6
Continuous
 62
    21
370
    -2
100
AcDbLine
 10
70.796014
 20
79.55603
 30
0.0
 11
55.596013
 21
79.55603
 31
0.0
  0
LINE
  5
171
330
16F
100
AcDbEntity
  8
0
  6
Continuous
 62
    21
370
    -2
100
AcDbLine
 10
69.796014
 20
80.55603
 30
0.0
 11
55.596013
 21
80.55603
 31
0.0
  0
LINE
  5
172
330
16F
100
AcDbEntity
  8
0
  6
Continuous
 62
    21
370
    -2
100
AcDbLine
 10
56.796013
 20
79.55603
 30
0.0
 11
56.796013
 21
71.549028
 31
0.0
  0
LINE
  5
173
330
16F
100
AcDbEntity
  8
0
  6
Continuous
 62
    21
370
    -2
100
AcDbLine
 10
56.796013
 20
76.55603
 30
0.0
 11
56.796013
 21
73.55603
 31
0.0
  0
LINE
  5
174
330
16F
100
AcDbEntity
  8
0
  6
Continuous
 62
    21
370
    -2
100
AcDbLine
 10
56.796013
 20
83.55603
 30
0.0
 11
56.796013
 21
86.55603
 31
0.0
  0
SOLID
  5
175
330
16F
100
AcDbEntity
  8
0
 62
    21
100
AcDbTrace
 10
57.296013
 20
76.55603
 30
0.0
 11
56.296013
 21
76.55603
 31
0.0
 12
56.796013
 22
79.55603
 32
0.0
 13
56.796013
 23
79.55603
 33
0.0
  0
SOLID
  5
176
330
16F
100
AcDbEntity
  8
0
 62
    21
100
AcDbTrace
 10
56.296013
 20
83.55603
 30
0.0
 11
57.296013
 21
83.55603
 31
0.0
 12
56.796013
 22
80.55603
 32
0.0
 13
56.796013
 23
80.55603
 33
0.0
  0
MTEXT
  5
177
330
16F
100
AcDbEntity
  8
0
 62
    21
100
AcDbMText
 10
53.790013
 20
73.601028
 30
0.0
 40
3.0
 41
0.0
 71
     5
 72
     1
  1
\A1;1
  7
STEFANO
 11
0.0
 21
1.0
 31
0.0
 73
     1
 44
1.0
  0
POINT
  5
178
330
16F
100
AcDbEntity
  8
Defpoints
 62
     0
100
AcDbPoint
 10
71.696014
 20
79.55603
 30
0.0
  0
POINT
  5
179
330
16F
100
AcDbEntity
  8
Defpoints
 62
     0
100
AcDbPoint
 10
70.696014
 20
80.55603
 30
0.0
  0
POINT
  5
17A
330
16F
100
AcDbEntity
  8
Defpoints
 62
     0
100
AcDbPoint
 10
56.796013
 20
80.55603
 30
0.0
  0
ENDBLK
  5
17C
330
16F
100
AcDbEntity
  8
0
100
AcDbBlockEnd
  0
BLOCK
  5
186
330
17E
100
AcDbEntity
  8
0
100
AcDbBlockBegin
  2
*D22
 70
     1
 71
     0
 10
0.0
 20
0.0
 30
0.0
  3
*D22
  1

  0
LINE
  5
17F
330
17E
100
AcDbEntity
  8
0
  6
Continuous
 62
    21
370
    -2
100
AcDbLine
 10
89.857444
 20
117.23113
 30
0.0
 11
80.081143
 21
127.730256
 31
0.0
  0
MTEXT
  5
180
330
17E
100
AcDbEntity
  8
0
 62
    21
100
AcDbMText
 10
88.210096
 20
123.44878
 30
0.0
 40
3.0
 41
0.0
 71
     5
 72
     1
  1
\A1;R0.5
  7
STEFANO
 11
0.6814653142021293
 21
-0.7318504119964634
 31
0.0
 73
     1
 44
1.0
  0
SOLID
  5
181
330
17E
100
AcDbEntity
  8
0
 62
    21
100
AcDbTrace
 10
80.447068
 20
128.070989
 30
0.0
 11
79.715218
 21
127.389524
 31
0.0
 12
78.036747
 22
129.925808
 32
0.0
 13
78.036747
 23
129.925808
 33
0.0
  0
LINE
  5
182
330
17E
100
AcDbEntity
  8
0
  6
Continuous
 62
    21
370
    -2
100
AcDbLine
 10
77.606014
 20
130.291733
 30
0.0
 11
77.786014
 21
130.291733
 31
0.0
  0
LINE
  5
183
330
17E
100
AcDbEntity
  8
0
  6
Continuous
 62
    21
370
    -2
100
AcDbLine
 10
77.696014
 20
130.201733
 30
0.0
 11
77.696014
 21
130.381733
 31
0.0
  0
POINT
  5
184
330
17E
100
AcDbEntity
  8
Defpoints
 62
     0
100
AcDbPoint
 10
78.036747
 20
129.925808
 30
0.0
  0
POINT
  5
185
330
17E
100
AcDbEntity
  8
Defpoints
 62
     0
100
AcDbPoint
 10
77.696014
 20
130.291733
 30
0.0
  0
ENDBLK
  5
187
330
17E
100
AcDbEntity
  8
0
100
AcDbBlockEnd
  0
BLOCK
  5
194
330
189
100
AcDbEntity
  8
0
100
AcDbBlockBegin
  2
*D23
 70
     1
 71
     0
 10
0.0
 20
0.0
 30
0.0
  3
*D23
  1

  0
LINE
  5
18A
330
189
100
AcDbEntity
  8
0
  6
Continuous
 62
    21
370
    -2
100
AcDbLine
 10
77.696014
 20
80.656042
 30
0.0
 11
77.696014
 21
158.856036
 31
0.0
  0
LINE
  5
18B
330
189
100
AcDbEntity
  8
0
  6
Continuous
 62
    21
370
    -2
100
AcDbLine
 10
74.696014
 20
140.45603
 30
0.0
 11
74.696014
 21
158.856036
 31
0.0
  0
LINE
  5
18C
330
189
100
AcDbEntity
  8
0
  6
Continuous
 62
    21
370
    -2
100
AcDbLine
 10
71.696014
 20
157.656036
 30
0.0
 11
63.734014
 21
157.656036
 31
0.0
  0
LINE
  5
18D
330
189
100
AcDbEntity
  8
0
  6
Continuous
 62
    21
370
    -2
100
AcDbLine
 10
80.696014
 20
157.656036
 30
0.0
 11
83.696014
 21
157.656036
 31
0.0
  0
SOLID
  5
18E
330
189
100
AcDbEntity
  8
0
 62
    21
100
AcDbTrace
 10
80.696014
 20
158.156036
 30
0.0
 11
80.696014
 21
157.156036
 31
0.0
 12
77.696014
 22
157.656036
 32
0.0
 13
77.696014
 23
157.656036
 33
0.0
  0
SOLID
  5
18F
330
189
100
AcDbEntity
  8
0
 62
    21
100
AcDbTrace
 10
71.696014
 20
157.156036
 30
0.0
 11
71.696014
 21
158.156036
 31
0.0
 12
74.696014
 22
157.656036
 32
0.0
 13
74.696014
 23
157.656036
 33
0.0
  0
MTEXT
  5
190
330
189
100
AcDbEntity
  8
0
 62
    21
100
AcDbMText
 10
66.215014
 20
160.687536
 30
0.0
 40
3.0
 41
0.0
 71
     5
 72
     1
  1
\A1;3
  7
STEFANO
 73
     1
 44
1.0
  0
POINT
  5
191
330
189
100
AcDbEntity
  8
Defpoints
 62
     0
100
AcDbPoint
 10
77.696014
 20
79.756042
 30
0.0
  0
POINT
  5
192
330
189
100
AcDbEntity
  8
Defpoints
 62
     0
100
AcDbPoint
 10
74.696014
 20
139.55603
 30
0.0
  0
POINT
  5
193
330
189
100
AcDbEntity
  8
Defpoints
 62
     0
100
AcDbPoint
 10
74.696014
 20
157.656036
 30
0.0
  0
ENDBLK
  5
195
330
189
100
AcDbEntity
  8
0
100
AcDbBlockEnd
  0
BLOCK
  5
1A2
330
197
100
AcDbEntity
  8
0
100
AcDbBlockBegin
  2
*D24
 70
     1
 71
     0
 10
0.0
 20
0.0
 30
0.0
  3
*D24
  1

  0
LINE
  5
198
330
197
100
AcDbEntity
  8
0
  6
Continuous
 62
    21
370
    -2
100
AcDbLine
 10
77.696014
 20
80.656042
 30
0.0
 11
77.696014
 21
149.856036
 31
0.0
  0
LINE
  5
199
330
197
100
AcDbEntity
  8
0
  6
Continuous
 62
    21
370
    -2
100
AcDbLine
 10
80.696014
 20
140.45603
 30
0.0
 11
80.696014
 21
149.856036
 31
0.0
  0
LINE
  5
19A
330
197
100
AcDbEntity
  8
0
  6
Continuous
 62
    21
370
    -2
100
AcDbLine
 10
83.696014
 20
148.656036
 30
0.0
 11
91.658014
 21
148.656036
 31
0.0
  0
LINE
  5
19B
330
197
100
AcDbEntity
  8
0
  6
Continuous
 62
    21
370
    -2
100
AcDbLine
 10
74.696014
 20
148.656036
 30
0.0
 11
71.696014
 21
148.656036
 31
0.0
  0
SOLID
  5
19C
330
197
100
AcDbEntity
  8
0
 62
    21
100
AcDbTrace
 10
74.696014
 20
148.156036
 30
0.0
 11
74.696014
 21
149.156036
 31
0.0
 12
77.696014
 22
148.656036
 32
0.0
 13
77.696014
 23
148.656036
 33
0.0
  0
SOLID
  5
19D
330
197
100
AcDbEntity
  8
0
 62
    21
100
AcDbTrace
 10
83.696014
 20
149.156036
 30
0.0
 11
83.696014
 21
148.156036
 31
0.0
 12
80.696014
 22
148.656036
 32
0.0
 13
80.696014
 23
148.656036
 33
0.0
  0
MTEXT
  5
19E
330
197
100
AcDbEntity
  8
0
 62
    21
100
AcDbMText
 10
89.177014
 20
151.687536
 30
0.0
 40
3.0
 41
0.0
 71
     5
 72
     1
  1
\A1;3
  7
STEFANO
 73
     1
 44
1.0
  0
POINT
  5
19F
330
197
100
AcDbEntity
  8
Defpoints
 62
     0
100
AcDbPoint
 10
77.696014
 20
79.756042
 30
0.0
  0
POINT
  5
1A0
330
197
100
AcDbEntity
  8
Defpoints
 62
     0
100
AcDbPoint
 10
80.696014
 20
139.55603
 30
0.0
  0
POINT
  5
1A1
330
197
100
AcDbEntity
  8
Defpoints
 62
     0
100
AcDbPoint
 10
80.696014
 20
148.656036
 30
0.0
  0
ENDBLK
  5
1A3
330
197
100
AcDbEntity
  8
0
100
AcDbBlockEnd
  0
BLOCK
  5
1B1
330
1A5
100
AcDbEntity
  8
0
100
AcDbBlockBegin
  2
*D25
 70
     1
 71
     0
 10
0.0
 20
0.0
 30
0.0
  3
*D25
  1

  0
LINE
  5
1A6
330
1A5
100
AcDbEntity
  8
0
  6
Continuous
 62
    21
370
    -2
100
AcDbLine
 10
69.059618
 20
111.192434
 30
0.0
 11
40.072289
 21
140.179763
 31
0.0
  0
LINE
  5
1A7
330
1A5
100
AcDbEntity
  8
0
  6
Continuous
 62
    21
370
    -2
100
AcDbLine
 10
69.059618
 20
107.919642
 30
0.0
 11
40.072289
 21
78.932312
 31
0.0
  0
ARC
  5
1A8
330
1A5
100
AcDbEntity
  8
0
  6
Continuous
 62
    21
370
    -2
100
AcDbCircle
 10
70.696014
 20
109.556038
 30
0.0
 40
42.10848804237111
100
AcDbArc
 50
139.082875
 51
220.917125
  0
SOLID
  5
1A9
330
1A5
100
AcDbEntity
  8
0
 62
    21
100
AcDbTrace
 10
39.242333
 20
136.79496
 30
0.0
 11
38.510486
 21
137.47643
 31
0.0
 12
40.920817
 22
139.331235
 32
0.0
 13
40.920817
 23
139.331235
 33
0.0
  0
SOLID
  5
1AA
330
1A5
100
AcDbEntity
  8
0
 62
    21
100
AcDbTrace
 10
38.510486
 20
81.635646
 30
0.0
 11
39.242333
 21
82.317115
 31
0.0
 12
40.920817
 22
79.78084
 32
0.0
 13
40.920817
 23
79.78084
 33
0.0
  0
MTEXT
  5
1AB
330
1A5
100
AcDbEntity
  8
0
 62
    21
100
AcDbMText
 10
25.556026
 20
109.556038
 30
0.0
 40
3.0
 41
0.0
 71
     5
 72
     1
  1
90
  7
STEFANO
 11
0.0
 21
1.0
 31
0.0
 73
     1
 44
1.0
  0
POINT
  5
1AC
330
1A5
100
AcDbEntity
  8
Defpoints
 62
     0
100
AcDbPoint
 10
28.587526
 20
109.556038
 30
0.0
  0
POINT
  5
1AD
330
1A5
100
AcDbEntity
  8
Defpoints
 62
     0
100
AcDbPoint
 10
69.696014
 20
108.556038
 30
0.0
  0
POINT
  5
1AE
330
1A5
100
AcDbEntity
  8
Defpoints
 62
     0
100
AcDbPoint
 10
69.696014
 20
110.556038
 30
0.0
  0
POINT
  5
1AF
330
1A5
100
AcDbEntity
  8
Defpoints
 62
     0
100
AcDbPoint
 10
70.696014
 20
109.556038
 30
0.0
  0
POINT
  5
1B0
330
1A5
100
AcDbEntity
  8
Defpoints
 62
     0
100
AcDbPoint
 10
70.696014
 20
109.556038
 30
0.0
  0
ENDBLK
  5
1B2
330
1A5
100
AcDbEntity
  8
0
100
AcDbBlockEnd
  0
BLOCK
  5
1C0
330
1B4
100
AcDbEntity
  8
0
100
AcDbBlockBegin
  2
*D26
 70
     1
 71
     0
 10
0.0
 20
0.0
 30
0.0
  3
*D26
  1

  0
LINE
  5
1B5
330
1B4
100
AcDbEntity
  8
0
  6
Continuous
 62
    21
370
    -2
100
AcDbLine
 10
69.696014
 20
94.156038
 30
0.0
 11
69.696014
 21
92.189681
 31
0.0
  0
LINE
  5
1B6
330
1B4
100
AcDbEntity
  8
0
  6
Continuous
 62
    21
370
    -2
100
AcDbLine
 10
71.332411
 20
110.192434
 30
0.0
 11
81.268776
 21
120.1288
 31
0.0
  0
ARC
  5
1B7
330
1B4
100
AcDbEntity
  8
0
  6
Continuous
 62
    21
370
    -2
100
AcDbCircle
 10
69.696014
 20
108.556038
 30
0.0
 40
15.16635673115401
100
AcDbArc
 50
281.352022
 51
33.647978
  0
SOLID
  5
1B8
330
1B4
100
AcDbEntity
  8
0
 62
    21
100
AcDbTrace
 10
72.631854
 20
94.183939
 30
0.0
 11
72.730757
 21
93.188842
 31
0.0
 12
69.696014
 22
93.389681
 32
0.0
 13
69.696014
 23
93.389681
 33
0.0
  0
SOLID
  5
1B9
330
1B4
100
AcDbEntity
  8
0
 62
    21
100
AcDbTrace
 10
82.70815
 20
117.276399
 30
0.0
 11
81.934575
 21
116.642694
 31
0.0
 12
80.420248
 22
119.280272
 32
0.0
 13
80.420248
 23
119.280272
 33
0.0
  0
MTEXT
  5
1BA
330
1B4
100
AcDbEntity
  8
0
 62
    21
100
AcDbMText
 10
80.90716
 20
103.912229
 30
0.0
 40
3.0
 41
0.0
 71
     5
 72
     1
  1
135
  7
STEFANO
 11
0.3826834323650899
 21
0.9238795325112866
 31
0.0
 73
     1
 44
1.0
  0
POINT
  5
1BB
330
1B4
100
AcDbEntity
  8
Defpoints
 62
     0
100
AcDbPoint
 10
83.707901
 20
102.752124
 30
0.0
  0
POINT
  5
1BC
330
1B4
100
AcDbEntity
  8
Defpoints
 62
     0
100
AcDbPoint
 10
70.696014
 20
109.556038
 30
0.0
  0
POINT
  5
1BD
330
1B4
100
AcDbEntity
  8
Defpoints
 62
     0
100
AcDbPoint
 10
69.696014
 20
95.056038
 30
0.0
  0
POINT
  5
1BE
330
1B4
100
AcDbEntity
  8
Defpoints
 62
     0
100
AcDbPoint
 10
69.696014
 20
108.556038
 30
0.0
  0
POINT
  5
1BF
330
1B4
100
AcDbEntity
  8
Defpoints
 62
     0
100
AcDbPoint
 10
69.696014
 20
108.556038
 30
0.0
  0
ENDBLK
  5
1C1
330
1B4
100
AcDbEntity
  8
0
100
AcDbBlockEnd
  0
BLOCK
  5
1CB
330
1C3
100
AcDbEntity
  8
0
100
AcDbBlockBegin
  2
*D27
 70
     1
 71
     0
 10
0.0
 20
0.0
 30
0.0
  3
*D27
  1

  0
LINE
  5
1C4
330
1C3
100
AcDbEntity
  8
0
  6
Continuous
 62
    21
370
    -2
100
AcDbLine
 10
85.58158
 20
166.688494
 30
0.0
 11
75.45942
 21
142.251546
 31
0.0
  0
MTEXT
  5
1C5
330
1C3
100
AcDbEntity
  8
0
 62
    21
100
AcDbMText
 10
81.416402
 20
164.487936
 30
0.0
 40
3.0
 41
0.0
 71
     5
 72
     1
  1
\A1;R1
  7
STEFANO
 11
0.3826848837753116
 21
0.9238789313161526
 31
0.0
 73
     1
 44
1.0
  0
SOLID
  5
1C6
330
1C3
100
AcDbEntity
  8
0
 62
    21
100
AcDbTrace
 10
74.99748
 20
142.442888
 30
0.0
 11
75.921359
 21
142.060204
 31
0.0
 12
74.311365
 22
139.479909
 32
0.0
 13
74.311365
 23
139.479909
 33
0.0
  0
LINE
  5
1C7
330
1C3
100
AcDbEntity
  8
0
  6
Continuous
 62
    21
370
    -2
100
AcDbLine
 10
73.83868
 20
138.55603
 30
0.0
 11
74.01868
 21
138.55603
 31
0.0
  0
LINE
  5
1C8
330
1C3
100
AcDbEntity
  8
0
  6
Continuous
 62
    21
370
    -2
100
AcDbLine
 10
73.92868
 20
138.46603
 30
0.0
 11
73.92868
 21
138.64603
 31
0.0
  0
POINT
  5
1C9
330
1C3
100
AcDbEntity
  8
Defpoints
 62
     0
100
AcDbPoint
 10
74.311365
 20
139.479909
 30
0.0
  0
POINT
  5
1CA
330
1C3
100
AcDbEntity
  8
Defpoints
 62
     0
100
AcDbPoint
 10
73.92868
 20
138.55603
 30
0.0
  0
ENDBLK
  5
1CC
330
1C3
100
AcDbEntity
  8
0
100
AcDbBlockEnd
  0
BLOCK
  5
1D6
330
1CE
100
AcDbEntity
  8
0
100
AcDbBlockBegin
  2
*D28
 70
     1
 71
     0
 10
0.0
 20
0.0
 30
0.0
  3
*D28
  1

  0
LINE
  5
1CF
330
1CE
100
AcDbEntity
  8
0
  6
Continuous
 62
    21
370
    -2
100
AcDbLine
 10
71.904479
 20
161.633043
 30
0.0
 11
79.932594
 21
142.251546
 31
0.0
  0
MTEXT
  5
1D0
330
1CE
100
AcDbEntity
  8
0
 62
    21
100
AcDbMText
 10
76.069657
 20
159.432485
 30
0.0
 40
3.0
 41
0.0
 71
     5
 72
     1
  1
\A1;R1
  7
STEFANO
 11
0.3826848837753116
 21
-0.9238789313161526
 31
0.0
 73
     1
 44
1.0
  0
SOLID
  5
1D1
330
1CE
100
AcDbEntity
  8
0
 62
    21
100
AcDbTrace
 10
79.470654
 20
142.060204
 30
0.0
 11
80.394533
 21
142.442888
 31
0.0
 12
81.080648
 22
139.479909
 32
0.0
 13
81.080648
 23
139.479909
 33
0.0
  0
LINE
  5
1D2
330
1CE
100
AcDbEntity
  8
0
  6
Continuous
 62
    21
370
    -2
100
AcDbLine
 10
81.373333
 20
138.55603
 30
0.0
 11
81.553333
 21
138.55603
 31
0.0
  0
LINE
  5
1D3
330
1CE
100
AcDbEntity
  8
0
  6
Continuous
 62
    21
370
    -2
100
AcDbLine
 10
81.463333
 20
138.46603
 30
0.0
 11
81.463333
 21
138.64603
 31
0.0
  0
POINT
  5
1D4
330
1CE
100
AcDbEntity
  8
Defpoints
 62
     0
100
AcDbPoint
 10
81.080648
 20
139.479909
 30
0.0
  0
POINT
  5
1D5
330
1CE
100
AcDbEntity
  8
Defpoints
 62
     0
100
AcDbPoint
 10
81.463333
 20
138.55603
 30
0.0
  0
ENDBLK
  5
1D7
330
1CE
100
AcDbEntity
  8
0
100
AcDbBlockEnd
  0
ENDSEC
  0
SECTION
  2
ENTITIES
  0
DIMENSION
  5
51
330
1F
100
AcDbEntity
  8
0
  6
Continuous
 62
    21
 60
     1
100
AcDbDimension
  2
*D2
 10
69.696014
 20
95.056038
 30
0.0
 11
73.494056
 21
85.886755
 31
0.0
 70
    34
  1
45
 71
     5
 42
0.785398
  3
STEFANO
100
AcDb2LineAngularDimension
 13
69.696014
 23
95.056038
 33
0.0
 14
69.696014
 24
108.556038
 34
0.0
 15
70.196014
 25
94.556038
 35
0.0
 16
74.651864
 26
83.091558
 36
0.0
1001
ACAD
1000
DSTYLE
1002
{
1070
   284
1070
    12
1002
}
  0
DIMENSION
  5
62
330
1F
100
AcDbEntity
  8
0
  6
Continuous
 62
    21
 60
     1
100
AcDbDimension
  2
*D3
 10
85.696014
 20
138.756042
 30
0.0
 11
83.627158
 21
99.343645
 31
0.0
 70
    34
  1
45
 71
     5
 42
0.785398
  3
STEFANO
100
AcDb2LineAngularDimension
 13
85.196014
 23
94.556038
 33
0.0
 14
85.696014
 24
95.056038
 34
0.0
 15
85.696014
 25
95.056038
 35
0.0
 16
83.399913
 26
89.512759
 36
0.0
1001
ACAD
1000
DSTYLE
1002
{
1070
   284
1070
    12
1002
}
  0
DIMENSION
  5
73
330
1F
100
AcDbEntity
  8
0
  6
Continuous
 62
    21
 60
     1
100
AcDbDimension
  2
*D4
 10
70.496017
 20
139.55603
 30
0.0
 11
40.786634
 21
127.250167
 31
0.0
 70
    34
  1
45
 71
     5
 42
0.785389
  3
STEFANO
100
AcDb2LineAngularDimension
 13
70.496017
 23
139.55603
 33
0.0
 14
74.696014
 24
139.55603
 34
0.0
 15
69.696014
 25
138.756042
 35
0.0
 16
37.991431
 26
126.092371
 36
0.0
1001
ACAD
1000
DSTYLE
1002
{
1070
   284
1070
    12
1002
}
  0
DIMENSION
  5
82
330
1F
100
AcDbEntity
  8
0
  6
Continuous
 62
    21
 60
     1
100
AcDbDimension
  2
*D5
 10
80.696014
 20
139.55603
 30
0.0
 11
98.723778
 21
133.828459
 31
0.0
 70
    34
  1
45
 71
     5
 42
0.785389
  3
STEFANO
100
AcDb2LineAngularDimension
 13
85.696014
 23
138.756042
 33
0.0
 14
84.896011
 24
139.55603
 34
0.0
 15
84.896011
 25
139.55603
 35
0.0
 16
101.518981
 26
132.670664
 36
0.0
1001
ACAD
1000
DSTYLE
1002
{
1070
   284
1070
    12
1002
}
  0
DIMENSION
  5
91
330
1F
100
AcDbEntity
  8
0
  6
Continuous
 62
    21
 60
     1
100
AcDbDimension
  2
*D6
 10
70.696014
 20
80.55603
 30
0.0
 11
74.535277
 21
71.287231
 31
0.0
 70
    34
  1
45
 71
     5
 42
0.785398
  3
STEFANO
100
AcDb2LineAngularDimension
 13
70.696014
 23
80.55603
 33
0.0
 14
70.696014
 24
94.556038
 34
0.0
 15
71.696014
 25
79.55603
 35
0.0
 16
75.693086
 26
68.492033
 36
0.0
1001
ACAD
1000
DSTYLE
1002
{
1070
   284
1070
    12
1002
}
  0
DIMENSION
  5
A1
330
1F
100
AcDbEntity
  8
0
  6
Continuous
 62
    21
 60
     1
100
AcDbDimension
  2
*D7
 10
84.696014
 20
94.556038
 30
0.0
 11
80.692244
 21
70.890074
 31
0.0
 70
    34
  1
45
 71
     5
 42
0.785398
  3
STEFANO
100
AcDb2LineAngularDimension
 13
83.696014
 23
79.55603
 33
0.0
 14
84.696014
 24
80.55603
 34
0.0
 15
84.696014
 25
80.55603
 35
0.0
 16
79.534435
 26
68.094876
 36
0.0
1001
ACAD
1000
DSTYLE
1002
{
1070
   284
1070
    12
1002
}
  0
DIMENSION
  5
B1
330
1F
100
AcDbEntity
  8
0
  6
Continuous
 62
    21
 60
     1
100
AcDbDimension
  2
*D8
 10
77.696014
 20
61.656048
 30
0.0
 11
64.741013
 21
61.656048
 31
0.0
 70
   160
  1
7
 71
     5
 42
7.0
  3
STEFANO
100
AcDbAlignedDimension
 13
70.696014
 23
94.556038
 33
0.0
 14
77.696014
 24
79.756042
 34
0.0
100
AcDbRotatedDimension
1001
ACAD
1000
DSTYLE
1002
{
1070
   279
1070
     0
1002
}
  0
DIMENSION
  5
C0
330
1F
100
AcDbEntity
  8
0
  6
Continuous
 62
    21
 60
     1
100
AcDbDimension
  2
*D9
 10
77.696014
 20
61.75605
 30
0.0
 11
71.741013
 21
61.75605
 31
0.0
 70
   160
  1
7
 71
     5
 42
7.0
  3
STEFANO
100
AcDbAlignedDimension
 13
84.696014
 23
80.55603
 33
0.0
 14
77.696014
 24
79.756042
 34
0.0
100
AcDbRotatedDimension
1001
ACAD
1000
DSTYLE
1002
{
1070
   280
1070
     0
1070
   344
1005
0
1070
   343
1005
0
1070
    76
1070
     0
1070
    75
1070
     0
1070
   279
1070
     0
1002
}
  0
DIMENSION
  5
CF
330
1F
100
AcDbEntity
  8
0
  6
Continuous
 62
    21
 60
     1
100
AcDbDimension
  2
*D10
 10
77.696014
 20
166.656036
 30
0.0
 11
63.741013
 21
166.656036
 31
0.0
 70
   160
  1
8
 71
     5
 42
8.0
  3
STEFANO
100
AcDbAlignedDimension
 13
69.696014
 23
138.756042
 33
0.0
 14
77.696014
 24
79.756042
 34
0.0
100
AcDbRotatedDimension
1001
ACAD
1000
DSTYLE
1002
{
1070
   279
1070
     0
1002
}
  0
DIMENSION
  5
DE
330
1F
100
AcDbEntity
  8
0
  6
Continuous
 62
    21
 60
     1
100
AcDbDimension
  2
*D11
 10
77.696014
 20
166.506042
 30
0.0
 11
71.741013
 21
166.506042
 31
0.0
 70
   160
  1
8
 71
     5
 42
8.0
  3
STEFANO
100
AcDbAlignedDimension
 13
85.696014
 23
95.056038
 33
0.0
 14
77.696014
 24
79.756042
 34
0.0
100
AcDbRotatedDimension
1001
ACAD
1000
DSTYLE
1002
{
1070
   280
1070
     0
1070
   344
1005
0
1070
   343
1005
0
1070
    76
1070
     0
1070
    75
1070
     0
1070
   279
1070
     0
1002
}
  0
DIMENSION
  5
ED
330
1F
100
AcDbEntity
  8
0
  6
Continuous
 62
    21
 60
     1
100
AcDbDimension
  2
*D12
 10
51.546013
 20
109.556038
 30
0.0
 11
48.514513
 21
102.056038
 31
0.0
 70
    32
  1
15
 71
     5
 42
15.0
  3
STEFANO
100
AcDbAlignedDimension
 13
70.196014
 23
94.556038
 33
0.0
 14
70.696014
 24
109.556038
 34
0.0
 50
90.0
100
AcDbRotatedDimension
  0
DIMENSION
  5
FA
330
1F
100
AcDbEntity
  8
0
  6
Continuous
 62
    21
 60
     1
100
AcDbDimension
  2
*D13
 10
60.696007
 20
108.556038
 30
0.0
 11
60.696007
 21
102.601036
 31
0.0
 70
   161
  1
2
 71
     5
 42
2.0
  3
STEFANO
100
AcDbAlignedDimension
 13
69.696014
 23
110.556038
 33
0.0
 14
69.696014
 24
108.556038
 34
0.0
1001
ACAD
1000
DSTYLE
1002
{
1070
   280
1070
     0
1070
   344
1005
0
1070
   343
1005
0
1070
    76
1070
     0
1070
    75
1070
     0
1070
   279
1070
     0
1002
}
  0
DIMENSION
  5
109
330
1F
100
AcDbEntity
  8
0
  6
Continuous
 62
    21
 60
     1
100
AcDbDimension
  2
*D14
 10
114.696007
 20
94.556038
 30
0.0
 11
111.670507
 21
117.056034
 31
0.0
 70
    32
  1
45
 71
     5
 42
44.999992
  3
STEFANO
100
AcDbAlignedDimension
 13
84.896011
 23
139.55603
 33
0.0
 14
84.696014
 24
94.556038
 34
0.0
 50
90.0
100
AcDbRotatedDimension
1001
ACAD
1000
DSTYLE
1002
{
1070
   280
1070
     0
1070
   344
1005
0
1070
   343
1005
0
1070
    76
1070
     0
1070
    75
1070
     0
1002
}
  0
DIMENSION
  5
116
330
1F
100
AcDbEntity
  8
0
  6
Continuous
 62
    21
 60
     1
100
AcDbDimension
  2
*D15
 10
107.796013
 20
79.55603
 30
0.0
 11
104.764513
 21
87.056034
 31
0.0
 70
    32
  1
15
 71
     5
 42
15.000008
  3
STEFANO
100
AcDbAlignedDimension
 13
84.696014
 23
94.556038
 33
0.0
 14
71.696014
 24
79.55603
 34
0.0
 50
90.0
100
AcDbRotatedDimension
1001
ACAD
1000
DSTYLE
1002
{
1070
   280
1070
     0
1070
   344
1005
0
1070
   343
1005
0
1070
    76
1070
     0
1070
    75
1070
     0
1002
}
  0
DIMENSION
  5
123
330
1F
100
AcDbEntity
  8
0
  6
Continuous
 62
    21
 60
     1
100
AcDbDimension
  2
*D16
 10
60.196007
 20
138.756042
 30
0.0
 11
60.196007
 21
147.221039
 31
0.0
 70
   160
  1
0.8
 71
     5
 42
0.799988
  3
STEFANO
100
AcDbAlignedDimension
 13
74.696014
 23
139.55603
 33
0.0
 14
69.696014
 24
138.756042
 34
0.0
 50
90.0
100
AcDbRotatedDimension
1001
ACAD
1000
DSTYLE
1002
{
1070
   280
1070
     0
1070
   344
1005
0
1070
   343
1005
0
1070
    76
1070
     0
1070
    75
1070
     0
1070
   279
1070
     0
1002
}
  0
DIMENSION
  5
132
330
1F
100
AcDbEntity
  8
0
  6
Continuous
 62
    21
 60
     1
100
AcDbDimension
  2
*D17
 10
94.696007
 20
138.756042
 30
0.0
 11
94.696007
 21
147.221039
 31
0.0
 70
   160
  1
0.8
 71
     5
 42
0.799988
  3
STEFANO
100
AcDbAlignedDimension
 13
84.896011
 23
139.55603
 33
0.0
 14
85.696014
 24
138.756042
 34
0.0
 50
90.0
100
AcDbRotatedDimension
1001
ACAD
1000
DSTYLE
1002
{
1070
   280
1070
     0
1070
   344
1005
0
1070
   343
1005
0
1070
    76
1070
     0
1070
    75
1070
     0
1070
   279
1070
     0
1002
}
  0
DIMENSION
  5
141
330
1F
100
AcDbEntity
  8
0
  6
Continuous
 62
    21
 60
     1
100
AcDbDimension
  2
*D18
 10
60.546013
 20
95.056038
 30
0.0
 11
60.546013
 21
86.891037
 31
0.0
 70
   160
  1
0.5
 71
     5
 42
0.5
  3
STEFANO
100
AcDbAlignedDimension
 13
70.196014
 23
94.556038
 33
0.0
 14
69.696014
 24
95.056038
 34
0.0
 50
90.0
100
AcDbRotatedDimension
1001
ACAD
1000
DSTYLE
1002
{
1070
   279
1070
     0
1002
}
  0
DIMENSION
  5
150
330
1F
100
AcDbEntity
  8
0
  6
Continuous
 62
    21
 60
     1
100
AcDbDimension
  2
*D19
 10
96.696007
 20
95.056038
 30
0.0
 11
96.696007
 21
102.721039
 31
0.0
 70
   160
  1
0.5
 71
     5
 42
0.5
  3
STEFANO
100
AcDbAlignedDimension
 13
84.696014
 23
94.556038
 33
0.0
 14
85.696014
 24
95.056038
 34
0.0
 50
90.0
100
AcDbRotatedDimension
1001
ACAD
1000
DSTYLE
1002
{
1070
   279
1070
     0
1002
}
  0
DIMENSION
  5
15F
330
1F
100
AcDbEntity
  8
0
  6
Continuous
 62
    21
 60
     1
100
AcDbDimension
  2
*D20
 10
98.796013
 20
80.55603
 30
0.0
 11
98.796013
 21
73.601028
 31
0.0
 70
   160
  1
1
 71
     5
 42
1.0
  3
STEFANO
100
AcDbAlignedDimension
 13
71.696014
 23
79.55603
 33
0.0
 14
84.696014
 24
80.55603
 34
0.0
 50
90.0
100
AcDbRotatedDimension
1001
ACAD
1000
DSTYLE
1002
{
1070
   279
1070
     0
1002
}
  0
DIMENSION
  5
16E
330
1F
100
AcDbEntity
  8
0
  6
Continuous
 62
    21
 60
     1
100
AcDbDimension
  2
*D21
 10
56.796013
 20
80.55603
 30
0.0
 11
56.796013
 21
73.601028
 31
0.0
 70
   160
  1
1
 71
     5
 42
1.0
  3
STEFANO
100
AcDbAlignedDimension
 13
71.696014
 23
79.55603
 33
0.0
 14
70.696014
 24
80.55603
 34
0.0
 50
90.0
100
AcDbRotatedDimension
1001
ACAD
1000
DSTYLE
1002
{
1070
   279
1070
     0
1002
}
  0
DIMENSION
  5
17D
330
1F
100
AcDbEntity
  8
0
  6
Continuous
 62
    21
 60
     1
100
AcDbDimension
  2
*D22
 10
77.696014
 20
130.291733
 30
0.0
 11
85.991492
 21
121.382918
 31
0.0
 70
   164
  1
R0.5
 71
     5
 42
0.5
  3
STEFANO
100
AcDbRadialDimension
 15
78.036747
 25
129.925808
 35
0.0
 40
0.0
1001
ACAD
1000
DSTYLE
1002
{
1070
   172
1070
     0
1002
}
  0
DIMENSION
  5
188
330
1F
100
AcDbEntity
  8
0
  6
Continuous
 62
    21
 60
     1
100
AcDbDimension
  2
*D23
 10
74.696014
 20
157.656036
 30
0.0
 11
66.215014
 21
160.687536
 31
0.0
 70
    32
  1
3
 71
     5
 42
3.0
  3
STEFANO
100
AcDbAlignedDimension
 13
77.696014
 23
79.756042
 33
0.0
 14
74.696014
 24
139.55603
 34
0.0
100
AcDbRotatedDimension
1001
ACAD
1000
DSTYLE
1002
{
1070
   280
1070
     0
1070
   344
1005
0
1070
   343
1005
0
1070
    76
1070
     0
1070
    75
1070
     0
1002
}
  0
DIMENSION
  5
196
330
1F
100
AcDbEntity
  8
0
  6
Continuous
 62
    21
 60
     1
100
AcDbDimension
  2
*D24
 10
80.696014
 20
148.656036
 30
0.0
 11
89.177014
 21
151.687536
 31
0.0
 70
    32
  1
3
 71
     5
 42
3.0
  3
STEFANO
100
AcDbAlignedDimension
 13
77.696014
 23
79.756042
 33
0.0
 14
80.696014
 24
139.55603
 34
0.0
100
AcDbRotatedDimension
  0
DIMENSION
  5
1A4
330
1F
100
AcDbEntity
  8
0
  6
Continuous
 62
    21
 60
     1
100
AcDbDimension
  2
*D25
 10
70.696014
 20
109.556038
 30
0.0
 11
25.556026
 21
109.556038
 31
0.0
 70
    34
  1
90
 71
     5
 42
1.570796
  3
STEFANO
100
AcDb2LineAngularDimension
 13
69.696014
 23
110.556038
 33
0.0
 14
70.696014
 24
109.556038
 34
0.0
 15
69.696014
 25
108.556038
 35
0.0
 16
28.587526
 26
109.556038
 36
0.0
1001
ACAD
1000
DSTYLE
1002
{
1070
   284
1070
    12
1002
}
  0
DIMENSION
  5
1B3
330
1F
100
AcDbEntity
  8
0
  6
Continuous
 62
    21
 60
     1
100
AcDbDimension
  2
*D26
 10
69.696014
 20
108.556038
 30
0.0
 11
80.90716
 21
103.912229
 31
0.0
 70
    34
  1
135
 71
     5
 42
2.356194
  3
STEFANO
100
AcDb2LineAngularDimension
 13
69.696014
 23
95.056038
 33
0.0
 14
69.696014
 24
108.556038
 34
0.0
 15
70.696014
 25
109.556038
 35
0.0
 16
83.707901
 26
102.752124
 36
0.0
1001
ACAD
1000
DSTYLE
1002
{
1070
   284
1070
    12
1002
}
  0
DIMENSION
  5
1C2
330
1F
100
AcDbEntity
  8
0
  6
Continuous
 62
    21
 60
     1
100
AcDbDimension
  2
*D27
 10
73.92868
 20
138.55603
 30
0.0
 11
84.193582
 21
163.337586
 31
0.0
 70
   164
  1
R1
 71
     5
 42
1.0
  3
STEFANO
100
AcDbRadialDimension
 15
74.311365
 25
139.479909
 35
0.0
 40
0.0
1001
ACAD
1000
DSTYLE
1002
{
1070
   172
1070
     0
1002
}
  0
DIMENSION
  5
1CD
330
1F
100
AcDbEntity
  8
0
  6
Continuous
 62
    21
 60
     1
100
AcDbDimension
  2
*D28
 10
81.463333
 20
138.55603
 30
0.0
 11
73.292477
 21
158.282134
 31
0.0
 70
   164
  1
R1
 71
     5
 42
1.0
  3
STEFANO
100
AcDbRadialDimension
 15
81.080648
 25
139.479909
 35
0.0
 40
0.0
1001
ACAD
1000
DSTYLE
1002
{
1070
   172
1070
     0
1002
}
  0
ARC
  5
1D8
330
1F
100
AcDbEntity
  8
0
  6
Continuous
 62
     7
100
AcDbCircle
 10
-201.246043
 20
138.556036
 30
0.0
 40
0.9999999999999979
210
0.0
220
0.0
230
-1.0
100
AcDbArc
 50
15.0
 51
90.0
  0
LINE
  5
1D9
330
1F
100
AcDbEntity
  8
0
  6
Continuous
 62
     7
100
AcDbLine
 10
204.678716
 20
139.556036
 30
0.0
 11
201.246043
 21
139.556036
 31
0.0
  0
LINE
  5
1DA
330
1F
100
AcDbEntity
  8
0
  6
Continuous
 62
     7
100
AcDbLine
 10
200.280118
 20
138.814855
 30
0.0
 11
197.961679
 21
130.162326
 31
0.0
  0
ARC
  5
1DB
330
1F
100
AcDbEntity
  8
0
  6
Continuous
 62
     7
100
AcDbCircle
 10
-193.711389
 20
138.556036
 30
0.0
 40
1.0
210
0.0
220
0.0
230
-1.0
100
AcDbArc
 50
90.0
 51
165.0
  0
LINE
  5
1DC
330
1F
100
AcDbEntity
  8
0
  6
Continuous
 62
     7
100
AcDbLine
 10
196.995753
 20
130.162326
 30
0.0
 11
194.677315
 21
138.814855
 31
0.0
  0
LINE
  5
1DD
330
1F
100
AcDbEntity
  8
0
  6
Continuous
 62
     7
100
AcDbLine
 10
193.711389
 20
139.556036
 30
0.0
 11
190.278716
 21
139.556036
 31
0.0
  0
LINE
  5
1DE
330
1F
100
AcDbEntity
  8
0
  6
Continuous
 62
     7
100
AcDbLine
 10
205.478716
 20
138.756036
 30
0.0
 11
204.678716
 21
139.556036
 31
0.0
  0
LINE
  5
1DF
330
1F
100
AcDbEntity
  8
0
  6
Continuous
 62
     7
100
AcDbLine
 10
205.478716
 20
95.056036
 30
0.0
 11
205.478716
 21
138.756036
 31
0.0
  0
LINE
  5
1E0
330
1F
100
AcDbEntity
  8
0
  6
Continuous
 62
     7
100
AcDbLine
 10
204.978716
 20
94.556036
 30
0.0
 11
205.478716
 21
95.056036
 31
0.0
  0
LINE
  5
1E1
330
1F
100
AcDbEntity
  8
0
  6
Continuous
 62
     7
100
AcDbLine
 10
204.478716
 20
94.556036
 30
0.0
 11
204.978716
 21
94.556036
 31
0.0
  0
LINE
  5
1E2
330
1F
100
AcDbEntity
  8
0
  6
Continuous
 62
     7
100
AcDbLine
 10
204.478716
 20
80.556036
 30
0.0
 11
204.478716
 21
94.556036
 31
0.0
  0
LINE
  5
1E3
330
1F
100
AcDbEntity
  8
0
  6
Continuous
 62
     7
100
AcDbLine
 10
203.478716
 20
79.556036
 30
0.0
 11
204.478716
 21
80.556036
 31
0.0
  0
LINE
  5
1E4
330
1F
100
AcDbEntity
  8
0
  6
Continuous
 62
     7
100
AcDbLine
 10
191.478716
 20
79.556036
 30
0.0
 11
203.478716
 21
79.556036
 31
0.0
  0
LINE
  5
1E5
330
1F
100
AcDbEntity
  8
0
  6
Continuous
 62
     7
100
AcDbLine
 10
190.478716
 20
80.556036
 30
0.0
 11
191.478716
 21
79.556036
 31
0.0
  0
LINE
  5
1E6
330
1F
100
AcDbEntity
  8
0
  6
Continuous
 62
     7
100
AcDbLine
 10
190.478716
 20
94.556036
 30
0.0
 11
190.478716
 21
80.556036
 31
0.0
  0
LINE
  5
1E7
330
1F
100
AcDbEntity
  8
0
  6
Continuous
 62
     7
100
AcDbLine
 10
189.978716
 20
94.556036
 30
0.0
 11
190.478716
 21
94.556036
 31
0.0
  0
LINE
  5
1E8
330
1F
100
AcDbEntity
  8
0
  6
Continuous
 62
     7
100
AcDbLine
 10
189.478716
 20
95.056036
 30
0.0
 11
189.978716
 21
94.556036
 31
0.0
  0
LINE
  5
1E9
330
1F
100
AcDbEntity
  8
0
  6
Continuous
 62
     7
100
AcDbLine
 10
189.478716
 20
108.556036
 30
0.0
 11
189.478716
 21
95.056036
 31
0.0
  0
LINE
  5
1EA
330
1F
100
AcDbEntity
  8
0
  6
Continuous
 62
     7
100
AcDbLine
 10
190.478716
 20
109.556036
 30
0.0
 11
189.478716
 21
108.556036
 31
0.0
  0
LINE
  5
1EB
330
1F
100
AcDbEntity
  8
0
  6
Continuous
 62
     7
100
AcDbLine
 10
189.478716
 20
110.556036
 30
0.0
 11
190.478716
 21
109.556036
 31
0.0
  0
LINE
  5
1EC
330
1F
100
AcDbEntity
  8
0
  6
Continuous
 62
     7
100
AcDbLine
 10
189.478716
 20
138.756036
 30
0.0
 11
189.478716
 21
110.556036
 31
0.0
  0
LINE
  5
1ED
330
1F
100
AcDbEntity
  8
0
  6
Continuous
 62
     7
100
AcDbLine
 10
190.278716
 20
139.556036
 30
0.0
 11
189.478716
 21
138.756036
 31
0.0
  0
ARC
  5
1EE
330
1F
100
AcDbEntity
  8
0
  6
Continuous
 62
     7
100
AcDbCircle
 10
-197.478716
 20
130.291735
 30
0.0
 40
0.5
210
0.0
220
0.0
230
-1.0
100
AcDbArc
 50
195.0
 51
345.0
  0
ENDSEC
  0
SECTION
  2
OBJECTS
  0
DICTIONARY
  5
C
330
0
100
AcDbDictionary
281
     1
  3
ACAD_GROUP
350
D
  3
ACAD_LAYOUT
350
1A
  3
ACAD_MLINESTYLE
350
17
  3
ACAD_PLOTSETTINGS
350
19
  3
ACAD_PLOTSTYLENAME
350
E
  3
ACAD_TABLESTYLE
350
1EF
  3
ACAD_VISUALSTYLE
350
2A
  0
DICTIONARY
  5
D
102
{ACAD_REACTORS
330
C
102
}
330
C
100
AcDbDictionary
281
     1
  0
DICTIONARY
  5
1A
102
{ACAD_REACTORS
330
C
102
}
330
C
100
AcDbDictionary
281
     1
  3
Layout1
350
1E
  3
Layout2
350
26
  3
Model
350
22
  0
DICTIONARY
  5
17
102
{ACAD_REACTORS
330
C
102
}
330
C
100
AcDbDictionary
281
     1
  3
Standard
350
18
  0
DICTIONARY
  5
19
102
{ACAD_REACTORS
330
C
102
}
330
C
100
AcDbDictionary
281
     1
  0
ACDBDICTIONARYWDFLT
  5
E
102
{ACAD_REACTORS
330
C
102
}
330
C
100
AcDbDictionary
281
     1
  3
Normal
350
F
100
AcDbDictionaryWithDefault
340
F
  0
DICTIONARY
  5
1EF
102
{ACAD_REACTORS
330
C
102
}
330
C
100
AcDbDictionary
281
     1
  0
DICTIONARY
  5
2A
102
{ACAD_REACTORS
330
C
102
}
330
C
100
AcDbDictionary
281
     1
  3
2dWireframe
350
2F
  3
3D Hidden
350
31
  3
3dWireframe
350
30
  3
Basic
350
32
  3
Brighten
350
36
  3
ColorChange
350
3A
  3
Conceptual
350
34
  3
Dim
350
35
  3
Facepattern
350
39
  3
Flat
350
2B
  3
FlatWithEdges
350
2C
  3
Gouraud
350
2D
  3
GouraudWithEdges
350
2E
  3
Linepattern
350
38
  3
Realistic
350
33
  3
Thicken
350
37
  0
LAYOUT
  5
1E
102
{ACAD_REACTORS
330
1A
102
}
330
1A
100
AcDbPlotSettings
  1

  2
none_device
  4

  6

 40
0.0
 41
0.0
 42
0.0
 43
0.0
 44
0.0
 45
0.0
 46
0.0
 47
0.0
 48
0.0
 49
0.0
140
0.0
141
0.0
142
1.0
143
1.0
 70
   688
 72
     0
 73
     0
 74
     5
  7

 75
    16
 76
     0
 77
     2
 78
   300
147
1.0
148
0.0
149
0.0
100
AcDbLayout
  1
Layout1
 70
     1
 71
     1
 10
0.0
 20
0.0
 11
420.0
 21
297.0
 12
0.0
 22
0.0
 32
0.0
 14
1.000000E+20
 24
1.000000E+20
 34
1.000000E+20
 15
-1.000000E+20
 25
-1.000000E+20
 35
-1.000000E+20
146
0.0
 13
0.0
 23
0.0
 33
0.0
 16
1.0
 26
0.0
 36
0.0
 17
0.0
 27
1.0
 37
0.0
 76
     0
330
1B
  0
LAYOUT
  5
26
102
{ACAD_REACTORS
330
1A
102
}
330
1A
100
AcDbPlotSettings
  1

  2
none_device
  4

  6

 40
0.0
 41
0.0
 42
0.0
 43
0.0
 44
0.0
 45
0.0
 46
0.0
 47
0.0
 48
0.0
 49
0.0
140
0.0
141
0.0
142
1.0
143
1.0
 70
   688
 72
     0
 73
     0
 74
     5
  7

 75
    16
 76
     0
 77
     2
 78
   300
147
1.0
148
0.0
149
0.0
100
AcDbLayout
  1
Layout2
 70
     1
 71
     2
 10
0.0
 20
0.0
 11
0.0
 21
0.0
 12
0.0
 22
0.0
 32
0.0
 14
0.0
 24
0.0
 34
0.0
 15
0.0
 25
0.0
 35
0.0
146
0.0
 13
0.0
 23
0.0
 33
0.0
 16
1.0
 26
0.0
 36
0.0
 17
0.0
 27
1.0
 37
0.0
 76
     0
330
23
  0
LAYOUT
  5
22
102
{ACAD_REACTORS
330
1A
102
}
330
1A
100
AcDbPlotSettings
  1

  2
none_device
  4

  6

 40
0.0
 41
0.0
 42
0.0
 43
0.0
 44
0.0
 45
0.0
 46
0.0
 47
0.0
 48
0.0
 49
0.0
140
0.0
141
0.0
142
1.0
143
1.0
 70
  1712
 72
     0
 73
     0
 74
     0
  7

 75
     0
 76
     0
 77
     2
 78
   300
147
1.0
148
0.0
149
0.0
100
AcDbLayout
  1
Model
 70
     1
 71
     0
 10
0.0
 20
0.0
 11
420.0
 21
297.0
 12
0.0
 22
0.0
 32
0.0
 14
1.000000E+20
 24
1.000000E+20
 34
1.000000E+20
 15
-1.000000E+20
 25
-1.000000E+20
 35
-1.000000E+20
146
0.0
 13
0.0
 23
0.0
 33
0.0
 16
1.0
 26
0.0
 36
0.0
 17
0.0
 27
1.0
 37
0.0
 76
     0
330
1F
331
29
  0
MLINESTYLE
  5
18
102
{ACAD_REACTORS
330
17
102
}
330
17
100
AcDbMlineStyle
  2
Standard
 70
     0
  3

 62
   256
 51
90.0
 52
90.0
 71
     2
 49
0.5
 62
   256
  6
BYLAYER
 49
-0.5
 62
   256
  6
BYLAYER
  0
ACDBPLACEHOLDER
  5
F
102
{ACAD_REACTORS
330
E
102
}
330
E
  0
VISUALSTYLE
  5
2F
102
{ACAD_REACTORS
330
2A
102
}
330
2A
100
AcDbVisualStyle
  2
2dWireframe
 70
     4
 71
     0
 72
     2
 73
     0
 90
        0
 40
-0.6
 41
-30.0
 62
     5
 63
     7
421
 16777215
 74
     1
 91
        4
 64
     7
 65
   257
 75
     1
175
     1
 42
1.0
 92
        0
 66
   257
 43
1.0
 76
     1
 77
     6
 78
     2
 67
     7
 79
     5
170
     0
171
     0
290
     0
174
     0
 93
        1
 44
0.0
173
     0
291
     0
 45
0.0
1001
ACAD
1000
AcDbSavedByObjectVersion
1070
     0
  0
VISUALSTYLE
  5
31
102
{ACAD_REACTORS
330
2A
102
}
330
2A
100
AcDbVisualStyle
  2
3D Hidden
 70
     6
 71
     1
 72
     2
 73
     2
 90
        0
 40
-0.6
 41
-30.0
 62
     5
 63
     7
421
 16777215
 74
     2
 91
        2
 64
     7
 65
   257
 75
     2
175
     1
 42
40.0
 92
        0
 66
   257
 43
1.0
 76
     1
 77
     6
 78
     2
 67
     7
 79
     3
170
     0
171
     0
290
     0
174
     0
 93
        1
 44
0.0
173
     0
291
     0
 45
0.0
1001
ACAD
1000
AcDbSavedByObjectVersion
1070
     0
  0
VISUALSTYLE
  5
30
102
{ACAD_REACTORS
330
2A
102
}
330
2A
100
AcDbVisualStyle
  2
3dWireframe
 70
     5
 71
     0
 72
     2
 73
     0
 90
        0
 40
-0.6
 41
-30.0
 62
     5
 63
     7
421
 16777215
 74
     1
 91
        4
 64
     7
 65
   257
 75
     1
175
     1
 42
1.0
 92
        0
 66
   257
 43
1.0
 76
     1
 77
     6
 78
     2
 67
     7
 79
     5
170
     0
171
     0
290
     0
174
     0
 93
        1
 44
0.0
173
     0
291
     0
 45
0.0
1001
ACAD
1000
AcDbSavedByObjectVersion
1070
     0
  0
VISUALSTYLE
  5
32
102
{ACAD_REACTORS
330
2A
102
}
330
2A
100
AcDbVisualStyle
  2
Basic
 70
     7
 71
     1
 72
     0
 73
     1
 90
        0
 40
-0.6
 41
-30.0
 62
     5
 63
     7
421
 16777215
 74
     0
 91
        4
 64
     7
 65
   257
 75
     1
175
     1
 42
1.0
 92
        8
 66
     7
 43
1.0
 76
     1
 77
     6
 78
     2
 67
     7
 79
     5
170
     0
171
     0
290
     0
174
     0
 93
        1
 44
0.0
173
     0
291
     1
 45
0.0
1001
ACAD
1000
AcDbSavedByObjectVersion
1070
     0
  0
VISUALSTYLE
  5
36
102
{ACAD_REACTORS
330
2A
102
}
330
2A
100
AcDbVisualStyle
  2
Brighten
 70
    12
 71
     2
 72
     2
 73
     0
 90
        0
 40
-0.6
 41
-30.0
 62
     5
 63
     7
421
 16777215
 74
     1
 91
        4
 64
     7
 65
   257
 75
     1
175
     1
 42
1.0
 92
        8
 66
     7
 43
1.0
 76
     1
 77
     6
 78
     2
 67
     7
 79
     5
170
     0
171
     0
290
     0
174
     0
 93
        1
 44
50.0
173
     0
291
     1
 45
0.0
1001
ACAD
1000
AcDbSavedByObjectVersion
1070
     0
  0
VISUALSTYLE
  5
3A
102
{ACAD_REACTORS
330
2A
102
}
330
2A
100
AcDbVisualStyle
  2
ColorChange
 70
    16
 71
     2
 72
     2
 73
     3
 90
        0
 40
-0.6
 41
-30.0
 62
     5
 63
     8
421
  8421504
 74
     1
 91
        4
 64
     7
 65
   257
 75
     1
175
     1
 42
1.0
 92
        8
 66
     8
424
  8421504
 43
1.0
 76
     1
 77
     6
 78
     2
 67
     7
 79
     5
170
     0
171
     0
290
     0
174
     0
 93
        1
 44
0.0
173
     0
291
     1
 45
0.0
1001
ACAD
1000
AcDbSavedByObjectVersion
1070
     0
  0
VISUALSTYLE
  5
34
102
{ACAD_REACTORS
330
2A
102
}
330
2A
100
AcDbVisualStyle
  2
Conceptual
 70
     9
 71
     3
 72
     2
 73
     0
 90
        0
 40
-0.6
 41
-30.0
 62
     5
 63
     7
421
 16777215
 74
     2
 91
        2
 64
     7
 65
   257
 75
     1
175
     1
 42
40.0
 92
        8
 66
     7
 43
1.0
 76
     1
 77
     6
 78
     2
 67
     7
 79
     3
170
     0
171
     0
290
     0
174
     0
 93
        1
 44
0.0
173
     0
291
     0
 45
0.0
1001
ACAD
1000
AcDbSavedByObjectVersion
1070
     0
  0
VISUALSTYLE
  5
35
102
{ACAD_REACTORS
330
2A
102
}
330
2A
100
AcDbVisualStyle
  2
Dim
 70
    11
 71
     2
 72
     2
 73
     0
 90
        0
 40
-0.6
 41
-30.0
 62
     5
 63
     7
421
 16777215
 74
     1
 91
        4
 64
     7
 65
   257
 75
     1
175
     1
 42
1.0
 92
        8
 66
     7
 43
1.0
 76
     1
 77
     6
 78
     2
 67
     7
 79
     5
170
     0
171
     0
290
     0
174
     0
 93
        1
 44
-50.0
173
     0
291
     1
 45
0.0
1001
ACAD
1000
AcDbSavedByObjectVersion
1070
     0
  0
VISUALSTYLE
  5
39
102
{ACAD_REACTORS
330
2A
102
}
330
2A
100
AcDbVisualStyle
  2
Facepattern
 70
    15
 71
     2
 72
     2
 73
     0
 90
        0
 40
-0.6
 41
-30.0
 62
     5
 63
     7
421
 16777215
 74
     1
 91
        4
 64
     7
 65
   257
 75
     1
175
     1
 42
1.0
 92
        8
 66
     7
 43
1.0
 76
     1
 77
     6
 78
     2
 67
     7
 79
     5
170
     0
171
     0
290
     0
174
     0
 93
        1
 44
0.0
173
     0
291
     1
 45
0.0
1001
ACAD
1000
AcDbSavedByObjectVersion
1070
     0
  0
VISUALSTYLE
  5
2B
102
{ACAD_REACTORS
330
2A
102
}
330
2A
100
AcDbVisualStyle
  2
Flat
 70
     0
 71
     2
 72
     1
 73
     1
 90
        2
 40
-0.6
 41
30.0
 62
     5
 63
     7
421
 16777215
 74
     0
 91
        4
 64
     7
 65
   257
 75
     1
175
     1
 42
1.0
 92
        8
 66
     7
 43
1.0
 76
     1
 77
     6
 78
     2
 67
     7
 79
     5
170
     0
171
     0
290
     0
174
     0
 93
       13
 44
0.0
173
     0
291
     1
 45
0.0
1001
ACAD
1000
AcDbSavedByObjectVersion
1070
     0
  0
VISUALSTYLE
  5
2C
102
{ACAD_REACTORS
330
2A
102
}
330
2A
100
AcDbVisualStyle
  2
FlatWithEdges
 70
     1
 71
     2
 72
     1
 73
     1
 90
        2
 40
-0.6
 41
30.0
 62
     5
 63
     7
421
 16777215
 74
     1
 91
        4
 64
     7
 65
   257
 75
     1
175
     1
 42
1.0
 92
        0
 66
   257
 43
1.0
 76
     1
 77
     6
 78
     2
 67
     7
 79
     5
170
     0
171
     0
290
     0
174
     0
 93
       13
 44
0.0
173
     0
291
     1
 45
0.0
1001
ACAD
1000
AcDbSavedByObjectVersion
1070
     0
  0
VISUALSTYLE
  5
2D
102
{ACAD_REACTORS
330
2A
102
}
330
2A
100
AcDbVisualStyle
  2
Gouraud
 70
     2
 71
     2
 72
     2
 73
     1
 90
        2
 40
-0.6
 41
30.0
 62
     5
 63
     7
421
 16777215
 74
     0
 91
        4
 64
     7
 65
   257
 75
     1
175
     1
 42
1.0
 92
        0
 66
     7
 43
1.0
 76
     1
 77
     6
 78
     2
 67
     7
 79
     5
170
     0
171
     0
290
     0
174
     0
 93
       13
 44
0.0
173
     0
291
     1
 45
0.0
1001
ACAD
1000
AcDbSavedByObjectVersion
1070
     0
  0
VISUALSTYLE
  5
2E
102
{ACAD_REACTORS
330
2A
102
}
330
2A
100
AcDbVisualStyle
  2
GouraudWithEdges
 70
     3
 71
     2
 72
     2
 73
     1
 90
        2
 40
-0.6
 41
30.0
 62
     5
 63
     7
421
 16777215
 74
     1
 91
        4
 64
     7
 65
   257
 75
     1
175
     1
 42
1.0
 92
        0
 66
   257
 43
1.0
 76
     1
 77
     6
 78
     2
 67
     7
 79
     5
170
     0
171
     0
290
     0
174
     0
 93
       13
 44
0.0
173
     0
291
     1
 45
0.0
1001
ACAD
1000
AcDbSavedByObjectVersion
1070
     0
  0
VISUALSTYLE
  5
38
102
{ACAD_REACTORS
330
2A
102
}
330
2A
100
AcDbVisualStyle
  2
Linepattern
 70
    14
 71
     2
 72
     2
 73
     0
 90
        0
 40
-0.6
 41
-30.0
 62
     5
 63
     7
421
 16777215
 74
     1
 91
        4
 64
     7
 65
   257
 75
     7
175
     7
 42
1.0
 92
        8
 66
     7
 43
1.0
 76
     1
 77
     6
 78
     2
 67
     7
 79
     5
170
     0
171
     0
290
     0
174
     0
 93
        1
 44
0.0
173
     0
291
     1
 45
0.0
1001
ACAD
1000
AcDbSavedByObjectVersion
1070
     0
  0
VISUALSTYLE
  5
33
102
{ACAD_REACTORS
330
2A
102
}
330
2A
100
AcDbVisualStyle
  2
Realistic
 70
     8
 71
     2
 72
     2
 73
     0
 90
        0
 40
-0.6
 41
-30.0
 62
     5
 63
     7
421
 16777215
 74
     1
 91
        0
 64
     7
 65
   257
 75
     1
175
     1
 42
1.0
 92
        8
 66
     8
424
  7895160
 43
1.0
 76
     1
 77
     6
 78
     2
 67
     7
 79
     5
170
     0
171
     0
290
     0
174
     0
 93
       13
 44
0.0
173
     0
291
     0
 45
0.0
1001
ACAD
1000
AcDbSavedByObjectVersion
1070
     0
  0
VISUALSTYLE
  5
37
102
{ACAD_REACTORS
330
2A
102
}
330
2A
100
AcDbVisualStyle
  2
Thicken
 70
    13
 71
     2
 72
     2
 73
     0
 90
        0
 40
-0.6
 41
-30.0
 62
     5
 63
     7
421
 16777215
 74
     1
 91
        4
 64
     7
 65
   257
 75
     1
175
     1
 42
1.0
 92
       12
 66
     7
 43
1.0
 76
     1
 77
     6
 78
     2
 67
     7
 79
     5
170
     0
171
     0
290
     0
174
     0
 93
        1
 44
0.0
173
     0
291
     1
 45
0.0
1001
ACAD
1000
AcDbSavedByObjectVersion
1070
     0
  0
ENDSEC
  0
EOF
