  0
SECTION
  2
HEADER
  9
$ACADVER
  1
AC1012
  9
$DWGCODEPAGE
  3
iso8859-1
  9
$INSBASE
 10
0.0
 20
0.0
 30
0.0
  9
$EXTMIN
 10
-59.677557
 20
14.580836
 30
0.0
  9
$EXTMAX
 10
218.322443
 20
213.167774
 30
0.0
  9
$LIMMIN
 10
0.0
 20
0.0
  9
$LIMMAX
 10
210.0
 20
297.0
  9
$ORTHOMODE
 70
     0
  9
$REGENMODE
 70
     1
  9
$FILLMODE
 70
     1
  9
$QTEXTMODE
 70
     0
  9
$MIRRTEXT
 70
     1
  9
$DRAGMODE
 70
     2
  9
$LTSCALE
 40
1.0
  9
$OSMODE
 70
     0
  9
$ATTMODE
 70
     1
  9
$TEXTSIZE
 40
2.0
  9
$TRACEWID
 40
0.05
  9
$TEXTSTYLE
  7
STANDARD
  9
$CLAYER
  8
QUOTE
  9
$CELTYPE
  6
BYLAYER
  9
$CECOLOR
 62
   256
  9
$CELTSCALE
 40
1.0
  9
$DELOBJ
 70
     1
  9
$DISPSILH
 70
     0
  9
$DIMSCALE
 40
1.0
  9
$DIMASZ
 40
2.5
  9
$DIMEXO
 40
0.625
  9
$DIMDLI
 40
3.75
  9
$DIMRND
 40
0.0
  9
$DIMDLE
 40
0.0
  9
$DIMEXE
 40
1.25
  9
$DIMTP
 40
0.01
  9
$DIMTM
 40
0.01
  9
$DIMTXT
 40
3.0
  9
$DIMCEN
 40
2.5
  9
$DIMTSZ
 40
0.0
  9
$DIMTOL
 70
     1
  9
$DIMLIM
 70
     0
  9
$DIMTIH
 70
     0
  9
$DIMTOH
 70
     0
  9
$DIMSE1
 70
     0
  9
$DIMSE2
 70
     0
  9
$DIMTAD
 70
     1
  9
$DIMZIN
 70
     8
  9
$DIMBLK
  1

  9
$DIMASO
 70
     1
  9
$DIMSHO
 70
     1
  9
$DIMPOST
  1

  9
$DIMAPOST
  1

  9
$DIMALT
 70
     0
  9
$DIMALTD
 70
     2
  9
$DIMALTF
 40
0.03937
  9
$DIMLFAC
 40
1.0
  9
$DIMTOFL
 70
     0
  9
$DIMTVP
 40
0.0
  9
$DIMTIX
 70
     0
  9
$DIMSOXD
 70
     0
  9
$DIMSAH
 70
     0
  9
$DIMBLK1
  1

  9
$DIMBLK2
  1

  9
$DIMSTYLE
  2
STANDARD
  9
$DIMCLRD
 70
     0
  9
$DIMCLRE
 70
     0
  9
$DIMCLRT
 70
     0
  9
$DIMTFAC
 40
1.0
  9
$DIMGAP
 40
0.625
  9
$DIMJUST
 70
     0
  9
$DIMSD1
 70
     0
  9
$DIMSD2
 70
     0
  9
$DIMTOLJ
 70
     1
  9
$DIMTZIN
 70
     8
  9
$DIMALTZ
 70
     0
  9
$DIMALTTZ
 70
     0
  9
$DIMFIT
 70
     3
  9
$DIMUPT
 70
     0
  9
$DIMUNIT
 70
     2
  9
$DIMDEC
 70
     2
  9
$DIMTDEC
 70
     2
  9
$DIMALTU
 70
     2
  9
$DIMALTTD
 70
     2
  9
$DIMTXSTY
  7
STANDARD
  9
$DIMAUNIT
 70
     0
  9
$LUNITS
 70
     2
  9
$LUPREC
 70
     4
  9
$SKETCHINC
 40
0.1
  9
$FILLETRAD
 40
8.0
  9
$AUNITS
 70
     0
  9
$AUPREC
 70
     0
  9
$MENU
  1
acad
  9
$ELEVATION
 40
0.0
  9
$PELEVATION
 40
0.0
  9
$THICKNESS
 40
0.0
  9
$LIMCHECK
 70
     0
  9
$BLIPMODE
 70
     1
  9
$CHAMFERA
 40
0.0
  9
$CHAMFERB
 40
0.0
  9
$CHAMFERC
 40
20.0
  9
$CHAMFERD
 40
0.0
  9
$SKPOLY
 70
     0
  9
$TDCREATE
 40
2451758.682700926
  9
$TDUPDATE
 40
2452333.393417129
  9
$TDINDWG
 40
0.1424502315
  9
$TDUSRTIMER
 40
0.1424502315
  9
$USRTIMER
 70
     1
  9
$ANGBASE
 50
0.0
  9
$ANGDIR
 70
     0
  9
$PDMODE
 70
     0
  9
$PDSIZE
 40
0.0
  9
$PLINEWID
 40
0.0
  9
$COORDS
 70
     1
  9
$SPLFRAME
 70
     0
  9
$SPLINETYPE
 70
     6
  9
$SPLINESEGS
 70
     8
  9
$ATTDIA
 70
     0
  9
$ATTREQ
 70
     1
  9
$HANDLING
 70
     1
  9
$HANDSEED
  5
1194
  9
$SURFTAB1
 70
     6
  9
$SURFTAB2
 70
     6
  9
$SURFTYPE
 70
     6
  9
$SURFU
 70
     6
  9
$SURFV
 70
     6
  9
$UCSNAME
  2

  9
$UCSORG
 10
0.0
 20
0.0
 30
0.0
  9
$UCSXDIR
 10
1.0
 20
0.0
 30
0.0
  9
$UCSYDIR
 10
0.0
 20
1.0
 30
0.0
  9
$PUCSNAME
  2

  9
$PUCSORG
 10
0.0
 20
0.0
 30
0.0
  9
$PUCSXDIR
 10
1.0
 20
0.0
 30
0.0
  9
$PUCSYDIR
 10
0.0
 20
1.0
 30
0.0
  9
$USERI1
 70
     0
  9
$USERI2
 70
     0
  9
$USERI3
 70
     0
  9
$USERI4
 70
     0
  9
$USERI5
 70
     0
  9
$USERR1
 40
0.0
  9
$USERR2
 40
0.0
  9
$USERR3
 40
0.0
  9
$USERR4
 40
0.0
  9
$USERR5
 40
0.0
  9
$WORLDVIEW
 70
     1
  9
$SHADEDGE
 70
     3
  9
$SHADEDIF
 70
    70
  9
$TILEMODE
 70
     1
  9
$MAXACTVP
 70
    16
  9
$PINSBASE
 10
0.0
 20
0.0
 30
0.0
  9
$PLIMCHECK
 70
     0
  9
$PEXTMIN
 10
1.000000E+20
 20
1.000000E+20
 30
1.000000E+20
  9
$PEXTMAX
 10
-1.000000E+20
 20
-1.000000E+20
 30
-1.000000E+20
  9
$PLIMMIN
 10
0.0
 20
0.0
  9
$PLIMMAX
 10
12.0
 20
9.0
  9
$UNITMODE
 70
     0
  9
$VISRETAIN
 70
     0
  9
$PLINEGEN
 70
     0
  9
$PSLTSCALE
 70
     1
  9
$TREEDEPTH
 70
  3020
  9
$PICKSTYLE
 70
     1
  9
$CMLSTYLE
  2
STANDARD
  9
$CMLJUST
 70
     0
  9
$CMLSCALE
 40
20.0
  9
$SAVEIMAGES
 70
     0
  0
ENDSEC
  0
SECTION
  2
CLASSES
  0
ENDSEC
  0
SECTION
  2
TABLES
  0
TABLE
  2
VPORT
  5
8
100
AcDbSymbolTable
 70
     2
  0
VPORT
  5
1193
100
AcDbSymbolTableRecord
100
AcDbViewportTableRecord
  2
*ACTIVE
 70
     0
 10
0.0
 20
0.0
 11
1.0
 21
1.0
 12
60.446615
 22
126.163044
 13
0.0
 23
0.0
 14
10.0
 24
10.0
 15
10.0
 25
10.0
 16
0.0
 26
0.0
 36
1.0
 17
0.0
 27
0.0
 37
0.0
 40
453.676972
 41
1.650113
 42
50.0
 43
0.0
 44
0.0
 50
0.0
 51
0.0
 71
     0
 72
   100
 73
     1
 74
     0
 75
     0
 76
     0
 77
     0
 78
     0
  0
ENDTAB
  0
TABLE
  2
LTYPE
  5
5
100
AcDbSymbolTable
 70
     4
  0
LTYPE
  5
13
100
AcDbSymbolTableRecord
100
AcDbLinetypeTableRecord
  2
BYBLOCK
 70
     0
  3

 72
    65
 73
     0
 40
0.0
  0
LTYPE
  5
14
100
AcDbSymbolTableRecord
100
AcDbLinetypeTableRecord
  2
BYLAYER
 70
     0
  3

 72
    65
 73
     0
 40
0.0
  0
LTYPE
  5
15
100
AcDbSymbolTableRecord
100
AcDbLinetypeTableRecord
  2
CONTINUOUS
 70
    64
  3
Solid line
 72
    65
 73
     0
 40
0.0
  0
LTYPE
  5
94
100
AcDbSymbolTableRecord
100
AcDbLinetypeTableRecord
  2
ACAD_ISO04W100
 70
    64
  3
____ . ____ . ____ . ____ . ____ . ____ . ____ 
 72
    65
 73
     4
 40
30.5
 49
24.0
 74
     0
 49
-3.0
 74
     0
 49
0.5
 74
     0
 49
-3.0
 74
     0
  0
LTYPE
  5
225
100
AcDbSymbolTableRecord
100
AcDbLinetypeTableRecord
  2
TRATTEGGIATAX2
 70
    64
  3
____  ____  ____  ____  ____  ____  ____  ____ 
 72
    65
 73
     2
 40
1.5
 49
1.0
 74
     0
 49
-0.5
 74
     0
  0
LTYPE
  5
226
100
AcDbSymbolTableRecord
100
AcDbLinetypeTableRecord
  2
NASCOSTA
 70
    64
  3
__ __ __ __ __ __ __ __ __ __ __ __ __ __ __ __
 72
    65
 73
     2
 40
0.375
 49
0.25
 74
     0
 49
-0.125
 74
     0
  0
ENDTAB
  0
TABLE
  2
LAYER
  5
2
100
AcDbSymbolTable
 70
    10
  0
LAYER
  5
F
100
AcDbSymbolTableRecord
100
AcDbLayerTableRecord
  2
0
 70
     0
 62
     7
  6
CONTINUOUS
  0
LAYER
  5
95
100
AcDbSymbolTableRecord
100
AcDbLayerTableRecord
  2
DISEGNO
 70
    64
 62
     7
  6
CONTINUOUS
  0
LAYER
  5
96
100
AcDbSymbolTableRecord
100
AcDbLayerTableRecord
  2
ASSI
 70
    64
 62
     1
  6
ACAD_ISO04W100
  0
LAYER
  5
97
100
AcDbSymbolTableRecord
100
AcDbLayerTableRecord
  2
SEZIONE
 70
    64
 62
     3
  6
CONTINUOUS
  0
LAYER
  5
98
100
AcDbSymbolTableRecord
100
AcDbLayerTableRecord
  2
TEMPRA
 70
    64
 62
     2
  6
CONTINUOUS
  0
LAYER
  5
99
100
AcDbSymbolTableRecord
100
AcDbLayerTableRecord
  2
QUOTE
 70
    64
 62
     5
  6
CONTINUOUS
  0
LAYER
  5
9A
100
AcDbSymbolTableRecord
100
AcDbLayerTableRecord
  2
FOGLIO
 70
    64
 62
     8
  6
CONTINUOUS
  0
LAYER
  5
1A3
100
AcDbSymbolTableRecord
100
AcDbLayerTableRecord
  2
TRATTO
 70
    64
 62
     6
  6
NASCOSTA
  0
LAYER
  5
341
100
AcDbSymbolTableRecord
100
AcDbLayerTableRecord
  2
DEFPOINTS
 70
    64
 62
     7
  6
CONTINUOUS
  0
LAYER
  5
EA7
100
AcDbSymbolTableRecord
100
AcDbLayerTableRecord
  2
TESTO
 70
    64
 62
     6
  6
CONTINUOUS
  0
ENDTAB
  0
TABLE
  2
STYLE
  5
3
100
AcDbSymbolTable
 70
     2
  0
STYLE
  5
10
100
AcDbSymbolTableRecord
100
AcDbTextStyleTableRecord
  2
STANDARD
 70
    64
 40
0.0
 41
1.1
 50
0.0
 71
     0
 42
2.0
  3
D:\Programmi\AutoCAD LT\isocp.shx
  4

  0
STYLE
  5
B0
100
AcDbSymbolTableRecord
100
AcDbTextStyleTableRecord
  2
STYLE3
 70
    64
 40
0.0
 41
1.5
 50
0.0
 71
     0
 42
4.0
  3
C:\Programmi\AutoCAD LT\isocp3.shx
  4

  0
ENDTAB
  0
TABLE
  2
VIEW
  5
6
100
AcDbSymbolTable
 70
     0
  0
ENDTAB
  0
TABLE
  2
UCS
  5
7
100
AcDbSymbolTable
 70
     0
  0
ENDTAB
  0
TABLE
  2
APPID
  5
9
100
AcDbSymbolTable
 70
     1
  0
APPID
  5
11
100
AcDbSymbolTableRecord
100
AcDbRegAppTableRecord
  2
ACAD
 70
     0
  0
ENDTAB
  0
TABLE
  2
DIMSTYLE
  5
A
100
AcDbSymbolTable
 70
     9
  0
DIMSTYLE
105
1D
100
AcDbSymbolTableRecord
100
AcDbDimStyleTableRecord
  2
STANDARD
 70
     0
  3

  4

  5

  6

  7

 40
1.0
 41
2.5
 42
0.625
 43
3.75
 44
1.25
 45
0.0
 46
0.0
 47
0.0
 48
0.0
140
3.0
141
2.5
142
0.0
143
0.03937
144
1.0
145
0.0
146
1.0
147
0.625
 71
     0
 72
     0
 73
     0
 74
     0
 75
     0
 76
     0
 77
     1
 78
     8
170
     0
171
     2
172
     0
173
     0
174
     0
175
     0
176
     0
177
     0
178
     0
270
     2
271
     2
272
     2
273
     2
274
     2
340
10
275
     0
280
     0
281
     0
282
     0
283
     1
284
     8
285
     0
286
     0
287
     3
288
     0
  0
DIMSTYLE
105
198
100
AcDbSymbolTableRecord
100
AcDbDimStyleTableRecord
  2
TOLL-06
 70
     0
  3

  4

  5

  6

  7

 40
1.0
 41
2.5
 42
0.625
 43
3.75
 44
1.25
 45
0.0
 46
0.0
 47
0.1
 48
0.1
140
3.0
141
2.5
142
0.0
143
0.03937
144
1.0
145
0.0
146
0.8
147
0.625
 71
     1
 72
     0
 73
     0
 74
     0
 75
     0
 76
     0
 77
     1
 78
     8
170
     0
171
     2
172
     0
173
     0
174
     0
175
     0
176
     0
177
     0
178
     0
270
     2
271
     2
272
     2
273
     2
274
     2
340
10
275
     0
280
     0
281
     0
282
     0
283
     2
284
     8
285
     0
286
     0
287
     3
288
     0
  0
DIMSTYLE
105
20B
100
AcDbSymbolTableRecord
100
AcDbDimStyleTableRecord
  2
TOLL-01
 70
     0
  3

  4

  5

  6

  7

 40
1.0
 41
2.5
 42
0.625
 43
3.75
 44
1.25
 45
0.0
 46
0.0
 47
0.02
 48
0.0
140
3.0
141
2.5
142
0.0
143
0.03937
144
1.0
145
0.0
146
0.8
147
0.625
 71
     1
 72
     0
 73
     0
 74
     0
 75
     0
 76
     0
 77
     1
 78
     8
170
     0
171
     2
172
     0
173
     0
174
     0
175
     0
176
     0
177
     0
178
     0
270
     2
271
     2
272
     2
273
     2
274
     2
340
10
275
     0
280
     0
281
     0
282
     0
283
     2
284
     8
285
     0
286
     0
287
     3
288
     0
  0
DIMSTYLE
105
232
100
AcDbSymbolTableRecord
100
AcDbDimStyleTableRecord
  2
TOLL-02
 70
     0
  3

  4

  5

  6

  7

 40
1.0
 41
2.5
 42
0.625
 43
3.75
 44
1.25
 45
0.0
 46
0.0
 47
0.0
 48
-0.02
140
3.0
141
2.5
142
0.0
143
0.03937
144
1.0
145
0.0
146
0.8
147
0.625
 71
     1
 72
     0
 73
     0
 74
     0
 75
     0
 76
     0
 77
     1
 78
     8
170
     0
171
     2
172
     0
173
     0
174
     0
175
     0
176
     0
177
     0
178
     0
270
     2
271
     2
272
     2
273
     2
274
     2
340
10
275
     0
280
     0
281
     0
282
     0
283
     2
284
     8
285
     0
286
     0
287
     3
288
     0
  0
DIMSTYLE
105
233
100
AcDbSymbolTableRecord
100
AcDbDimStyleTableRecord
  2
TOLL-03
 70
     0
  3

  4

  5

  6

  7

 40
1.0
 41
2.5
 42
0.625
 43
3.75
 44
1.25
 45
0.0
 46
0.0
 47
0.01
 48
0.01
140
3.0
141
2.5
142
0.0
143
0.03937
144
1.0
145
0.0
146
0.8
147
0.625
 71
     1
 72
     0
 73
     0
 74
     0
 75
     0
 76
     0
 77
     1
 78
     8
170
     0
171
     2
172
     0
173
     0
174
     0
175
     0
176
     0
177
     0
178
     0
270
     2
271
     2
272
     2
273
     2
274
     2
340
10
275
     0
280
     0
281
     0
282
     0
283
     2
284
     8
285
     0
286
     0
287
     3
288
     0
  0
DIMSTYLE
105
234
100
AcDbSymbolTableRecord
100
AcDbDimStyleTableRecord
  2
TOLL-04
 70
     0
  3

  4

  5

  6

  7

 40
1.0
 41
2.5
 42
0.625
 43
3.75
 44
1.25
 45
0.0
 46
0.0
 47
0.05
 48
0.05
140
3.0
141
2.5
142
0.0
143
0.03937
144
1.0
145
0.0
146
0.8
147
0.625
 71
     1
 72
     0
 73
     0
 74
     0
 75
     0
 76
     0
 77
     1
 78
     8
170
     0
171
     2
172
     0
173
     0
174
     0
175
     0
176
     0
177
     0
178
     0
270
     2
271
     2
272
     2
273
     2
274
     2
340
10
275
     0
280
     0
281
     0
282
     0
283
     2
284
     8
285
     0
286
     0
287
     3
288
     0
  0
DIMSTYLE
105
235
100
AcDbSymbolTableRecord
100
AcDbDimStyleTableRecord
  2
TOLL-05
 70
     0
  3

  4

  5

  6

  7

 40
1.0
 41
2.5
 42
0.625
 43
3.75
 44
1.25
 45
0.0
 46
0.0
 47
0.1
 48
0.0
140
3.0
141
2.5
142
0.0
143
0.03937
144
1.0
145
0.0
146
0.8
147
0.625
 71
     1
 72
     0
 73
     0
 74
     0
 75
     0
 76
     0
 77
     1
 78
     8
170
     0
171
     2
172
     0
173
     0
174
     0
175
     0
176
     0
177
     0
178
     0
270
     2
271
     2
272
     2
273
     2
274
     2
340
10
275
     0
280
     0
281
     0
282
     0
283
     2
284
     8
285
     0
286
     0
287
     3
288
     0
  0
DIMSTYLE
105
4DB
100
AcDbSymbolTableRecord
100
AcDbDimStyleTableRecord
  2
TOLL-07
 70
     0
  3

  4

  5

  6

  7

 40
1.0
 41
2.5
 42
0.625
 43
3.75
 44
1.25
 45
0.0
 46
0.0
 47
0.05
 48
0.0
140
3.0
141
2.5
142
0.0
143
0.03937
144
1.0
145
0.0
146
1.0
147
0.625
 71
     1
 72
     0
 73
     0
 74
     0
 75
     0
 76
     0
 77
     1
 78
     8
170
     0
171
     2
172
     0
173
     0
174
     0
175
     0
176
     0
177
     0
178
     0
270
     2
271
     2
272
     2
273
     2
274
     2
340
10
275
     0
280
     0
281
     0
282
     0
283
     1
284
     8
285
     0
286
     0
287
     3
288
     0
  0
DIMSTYLE
105
EA8
100
AcDbSymbolTableRecord
100
AcDbDimStyleTableRecord
  2
ISO-25
 70
     0
  3

  4

  5

  6

  7

 40
1.0
 41
2.5
 42
0.625
 43
3.75
 44
1.25
 45
0.0
 46
0.0
 47
0.0
 48
0.0
140
2.5
141
2.5
142
0.0
143
0.0394
144
1.0
145
1.0
146
1.0
147
0.625
 71
     0
 72
     0
 73
     1
 74
     0
 75
     0
 76
     0
 77
     1
 78
     8
170
     0
171
     2
172
     1
173
     0
174
     0
175
     0
176
     0
177
     0
178
     0
270
     2
271
     4
272
     4
273
     2
274
     2
340
10
275
     0
280
     0
281
     0
282
     0
283
     1
284
     0
285
     0
286
     0
287
     3
288
     0
  0
ENDTAB
  0
TABLE
  2
BLOCK_RECORD
  5
1
100
AcDbSymbolTable
 70
    41
  0
BLOCK_RECORD
  5
19
100
AcDbSymbolTableRecord
100
AcDbBlockTableRecord
  2
*MODEL_SPACE
  0
BLOCK_RECORD
  5
16
100
AcDbSymbolTableRecord
100
AcDbBlockTableRecord
  2
*PAPER_SPACE
  0
BLOCK_RECORD
  5
27A
100
AcDbSymbolTableRecord
100
AcDbBlockTableRecord
  2
A$CB1E3
  0
BLOCK_RECORD
  5
339
100
AcDbSymbolTableRecord
100
AcDbBlockTableRecord
  2
*D1
  0
BLOCK_RECORD
  5
354
100
AcDbSymbolTableRecord
100
AcDbBlockTableRecord
  2
*D2
  0
BLOCK_RECORD
  5
36C
100
AcDbSymbolTableRecord
100
AcDbBlockTableRecord
  2
*D3
  0
BLOCK_RECORD
  5
384
100
AcDbSymbolTableRecord
100
AcDbBlockTableRecord
  2
*D4
  0
BLOCK_RECORD
  5
391
100
AcDbSymbolTableRecord
100
AcDbBlockTableRecord
  2
*D5
  0
BLOCK_RECORD
  5
3B6
100
AcDbSymbolTableRecord
100
AcDbBlockTableRecord
  2
*D6
  0
BLOCK_RECORD
  5
51F
100
AcDbSymbolTableRecord
100
AcDbBlockTableRecord
  2
RUGOSITA
  0
BLOCK_RECORD
  5
649
100
AcDbSymbolTableRecord
100
AcDbBlockTableRecord
  2
A$CC223
  0
BLOCK_RECORD
  5
6A0
100
AcDbSymbolTableRecord
100
AcDbBlockTableRecord
  2
*D9
  0
BLOCK_RECORD
  5
6AF
100
AcDbSymbolTableRecord
100
AcDbBlockTableRecord
  2
*D10
  0
BLOCK_RECORD
  5
6BC
100
AcDbSymbolTableRecord
100
AcDbBlockTableRecord
  2
*D11
  0
BLOCK_RECORD
  5
73A
100
AcDbSymbolTableRecord
100
AcDbBlockTableRecord
  2
*D12
  0
BLOCK_RECORD
  5
746
100
AcDbSymbolTableRecord
100
AcDbBlockTableRecord
  2
*D13
  0
BLOCK_RECORD
  5
752
100
AcDbSymbolTableRecord
100
AcDbBlockTableRecord
  2
*D14
  0
BLOCK_RECORD
  5
75E
100
AcDbSymbolTableRecord
100
AcDbBlockTableRecord
  2
*D15
  0
BLOCK_RECORD
  5
76A
100
AcDbSymbolTableRecord
100
AcDbBlockTableRecord
  2
*D16
  0
BLOCK_RECORD
  5
776
100
AcDbSymbolTableRecord
100
AcDbBlockTableRecord
  2
*D17
  0
BLOCK_RECORD
  5
782
100
AcDbSymbolTableRecord
100
AcDbBlockTableRecord
  2
*X18
  0
BLOCK_RECORD
  5
81A
100
AcDbSymbolTableRecord
100
AcDbBlockTableRecord
  2
A$C7174
  0
BLOCK_RECORD
  5
B7D
100
AcDbSymbolTableRecord
100
AcDbBlockTableRecord
  2
*D20
  0
BLOCK_RECORD
  5
C3C
100
AcDbSymbolTableRecord
100
AcDbBlockTableRecord
  2
*D21
  0
BLOCK_RECORD
  5
C5F
100
AcDbSymbolTableRecord
100
AcDbBlockTableRecord
  2
*D22
  0
BLOCK_RECORD
  5
D81
100
AcDbSymbolTableRecord
100
AcDbBlockTableRecord
  2
*D23
  0
BLOCK_RECORD
  5
D8B
100
AcDbSymbolTableRecord
100
AcDbBlockTableRecord
  2
*D24
  0
BLOCK_RECORD
  5
DAC
100
AcDbSymbolTableRecord
100
AcDbBlockTableRecord
  2
*D25
  0
BLOCK_RECORD
  5
DB5
100
AcDbSymbolTableRecord
100
AcDbBlockTableRecord
  2
*D26
  0
BLOCK_RECORD
  5
DC1
100
AcDbSymbolTableRecord
100
AcDbBlockTableRecord
  2
A$C52B4
  0
BLOCK_RECORD
  5
E73
100
AcDbSymbolTableRecord
100
AcDbBlockTableRecord
  2
*D28
  0
BLOCK_RECORD
  5
E80
100
AcDbSymbolTableRecord
100
AcDbBlockTableRecord
  2
*D29
  0
BLOCK_RECORD
  5
E8D
100
AcDbSymbolTableRecord
100
AcDbBlockTableRecord
  2
*D30
  0
BLOCK_RECORD
  5
E9A
100
AcDbSymbolTableRecord
100
AcDbBlockTableRecord
  2
*D31
  0
BLOCK_RECORD
  5
EA9
100
AcDbSymbolTableRecord
100
AcDbBlockTableRecord
  2
A$C6323
  0
BLOCK_RECORD
  5
F1A
100
AcDbSymbolTableRecord
100
AcDbBlockTableRecord
  2
*D33
  0
BLOCK_RECORD
  5
F27
100
AcDbSymbolTableRecord
100
AcDbBlockTableRecord
  2
*D34
  0
BLOCK_RECORD
  5
F34
100
AcDbSymbolTableRecord
100
AcDbBlockTableRecord
  2
*D35
  0
BLOCK_RECORD
  5
F41
100
AcDbSymbolTableRecord
100
AcDbBlockTableRecord
  2
*D36
  0
BLOCK_RECORD
  5
F97
100
AcDbSymbolTableRecord
100
AcDbBlockTableRecord
  2
*D37
  0
BLOCK_RECORD
  5
FB5
100
AcDbSymbolTableRecord
100
AcDbBlockTableRecord
  2
*D38
  0
BLOCK_RECORD
  5
1016
100
AcDbSymbolTableRecord
100
AcDbBlockTableRecord
  2
*X39
  0
BLOCK_RECORD
  5
1102
100
AcDbSymbolTableRecord
100
AcDbBlockTableRecord
  2
*D40
  0
ENDTAB
  0
ENDSEC
  0
SECTION
  2
BLOCKS
  0
BLOCK
  5
1A
100
AcDbEntity
  8
0
100
AcDbBlockBegin
  2
*MODEL_SPACE
 70
     0
 10
0.0
 20
0.0
 30
0.0
  3
*MODEL_SPACE
  1

  0
ENDBLK
  5
1B
100
AcDbEntity
  8
0
100
AcDbBlockEnd
  0
BLOCK
  5
17
100
AcDbEntity
 67
     1
  8
0
100
AcDbBlockBegin
  2
*PAPER_SPACE
 70
     0
 10
0.0
 20
0.0
 30
0.0
  3
*PAPER_SPACE
  1

  0
ENDBLK
  5
18
100
AcDbEntity
 67
     1
  8
0
100
AcDbBlockEnd
  0
BLOCK
  5
31F
100
AcDbEntity
  8
FOGLIO
100
AcDbBlockBegin
  2
A$CB1E3
 70
     0
 10
0.0
 20
0.0
 30
0.0
  3
A$CB1E3
  1

  0
TEXT
  5
27B
100
AcDbEntity
  8
FOGLIO
100
AcDbText
 10
72.990774
 20
5.912642
 30
0.0
 40
2.0
  1
VIGOLZONE(PIACENZA)-ITALIA
 41
1.1
100
AcDbText
  0
TEXT
  5
27C
100
AcDbEntity
  8
FOGLIO
100
AcDbText
 10
77.709899
 20
12.649015
 30
0.0
 40
5.0
  1
ROLLERI
 41
1.1
100
AcDbText
  0
TEXT
  5
27D
100
AcDbEntity
  8
FOGLIO
100
AcDbText
 10
73.716649
 20
32.404698
 30
0.0
 40
2.0
  1
DISEGNATO DA                    CONTROLLATO DA                   APPROVATO DA-DATA
 41
1.1
100
AcDbText
  0
TEXT
  5
27E
100
AcDbEntity
  8
FOGLIO
100
AcDbText
 10
73.716649
 20
42.172438
 30
0.0
 40
2.0
  1
MATERIALE                         DIMENSIONI DI PRELIEVO          TRATTAMENTO TERMICO
 41
1.1
100
AcDbText
  0
TEXT
  5
27F
100
AcDbEntity
  8
FOGLIO
100
AcDbText
 10
20.463271
 20
279.394942
 30
0.0
 40
4.0
  1
6                5                  4                  3                  2                 1
100
AcDbText
  0
LINE
  5
280
100
AcDbEntity
  8
FOGLIO
100
AcDbLine
 10
102.758517
 20
9.242947
 30
0.0
 11
76.758517
 21
9.242947
 31
0.0
  0
LINE
  5
281
100
AcDbEntity
  8
FOGLIO
100
AcDbLine
 10
79.258517
 20
21.169227
 30
0.0
 11
105.258517
 21
21.169227
 31
0.0
  0
LINE
  5
282
100
AcDbEntity
  8
FOGLIO
100
AcDbLine
 10
79.258517
 20
19.969227
 30
0.0
 11
105.258517
 21
19.969227
 31
0.0
  0
LINE
  5
283
100
AcDbEntity
  8
FOGLIO
100
AcDbLine
 10
102.758517
 20
10.442947
 30
0.0
 11
76.758517
 21
10.442947
 31
0.0
  0
LINE
  5
284
100
AcDbEntity
  8
FOGLIO
100
AcDbLine
 10
5.758517
 20
278.442947
 30
0.0
 11
190.758517
 21
278.442947
 31
0.0
  0
LINE
  5
285
100
AcDbEntity
  8
FOGLIO
100
AcDbLine
 10
98.558517
 20
5.442947
 30
0.0
 11
130.158517
 21
5.442947
 31
0.0
  0
LINE
  5
286
100
AcDbEntity
  8
FOGLIO
100
AcDbLine
 10
63.758517
 20
5.442947
 30
0.0
 11
108.758517
 21
5.442947
 31
0.0
  0
LINE
  5
287
100
AcDbEntity
  8
FOGLIO
100
AcDbLine
 10
93.758517
 20
25.442947
 30
0.0
 11
123.758517
 21
25.442947
 31
0.0
  0
LINE
  5
288
100
AcDbEntity
  8
FOGLIO
100
AcDbLine
 10
93.758517
 20
35.442947
 30
0.0
 11
123.758517
 21
35.442947
 31
0.0
  0
LINE
  5
289
100
AcDbEntity
  8
FOGLIO
100
AcDbLine
 10
108.758517
 20
35.442947
 30
0.0
 11
71.758517
 21
35.442947
 31
0.0
  0
LINE
  5
28A
100
AcDbEntity
  8
FOGLIO
100
AcDbLine
 10
69.758517
 20
45.442947
 30
0.0
 11
108.758517
 21
45.442947
 31
0.0
  0
LINE
  5
28B
100
AcDbEntity
  8
FOGLIO
100
AcDbLine
 10
190.758517
 20
5.442947
 30
0.0
 11
5.758517
 21
5.442947
 31
0.0
  0
LINE
  5
28C
100
AcDbEntity
  8
FOGLIO
100
AcDbLine
 10
5.758517
 20
5.442947
 30
0.0
 11
5.758517
 21
278.442947
 31
0.0
  0
TEXT
  5
28D
100
AcDbEntity
  8
FOGLIO
100
AcDbText
 10
6.508242
 20
45.926474
 30
0.0
 40
1.5
  1
A termine di legge la ROLLERI si riserva la proprietà di questo disegno, con divieto di riprodurlo e di comunicarlo a terzi
 41
0.8
100
AcDbText
  0
LINE
  5
28E
100
AcDbEntity
  8
FOGLIO
100
AcDbLine
 10
5.758517
 20
48.28413
 30
0.0
 11
73.353476
 21
48.28413
 31
0.0
  0
TEXT
  5
28F
100
AcDbEntity
  8
FOGLIO
100
AcDbText
 10
8.997223
 20
13.551527
 30
0.0
 40
2.0
  1
-Interassi fori =+/- 0.25
 41
1.1
100
AcDbText
  0
TEXT
  5
290
100
AcDbEntity
  8
FOGLIO
100
AcDbText
 10
8.997223
 20
17.351527
 30
0.0
 40
2.0
  1
- Angoli su superfici lavorate =+/- 30
 41
1.1
100
AcDbText
  0
TEXT
  5
291
100
AcDbEntity
  8
FOGLIO
100
AcDbText
 10
8.997223
 20
21.151527
 30
0.0
 40
2.0
  1
oltre 500 mm =+/-0.5
 41
1.1
100
AcDbText
  0
TEXT
  5
292
100
AcDbEntity
  8
FOGLIO
100
AcDbText
 10
8.997223
 20
24.951527
 30
0.0
 40
2.0
  1
da mm 151 a mm500 =+/- 0.4
 41
1.1
100
AcDbText
  0
TEXT
  5
293
100
AcDbEntity
  8
FOGLIO
100
AcDbText
 10
8.997223
 20
28.751527
 30
0.0
 40
2.0
  1
da mm 51 a mm 150 =+/-0.3
 41
1.1
100
AcDbText
  0
TEXT
  5
294
100
AcDbEntity
  8
FOGLIO
100
AcDbText
 10
8.997223
 20
32.551527
 30
0.0
 40
2.0
  1
-Superfici lavorate da mm 1 a mm50 =+/-0.2
 41
1.1
100
AcDbText
  0
TEXT
  5
295
100
AcDbEntity
  8
FOGLIO
100
AcDbText
 10
8.997223
 20
36.351527
 30
0.0
 40
2.0
  1
-Parti fuse con spessori <10mm=+/-1mm
 41
1.1
100
AcDbText
  0
TEXT
  5
296
100
AcDbEntity
  8
FOGLIO
100
AcDbText
 10
8.997223
 20
40.151527
 30
0.0
 40
2.0
  1
TOLLERANZE GENERALI:
 41
1.1
100
AcDbText
  0
LINE
  5
297
100
AcDbEntity
  8
FOGLIO
100
AcDbLine
 10
69.758517
 20
45.442947
 30
0.0
 11
5.758517
 21
45.442947
 31
0.0
  0
LINE
  5
298
100
AcDbEntity
  8
FOGLIO
100
AcDbLine
 10
5.758517
 20
5.442947
 30
0.0
 11
35.358517
 21
5.442947
 31
0.0
  0
LINE
  5
299
100
AcDbEntity
  8
FOGLIO
100
AcDbLine
 10
5.758517
 20
5.442947
 30
0.0
 11
63.758517
 21
5.442947
 31
0.0
  0
TEXT
  5
29A
100
AcDbEntity
  8
FOGLIO
100
AcDbText
 10
17.662381
 20
1.369772
 30
0.0
 40
3.5
  1
6
 41
0.8
  7
STYLE3
100
AcDbText
  0
TEXT
  5
29B
100
AcDbEntity
  8
FOGLIO
100
AcDbText
 10
0.608437
 20
21.593149
 30
0.0
 40
4.0
  1
A
 41
0.9
  7
STYLE3
100
AcDbText
  0
LINE
  5
29C
100
AcDbEntity
  8
FOGLIO
100
AcDbLine
 10
3.758517
 20
40.042947
 30
0.0
 11
5.758517
 21
40.042947
 31
0.0
  0
LINE
  5
29D
100
AcDbEntity
  8
FOGLIO
100
AcDbLine
 10
3.758517
 20
40.042947
 30
0.0
 11
0.758517
 21
40.042947
 31
0.0
  0
TEXT
  5
29E
100
AcDbEntity
  8
FOGLIO
100
AcDbText
 10
1.047191
 20
54.912566
 30
0.0
 40
4.0
  1
B
 41
0.9
  7
STYLE3
100
AcDbText
  0
LINE
  5
29F
100
AcDbEntity
  8
FOGLIO
100
AcDbLine
 10
3.758517
 20
74.642947
 30
0.0
 11
5.758517
 21
74.642947
 31
0.0
  0
LINE
  5
2A0
100
AcDbEntity
  8
FOGLIO
100
AcDbLine
 10
3.758517
 20
74.642947
 30
0.0
 11
0.758517
 21
74.642947
 31
0.0
  0
TEXT
  5
2A1
100
AcDbEntity
  8
FOGLIO
100
AcDbText
 10
0.608437
 20
87.355156
 30
0.0
 40
4.0
  1
C
 41
0.9
  7
STYLE3
100
AcDbText
  0
TEXT
  5
2A2
100
AcDbEntity
  8
FOGLIO
100
AcDbText
 10
0.629193
 20
120.069231
 30
0.0
 40
4.0
  1
D
 41
0.9
  7
STYLE3
100
AcDbText
  0
LINE
  5
2A3
100
AcDbEntity
  8
FOGLIO
100
AcDbLine
 10
3.758517
 20
109.242947
 30
0.0
 11
5.758517
 21
109.242947
 31
0.0
  0
LINE
  5
2A4
100
AcDbEntity
  8
FOGLIO
100
AcDbLine
 10
3.758517
 20
109.242947
 30
0.0
 11
0.758517
 21
109.242947
 31
0.0
  0
LINE
  5
2A5
100
AcDbEntity
  8
FOGLIO
100
AcDbLine
 10
3.758517
 20
143.842947
 30
0.0
 11
5.758517
 21
143.842947
 31
0.0
  0
LINE
  5
2A6
100
AcDbEntity
  8
FOGLIO
100
AcDbLine
 10
3.758517
 20
143.842947
 30
0.0
 11
0.758517
 21
143.842947
 31
0.0
  0
LINE
  5
2A7
100
AcDbEntity
  8
FOGLIO
100
AcDbLine
 10
35.358517
 20
5.442947
 30
0.0
 11
66.958517
 21
5.442947
 31
0.0
  0
LINE
  5
2A8
100
AcDbEntity
  8
FOGLIO
100
AcDbLine
 10
35.358517
 20
5.442947
 30
0.0
 11
35.358517
 21
0.442947
 31
0.0
  0
LINE
  5
2A9
100
AcDbEntity
  8
FOGLIO
100
AcDbLine
 10
35.358517
 20
5.442947
 30
0.0
 11
35.358517
 21
0.442947
 31
0.0
  0
TEXT
  5
2AA
100
AcDbEntity
  8
FOGLIO
100
AcDbText
 10
49.691426
 20
1.369772
 30
0.0
 40
3.5
  1
5
 41
0.8
  7
STYLE3
100
AcDbText
  0
LINE
  5
2AB
100
AcDbEntity
  8
FOGLIO
100
AcDbLine
 10
98.558517
 20
5.442947
 30
0.0
 11
98.558517
 21
0.442947
 31
0.0
  0
LINE
  5
2AC
100
AcDbEntity
  8
FOGLIO
100
AcDbLine
 10
66.958517
 20
5.442947
 30
0.0
 11
66.958517
 21
0.442947
 31
0.0
  0
LINE
  5
2AD
100
AcDbEntity
  8
FOGLIO
100
AcDbLine
 10
98.558517
 20
5.442947
 30
0.0
 11
98.558517
 21
0.442947
 31
0.0
  0
LINE
  5
2AE
100
AcDbEntity
  8
FOGLIO
100
AcDbLine
 10
66.958517
 20
5.442947
 30
0.0
 11
66.958517
 21
0.442947
 31
0.0
  0
TEXT
  5
2AF
100
AcDbEntity
  8
FOGLIO
100
AcDbText
 10
81.281714
 20
1.369772
 30
0.0
 40
3.5
  1
4
 41
0.8
  7
STYLE3
100
AcDbText
  0
LINE
  5
2B0
100
AcDbEntity
  8
FOGLIO
100
AcDbLine
 10
73.353476
 20
48.28413
 30
0.0
 11
93.745167
 21
48.28413
 31
0.0
  0
LINE
  5
2B1
100
AcDbEntity
  8
FOGLIO
100
AcDbLine
 10
66.958517
 20
5.442947
 30
0.0
 11
98.558517
 21
5.442947
 31
0.0
  0
LINE
  5
2B2
100
AcDbEntity
  8
FOGLIO
100
AcDbLine
 10
71.758517
 20
25.442947
 30
0.0
 11
93.758517
 21
25.442947
 31
0.0
  0
LINE
  5
2B3
100
AcDbEntity
  8
FOGLIO
100
AcDbLine
 10
71.758517
 20
5.442947
 30
0.0
 11
71.758517
 21
45.442947
 31
0.0
  0
LINE
  5
2B4
100
AcDbEntity
  8
FOGLIO
100
AcDbLine
 10
74.219286
 20
13.641023
 30
0.0
 11
73.872876
 21
13.041023
 31
0.0
  0
LINE
  5
2B5
100
AcDbEntity
  8
FOGLIO
100
AcDbLine
 10
74.219286
 20
12.441023
 30
0.0
 11
73.872876
 21
13.041023
 31
0.0
  0
LINE
  5
2B6
100
AcDbEntity
  8
FOGLIO
100
AcDbLine
 10
66.958517
 20
5.442947
 30
0.0
 11
71.958517
 21
5.442947
 31
0.0
  0
LINE
  5
2B7
100
AcDbEntity
  8
FOGLIO
100
AcDbLine
 10
71.758517
 20
16.703201
 30
0.0
 11
71.719286
 21
16.77115
 31
0.0
  0
LINE
  5
2B8
100
AcDbEntity
  8
FOGLIO
100
AcDbLine
 10
74.219286
 20
13.641023
 30
0.0
 11
78.219286
 21
20.569227
 31
0.0
  0
LINE
  5
2B9
100
AcDbEntity
  8
FOGLIO
100
AcDbLine
 10
75.258517
 20
13.041023
 30
0.0
 11
79.258517
 21
19.969227
 31
0.0
  0
LINE
  5
2BA
100
AcDbEntity
  8
FOGLIO
100
AcDbLine
 10
75.719286
 20
9.842947
 30
0.0
 11
74.219286
 21
12.441023
 31
0.0
  0
LINE
  5
2BB
100
AcDbEntity
  8
FOGLIO
100
AcDbLine
 10
76.758517
 20
10.442947
 30
0.0
 11
75.258517
 21
13.041023
 31
0.0
  0
LINE
  5
2BC
100
AcDbEntity
  8
FOGLIO
100
AcDbLine
 10
76.758517
 20
9.242947
 30
0.0
 11
76.065696
 21
9.242947
 31
0.0
  0
LINE
  5
2BD
100
AcDbEntity
  8
FOGLIO
100
AcDbLine
 10
75.719286
 20
9.842947
 30
0.0
 11
76.065696
 21
9.242947
 31
0.0
  0
LINE
  5
2BE
100
AcDbEntity
  8
FOGLIO
100
AcDbLine
 10
78.219286
 20
20.569227
 30
0.0
 11
78.565696
 21
21.169227
 31
0.0
  0
LINE
  5
2BF
100
AcDbEntity
  8
FOGLIO
100
AcDbLine
 10
79.258517
 20
21.169227
 30
0.0
 11
78.565696
 21
21.169227
 31
0.0
  0
LINE
  5
2C0
100
AcDbEntity
  8
FOGLIO
100
AcDbLine
 10
93.745167
 20
48.28413
 30
0.0
 11
93.745167
 21
45.442947
 31
0.0
  0
TEXT
  5
2C1
100
AcDbEntity
  8
FOGLIO
100
AcDbText
 10
0.629193
 20
156.457541
 30
0.0
 40
4.0
  1
E
 41
0.9
  7
STYLE3
100
AcDbText
  0
LINE
  5
2C2
100
AcDbEntity
  8
FOGLIO
100
AcDbLine
 10
3.758517
 20
178.442947
 30
0.0
 11
5.758517
 21
178.442947
 31
0.0
  0
LINE
  5
2C3
100
AcDbEntity
  8
FOGLIO
100
AcDbLine
 10
3.758517
 20
178.442947
 30
0.0
 11
0.758517
 21
178.442947
 31
0.0
  0
TEXT
  5
2C4
100
AcDbEntity
  8
FOGLIO
100
AcDbText
 10
0.629193
 20
191.092197
 30
0.0
 40
4.0
  1
F
 41
0.9
  7
STYLE3
100
AcDbText
  0
LINE
  5
2C5
100
AcDbEntity
  8
FOGLIO
100
AcDbLine
 10
3.758517
 20
213.042947
 30
0.0
 11
5.758517
 21
213.042947
 31
0.0
  0
LINE
  5
2C6
100
AcDbEntity
  8
FOGLIO
100
AcDbLine
 10
3.758517
 20
213.042947
 30
0.0
 11
0.758517
 21
213.042947
 31
0.0
  0
TEXT
  5
2C7
100
AcDbEntity
  8
FOGLIO
100
AcDbText
 10
0.629193
 20
225.726855
 30
0.0
 40
4.0
  1
G
 41
0.9
  7
STYLE3
100
AcDbText
  0
TEXT
  5
2C8
100
AcDbEntity
  8
FOGLIO
100
AcDbText
 10
0.640147
 20
258.274002
 30
0.0
 40
4.0
  1
F
 41
0.9
  7
STYLE3
100
AcDbText
  0
LINE
  5
2C9
100
AcDbEntity
  8
FOGLIO
100
AcDbLine
 10
3.758517
 20
247.642947
 30
0.0
 11
5.758517
 21
247.642947
 31
0.0
  0
LINE
  5
2CA
100
AcDbEntity
  8
FOGLIO
100
AcDbLine
 10
3.758517
 20
247.642947
 30
0.0
 11
0.758517
 21
247.642947
 31
0.0
  0
LINE
  5
2CB
100
AcDbEntity
  8
FOGLIO
100
AcDbLine
 10
35.358517
 20
282.442947
 30
0.0
 11
35.358517
 21
283.442947
 31
0.0
  0
LINE
  5
2CC
100
AcDbEntity
  8
FOGLIO
100
AcDbLine
 10
35.358517
 20
282.442947
 30
0.0
 11
35.358517
 21
278.442947
 31
0.0
  0
LINE
  5
2CD
100
AcDbEntity
  8
FOGLIO
100
AcDbLine
 10
98.558517
 20
282.442947
 30
0.0
 11
98.558517
 21
283.442947
 31
0.0
  0
LINE
  5
2CE
100
AcDbEntity
  8
FOGLIO
100
AcDbLine
 10
66.958517
 20
282.442947
 30
0.0
 11
66.958517
 21
283.442947
 31
0.0
  0
LINE
  5
2CF
100
AcDbEntity
  8
FOGLIO
100
AcDbLine
 10
66.958517
 20
282.442947
 30
0.0
 11
66.958517
 21
278.442947
 31
0.0
  0
LINE
  5
2D0
100
AcDbEntity
  8
FOGLIO
100
AcDbLine
 10
98.558517
 20
282.442947
 30
0.0
 11
98.558517
 21
278.442947
 31
0.0
  0
TEXT
  5
2D1
100
AcDbEntity
  8
FOGLIO
100
AcDbText
 10
190.163956
 20
131.303249
 30
0.0
 40
1.7
  1
DATA            FIRMA           CONTROLL.
 50
90.0
 41
1.1
100
AcDbText
  0
LINE
  5
2D2
100
AcDbEntity
  8
FOGLIO
100
AcDbLine
 10
187.758517
 20
130.442947
 30
0.0
 11
187.758517
 21
145.442947
 31
0.0
  0
LINE
  5
2D3
100
AcDbEntity
  8
FOGLIO
100
AcDbLine
 10
187.758517
 20
175.442947
 30
0.0
 11
187.758517
 21
45.442947
 31
0.0
  0
LINE
  5
2D4
100
AcDbEntity
  8
FOGLIO
100
AcDbLine
 10
190.758517
 20
278.442947
 30
0.0
 11
190.758517
 21
5.442947
 31
0.0
  0
TEXT
  5
2D5
100
AcDbEntity
  8
FOGLIO
100
AcDbText
 10
115.851694
 20
12.532398
 30
0.0
 40
2.0
  1
DISEGNO                           DATA                    SCALA
 41
1.1
100
AcDbText
  0
LINE
  5
2D6
100
AcDbEntity
  8
FOGLIO
100
AcDbLine
 10
108.758517
 20
45.442947
 30
0.0
 11
190.758517
 21
45.442947
 31
0.0
  0
LINE
  5
2D7
100
AcDbEntity
  8
FOGLIO
100
AcDbLine
 10
148.758517
 20
15.442947
 30
0.0
 11
173.758517
 21
15.442947
 31
0.0
  0
LINE
  5
2D8
100
AcDbEntity
  8
FOGLIO
100
AcDbLine
 10
112.758517
 20
15.442947
 30
0.0
 11
168.758517
 21
15.442947
 31
0.0
  0
LINE
  5
2D9
100
AcDbEntity
  8
FOGLIO
100
AcDbLine
 10
163.758517
 20
25.442947
 30
0.0
 11
190.758517
 21
25.442947
 31
0.0
  0
LINE
  5
2DA
100
AcDbEntity
  8
FOGLIO
100
AcDbLine
 10
148.758517
 20
35.442947
 30
0.0
 11
190.758517
 21
35.442947
 31
0.0
  0
TEXT
  5
2DB
100
AcDbEntity
  8
FOGLIO
100
AcDbText
 10
115.851694
 20
21.96332
 30
0.0
 40
2.0
  1
PARTICOLARE
 41
1.1
100
AcDbText
  0
LINE
  5
2DC
100
AcDbEntity
  8
FOGLIO
100
AcDbLine
 10
130.158517
 20
5.442947
 30
0.0
 11
161.758517
 21
5.442947
 31
0.0
  0
LINE
  5
2DD
100
AcDbEntity
  8
FOGLIO
100
AcDbLine
 10
108.758517
 20
5.442947
 30
0.0
 11
148.758517
 21
5.442947
 31
0.0
  0
LINE
  5
2DE
100
AcDbEntity
  8
FOGLIO
100
AcDbLine
 10
123.758517
 20
25.442947
 30
0.0
 11
163.758517
 21
25.442947
 31
0.0
  0
LINE
  5
2DF
100
AcDbEntity
  8
FOGLIO
100
AcDbLine
 10
108.758517
 20
35.442947
 30
0.0
 11
148.758517
 21
35.442947
 31
0.0
  0
LINE
  5
2E0
100
AcDbEntity
  8
FOGLIO
100
AcDbLine
 10
130.158517
 20
5.442947
 30
0.0
 11
130.158517
 21
0.442947
 31
0.0
  0
LINE
  5
2E1
100
AcDbEntity
  8
FOGLIO
100
AcDbLine
 10
130.158517
 20
5.442947
 30
0.0
 11
130.158517
 21
0.442947
 31
0.0
  0
TEXT
  5
2E2
100
AcDbEntity
  8
FOGLIO
100
AcDbText
 10
113.09138
 20
1.369772
 30
0.0
 40
3.5
  1
3 
 41
0.8
  7
STYLE3
100
AcDbText
  0
LINE
  5
2E3
100
AcDbEntity
  8
FOGLIO
100
AcDbLine
 10
108.758517
 20
35.442947
 30
0.0
 11
108.758517
 21
25.442947
 31
0.0
  0
LINE
  5
2E4
100
AcDbEntity
  8
FOGLIO
100
AcDbLine
 10
107.797747
 20
16.77115
 30
0.0
 11
103.797747
 21
9.842947
 31
0.0
  0
LINE
  5
2E5
100
AcDbEntity
  8
FOGLIO
100
AcDbLine
 10
106.297747
 20
20.569227
 30
0.0
 11
107.797747
 21
17.97115
 31
0.0
  0
LINE
  5
2E6
100
AcDbEntity
  8
FOGLIO
100
AcDbLine
 10
106.758517
 20
17.37115
 30
0.0
 11
102.758517
 21
10.442947
 31
0.0
  0
LINE
  5
2E7
100
AcDbEntity
  8
FOGLIO
100
AcDbLine
 10
102.758517
 20
9.242947
 30
0.0
 11
103.451337
 21
9.242947
 31
0.0
  0
LINE
  5
2E8
100
AcDbEntity
  8
FOGLIO
100
AcDbLine
 10
103.797747
 20
9.842947
 30
0.0
 11
103.451337
 21
9.242947
 31
0.0
  0
LINE
  5
2E9
100
AcDbEntity
  8
FOGLIO
100
AcDbLine
 10
105.258517
 20
21.169227
 30
0.0
 11
105.951337
 21
21.169227
 31
0.0
  0
LINE
  5
2EA
100
AcDbEntity
  8
FOGLIO
100
AcDbLine
 10
106.297747
 20
20.569227
 30
0.0
 11
105.951337
 21
21.169227
 31
0.0
  0
LINE
  5
2EB
100
AcDbEntity
  8
FOGLIO
100
AcDbLine
 10
105.258517
 20
19.969227
 30
0.0
 11
106.758517
 21
17.37115
 31
0.0
  0
LINE
  5
2EC
100
AcDbEntity
  8
FOGLIO
100
AcDbLine
 10
112.758517
 20
5.442947
 30
0.0
 11
112.758517
 21
25.442947
 31
0.0
  0
LINE
  5
2ED
100
AcDbEntity
  8
FOGLIO
100
AcDbLine
 10
112.758517
 20
25.442947
 30
0.0
 11
112.758517
 21
15.442947
 31
0.0
  0
LINE
  5
2EE
100
AcDbEntity
  8
FOGLIO
100
AcDbLine
 10
107.797747
 20
17.97115
 30
0.0
 11
108.144157
 21
17.37115
 31
0.0
  0
LINE
  5
2EF
100
AcDbEntity
  8
FOGLIO
100
AcDbLine
 10
107.797747
 20
16.77115
 30
0.0
 11
108.144157
 21
17.37115
 31
0.0
  0
LINE
  5
2F0
100
AcDbEntity
  8
FOGLIO
100
AcDbLine
 10
108.758517
 20
45.442947
 30
0.0
 11
108.758517
 21
35.442947
 31
0.0
  0
LINE
  5
2F1
100
AcDbEntity
  8
FOGLIO
100
AcDbLine
 10
161.758517
 20
5.442947
 30
0.0
 11
161.758517
 21
0.442947
 31
0.0
  0
TEXT
  5
2F2
100
AcDbEntity
  8
FOGLIO
100
AcDbText
 10
144.561454
 20
1.371606
 30
0.0
 40
3.5
  1
2  
 41
0.8
  7
STYLE3
100
AcDbText
  0
LINE
  5
2F3
100
AcDbEntity
  8
FOGLIO
100
AcDbLine
 10
161.758517
 20
5.442947
 30
0.0
 11
161.758517
 21
0.442947
 31
0.0
  0
LINE
  5
2F4
100
AcDbEntity
  8
FOGLIO
100
AcDbLine
 10
148.758517
 20
35.442947
 30
0.0
 11
148.758517
 21
25.442947
 31
0.0
  0
LINE
  5
2F5
100
AcDbEntity
  8
FOGLIO
100
AcDbLine
 10
148.758517
 20
5.442947
 30
0.0
 11
148.758517
 21
15.442947
 31
0.0
  0
LINE
  5
2F6
100
AcDbEntity
  8
FOGLIO
100
AcDbLine
 10
148.758517
 20
35.442947
 30
0.0
 11
148.758517
 21
45.442947
 31
0.0
  0
TEXT
  5
2F7
100
AcDbEntity
  8
FOGLIO
100
AcDbText
 10
190.153326
 20
46.60111
 30
0.0
 40
1.7
  1
N° REV
 50
90.0
 41
1.1
100
AcDbText
  0
LINE
  5
2F8
100
AcDbEntity
  8
FOGLIO
100
AcDbLine
 10
187.758517
 20
45.442947
 30
0.0
 11
187.758517
 21
55.442947
 31
0.0
  0
TEXT
  5
2F9
100
AcDbEntity
  8
FOGLIO
100
AcDbText
 10
176.809871
 20
1.371606
 30
0.0
 40
3.5
  1
1
 41
0.8
  7
STYLE3
100
AcDbText
  0
LINE
  5
2FA
100
AcDbEntity
  8
FOGLIO
100
AcDbLine
 10
168.758517
 20
15.442947
 30
0.0
 11
190.758517
 21
15.442947
 31
0.0
  0
LINE
  5
2FB
100
AcDbEntity
  8
FOGLIO
100
AcDbLine
 10
173.758517
 20
15.442947
 30
0.0
 11
173.758517
 21
5.442947
 31
0.0
  0
TEXT
  5
2FC
100
AcDbEntity
  8
FOGLIO
100
AcDbText
 10
191.929401
 20
21.193256
 30
0.0
 40
4.0
  1
A
 41
0.9
  7
STYLE3
100
AcDbText
  0
LINE
  5
2FD
100
AcDbEntity
  8
FOGLIO
100
AcDbLine
 10
193.758517
 20
40.042947
 30
0.0
 11
190.758517
 21
40.042947
 31
0.0
  0
LINE
  5
2FE
100
AcDbEntity
  8
FOGLIO
100
AcDbLine
 10
193.758517
 20
40.042947
 30
0.0
 11
195.758517
 21
40.042947
 31
0.0
  0
LINE
  5
2FF
100
AcDbEntity
  8
FOGLIO
100
AcDbLine
 10
190.758517
 20
55.442947
 30
0.0
 11
190.758517
 21
130.442947
 31
0.0
  0
TEXT
  5
300
100
AcDbEntity
  8
FOGLIO
100
AcDbText
 10
190.153326
 20
56.70567
 30
0.0
 40
1.7
  1
NOTA DI REVISIONE
 50
90.0
 41
1.1
100
AcDbText
  0
LINE
  5
301
100
AcDbEntity
  8
FOGLIO
100
AcDbLine
 10
187.758517
 20
55.442947
 30
0.0
 11
190.758517
 21
55.442947
 31
0.0
  0
TEXT
  5
302
100
AcDbEntity
  8
FOGLIO
100
AcDbText
 10
191.929401
 20
54.512673
 30
0.0
 40
4.0
  1
B
 41
0.9
  7
STYLE3
100
AcDbText
  0
LINE
  5
303
100
AcDbEntity
  8
FOGLIO
100
AcDbLine
 10
193.758517
 20
74.642947
 30
0.0
 11
190.758517
 21
74.642947
 31
0.0
  0
LINE
  5
304
100
AcDbEntity
  8
FOGLIO
100
AcDbLine
 10
193.758517
 20
74.642947
 30
0.0
 11
195.758517
 21
74.642947
 31
0.0
  0
TEXT
  5
305
100
AcDbEntity
  8
FOGLIO
100
AcDbText
 10
191.929401
 20
86.51685
 30
0.0
 40
4.0
  1
C
 41
0.9
  7
STYLE3
100
AcDbText
  0
TEXT
  5
306
100
AcDbEntity
  8
FOGLIO
100
AcDbText
 10
191.929401
 20
119.836266
 30
0.0
 40
4.0
  1
D
 41
0.9
  7
STYLE3
100
AcDbText
  0
LINE
  5
307
100
AcDbEntity
  8
FOGLIO
100
AcDbLine
 10
193.758517
 20
109.242947
 30
0.0
 11
190.758517
 21
109.242947
 31
0.0
  0
LINE
  5
308
100
AcDbEntity
  8
FOGLIO
100
AcDbLine
 10
193.758517
 20
109.242947
 30
0.0
 11
195.758517
 21
109.242947
 31
0.0
  0
LINE
  5
309
100
AcDbEntity
  8
FOGLIO
100
AcDbLine
 10
190.758517
 20
130.442947
 30
0.0
 11
187.758517
 21
130.442947
 31
0.0
  0
LINE
  5
30A
100
AcDbEntity
  8
FOGLIO
100
AcDbLine
 10
193.758517
 20
143.842947
 30
0.0
 11
190.758517
 21
143.842947
 31
0.0
  0
LINE
  5
30B
100
AcDbEntity
  8
FOGLIO
100
AcDbLine
 10
193.758517
 20
143.842947
 30
0.0
 11
195.758517
 21
143.842947
 31
0.0
  0
LINE
  5
30C
100
AcDbEntity
  8
FOGLIO
100
AcDbLine
 10
130.158517
 20
282.442947
 30
0.0
 11
130.158517
 21
283.442947
 31
0.0
  0
LINE
  5
30D
100
AcDbEntity
  8
FOGLIO
100
AcDbLine
 10
130.158517
 20
282.442947
 30
0.0
 11
130.158517
 21
278.442947
 31
0.0
  0
LINE
  5
30E
100
AcDbEntity
  8
FOGLIO
100
AcDbLine
 10
161.758517
 20
282.442947
 30
0.0
 11
161.758517
 21
283.442947
 31
0.0
  0
LINE
  5
30F
100
AcDbEntity
  8
FOGLIO
100
AcDbLine
 10
161.758517
 20
282.442947
 30
0.0
 11
161.758517
 21
278.442947
 31
0.0
  0
LINE
  5
310
100
AcDbEntity
  8
FOGLIO
100
AcDbLine
 10
187.758517
 20
160.442947
 30
0.0
 11
187.758517
 21
175.442947
 31
0.0
  0
LINE
  5
311
100
AcDbEntity
  8
FOGLIO
100
AcDbLine
 10
190.758517
 20
160.442947
 30
0.0
 11
187.758517
 21
160.442947
 31
0.0
  0
LINE
  5
312
100
AcDbEntity
  8
FOGLIO
100
AcDbLine
 10
187.758517
 20
145.442947
 30
0.0
 11
190.758517
 21
145.442947
 31
0.0
  0
LINE
  5
313
100
AcDbEntity
  8
FOGLIO
100
AcDbLine
 10
190.758517
 20
145.442947
 30
0.0
 11
190.758517
 21
160.442947
 31
0.0
  0
TEXT
  5
314
100
AcDbEntity
  8
FOGLIO
100
AcDbText
 10
191.936896
 20
156.562099
 30
0.0
 40
4.0
  1
E
 41
0.9
  7
STYLE3
100
AcDbText
  0
LINE
  5
315
100
AcDbEntity
  8
FOGLIO
100
AcDbLine
 10
187.758517
 20
175.442947
 30
0.0
 11
190.758517
 21
175.442947
 31
0.0
  0
LINE
  5
316
100
AcDbEntity
  8
FOGLIO
100
AcDbLine
 10
193.758517
 20
178.442947
 30
0.0
 11
190.758517
 21
178.442947
 31
0.0
  0
LINE
  5
317
100
AcDbEntity
  8
FOGLIO
100
AcDbLine
 10
193.758517
 20
178.442947
 30
0.0
 11
195.758517
 21
178.442947
 31
0.0
  0
TEXT
  5
318
100
AcDbEntity
  8
FOGLIO
100
AcDbText
 10
191.936896
 20
190.758342
 30
0.0
 40
4.0
  1
F
 41
0.9
  7
STYLE3
100
AcDbText
  0
LINE
  5
319
100
AcDbEntity
  8
FOGLIO
100
AcDbLine
 10
193.758517
 20
213.042947
 30
0.0
 11
190.758517
 21
213.042947
 31
0.0
  0
LINE
  5
31A
100
AcDbEntity
  8
FOGLIO
100
AcDbLine
 10
193.758517
 20
213.042947
 30
0.0
 11
195.758517
 21
213.042947
 31
0.0
  0
TEXT
  5
31B
100
AcDbEntity
  8
FOGLIO
100
AcDbText
 10
191.936896
 20
225.392999
 30
0.0
 40
4.0
  1
G
 41
0.9
  7
STYLE3
100
AcDbText
  0
TEXT
  5
31C
100
AcDbEntity
  8
FOGLIO
100
AcDbText
 10
191.936896
 20
257.397176
 30
0.0
 40
4.0
  1
F
 41
0.9
  7
STYLE3
100
AcDbText
  0
LINE
  5
31D
100
AcDbEntity
  8
FOGLIO
100
AcDbLine
 10
193.758517
 20
247.642947
 30
0.0
 11
190.758517
 21
247.642947
 31
0.0
  0
LINE
  5
31E
100
AcDbEntity
  8
FOGLIO
100
AcDbLine
 10
193.758517
 20
247.642947
 30
0.0
 11
195.758517
 21
247.642947
 31
0.0
  0
ENDBLK
  5
320
100
AcDbEntity
  8
FOGLIO
100
AcDbBlockEnd
  0
BLOCK
  5
FD5
100
AcDbEntity
  8
0
100
AcDbBlockBegin
  2
*D1
 70
    65
 10
0.0
 20
0.0
 30
0.0
  3
*D1
  1

  0
LINE
  5
FD6
100
AcDbEntity
  8
0
  6
BYBLOCK
 62
     0
100
AcDbLine
 10
-34.113506
 20
176.935463
 30
0.0
 11
-34.113506
 21
183.85849
 31
0.0
  0
LINE
  5
FD7
100
AcDbEntity
  8
0
  6
BYBLOCK
 62
     0
100
AcDbLine
 10
65.886494
 20
176.935463
 30
0.0
 11
65.886494
 21
183.85849
 31
0.0
  0
LINE
  5
FD8
100
AcDbEntity
  8
0
  6
BYBLOCK
 62
     0
100
AcDbLine
 10
-31.613506
 20
182.60849
 30
0.0
 11
63.386494
 21
182.60849
 31
0.0
  0
SOLID
  5
FD9
100
AcDbEntity
  8
0
  6
BYBLOCK
 62
     0
100
AcDbTrace
 10
-31.613506
 20
183.025156
 30
0.0
 11
-31.613506
 21
182.191823
 31
0.0
 12
-34.113506
 22
182.60849
 32
0.0
 13
-34.113506
 23
182.60849
 33
0.0
  0
SOLID
  5
FDA
100
AcDbEntity
  8
0
  6
BYBLOCK
 62
     0
100
AcDbTrace
 10
63.386494
 20
183.025156
 30
0.0
 11
63.386494
 21
182.191823
 31
0.0
 12
65.886494
 22
182.60849
 32
0.0
 13
65.886494
 23
182.60849
 33
0.0
  0
MTEXT
  5
FDB
100
AcDbEntity
  8
0
  6
BYBLOCK
 62
     0
100
AcDbMText
 10
17.692427
 20
184.73349
 30
0.0
 40
3.0
 41
0.0
 71
     5
 72
     1
  1
\A1;100
  0
POINT
  5
FDC
100
AcDbEntity
  8
DEFPOINTS
  6
BYBLOCK
 62
     0
100
AcDbPoint
 10
-34.113506
 20
176.310463
 30
0.0
  0
POINT
  5
FDD
100
AcDbEntity
  8
DEFPOINTS
  6
BYBLOCK
 62
     0
100
AcDbPoint
 10
65.886494
 20
176.310463
 30
0.0
  0
POINT
  5
FDE
100
AcDbEntity
  8
DEFPOINTS
  6
BYBLOCK
 62
     0
100
AcDbPoint
 10
65.886494
 20
182.60849
 30
0.0
  0
ENDBLK
  5
FDF
100
AcDbEntity
  8
0
100
AcDbBlockEnd
  0
BLOCK
  5
F89
100
AcDbEntity
  8
0
100
AcDbBlockBegin
  2
*D2
 70
    65
 10
0.0
 20
0.0
 30
0.0
  3
*D2
  1

  0
LINE
  5
F8A
100
AcDbEntity
  8
0
  6
BYBLOCK
 62
     0
100
AcDbLine
 10
-14.113506
 20
81.935463
 30
0.0
 11
-14.113506
 21
97.18536
 31
0.0
  0
LINE
  5
F8B
100
AcDbEntity
  8
0
  6
BYBLOCK
 62
     0
100
AcDbLine
 10
45.886494
 20
81.935463
 30
0.0
 11
45.886494
 21
97.18536
 31
0.0
  0
LINE
  5
F8C
100
AcDbEntity
  8
0
  6
BYBLOCK
 62
     0
100
AcDbLine
 10
-11.613506
 20
95.93536
 30
0.0
 11
43.386494
 21
95.93536
 31
0.0
  0
SOLID
  5
F8D
100
AcDbEntity
  8
0
  6
BYBLOCK
 62
     0
100
AcDbTrace
 10
-11.613506
 20
96.352026
 30
0.0
 11
-11.613506
 21
95.518693
 31
0.0
 12
-14.113506
 22
95.93536
 32
0.0
 13
-14.113506
 23
95.93536
 33
0.0
  0
SOLID
  5
F8E
100
AcDbEntity
  8
0
  6
BYBLOCK
 62
     0
100
AcDbTrace
 10
43.386494
 20
96.352026
 30
0.0
 11
43.386494
 21
95.518693
 31
0.0
 12
45.886494
 22
95.93536
 32
0.0
 13
45.886494
 23
95.93536
 33
0.0
  0
MTEXT
  5
F8F
100
AcDbEntity
  8
0
  6
BYBLOCK
 62
     0
100
AcDbMText
 10
15.886494
 20
99.911541
 30
0.0
 40
3.0
 41
0.0
 71
     5
 72
     1
  1
\A1;60\S+0.05^  0;
  0
POINT
  5
F90
100
AcDbEntity
  8
DEFPOINTS
  6
BYBLOCK
 62
     0
100
AcDbPoint
 10
-14.113506
 20
81.310463
 30
0.0
  0
POINT
  5
F91
100
AcDbEntity
  8
DEFPOINTS
  6
BYBLOCK
 62
     0
100
AcDbPoint
 10
45.886494
 20
81.310463
 30
0.0
  0
POINT
  5
F92
100
AcDbEntity
  8
DEFPOINTS
  6
BYBLOCK
 62
     0
100
AcDbPoint
 10
45.886494
 20
95.93536
 30
0.0
  0
ENDBLK
  5
F93
100
AcDbEntity
  8
0
100
AcDbBlockEnd
  0
BLOCK
  5
B8B
100
AcDbEntity
  8
0
100
AcDbBlockBegin
  2
*D3
 70
    65
 10
0.0
 20
0.0
 30
0.0
  3
*D3
  1

  0
LINE
  5
B8C
100
AcDbEntity
  8
0
  6
BYBLOCK
 62
     0
100
AcDbLine
 10
-44.113506
 20
100.685463
 30
0.0
 11
-44.113506
 21
60.581395
 31
0.0
  0
LINE
  5
B8D
100
AcDbEntity
  8
0
  6
BYBLOCK
 62
     0
100
AcDbLine
 10
75.886494
 20
100.685463
 30
0.0
 11
75.886494
 21
60.581395
 31
0.0
  0
LINE
  5
B8E
100
AcDbEntity
  8
0
  6
BYBLOCK
 62
     0
100
AcDbLine
 10
-41.613506
 20
61.831395
 30
0.0
 11
73.386494
 21
61.831395
 31
0.0
  0
SOLID
  5
B8F
100
AcDbEntity
  8
0
  6
BYBLOCK
 62
     0
100
AcDbTrace
 10
-41.613506
 20
62.248062
 30
0.0
 11
-41.613506
 21
61.414728
 31
0.0
 12
-44.113506
 22
61.831395
 32
0.0
 13
-44.113506
 23
61.831395
 33
0.0
  0
SOLID
  5
B90
100
AcDbEntity
  8
0
  6
BYBLOCK
 62
     0
100
AcDbTrace
 10
73.386494
 20
62.248062
 30
0.0
 11
73.386494
 21
61.414728
 31
0.0
 12
75.886494
 22
61.831395
 32
0.0
 13
75.886494
 23
61.831395
 33
0.0
  0
MTEXT
  5
B91
100
AcDbEntity
  8
0
  6
BYBLOCK
 62
     0
100
AcDbMText
 10
15.886494
 20
63.956395
 30
0.0
 40
3.0
 41
0.0
 71
     5
 72
     1
  1
\A2;120{\H2.400000;±0.05}
  0
POINT
  5
B92
100
AcDbEntity
  8
DEFPOINTS
  6
BYBLOCK
 62
     0
100
AcDbPoint
 10
-44.113506
 20
101.310463
 30
0.0
  0
POINT
  5
B93
100
AcDbEntity
  8
DEFPOINTS
  6
BYBLOCK
 62
     0
100
AcDbPoint
 10
75.886494
 20
101.310463
 30
0.0
  0
POINT
  5
B94
100
AcDbEntity
  8
DEFPOINTS
  6
BYBLOCK
 62
     0
100
AcDbPoint
 10
75.886494
 20
61.831395
 30
0.0
  0
ENDBLK
  5
B95
100
AcDbEntity
  8
0
100
AcDbBlockEnd
  0
BLOCK
  5
B96
100
AcDbEntity
  8
0
100
AcDbBlockBegin
  2
*D4
 70
    65
 10
0.0
 20
0.0
 30
0.0
  3
*D4
  1

  0
LINE
  5
B97
100
AcDbEntity
  8
0
  6
BYBLOCK
 62
     0
100
AcDbLine
 10
76.511494
 20
176.310463
 30
0.0
 11
100.794458
 21
176.310463
 31
0.0
  0
LINE
  5
B98
100
AcDbEntity
  8
0
  6
BYBLOCK
 62
     0
100
AcDbLine
 10
46.511494
 20
81.310463
 30
0.0
 11
100.794458
 21
81.310463
 31
0.0
  0
LINE
  5
B99
100
AcDbEntity
  8
0
  6
BYBLOCK
 62
     0
100
AcDbLine
 10
99.544458
 20
173.810463
 30
0.0
 11
99.544458
 21
83.810463
 31
0.0
  0
SOLID
  5
B9A
100
AcDbEntity
  8
0
  6
BYBLOCK
 62
     0
100
AcDbTrace
 10
99.127791
 20
173.810463
 30
0.0
 11
99.961124
 21
173.810463
 31
0.0
 12
99.544458
 22
176.310463
 32
0.0
 13
99.544458
 23
176.310463
 33
0.0
  0
SOLID
  5
B9B
100
AcDbEntity
  8
0
  6
BYBLOCK
 62
     0
100
AcDbTrace
 10
99.127791
 20
83.810463
 30
0.0
 11
99.961124
 21
83.810463
 31
0.0
 12
99.544458
 22
81.310463
 32
0.0
 13
99.544458
 23
81.310463
 33
0.0
  0
MTEXT
  5
B9C
100
AcDbEntity
  8
0
  6
BYBLOCK
 62
     0
100
AcDbMText
 10
95.568277
 20
128.810463
 30
0.0
 40
3.0
 41
0.0
 71
     5
 72
     1
  1
\A1;95\S+0.05^  0;
 11
0.0
 21
1.0
 31
0.0
  0
POINT
  5
B9D
100
AcDbEntity
  8
DEFPOINTS
  6
BYBLOCK
 62
     0
100
AcDbPoint
 10
75.886494
 20
176.310463
 30
0.0
  0
POINT
  5
B9E
100
AcDbEntity
  8
DEFPOINTS
  6
BYBLOCK
 62
     0
100
AcDbPoint
 10
45.886494
 20
81.310463
 30
0.0
  0
POINT
  5
B9F
100
AcDbEntity
  8
DEFPOINTS
  6
BYBLOCK
 62
     0
100
AcDbPoint
 10
99.544458
 20
81.310463
 30
0.0
  0
ENDBLK
  5
BA0
100
AcDbEntity
  8
0
100
AcDbBlockEnd
  0
BLOCK
  5
BA1
100
AcDbEntity
  8
0
100
AcDbBlockBegin
  2
*D5
 70
    65
 10
0.0
 20
0.0
 30
0.0
  3
*D5
  1

  0
LINE
  5
BA2
100
AcDbEntity
  8
0
  6
BYBLOCK
 62
     0
100
AcDbLine
 10
76.511494
 20
101.310463
 30
0.0
 11
90.377501
 21
101.310463
 31
0.0
  0
LINE
  5
BA3
100
AcDbEntity
  8
0
  6
BYBLOCK
 62
     0
100
AcDbLine
 10
46.511494
 20
81.310463
 30
0.0
 11
90.377501
 21
81.310463
 31
0.0
  0
LINE
  5
BA4
100
AcDbEntity
  8
0
  6
BYBLOCK
 62
     0
100
AcDbLine
 10
89.127501
 20
98.810463
 30
0.0
 11
89.127501
 21
83.810463
 31
0.0
  0
SOLID
  5
BA5
100
AcDbEntity
  8
0
  6
BYBLOCK
 62
     0
100
AcDbTrace
 10
88.710834
 20
98.810463
 30
0.0
 11
89.544168
 21
98.810463
 31
0.0
 12
89.127501
 22
101.310463
 32
0.0
 13
89.127501
 23
101.310463
 33
0.0
  0
SOLID
  5
BA6
100
AcDbEntity
  8
0
  6
BYBLOCK
 62
     0
100
AcDbTrace
 10
88.710834
 20
83.810463
 30
0.0
 11
89.544168
 21
83.810463
 31
0.0
 12
89.127501
 22
81.310463
 32
0.0
 13
89.127501
 23
81.310463
 33
0.0
  0
MTEXT
  5
BA7
100
AcDbEntity
  8
0
  6
BYBLOCK
 62
     0
100
AcDbMText
 10
85.821556
 20
91.310463
 30
0.0
 40
3.0
 41
0.0
 71
     5
 72
     1
  1
\A2;20{\H2.400000;\S+0.1^  0;}
 11
0.0
 21
1.0
 31
0.0
  0
POINT
  5
BA8
100
AcDbEntity
  8
DEFPOINTS
  6
BYBLOCK
 62
     0
100
AcDbPoint
 10
75.886494
 20
101.310463
 30
0.0
  0
POINT
  5
BA9
100
AcDbEntity
  8
DEFPOINTS
  6
BYBLOCK
 62
     0
100
AcDbPoint
 10
45.886494
 20
81.310463
 30
0.0
  0
POINT
  5
BAA
100
AcDbEntity
  8
DEFPOINTS
  6
BYBLOCK
 62
     0
100
AcDbPoint
 10
89.127501
 20
81.310463
 30
0.0
  0
ENDBLK
  5
BAB
100
AcDbEntity
  8
0
100
AcDbBlockEnd
  0
BLOCK
  5
FE0
100
AcDbEntity
  8
0
100
AcDbBlockBegin
  2
*D6
 70
    65
 10
0.0
 20
0.0
 30
0.0
  3
*D6
  1

  0
LINE
  5
FE1
100
AcDbEntity
  8
0
  6
BYBLOCK
 62
     0
100
AcDbLine
 10
69.406578
 20
168.310463
 30
0.0
 11
66.392095
 21
172.910777
 31
0.0
  0
LINE
  5
FE2
100
AcDbEntity
  8
0
  6
BYBLOCK
 62
     0
100
AcDbLine
 10
65.021876
 20
175.001829
 30
0.0
 11
56.010634
 21
188.753621
 31
0.0
  0
SOLID
  5
FE3
100
AcDbEntity
  8
0
  6
BYBLOCK
 62
     0
100
AcDbTrace
 10
66.740604
 20
173.139147
 30
0.0
 11
66.043587
 21
172.682407
 31
0.0
 12
65.021876
 22
175.001829
 32
0.0
 13
65.021876
 23
175.001829
 33
0.0
  0
MTEXT
  5
FE4
100
AcDbEntity
  8
0
  6
BYBLOCK
 62
     0
100
AcDbMText
 10
59.215797
 20
187.739432
 30
0.0
 40
3.0
 41
0.0
 71
     5
 72
     1
  1
\A1;R8
 11
0.548088
 21
-0.836421
 31
0.0
  0
POINT
  5
FE5
100
AcDbEntity
  8
DEFPOINTS
  6
BYBLOCK
 62
     0
100
AcDbPoint
 10
65.021876
 20
175.001829
 30
0.0
  0
POINT
  5
FE6
100
AcDbEntity
  8
DEFPOINTS
  6
BYBLOCK
 62
     0
100
AcDbPoint
 10
69.406578
 20
168.310463
 30
0.0
  0
ENDBLK
  5
FE7
100
AcDbEntity
  8
0
100
AcDbBlockEnd
  0
BLOCK
  5
524
100
AcDbEntity
  8
QUOTE
100
AcDbBlockBegin
  2
RUGOSITA
 70
     2
 10
0.0
 20
0.0
 30
0.0
  3
RUGOSITA
  1

  0
ATTDEF
  5
520
100
AcDbEntity
  8
QUOTE
100
AcDbText
 10
-1.071886
 20
3.214106
 30
0.0
 40
1.5
  1
0.8
100
AcDbAttributeDefinition
  3
CHE RUGOSITA ?
  2
RUGOSITA
 70
     0
  0
LINE
  5
521
100
AcDbEntity
  8
QUOTE
100
AcDbLine
 10
0.0
 20
0.0
 30
0.0
 11
4.0
 21
6.928203
 31
0.0
  0
LINE
  5
522
100
AcDbEntity
  8
QUOTE
100
AcDbLine
 10
0.0
 20
0.0
 30
0.0
 11
-1.75
 21
3.031089
 31
0.0
  0
LINE
  5
523
100
AcDbEntity
  8
QUOTE
100
AcDbLine
 10
-1.75
 20
3.031089
 30
0.0
 11
1.75
 21
3.031089
 31
0.0
  0
ENDBLK
  5
525
100
AcDbEntity
  8
QUOTE
100
AcDbBlockEnd
  0
BLOCK
  5
64D
100
AcDbEntity
  8
DISEGNO
100
AcDbBlockBegin
  2
A$CC223
 70
     0
 10
0.0
 20
0.0
 30
0.0
  3
A$CC223
  1

  0
TEXT
  5
64A
100
AcDbEntity
  8
DISEGNO
100
AcDbText
 10
-0.421349
 20
5.594786
 30
0.0
 40
3.0
  1
E SI RIFERISCONO AGLI SCOSTAMENTI RSPETTO
 41
1.1
100
AcDbText
  0
TEXT
  5
64B
100
AcDbEntity
  8
DISEGNO
100
AcDbText
 10
-0.421349
 20
11.294786
 30
0.0
 40
3.0
  1
LE TOLLERANZE DEI PROFILI SONO INDICATIVE
 41
1.1
100
AcDbText
  0
TEXT
  5
64C
100
AcDbEntity
  8
DISEGNO
100
AcDbText
 10
-0.421349
 20
-0.105214
 30
0.0
 40
3.0
  1
AL MASTER: P.116.35.R08
 41
1.1
100
AcDbText
  0
ENDBLK
  5
64E
100
AcDbEntity
  8
DISEGNO
100
AcDbBlockEnd
  0
BLOCK
  5
BE8
100
AcDbEntity
  8
0
100
AcDbBlockBegin
  2
*D9
 70
    65
 10
0.0
 20
0.0
 30
0.0
  3
*D9
  1

  0
LINE
  5
BE9
100
AcDbEntity
  8
0
  6
BYBLOCK
 62
     0
100
AcDbLine
 10
74.444552
 20
139.252405
 30
0.0
 11
67.221306
 21
146.475651
 31
0.0
  0
LINE
  5
BEA
100
AcDbEntity
  8
0
  6
BYBLOCK
 62
     0
100
AcDbLine
 10
74.444552
 20
138.368521
 30
0.0
 11
67.221306
 21
131.145275
 31
0.0
  0
ARC
  5
BEB
100
AcDbEntity
  8
0
  6
BYBLOCK
 62
     0
100
AcDbCircle
 10
74.886494
 20
138.810463
 30
0.0
 40
9.590212
100
AcDbArc
 50
149.978621
 51
210.021379
  0
SOLID
  5
BEC
100
AcDbEntity
  8
0
  6
BYBLOCK
 62
     0
100
AcDbTrace
 10
66.2524
 20
143.86238
 30
0.0
 11
66.913433
 21
143.354956
 31
0.0
 12
68.10519
 22
145.591767
 32
0.0
 13
68.10519
 23
145.591767
 33
0.0
  0
SOLID
  5
BED
100
AcDbEntity
  8
0
  6
BYBLOCK
 62
     0
100
AcDbTrace
 10
66.913433
 20
134.26597
 30
0.0
 11
66.2524
 21
133.758546
 31
0.0
 12
68.10519
 22
132.029159
 32
0.0
 13
68.10519
 23
132.029159
 33
0.0
  0
MTEXT
  5
BEE
100
AcDbEntity
  8
0
  6
BYBLOCK
 62
     0
100
AcDbMText
 10
63.171282
 20
138.810463
 30
0.0
 40
3.0
 41
0.0
 71
     5
 72
     1
  1
\A1;90°
 11
0.0
 21
1.0
 31
0.0
  0
POINT
  5
BEF
100
AcDbEntity
  8
DEFPOINTS
  6
BYBLOCK
 62
     0
100
AcDbPoint
 10
65.62306
 20
141.292593
 30
0.0
  0
POINT
  5
BF0
100
AcDbEntity
  8
DEFPOINTS
  6
BYBLOCK
 62
     0
100
AcDbPoint
 10
75.886494
 20
139.810463
 30
0.0
  0
POINT
  5
BF1
100
AcDbEntity
  8
DEFPOINTS
  6
BYBLOCK
 62
     0
100
AcDbPoint
 10
75.886494
 20
137.810463
 30
0.0
  0
POINT
  5
BF2
100
AcDbEntity
  8
DEFPOINTS
  6
BYBLOCK
 62
     0
100
AcDbPoint
 10
74.886494
 20
138.810463
 30
0.0
  0
POINT
  5
BF3
100
AcDbEntity
  8
DEFPOINTS
  6
BYBLOCK
 62
     0
100
AcDbPoint
 10
74.886494
 20
138.810463
 30
0.0
  0
ENDBLK
  5
BF4
100
AcDbEntity
  8
0
100
AcDbBlockEnd
  0
BLOCK
  5
BF5
100
AcDbEntity
  8
0
100
AcDbBlockBegin
  2
*D10
 70
    65
 10
0.0
 20
0.0
 30
0.0
  3
*D10
  1

  0
LINE
  5
BF6
100
AcDbEntity
  8
0
  6
BYBLOCK
 62
     0
100
AcDbLine
 10
75.511494
 20
176.310463
 30
0.0
 11
89.553223
 21
176.310463
 31
0.0
  0
LINE
  5
BF7
100
AcDbEntity
  8
0
  6
BYBLOCK
 62
     0
100
AcDbLine
 10
75.511494
 20
138.810463
 30
0.0
 11
89.553223
 21
138.810463
 31
0.0
  0
LINE
  5
BF8
100
AcDbEntity
  8
0
  6
BYBLOCK
 62
     0
100
AcDbLine
 10
88.303223
 20
173.810463
 30
0.0
 11
88.303223
 21
141.310463
 31
0.0
  0
SOLID
  5
BF9
100
AcDbEntity
  8
0
  6
BYBLOCK
 62
     0
100
AcDbTrace
 10
87.886557
 20
173.810463
 30
0.0
 11
88.71989
 21
173.810463
 31
0.0
 12
88.303223
 22
176.310463
 32
0.0
 13
88.303223
 23
176.310463
 33
0.0
  0
SOLID
  5
BFA
100
AcDbEntity
  8
0
  6
BYBLOCK
 62
     0
100
AcDbTrace
 10
87.886557
 20
141.310463
 30
0.0
 11
88.71989
 21
141.310463
 31
0.0
 12
88.303223
 22
138.810463
 32
0.0
 13
88.303223
 23
138.810463
 33
0.0
  0
MTEXT
  5
BFB
100
AcDbEntity
  8
0
  6
BYBLOCK
 62
     0
100
AcDbMText
 10
86.178223
 20
157.560463
 30
0.0
 40
3.0
 41
0.0
 71
     5
 72
     1
  1
\A1;37.5
 11
0.0
 21
1.0
 31
0.0
  0
POINT
  5
BFC
100
AcDbEntity
  8
DEFPOINTS
  6
BYBLOCK
 62
     0
100
AcDbPoint
 10
74.886494
 20
176.310463
 30
0.0
  0
POINT
  5
BFD
100
AcDbEntity
  8
DEFPOINTS
  6
BYBLOCK
 62
     0
100
AcDbPoint
 10
74.886494
 20
138.810463
 30
0.0
  0
POINT
  5
BFE
100
AcDbEntity
  8
DEFPOINTS
  6
BYBLOCK
 62
     0
100
AcDbPoint
 10
88.303223
 20
138.810463
 30
0.0
  0
ENDBLK
  5
BFF
100
AcDbEntity
  8
0
100
AcDbBlockEnd
  0
BLOCK
  5
C00
100
AcDbEntity
  8
0
100
AcDbBlockBegin
  2
*D11
 70
    65
 10
0.0
 20
0.0
 30
0.0
  3
*D11
  1

  0
LINE
  5
C01
100
AcDbEntity
  8
0
  6
BYBLOCK
 62
     0
100
AcDbLine
 10
76.511494
 20
139.810463
 30
0.0
 11
86.402054
 21
139.810463
 31
0.0
  0
LINE
  5
C02
100
AcDbEntity
  8
0
  6
BYBLOCK
 62
     0
100
AcDbLine
 10
76.511494
 20
137.810463
 30
0.0
 11
86.402054
 21
137.810463
 31
0.0
  0
LINE
  5
C03
100
AcDbEntity
  8
0
  6
BYBLOCK
 62
     0
100
AcDbLine
 10
85.152054
 20
142.310463
 30
0.0
 11
85.152054
 21
144.810463
 31
0.0
  0
LINE
  5
C04
100
AcDbEntity
  8
0
  6
BYBLOCK
 62
     0
100
AcDbLine
 10
85.152054
 20
135.310463
 30
0.0
 11
85.152054
 21
129.958469
 31
0.0
  0
SOLID
  5
C05
100
AcDbEntity
  8
0
  6
BYBLOCK
 62
     0
100
AcDbTrace
 10
84.735387
 20
142.310463
 30
0.0
 11
85.56872
 21
142.310463
 31
0.0
 12
85.152054
 22
139.810463
 32
0.0
 13
85.152054
 23
139.810463
 33
0.0
  0
SOLID
  5
C06
100
AcDbEntity
  8
0
  6
BYBLOCK
 62
     0
100
AcDbTrace
 10
84.735387
 20
135.310463
 30
0.0
 11
85.56872
 21
135.310463
 31
0.0
 12
85.152054
 22
137.810463
 32
0.0
 13
85.152054
 23
137.810463
 33
0.0
  0
MTEXT
  5
C07
100
AcDbEntity
  8
0
  6
BYBLOCK
 62
     0
100
AcDbMText
 10
83.026758
 20
131.384466
 30
0.0
 40
3.0
 41
0.0
 71
     5
 72
     1
  1
\A1;2
 11
0.0
 21
1.0
 31
0.0
  0
POINT
  5
C08
100
AcDbEntity
  8
DEFPOINTS
  6
BYBLOCK
 62
     0
100
AcDbPoint
 10
75.886494
 20
139.810463
 30
0.0
  0
POINT
  5
C09
100
AcDbEntity
  8
DEFPOINTS
  6
BYBLOCK
 62
     0
100
AcDbPoint
 10
75.886494
 20
137.810463
 30
0.0
  0
POINT
  5
C0A
100
AcDbEntity
  8
DEFPOINTS
  6
BYBLOCK
 62
     0
100
AcDbPoint
 10
85.152054
 20
137.810463
 30
0.0
  0
ENDBLK
  5
C0B
100
AcDbEntity
  8
0
100
AcDbBlockEnd
  0
BLOCK
  5
744
100
AcDbEntity
  8
0
100
AcDbBlockBegin
  2
*D12
 70
    65
 10
0.0
 20
0.0
 30
0.0
  3
*D12
  1

  0
LINE
  5
73B
100
AcDbEntity
  8
0
  6
BYBLOCK
 62
     0
100
AcDbLine
 10
-116.120165
 20
179.590682
 30
0.0
 11
-116.120165
 21
205.315169
 31
0.0
  0
LINE
  5
73C
100
AcDbEntity
  8
0
  6
BYBLOCK
 62
     0
100
AcDbLine
 10
-216.120165
 20
179.590682
 30
0.0
 11
-216.120165
 21
205.315169
 31
0.0
  0
LINE
  5
73D
100
AcDbEntity
  8
0
  6
BYBLOCK
 62
     0
100
AcDbLine
 10
-118.620165
 20
204.065169
 30
0.0
 11
-213.620165
 21
204.065169
 31
0.0
  0
SOLID
  5
73E
100
AcDbEntity
  8
0
  6
BYBLOCK
 62
     0
100
AcDbTrace
 10
-118.620165
 20
204.481835
 30
0.0
 11
-118.620165
 21
203.648502
 31
0.0
 12
-116.120165
 22
204.065169
 32
0.0
 13
-116.120165
 23
204.065169
 33
0.0
  0
SOLID
  5
73F
100
AcDbEntity
  8
0
  6
BYBLOCK
 62
     0
100
AcDbTrace
 10
-213.620165
 20
204.481835
 30
0.0
 11
-213.620165
 21
203.648502
 31
0.0
 12
-216.120165
 22
204.065169
 32
0.0
 13
-216.120165
 23
204.065169
 33
0.0
  0
MTEXT
  5
740
100
AcDbEntity
  8
0
  6
BYBLOCK
 62
     0
100
AcDbMText
 10
-166.120165
 20
207.095169
 30
0.0
 40
5.0
 41
0.0
 71
     5
 72
     1
  1
\A1;100
  0
POINT
  5
741
100
AcDbEntity
  8
DEFPOINTS
  6
BYBLOCK
 62
     0
100
AcDbPoint
 10
-116.120165
 20
178.965682
 30
0.0
  0
POINT
  5
742
100
AcDbEntity
  8
DEFPOINTS
  6
BYBLOCK
 62
     0
100
AcDbPoint
 10
-216.120165
 20
178.965682
 30
0.0
  0
POINT
  5
743
100
AcDbEntity
  8
DEFPOINTS
  6
BYBLOCK
 62
     0
100
AcDbPoint
 10
-216.120165
 20
204.065169
 30
0.0
  0
ENDBLK
  5
745
100
AcDbEntity
  8
0
100
AcDbBlockEnd
  0
BLOCK
  5
750
100
AcDbEntity
  8
0
100
AcDbBlockBegin
  2
*D13
 70
    65
 10
0.0
 20
0.0
 30
0.0
  3
*D13
  1

  0
ARC
  5
747
100
AcDbEntity
  8
0
  6
BYBLOCK
 62
     0
100
AcDbCircle
 10
-166.120165
 20
119.378003
 30
0.0
 40
71.672706
100
AcDbArc
 50
51.998623
 51
128.001377
  0
SOLID
  5
748
100
AcDbEntity
  8
0
  6
BYBLOCK
 62
     0
100
AcDbTrace
 10
-121.730462
 20
176.179613
 30
0.0
 11
-122.254904
 21
175.531998
 31
0.0
 12
-120.049837
 22
174.282481
 32
0.0
 13
-120.049837
 23
174.282481
 33
0.0
  0
SOLID
  5
749
100
AcDbEntity
  8
0
  6
BYBLOCK
 62
     0
100
AcDbTrace
 10
-209.985425
 20
175.531998
 30
0.0
 11
-210.509867
 21
176.179613
 31
0.0
 12
-212.190492
 22
174.282481
 32
0.0
 13
-212.190492
 23
174.282481
 33
0.0
  0
MTEXT
  5
74A
100
AcDbEntity
  8
0
  6
BYBLOCK
 62
     0
100
AcDbMText
 10
-166.120165
 20
194.080709
 30
0.0
 40
5.0
 41
0.0
 71
     5
 72
     1
  1
\A1;80°
  0
POINT
  5
74B
100
AcDbEntity
  8
DEFPOINTS
  6
BYBLOCK
 62
     0
100
AcDbPoint
 10
-149.591301
 20
189.118762
 30
0.0
  0
POINT
  5
74C
100
AcDbEntity
  8
DEFPOINTS
  6
BYBLOCK
 62
     0
100
AcDbPoint
 10
-118.518059
 20
176.107983
 30
0.0
  0
POINT
  5
74D
100
AcDbEntity
  8
DEFPOINTS
  6
BYBLOCK
 62
     0
100
AcDbPoint
 10
-205.986311
 20
166.888627
 30
0.0
  0
POINT
  5
74E
100
AcDbEntity
  8
DEFPOINTS
  6
BYBLOCK
 62
     0
100
AcDbPoint
 10
-213.72227
 20
176.107983
 30
0.0
  0
POINT
  5
74F
100
AcDbEntity
  8
DEFPOINTS
  6
BYBLOCK
 62
     0
100
AcDbPoint
 10
-126.254018
 20
166.888627
 30
0.0
  0
ENDBLK
  5
751
100
AcDbEntity
  8
0
100
AcDbBlockEnd
  0
BLOCK
  5
75C
100
AcDbEntity
  8
0
100
AcDbBlockBegin
  2
*D14
 70
    65
 10
0.0
 20
0.0
 30
0.0
  3
*D14
  1

  0
LINE
  5
753
100
AcDbEntity
  8
0
  6
BYBLOCK
 62
     0
100
AcDbLine
 10
-136.120165
 20
84.340682
 30
0.0
 11
-136.120165
 21
69.108457
 31
0.0
  0
LINE
  5
754
100
AcDbEntity
  8
0
  6
BYBLOCK
 62
     0
100
AcDbLine
 10
-196.120165
 20
84.340682
 30
0.0
 11
-196.120165
 21
69.108457
 31
0.0
  0
LINE
  5
755
100
AcDbEntity
  8
0
  6
BYBLOCK
 62
     0
100
AcDbLine
 10
-138.620165
 20
70.358457
 30
0.0
 11
-193.620165
 21
70.358457
 31
0.0
  0
SOLID
  5
756
100
AcDbEntity
  8
0
  6
BYBLOCK
 62
     0
100
AcDbTrace
 10
-138.620165
 20
70.775123
 30
0.0
 11
-138.620165
 21
69.94179
 31
0.0
 12
-136.120165
 22
70.358457
 32
0.0
 13
-136.120165
 23
70.358457
 33
0.0
  0
SOLID
  5
757
100
AcDbEntity
  8
0
  6
BYBLOCK
 62
     0
100
AcDbTrace
 10
-193.620165
 20
70.775123
 30
0.0
 11
-193.620165
 21
69.94179
 31
0.0
 12
-196.120165
 22
70.358457
 32
0.0
 13
-196.120165
 23
70.358457
 33
0.0
  0
MTEXT
  5
758
100
AcDbEntity
  8
0
  6
BYBLOCK
 62
     0
100
AcDbMText
 10
-166.120165
 20
73.388457
 30
0.0
 40
5.0
 41
0.0
 71
     5
 72
     1
  1
\A1;60
  0
POINT
  5
759
100
AcDbEntity
  8
DEFPOINTS
  6
BYBLOCK
 62
     0
100
AcDbPoint
 10
-136.120165
 20
84.965682
 30
0.0
  0
POINT
  5
75A
100
AcDbEntity
  8
DEFPOINTS
  6
BYBLOCK
 62
     0
100
AcDbPoint
 10
-196.120165
 20
84.965682
 30
0.0
  0
POINT
  5
75B
100
AcDbEntity
  8
DEFPOINTS
  6
BYBLOCK
 62
     0
100
AcDbPoint
 10
-196.120165
 20
70.358457
 30
0.0
  0
ENDBLK
  5
75D
100
AcDbEntity
  8
0
100
AcDbBlockEnd
  0
BLOCK
  5
768
100
AcDbEntity
  8
0
100
AcDbBlockBegin
  2
*D15
 70
    65
 10
0.0
 20
0.0
 30
0.0
  3
*D15
  1

  0
LINE
  5
75F
100
AcDbEntity
  8
0
  6
BYBLOCK
 62
     0
100
AcDbLine
 10
-226.120165
 20
112.038821
 30
0.0
 11
-226.120165
 21
109.799655
 31
0.0
  0
LINE
  5
760
100
AcDbEntity
  8
0
  6
BYBLOCK
 62
     0
100
AcDbLine
 10
-106.120165
 20
113.114931
 30
0.0
 11
-106.120165
 21
109.799655
 31
0.0
  0
LINE
  5
761
100
AcDbEntity
  8
0
  6
BYBLOCK
 62
     0
100
AcDbLine
 10
-223.620165
 20
111.049655
 30
0.0
 11
-108.620165
 21
111.049655
 31
0.0
  0
SOLID
  5
762
100
AcDbEntity
  8
0
  6
BYBLOCK
 62
     0
100
AcDbTrace
 10
-223.620165
 20
111.466322
 30
0.0
 11
-223.620165
 21
110.632988
 31
0.0
 12
-226.120165
 22
111.049655
 32
0.0
 13
-226.120165
 23
111.049655
 33
0.0
  0
SOLID
  5
763
100
AcDbEntity
  8
0
  6
BYBLOCK
 62
     0
100
AcDbTrace
 10
-108.620165
 20
111.466322
 30
0.0
 11
-108.620165
 21
110.632988
 31
0.0
 12
-106.120165
 22
111.049655
 32
0.0
 13
-106.120165
 23
111.049655
 33
0.0
  0
MTEXT
  5
764
100
AcDbEntity
  8
0
  6
BYBLOCK
 62
     0
100
AcDbMText
 10
-166.120165
 20
114.079655
 30
0.0
 40
5.0
 41
0.0
 71
     5
 72
     1
  1
\A1;120
  0
POINT
  5
765
100
AcDbEntity
  8
DEFPOINTS
  6
BYBLOCK
 62
     0
100
AcDbPoint
 10
-226.120165
 20
112.663821
 30
0.0
  0
POINT
  5
766
100
AcDbEntity
  8
DEFPOINTS
  6
BYBLOCK
 62
     0
100
AcDbPoint
 10
-106.120165
 20
113.739931
 30
0.0
  0
POINT
  5
767
100
AcDbEntity
  8
DEFPOINTS
  6
BYBLOCK
 62
     0
100
AcDbPoint
 10
-106.120165
 20
111.049655
 30
0.0
  0
ENDBLK
  5
769
100
AcDbEntity
  8
0
100
AcDbBlockEnd
  0
BLOCK
  5
774
100
AcDbEntity
  8
0
100
AcDbBlockBegin
  2
*D16
 70
    65
 10
0.0
 20
0.0
 30
0.0
  3
*D16
  1

  0
LINE
  5
76B
100
AcDbEntity
  8
0
  6
BYBLOCK
 62
     0
100
AcDbLine
 10
-136.495165
 20
83.965682
 30
0.0
 11
-77.578813
 21
83.965682
 31
0.0
  0
LINE
  5
76C
100
AcDbEntity
  8
0
  6
BYBLOCK
 62
     0
100
AcDbLine
 10
-106.495165
 20
178.965682
 30
0.0
 11
-77.578813
 21
178.965682
 31
0.0
  0
LINE
  5
76D
100
AcDbEntity
  8
0
  6
BYBLOCK
 62
     0
100
AcDbLine
 10
-78.828813
 20
86.465682
 30
0.0
 11
-78.828813
 21
176.465682
 31
0.0
  0
SOLID
  5
76E
100
AcDbEntity
  8
0
  6
BYBLOCK
 62
     0
100
AcDbTrace
 10
-79.245479
 20
86.465682
 30
0.0
 11
-78.412146
 21
86.465682
 31
0.0
 12
-78.828813
 22
83.965682
 32
0.0
 13
-78.828813
 23
83.965682
 33
0.0
  0
SOLID
  5
76F
100
AcDbEntity
  8
0
  6
BYBLOCK
 62
     0
100
AcDbTrace
 10
-79.245479
 20
176.465682
 30
0.0
 11
-78.412146
 21
176.465682
 31
0.0
 12
-78.828813
 22
178.965682
 32
0.0
 13
-78.828813
 23
178.965682
 33
0.0
  0
MTEXT
  5
770
100
AcDbEntity
  8
0
  6
BYBLOCK
 62
     0
100
AcDbMText
 10
-81.858813
 20
131.465682
 30
0.0
 40
5.0
 41
0.0
 71
     5
 72
     1
  1
\A1;95
 11
0.0
 21
1.0
 31
0.0
  0
POINT
  5
771
100
AcDbEntity
  8
DEFPOINTS
  6
BYBLOCK
 62
     0
100
AcDbPoint
 10
-137.120165
 20
83.965682
 30
0.0
  0
POINT
  5
772
100
AcDbEntity
  8
DEFPOINTS
  6
BYBLOCK
 62
     0
100
AcDbPoint
 10
-107.120165
 20
178.965682
 30
0.0
  0
POINT
  5
773
100
AcDbEntity
  8
DEFPOINTS
  6
BYBLOCK
 62
     0
100
AcDbPoint
 10
-78.828813
 20
178.965682
 30
0.0
  0
ENDBLK
  5
775
100
AcDbEntity
  8
0
100
AcDbBlockEnd
  0
BLOCK
  5
780
100
AcDbEntity
  8
0
100
AcDbBlockBegin
  2
*D17
 70
    65
 10
0.0
 20
0.0
 30
0.0
  3
*D17
  1

  0
LINE
  5
777
100
AcDbEntity
  8
0
  6
BYBLOCK
 62
     0
100
AcDbLine
 10
-106.495165
 20
103.965682
 30
0.0
 11
-94.274153
 21
103.965682
 31
0.0
  0
LINE
  5
778
100
AcDbEntity
  8
0
  6
BYBLOCK
 62
     0
100
AcDbLine
 10
-136.495165
 20
83.965682
 30
0.0
 11
-94.274153
 21
83.965682
 31
0.0
  0
LINE
  5
779
100
AcDbEntity
  8
0
  6
BYBLOCK
 62
     0
100
AcDbLine
 10
-95.524153
 20
101.465682
 30
0.0
 11
-95.524153
 21
86.465682
 31
0.0
  0
SOLID
  5
77A
100
AcDbEntity
  8
0
  6
BYBLOCK
 62
     0
100
AcDbTrace
 10
-95.94082
 20
101.465682
 30
0.0
 11
-95.107486
 21
101.465682
 31
0.0
 12
-95.524153
 22
103.965682
 32
0.0
 13
-95.524153
 23
103.965682
 33
0.0
  0
SOLID
  5
77B
100
AcDbEntity
  8
0
  6
BYBLOCK
 62
     0
100
AcDbTrace
 10
-95.94082
 20
86.465682
 30
0.0
 11
-95.107486
 21
86.465682
 31
0.0
 12
-95.524153
 22
83.965682
 32
0.0
 13
-95.524153
 23
83.965682
 33
0.0
  0
MTEXT
  5
77C
100
AcDbEntity
  8
0
  6
BYBLOCK
 62
     0
100
AcDbMText
 10
-98.554153
 20
93.965682
 30
0.0
 40
5.0
 41
0.0
 71
     5
 72
     1
  1
\A1;20
 11
0.0
 21
1.0
 31
0.0
  0
POINT
  5
77D
100
AcDbEntity
  8
DEFPOINTS
  6
BYBLOCK
 62
     0
100
AcDbPoint
 10
-107.120165
 20
103.965682
 30
0.0
  0
POINT
  5
77E
100
AcDbEntity
  8
DEFPOINTS
  6
BYBLOCK
 62
     0
100
AcDbPoint
 10
-137.120165
 20
83.965682
 30
0.0
  0
POINT
  5
77F
100
AcDbEntity
  8
DEFPOINTS
  6
BYBLOCK
 62
     0
100
AcDbPoint
 10
-95.524153
 20
83.965682
 30
0.0
  0
ENDBLK
  5
781
100
AcDbEntity
  8
0
100
AcDbBlockEnd
  0
BLOCK
  5
818
100
AcDbEntity
  8
0
100
AcDbBlockBegin
  2
*X18
 70
    65
 10
0.0
 20
0.0
 30
0.0
  3
*X18
  1

  0
LINE
  5
783
100
AcDbEntity
  8
0
 62
     0
100
AcDbLine
 10
-207.981798
 20
169.188959
 30
0.0
 11
-207.946303
 21
169.224454
 31
0.0
  0
LINE
  5
784
100
AcDbEntity
  8
0
 62
     0
100
AcDbLine
 10
-208.182607
 20
169.257558
 30
0.0
 11
-208.069222
 21
169.370943
 31
0.0
  0
LINE
  5
785
100
AcDbEntity
  8
0
 62
     0
100
AcDbLine
 10
-208.383415
 20
169.326157
 30
0.0
 11
-208.192141
 21
169.517432
 31
0.0
  0
LINE
  5
786
100
AcDbEntity
  8
0
 62
     0
100
AcDbLine
 10
-208.584224
 20
169.394756
 30
0.0
 11
-208.31506
 21
169.663921
 31
0.0
  0
LINE
  5
787
100
AcDbEntity
  8
0
 62
     0
100
AcDbLine
 10
-208.785033
 20
169.463355
 30
0.0
 11
-208.437978
 21
169.810409
 31
0.0
  0
LINE
  5
788
100
AcDbEntity
  8
0
 62
     0
100
AcDbLine
 10
-208.985841
 20
169.531954
 30
0.0
 11
-208.560897
 21
169.956898
 31
0.0
  0
LINE
  5
789
100
AcDbEntity
  8
0
 62
     0
100
AcDbLine
 10
-209.18665
 20
169.600553
 30
0.0
 11
-208.683816
 21
170.103387
 31
0.0
  0
LINE
  5
78A
100
AcDbEntity
  8
0
 62
     0
100
AcDbLine
 10
-209.387458
 20
169.669152
 30
0.0
 11
-208.806735
 21
170.249876
 31
0.0
  0
LINE
  5
78B
100
AcDbEntity
  8
0
 62
     0
100
AcDbLine
 10
-209.588267
 20
169.737751
 30
0.0
 11
-208.929654
 21
170.396365
 31
0.0
  0
LINE
  5
78C
100
AcDbEntity
  8
0
 62
     0
100
AcDbLine
 10
-209.789076
 20
169.806351
 30
0.0
 11
-209.052572
 21
170.542854
 31
0.0
  0
LINE
  5
78D
100
AcDbEntity
  8
0
 62
     0
100
AcDbLine
 10
-209.989884
 20
169.87495
 30
0.0
 11
-209.175491
 21
170.689343
 31
0.0
  0
LINE
  5
78E
100
AcDbEntity
  8
0
 62
     0
100
AcDbLine
 10
-210.190693
 20
169.943549
 30
0.0
 11
-209.29841
 21
170.835832
 31
0.0
  0
LINE
  5
78F
100
AcDbEntity
  8
0
 62
     0
100
AcDbLine
 10
-210.391502
 20
170.012148
 30
0.0
 11
-209.421329
 21
170.982321
 31
0.0
  0
LINE
  5
790
100
AcDbEntity
  8
0
 62
     0
100
AcDbLine
 10
-210.59231
 20
170.080747
 30
0.0
 11
-209.544247
 21
171.12881
 31
0.0
  0
LINE
  5
791
100
AcDbEntity
  8
0
 62
     0
100
AcDbLine
 10
-210.793119
 20
170.149346
 30
0.0
 11
-209.667166
 21
171.275298
 31
0.0
  0
LINE
  5
792
100
AcDbEntity
  8
0
 62
     0
100
AcDbLine
 10
-210.993927
 20
170.217945
 30
0.0
 11
-209.790085
 21
171.421787
 31
0.0
  0
LINE
  5
793
100
AcDbEntity
  8
0
 62
     0
100
AcDbLine
 10
-211.194736
 20
170.286544
 30
0.0
 11
-209.913004
 21
171.568276
 31
0.0
  0
LINE
  5
794
100
AcDbEntity
  8
0
 62
     0
100
AcDbLine
 10
-211.395545
 20
170.355143
 30
0.0
 11
-210.035923
 21
171.714765
 31
0.0
  0
LINE
  5
795
100
AcDbEntity
  8
0
 62
     0
100
AcDbLine
 10
-211.596353
 20
170.423742
 30
0.0
 11
-210.158841
 21
171.861254
 31
0.0
  0
LINE
  5
796
100
AcDbEntity
  8
0
 62
     0
100
AcDbLine
 10
-211.797162
 20
170.492341
 30
0.0
 11
-210.28176
 21
172.007743
 31
0.0
  0
LINE
  5
797
100
AcDbEntity
  8
0
 62
     0
100
AcDbLine
 10
-211.99797
 20
170.56094
 30
0.0
 11
-210.404679
 21
172.154232
 31
0.0
  0
LINE
  5
798
100
AcDbEntity
  8
0
 62
     0
100
AcDbLine
 10
-212.198779
 20
170.629539
 30
0.0
 11
-210.527598
 21
172.300721
 31
0.0
  0
LINE
  5
799
100
AcDbEntity
  8
0
 62
     0
100
AcDbLine
 10
-212.399588
 20
170.698138
 30
0.0
 11
-210.650516
 21
172.44721
 31
0.0
  0
LINE
  5
79A
100
AcDbEntity
  8
0
 62
     0
100
AcDbLine
 10
-212.600396
 20
170.766738
 30
0.0
 11
-210.773435
 21
172.593699
 31
0.0
  0
LINE
  5
79B
100
AcDbEntity
  8
0
 62
     0
100
AcDbLine
 10
-212.801205
 20
170.835337
 30
0.0
 11
-210.896354
 21
172.740187
 31
0.0
  0
LINE
  5
79C
100
AcDbEntity
  8
0
 62
     0
100
AcDbLine
 10
-213.002014
 20
170.903936
 30
0.0
 11
-211.019273
 21
172.886676
 31
0.0
  0
LINE
  5
79D
100
AcDbEntity
  8
0
 62
     0
100
AcDbLine
 10
-213.202822
 20
170.972535
 30
0.0
 11
-211.142192
 21
173.033165
 31
0.0
  0
LINE
  5
79E
100
AcDbEntity
  8
0
 62
     0
100
AcDbLine
 10
-213.403631
 20
171.041134
 30
0.0
 11
-211.26511
 21
173.179654
 31
0.0
  0
LINE
  5
79F
100
AcDbEntity
  8
0
 62
     0
100
AcDbLine
 10
-213.604439
 20
171.109733
 30
0.0
 11
-211.388029
 21
173.326143
 31
0.0
  0
LINE
  5
7A0
100
AcDbEntity
  8
0
 62
     0
100
AcDbLine
 10
-213.805248
 20
171.178332
 30
0.0
 11
-211.510948
 21
173.472632
 31
0.0
  0
LINE
  5
7A1
100
AcDbEntity
  8
0
 62
     0
100
AcDbLine
 10
-214.006057
 20
171.246931
 30
0.0
 11
-211.633867
 21
173.619121
 31
0.0
  0
LINE
  5
7A2
100
AcDbEntity
  8
0
 62
     0
100
AcDbLine
 10
-214.206865
 20
171.31553
 30
0.0
 11
-211.756786
 21
173.76561
 31
0.0
  0
LINE
  5
7A3
100
AcDbEntity
  8
0
 62
     0
100
AcDbLine
 10
-214.407674
 20
171.384129
 30
0.0
 11
-211.879704
 21
173.912099
 31
0.0
  0
LINE
  5
7A4
100
AcDbEntity
  8
0
 62
     0
100
AcDbLine
 10
-214.608482
 20
171.452728
 30
0.0
 11
-212.002623
 21
174.058588
 31
0.0
  0
LINE
  5
7A5
100
AcDbEntity
  8
0
 62
     0
100
AcDbLine
 10
-214.809291
 20
171.521327
 30
0.0
 11
-212.125542
 21
174.205076
 31
0.0
  0
LINE
  5
7A6
100
AcDbEntity
  8
0
 62
     0
100
AcDbLine
 10
-215.0101
 20
171.589926
 30
0.0
 11
-212.248461
 21
174.351565
 31
0.0
  0
LINE
  5
7A7
100
AcDbEntity
  8
0
 62
     0
100
AcDbLine
 10
-215.210908
 20
171.658525
 30
0.0
 11
-212.371379
 21
174.498054
 31
0.0
  0
LINE
  5
7A8
100
AcDbEntity
  8
0
 62
     0
100
AcDbLine
 10
-215.411717
 20
171.727124
 30
0.0
 11
-212.494298
 21
174.644543
 31
0.0
  0
LINE
  5
7A9
100
AcDbEntity
  8
0
 62
     0
100
AcDbLine
 10
-215.612525
 20
171.795724
 30
0.0
 11
-212.617217
 21
174.791032
 31
0.0
  0
LINE
  5
7AA
100
AcDbEntity
  8
0
 62
     0
100
AcDbLine
 10
-215.813334
 20
171.864323
 30
0.0
 11
-212.740136
 21
174.937521
 31
0.0
  0
LINE
  5
7AB
100
AcDbEntity
  8
0
 62
     0
100
AcDbLine
 10
-216.014143
 20
171.932922
 30
0.0
 11
-212.863055
 21
175.08401
 31
0.0
  0
LINE
  5
7AC
100
AcDbEntity
  8
0
 62
     0
100
AcDbLine
 10
-216.214951
 20
172.001521
 30
0.0
 11
-212.985973
 21
175.230499
 31
0.0
  0
LINE
  5
7AD
100
AcDbEntity
  8
0
 62
     0
100
AcDbLine
 10
-216.41576
 20
172.07012
 30
0.0
 11
-213.108892
 21
175.376988
 31
0.0
  0
LINE
  5
7AE
100
AcDbEntity
  8
0
 62
     0
100
AcDbLine
 10
-216.616569
 20
172.138719
 30
0.0
 11
-213.231811
 21
175.523477
 31
0.0
  0
LINE
  5
7AF
100
AcDbEntity
  8
0
 62
     0
100
AcDbLine
 10
-216.817377
 20
172.207318
 30
0.0
 11
-213.35473
 21
175.669965
 31
0.0
  0
LINE
  5
7B0
100
AcDbEntity
  8
0
 62
     0
100
AcDbLine
 10
-217.018186
 20
172.275917
 30
0.0
 11
-213.477648
 21
175.816454
 31
0.0
  0
LINE
  5
7B1
100
AcDbEntity
  8
0
 62
     0
100
AcDbLine
 10
-217.218994
 20
172.344516
 30
0.0
 11
-213.600567
 21
175.962943
 31
0.0
  0
LINE
  5
7B2
100
AcDbEntity
  8
0
 62
     0
100
AcDbLine
 10
-217.419803
 20
172.413115
 30
0.0
 11
-213.723486
 21
176.109432
 31
0.0
  0
LINE
  5
7B3
100
AcDbEntity
  8
0
 62
     0
100
AcDbLine
 10
-217.620612
 20
172.481714
 30
0.0
 11
-213.848056
 21
176.25427
 31
0.0
  0
LINE
  5
7B4
100
AcDbEntity
  8
0
 62
     0
100
AcDbLine
 10
-217.82142
 20
172.550313
 30
0.0
 11
-213.975853
 21
176.39588
 31
0.0
  0
LINE
  5
7B5
100
AcDbEntity
  8
0
 62
     0
100
AcDbLine
 10
-218.022229
 20
172.618912
 30
0.0
 11
-214.106866
 21
176.534275
 31
0.0
  0
LINE
  5
7B6
100
AcDbEntity
  8
0
 62
     0
100
AcDbLine
 10
-218.223037
 20
172.687511
 30
0.0
 11
-214.241088
 21
176.669461
 31
0.0
  0
LINE
  5
7B7
100
AcDbEntity
  8
0
 62
     0
100
AcDbLine
 10
-218.423846
 20
172.756111
 30
0.0
 11
-214.378519
 21
176.801438
 31
0.0
  0
LINE
  5
7B8
100
AcDbEntity
  8
0
 62
     0
100
AcDbLine
 10
-218.624655
 20
172.82471
 30
0.0
 11
-214.519162
 21
176.930202
 31
0.0
  0
LINE
  5
7B9
100
AcDbEntity
  8
0
 62
     0
100
AcDbLine
 10
-218.825463
 20
172.893309
 30
0.0
 11
-214.663029
 21
177.055743
 31
0.0
  0
LINE
  5
7BA
100
AcDbEntity
  8
0
 62
     0
100
AcDbLine
 10
-219.026272
 20
172.961908
 30
0.0
 11
-214.810135
 21
177.178045
 31
0.0
  0
LINE
  5
7BB
100
AcDbEntity
  8
0
 62
     0
100
AcDbLine
 10
-219.227081
 20
173.030507
 30
0.0
 11
-214.960501
 21
177.297087
 31
0.0
  0
LINE
  5
7BC
100
AcDbEntity
  8
0
 62
     0
100
AcDbLine
 10
-219.427889
 20
173.099106
 30
0.0
 11
-215.114155
 21
177.41284
 31
0.0
  0
LINE
  5
7BD
100
AcDbEntity
  8
0
 62
     0
100
AcDbLine
 10
-219.628698
 20
173.167705
 30
0.0
 11
-215.27113
 21
177.525272
 31
0.0
  0
LINE
  5
7BE
100
AcDbEntity
  8
0
 62
     0
100
AcDbLine
 10
-219.829506
 20
173.236304
 30
0.0
 11
-215.431467
 21
177.634343
 31
0.0
  0
LINE
  5
7BF
100
AcDbEntity
  8
0
 62
     0
100
AcDbLine
 10
-220.030315
 20
173.304903
 30
0.0
 11
-215.595212
 21
177.740006
 31
0.0
  0
LINE
  5
7C0
100
AcDbEntity
  8
0
 62
     0
100
AcDbLine
 10
-220.231124
 20
173.373502
 30
0.0
 11
-215.76242
 21
177.842206
 31
0.0
  0
LINE
  5
7C1
100
AcDbEntity
  8
0
 62
     0
100
AcDbLine
 10
-220.431932
 20
173.442101
 30
0.0
 11
-215.933152
 21
177.940881
 31
0.0
  0
LINE
  5
7C2
100
AcDbEntity
  8
0
 62
     0
100
AcDbLine
 10
-220.632741
 20
173.5107
 30
0.0
 11
-216.107479
 21
178.035962
 31
0.0
  0
LINE
  5
7C3
100
AcDbEntity
  8
0
 62
     0
100
AcDbLine
 10
-220.833549
 20
173.579299
 30
0.0
 11
-216.285481
 21
178.127368
 31
0.0
  0
LINE
  5
7C4
100
AcDbEntity
  8
0
 62
     0
100
AcDbLine
 10
-221.034358
 20
173.647898
 30
0.0
 11
-216.467247
 21
178.21501
 31
0.0
  0
LINE
  5
7C5
100
AcDbEntity
  8
0
 62
     0
100
AcDbLine
 10
-221.235167
 20
173.716498
 30
0.0
 11
-216.652878
 21
178.298786
 31
0.0
  0
LINE
  5
7C6
100
AcDbEntity
  8
0
 62
     0
100
AcDbLine
 10
-221.435975
 20
173.785097
 30
0.0
 11
-216.842488
 21
178.378584
 31
0.0
  0
LINE
  5
7C7
100
AcDbEntity
  8
0
 62
     0
100
AcDbLine
 10
-221.636784
 20
173.853696
 30
0.0
 11
-217.036204
 21
178.454276
 31
0.0
  0
LINE
  5
7C8
100
AcDbEntity
  8
0
 62
     0
100
AcDbLine
 10
-221.837593
 20
173.922295
 30
0.0
 11
-217.234168
 21
178.525719
 31
0.0
  0
LINE
  5
7C9
100
AcDbEntity
  8
0
 62
     0
100
AcDbLine
 10
-222.038401
 20
173.990894
 30
0.0
 11
-217.436542
 21
178.592753
 31
0.0
  0
LINE
  5
7CA
100
AcDbEntity
  8
0
 62
     0
100
AcDbLine
 10
-222.23921
 20
174.059493
 30
0.0
 11
-217.643506
 21
178.655196
 31
0.0
  0
LINE
  5
7CB
100
AcDbEntity
  8
0
 62
     0
100
AcDbLine
 10
-222.440018
 20
174.128092
 30
0.0
 11
-217.855265
 21
178.712845
 31
0.0
  0
LINE
  5
7CC
100
AcDbEntity
  8
0
 62
     0
100
AcDbLine
 10
-222.640827
 20
174.196691
 30
0.0
 11
-218.072049
 21
178.765469
 31
0.0
  0
LINE
  5
7CD
100
AcDbEntity
  8
0
 62
     0
100
AcDbLine
 10
-222.841636
 20
174.26529
 30
0.0
 11
-218.294123
 21
178.812803
 31
0.0
  0
LINE
  5
7CE
100
AcDbEntity
  8
0
 62
     0
100
AcDbLine
 10
-223.042444
 20
174.333889
 30
0.0
 11
-218.521786
 21
178.854547
 31
0.0
  0
LINE
  5
7CF
100
AcDbEntity
  8
0
 62
     0
100
AcDbLine
 10
-223.243253
 20
174.402488
 30
0.0
 11
-218.755385
 21
178.890356
 31
0.0
  0
LINE
  5
7D0
100
AcDbEntity
  8
0
 62
     0
100
AcDbLine
 10
-223.444061
 20
174.471087
 30
0.0
 11
-218.995319
 21
178.919829
 31
0.0
  0
LINE
  5
7D1
100
AcDbEntity
  8
0
 62
     0
100
AcDbLine
 10
-223.64487
 20
174.539686
 30
0.0
 11
-219.242055
 21
178.942501
 31
0.0
  0
LINE
  5
7D2
100
AcDbEntity
  8
0
 62
     0
100
AcDbLine
 10
-223.845679
 20
174.608285
 30
0.0
 11
-219.496139
 21
178.957825
 31
0.0
  0
LINE
  5
7D3
100
AcDbEntity
  8
0
 62
     0
100
AcDbLine
 10
-224.046487
 20
174.676885
 30
0.0
 11
-219.758223
 21
178.965149
 31
0.0
  0
LINE
  5
7D4
100
AcDbEntity
  8
0
 62
     0
100
AcDbLine
 10
-224.247296
 20
174.745484
 30
0.0
 11
-220.027097
 21
178.965682
 31
0.0
  0
LINE
  5
7D5
100
AcDbEntity
  8
0
 62
     0
100
AcDbLine
 10
-224.448104
 20
174.814083
 30
0.0
 11
-220.296505
 21
178.965682
 31
0.0
  0
LINE
  5
7D6
100
AcDbEntity
  8
0
 62
     0
100
AcDbLine
 10
-224.648913
 20
174.882682
 30
0.0
 11
-220.565912
 21
178.965682
 31
0.0
  0
LINE
  5
7D7
100
AcDbEntity
  8
0
 62
     0
100
AcDbLine
 10
-224.849722
 20
174.951281
 30
0.0
 11
-220.83532
 21
178.965682
 31
0.0
  0
LINE
  5
7D8
100
AcDbEntity
  8
0
 62
     0
100
AcDbLine
 10
-225.05053
 20
175.01988
 30
0.0
 11
-221.104728
 21
178.965682
 31
0.0
  0
LINE
  5
7D9
100
AcDbEntity
  8
0
 62
     0
100
AcDbLine
 10
-225.251339
 20
175.088479
 30
0.0
 11
-221.374135
 21
178.965682
 31
0.0
  0
LINE
  5
7DA
100
AcDbEntity
  8
0
 62
     0
100
AcDbLine
 10
-225.452148
 20
175.157078
 30
0.0
 11
-221.643543
 21
178.965682
 31
0.0
  0
LINE
  5
7DB
100
AcDbEntity
  8
0
 62
     0
100
AcDbLine
 10
-225.652956
 20
175.225677
 30
0.0
 11
-221.912951
 21
178.965682
 31
0.0
  0
LINE
  5
7DC
100
AcDbEntity
  8
0
 62
     0
100
AcDbLine
 10
-225.853765
 20
175.294276
 30
0.0
 11
-222.182358
 21
178.965682
 31
0.0
  0
LINE
  5
7DD
100
AcDbEntity
  8
0
 62
     0
100
AcDbLine
 10
-226.054573
 20
175.362875
 30
0.0
 11
-222.451766
 21
178.965682
 31
0.0
  0
LINE
  5
7DE
100
AcDbEntity
  8
0
 62
     0
100
AcDbLine
 10
-226.120165
 20
175.566692
 30
0.0
 11
-222.721174
 21
178.965682
 31
0.0
  0
LINE
  5
7DF
100
AcDbEntity
  8
0
 62
     0
100
AcDbLine
 10
-226.120165
 20
175.836099
 30
0.0
 11
-222.990582
 21
178.965682
 31
0.0
  0
LINE
  5
7E0
100
AcDbEntity
  8
0
 62
     0
100
AcDbLine
 10
-226.120165
 20
176.105507
 30
0.0
 11
-223.259989
 21
178.965682
 31
0.0
  0
LINE
  5
7E1
100
AcDbEntity
  8
0
 62
     0
100
AcDbLine
 10
-226.120165
 20
176.374915
 30
0.0
 11
-223.529397
 21
178.965682
 31
0.0
  0
LINE
  5
7E2
100
AcDbEntity
  8
0
 62
     0
100
AcDbLine
 10
-226.120165
 20
176.644322
 30
0.0
 11
-223.798805
 21
178.965682
 31
0.0
  0
LINE
  5
7E3
100
AcDbEntity
  8
0
 62
     0
100
AcDbLine
 10
-226.120165
 20
176.91373
 30
0.0
 11
-224.068212
 21
178.965682
 31
0.0
  0
LINE
  5
7E4
100
AcDbEntity
  8
0
 62
     0
100
AcDbLine
 10
-226.120165
 20
177.183138
 30
0.0
 11
-224.33762
 21
178.965682
 31
0.0
  0
LINE
  5
7E5
100
AcDbEntity
  8
0
 62
     0
100
AcDbLine
 10
-226.120165
 20
177.452545
 30
0.0
 11
-224.607028
 21
178.965682
 31
0.0
  0
LINE
  5
7E6
100
AcDbEntity
  8
0
 62
     0
100
AcDbLine
 10
-226.120165
 20
177.721953
 30
0.0
 11
-224.876435
 21
178.965682
 31
0.0
  0
LINE
  5
7E7
100
AcDbEntity
  8
0
 62
     0
100
AcDbLine
 10
-119.370424
 20
175.092175
 30
0.0
 11
-116.867457
 21
177.595141
 31
0.0
  0
LINE
  5
7E8
100
AcDbEntity
  8
0
 62
     0
100
AcDbLine
 10
-120.775392
 20
173.417799
 30
0.0
 11
-116.185184
 21
178.008006
 31
0.0
  0
LINE
  5
7E9
100
AcDbEntity
  8
0
 62
     0
100
AcDbLine
 10
-122.18036
 20
171.743423
 30
0.0
 11
-115.654683
 21
178.2691
 31
0.0
  0
LINE
  5
7EA
100
AcDbEntity
  8
0
 62
     0
100
AcDbLine
 10
-123.585328
 20
170.069047
 30
0.0
 11
-115.19768
 21
178.456695
 31
0.0
  0
LINE
  5
7EB
100
AcDbEntity
  8
0
 62
     0
100
AcDbLine
 10
-124.163568
 20
169.2214
 30
0.0
 11
-114.786886
 21
178.598082
 31
0.0
  0
LINE
  5
7EC
100
AcDbEntity
  8
0
 62
     0
100
AcDbLine
 10
-123.754374
 20
169.361186
 30
0.0
 11
-114.40889
 21
178.70667
 31
0.0
  0
LINE
  5
7ED
100
AcDbEntity
  8
0
 62
     0
100
AcDbLine
 10
-123.345179
 20
169.500973
 30
0.0
 11
-114.055908
 21
178.790244
 31
0.0
  0
LINE
  5
7EE
100
AcDbEntity
  8
0
 62
     0
100
AcDbLine
 10
-122.935985
 20
169.640759
 30
0.0
 11
-113.722939
 21
178.853805
 31
0.0
  0
LINE
  5
7EF
100
AcDbEntity
  8
0
 62
     0
100
AcDbLine
 10
-122.526791
 20
169.780546
 30
0.0
 11
-113.40654
 21
178.900797
 31
0.0
  0
LINE
  5
7F0
100
AcDbEntity
  8
0
 62
     0
100
AcDbLine
 10
-122.117597
 20
169.920332
 30
0.0
 11
-113.104219
 21
178.93371
 31
0.0
  0
LINE
  5
7F1
100
AcDbEntity
  8
0
 62
     0
100
AcDbLine
 10
-121.708402
 20
170.060119
 30
0.0
 11
-112.814104
 21
178.954417
 31
0.0
  0
LINE
  5
7F2
100
AcDbEntity
  8
0
 62
     0
100
AcDbLine
 10
-121.299208
 20
170.199906
 30
0.0
 11
-112.534746
 21
178.964368
 31
0.0
  0
LINE
  5
7F3
100
AcDbEntity
  8
0
 62
     0
100
AcDbLine
 10
-120.890014
 20
170.339692
 30
0.0
 11
-112.264024
 21
178.965682
 31
0.0
  0
LINE
  5
7F4
100
AcDbEntity
  8
0
 62
     0
100
AcDbLine
 10
-120.48082
 20
170.479479
 30
0.0
 11
-111.994616
 21
178.965682
 31
0.0
  0
LINE
  5
7F5
100
AcDbEntity
  8
0
 62
     0
100
AcDbLine
 10
-120.071625
 20
170.619265
 30
0.0
 11
-111.725208
 21
178.965682
 31
0.0
  0
LINE
  5
7F6
100
AcDbEntity
  8
0
 62
     0
100
AcDbLine
 10
-119.662431
 20
170.759052
 30
0.0
 11
-111.4558
 21
178.965682
 31
0.0
  0
LINE
  5
7F7
100
AcDbEntity
  8
0
 62
     0
100
AcDbLine
 10
-119.253237
 20
170.898838
 30
0.0
 11
-111.186393
 21
178.965682
 31
0.0
  0
LINE
  5
7F8
100
AcDbEntity
  8
0
 62
     0
100
AcDbLine
 10
-118.844043
 20
171.038625
 30
0.0
 11
-110.916985
 21
178.965682
 31
0.0
  0
LINE
  5
7F9
100
AcDbEntity
  8
0
 62
     0
100
AcDbLine
 10
-118.434848
 20
171.178411
 30
0.0
 11
-110.647577
 21
178.965682
 31
0.0
  0
LINE
  5
7FA
100
AcDbEntity
  8
0
 62
     0
100
AcDbLine
 10
-118.025654
 20
171.318198
 30
0.0
 11
-110.37817
 21
178.965682
 31
0.0
  0
LINE
  5
7FB
100
AcDbEntity
  8
0
 62
     0
100
AcDbLine
 10
-117.61646
 20
171.457985
 30
0.0
 11
-110.108762
 21
178.965682
 31
0.0
  0
LINE
  5
7FC
100
AcDbEntity
  8
0
 62
     0
100
AcDbLine
 10
-117.207266
 20
171.597771
 30
0.0
 11
-109.839354
 21
178.965682
 31
0.0
  0
LINE
  5
7FD
100
AcDbEntity
  8
0
 62
     0
100
AcDbLine
 10
-116.798071
 20
171.737558
 30
0.0
 11
-109.569947
 21
178.965682
 31
0.0
  0
LINE
  5
7FE
100
AcDbEntity
  8
0
 62
     0
100
AcDbLine
 10
-116.388877
 20
171.877344
 30
0.0
 11
-109.300539
 21
178.965682
 31
0.0
  0
LINE
  5
7FF
100
AcDbEntity
  8
0
 62
     0
100
AcDbLine
 10
-115.979683
 20
172.017131
 30
0.0
 11
-109.031131
 21
178.965682
 31
0.0
  0
LINE
  5
800
100
AcDbEntity
  8
0
 62
     0
100
AcDbLine
 10
-115.570489
 20
172.156917
 30
0.0
 11
-108.761724
 21
178.965682
 31
0.0
  0
LINE
  5
801
100
AcDbEntity
  8
0
 62
     0
100
AcDbLine
 10
-115.161295
 20
172.296704
 30
0.0
 11
-108.492316
 21
178.965682
 31
0.0
  0
LINE
  5
802
100
AcDbEntity
  8
0
 62
     0
100
AcDbLine
 10
-114.7521
 20
172.43649
 30
0.0
 11
-108.222908
 21
178.965682
 31
0.0
  0
LINE
  5
803
100
AcDbEntity
  8
0
 62
     0
100
AcDbLine
 10
-114.342906
 20
172.576277
 30
0.0
 11
-107.953501
 21
178.965682
 31
0.0
  0
LINE
  5
804
100
AcDbEntity
  8
0
 62
     0
100
AcDbLine
 10
-113.933712
 20
172.716064
 30
0.0
 11
-107.684093
 21
178.965682
 31
0.0
  0
LINE
  5
805
100
AcDbEntity
  8
0
 62
     0
100
AcDbLine
 10
-113.524518
 20
172.85585
 30
0.0
 11
-107.414685
 21
178.965682
 31
0.0
  0
LINE
  5
806
100
AcDbEntity
  8
0
 62
     0
100
AcDbLine
 10
-113.115323
 20
172.995637
 30
0.0
 11
-107.145278
 21
178.965682
 31
0.0
  0
LINE
  5
807
100
AcDbEntity
  8
0
 62
     0
100
AcDbLine
 10
-112.706129
 20
173.135423
 30
0.0
 11
-106.998017
 21
178.843535
 31
0.0
  0
LINE
  5
808
100
AcDbEntity
  8
0
 62
     0
100
AcDbLine
 10
-112.296935
 20
173.27521
 30
0.0
 11
-106.863313
 21
178.708831
 31
0.0
  0
LINE
  5
809
100
AcDbEntity
  8
0
 62
     0
100
AcDbLine
 10
-111.887741
 20
173.414996
 30
0.0
 11
-106.72861
 21
178.574127
 31
0.0
  0
LINE
  5
80A
100
AcDbEntity
  8
0
 62
     0
100
AcDbLine
 10
-111.478546
 20
173.554783
 30
0.0
 11
-106.593906
 21
178.439424
 31
0.0
  0
LINE
  5
80B
100
AcDbEntity
  8
0
 62
     0
100
AcDbLine
 10
-111.069352
 20
173.694569
 30
0.0
 11
-106.459202
 21
178.30472
 31
0.0
  0
LINE
  5
80C
100
AcDbEntity
  8
0
 62
     0
100
AcDbLine
 10
-110.660158
 20
173.834356
 30
0.0
 11
-106.324498
 21
178.170016
 31
0.0
  0
LINE
  5
80D
100
AcDbEntity
  8
0
 62
     0
100
AcDbLine
 10
-110.250964
 20
173.974143
 30
0.0
 11
-106.189794
 21
178.035312
 31
0.0
  0
LINE
  5
80E
100
AcDbEntity
  8
0
 62
     0
100
AcDbLine
 10
-109.841769
 20
174.113929
 30
0.0
 11
-106.120165
 21
177.835534
 31
0.0
  0
LINE
  5
80F
100
AcDbEntity
  8
0
 62
     0
100
AcDbLine
 10
-109.432575
 20
174.253716
 30
0.0
 11
-106.120165
 21
177.566126
 31
0.0
  0
LINE
  5
810
100
AcDbEntity
  8
0
 62
     0
100
AcDbLine
 10
-109.023381
 20
174.393502
 30
0.0
 11
-106.120165
 21
177.296719
 31
0.0
  0
LINE
  5
811
100
AcDbEntity
  8
0
 62
     0
100
AcDbLine
 10
-108.614187
 20
174.533289
 30
0.0
 11
-106.120165
 21
177.027311
 31
0.0
  0
LINE
  5
812
100
AcDbEntity
  8
0
 62
     0
100
AcDbLine
 10
-108.204992
 20
174.673075
 30
0.0
 11
-106.120165
 21
176.757903
 31
0.0
  0
LINE
  5
813
100
AcDbEntity
  8
0
 62
     0
100
AcDbLine
 10
-107.795798
 20
174.812862
 30
0.0
 11
-106.120165
 21
176.488496
 31
0.0
  0
LINE
  5
814
100
AcDbEntity
  8
0
 62
     0
100
AcDbLine
 10
-107.386604
 20
174.952648
 30
0.0
 11
-106.120165
 21
176.219088
 31
0.0
  0
LINE
  5
815
100
AcDbEntity
  8
0
 62
     0
100
AcDbLine
 10
-106.97741
 20
175.092435
 30
0.0
 11
-106.120165
 21
175.94968
 31
0.0
  0
LINE
  5
816
100
AcDbEntity
  8
0
 62
     0
100
AcDbLine
 10
-106.568215
 20
175.232222
 30
0.0
 11
-106.120165
 21
175.680272
 31
0.0
  0
LINE
  5
817
100
AcDbEntity
  8
0
 62
     0
100
AcDbLine
 10
-106.159021
 20
175.372008
 30
0.0
 11
-106.120165
 21
175.410865
 31
0.0
  0
ENDBLK
  5
819
100
AcDbEntity
  8
0
100
AcDbBlockEnd
  0
BLOCK
  5
841
100
AcDbEntity
  8
QUOTE
100
AcDbBlockBegin
  2
A$C7174
 70
     0
 10
0.0
 20
0.0
 30
0.0
  3
A$C7174
  1

  0
INSERT
  5
81B
100
AcDbEntity
  8
TEMPRA
100
AcDbBlockReference
  2
*X18
 10
227.188954
 20
-68.37154
 30
0.0
1001
ACAD
1000
HATCH
1002
{
1070
    19
1000
ANSI31
1040
0.06
1040
0.0
1000
ASC_BOUNDS
1070
     2
1070
     1
1070
     6
1005
82E
1005
840
1005
83F
1005
83A
1005
83C
1005
839
1070
     1
1070
     6
1005
828
1005
829
1005
82A
1005
822
1005
827
1005
82B
1000
ASC_SEEDPOINT
1011
10.947272
1021
106.744714
1031
0.0
1002
}
  0
DIMENSION
  5
81C
100
AcDbEntity
  8
QUOTE
100
AcDbDimension
  2
*D15
 10
121.06879
 20
42.678114
 30
0.0
 11
61.06879
 21
45.708114
 31
0.0
 12
227.188954
 22
-68.37154
 32
0.0
  3
STANDARD
100
AcDbAlignedDimension
 13
1.06879
 23
44.29228
 33
0.0
 14
121.06879
 24
45.36839
 34
0.0
100
AcDbRotatedDimension
  0
DIMENSION
  5
81D
100
AcDbEntity
  8
QUOTE
100
AcDbDimension
  2
*D14
 10
31.06879
 20
1.986916
 30
0.0
 11
61.06879
 21
5.016916
 31
0.0
 12
227.188954
 22
-68.37154
 32
0.0
  3
STANDARD
100
AcDbAlignedDimension
 13
91.06879
 23
16.594142
 33
0.0
 14
31.06879
 24
16.594142
 34
0.0
100
AcDbRotatedDimension
  0
DIMENSION
  5
81E
100
AcDbEntity
  8
QUOTE
100
AcDbDimension
  2
*D13
 10
100.934937
 20
98.517086
 30
0.0
 11
61.06879
 21
125.709169
 31
0.0
 12
227.188954
 22
-68.37154
 32
0.0
 70
     2
  3
STANDARD
100
AcDb2LineAngularDimension
 13
21.202643
 23
98.517086
 33
0.0
 14
13.466684
 24
107.736443
 34
0.0
 15
108.670895
 25
107.736443
 35
0.0
 16
77.597653
 26
120.747222
 36
0.0
  0
DIMENSION
  5
81F
100
AcDbEntity
  8
QUOTE
100
AcDbDimension
  2
*D12
 10
11.06879
 20
135.693628
 30
0.0
 11
61.06879
 21
138.723628
 31
0.0
 12
227.188954
 22
-68.37154
 32
0.0
  3
STANDARD
100
AcDbAlignedDimension
 13
111.06879
 23
110.594142
 33
0.0
 14
11.06879
 24
110.594142
 34
0.0
100
AcDbRotatedDimension
  0
LINE
  5
820
100
AcDbEntity
  8
DISEGNO
100
AcDbLine
 10
53.408345
 20
57.802239
 30
0.0
 11
21.202643
 21
96.1835
 31
0.0
  0
LINE
  5
821
100
AcDbEntity
  8
DISEGNO
100
AcDbLine
 10
32.06879
 20
15.594142
 30
0.0
 11
90.06879
 21
15.594142
 31
0.0
  0
LINE
  5
822
100
AcDbEntity
  8
DISEGNO
100
AcDbLine
 10
1.06879
 20
109.594142
 30
0.0
 11
1.06879
 21
36.594142
 31
0.0
1001
ACAD
1000
ASC_BOUNDS
1002
{
1070
    19
1005
81B
1002
}
  0
LINE
  5
823
100
AcDbEntity
  8
DISEGNO
100
AcDbLine
 10
31.06879
 20
35.594142
 30
0.0
 11
31.06879
 21
16.594142
 31
0.0
  0
LINE
  5
824
100
AcDbEntity
  8
DISEGNO
100
AcDbLine
 10
31.06879
 20
16.594142
 30
0.0
 11
32.06879
 21
15.594142
 31
0.0
  0
LINE
  5
825
100
AcDbEntity
  8
DISEGNO
100
AcDbLine
 10
2.06879
 20
35.594142
 30
0.0
 11
31.06879
 21
35.594142
 31
0.0
  0
LINE
  5
826
100
AcDbEntity
  8
DISEGNO
100
AcDbLine
 10
1.06879
 20
36.594142
 30
0.0
 11
2.06879
 21
35.594142
 31
0.0
  0
LINE
  5
827
100
AcDbEntity
  8
TEMPRA
100
AcDbLine
 10
1.06879
 20
107.013742
 30
0.0
 11
19.298666
 21
100.786157
 31
0.0
1001
ACAD
1000
ASC_BOUNDS
1002
{
1070
    19
1005
81B
1002
}
  0
ARC
  5
828
100
AcDbEntity
  8
DISEGNO
100
AcDbCircle
 10
7.338328
 20
102.594142
 30
0.0
 40
8.0
100
AcDbArc
 50
40.0
 51
90.0
1001
ACAD
1000
ASC_BOUNDS
1002
{
1070
    19
1005
81B
1002
}
  0
LINE
  5
829
100
AcDbEntity
  8
DISEGNO
100
AcDbLine
 10
7.338328
 20
110.594142
 30
0.0
 11
2.06879
 21
110.594142
 31
0.0
1001
ACAD
1000
ASC_BOUNDS
1002
{
1070
    19
1005
81B
1002
}
  0
LINE
  5
82A
100
AcDbEntity
  8
DISEGNO
100
AcDbLine
 10
2.06879
 20
110.594142
 30
0.0
 11
1.06879
 21
109.594142
 31
0.0
1001
ACAD
1000
ASC_BOUNDS
1002
{
1070
    19
1005
81B
1002
}
  0
LINE
  5
82B
100
AcDbEntity
  8
DISEGNO
100
AcDbLine
 10
21.202643
 20
98.517086
 30
0.0
 11
13.466684
 21
107.736443
 31
0.0
1001
ACAD
1000
ASC_BOUNDS
1002
{
1070
    19
1005
81B
1002
}
  0
LINE
  5
82C
100
AcDbEntity
  8
DISEGNO
100
AcDbLine
 10
21.202643
 20
96.1835
 30
0.0
 11
21.202643
 21
98.517086
 31
0.0
  0
DIMENSION
  5
82D
100
AcDbEntity
  8
QUOTE
100
AcDbDimension
  2
*D16
 10
148.360142
 20
110.594142
 30
0.0
 11
145.330142
 21
63.094142
 31
0.0
 12
227.188954
 22
-68.37154
 32
0.0
  3
STANDARD
100
AcDbAlignedDimension
 13
90.06879
 23
15.594142
 33
0.0
 14
120.06879
 24
110.594142
 34
0.0
 50
90.0
100
AcDbRotatedDimension
  0
LINE
  5
82E
100
AcDbEntity
  8
DISEGNO
100
AcDbLine
 10
121.06879
 20
74.094142
 30
0.0
 11
121.06879
 21
109.594142
 31
0.0
1001
ACAD
1000
ASC_BOUNDS
1002
{
1070
    19
1005
81B
1002
}
  0
LINE
  5
82F
100
AcDbEntity
  8
DISEGNO
100
AcDbLine
 10
100.934937
 20
96.1835
 30
0.0
 11
68.729234
 21
57.802239
 31
0.0
  0
DIMENSION
  5
830
100
AcDbEntity
  8
QUOTE
100
AcDbDimension
  2
*D17
 10
131.664801
 20
15.594142
 30
0.0
 11
128.634801
 21
25.594142
 31
0.0
 12
227.188954
 22
-68.37154
 32
0.0
  3
STANDARD
100
AcDbAlignedDimension
 13
120.06879
 23
35.594142
 33
0.0
 14
90.06879
 24
15.594142
 34
0.0
 50
90.0
100
AcDbRotatedDimension
  0
LINE
  5
831
100
AcDbEntity
  8
DISEGNO
100
AcDbLine
 10
91.06879
 20
35.594142
 30
0.0
 11
120.06879
 21
35.594142
 31
0.0
  0
LINE
  5
832
100
AcDbEntity
  8
DISEGNO
100
AcDbLine
 10
91.06879
 20
16.594142
 30
0.0
 11
91.06879
 21
35.594142
 31
0.0
  0
LINE
  5
833
100
AcDbEntity
  8
DISEGNO
100
AcDbLine
 10
90.06879
 20
15.594142
 30
0.0
 11
91.06879
 21
16.594142
 31
0.0
  0
ARC
  5
834
100
AcDbEntity
  8
DISEGNO
100
AcDbCircle
 10
61.06879
 20
64.230115
 30
0.0
 40
10.0
100
AcDbArc
 50
220.0
 51
320.0
  0
LINE
  5
835
100
AcDbEntity
  8
DISEGNO
100
AcDbLine
 10
121.06879
 20
36.594142
 30
0.0
 11
121.06879
 21
72.094142
 31
0.0
  0
LINE
  5
836
100
AcDbEntity
  8
DISEGNO
100
AcDbLine
 10
120.06879
 20
35.594142
 30
0.0
 11
121.06879
 21
36.594142
 31
0.0
  0
LINE
  5
837
100
AcDbEntity
  8
DISEGNO
100
AcDbLine
 10
121.06879
 20
72.094142
 30
0.0
 11
120.06879
 21
73.094142
 31
0.0
  0
LINE
  5
838
100
AcDbEntity
  8
DISEGNO
100
AcDbLine
 10
120.06879
 20
73.094142
 30
0.0
 11
121.06879
 21
74.094142
 31
0.0
  0
LINE
  5
839
100
AcDbEntity
  8
TEMPRA
100
AcDbLine
 10
121.06879
 20
107.013742
 30
0.0
 11
102.838913
 21
100.786157
 31
0.0
1001
ACAD
1000
ASC_BOUNDS
1002
{
1070
    19
1005
81B
1002
}
  0
ARC
  5
83A
100
AcDbEntity
  8
DISEGNO
100
AcDbCircle
 10
114.799251
 20
102.594142
 30
0.0
 40
8.0
100
AcDbArc
 50
90.0
 51
140.0
1001
ACAD
1000
ASC_BOUNDS
1002
{
1070
    19
1005
81B
1002
}
  0
MTEXT
  5
83B
100
AcDbEntity
  8
QUOTE
100
AcDbMText
 10
98.744669
 20
123.473886
 30
0.0
 40
5.0
 41
0.0
 71
     9
 72
     1
  1
{R8}
  0
LINE
  5
83C
100
AcDbEntity
  8
DISEGNO
100
AcDbLine
 10
108.670895
 20
107.736443
 30
0.0
 11
100.934937
 21
98.517086
 31
0.0
1001
ACAD
1000
ASC_BOUNDS
1002
{
1070
    19
1005
81B
1002
}
  0
LINE
  5
83D
100
AcDbEntity
  8
DISEGNO
100
AcDbLine
 10
100.934937
 20
98.517086
 30
0.0
 11
100.934937
 21
96.1835
 31
0.0
  0
LEADER
  5
83E
100
AcDbEntity
  8
QUOTE
100
AcDbLeader
  3
STANDARD
 73
     0
 75
     1
 40
5.0
 41
8.333333
 76
     3
 10
110.744003
 20
109.490153
 30
0.0
 10
101.774669
 20
122.943886
 30
0.0
 10
99.274669
 20
122.943886
 30
0.0
 77
   256
  0
LINE
  5
83F
100
AcDbEntity
  8
DISEGNO
100
AcDbLine
 10
120.06879
 20
110.594142
 30
0.0
 11
114.799251
 21
110.594142
 31
0.0
1001
ACAD
1000
ASC_BOUNDS
1002
{
1070
    19
1005
81B
1002
}
  0
LINE
  5
840
100
AcDbEntity
  8
DISEGNO
100
AcDbLine
 10
121.06879
 20
109.594142
 30
0.0
 11
120.06879
 21
110.594142
 31
0.0
1001
ACAD
1000
ASC_BOUNDS
1002
{
1070
    19
1005
81B
1002
}
  0
ENDBLK
  5
842
100
AcDbEntity
  8
QUOTE
100
AcDbBlockEnd
  0
BLOCK
  5
BC2
100
AcDbEntity
  8
0
100
AcDbBlockBegin
  2
*D20
 70
    65
 10
0.0
 20
0.0
 30
0.0
  3
*D20
  1

  0
LINE
  5
BC3
100
AcDbEntity
  8
0
  6
BYBLOCK
 62
     0
100
AcDbLine
 10
-23.577911
 20
163.754629
 30
0.0
 11
-12.787478
 21
150.895093
 31
0.0
  0
LINE
  5
BC4
100
AcDbEntity
  8
0
  6
BYBLOCK
 62
     0
100
AcDbLine
 10
-23.577911
 20
161.421044
 30
0.0
 11
-13.936545
 21
149.930912
 31
0.0
  0
LINE
  5
BC5
100
AcDbEntity
  8
0
  6
BYBLOCK
 62
     0
100
AcDbLine
 10
-11.675852
 20
153.459618
 30
0.0
 11
-9.760741
 21
155.066587
 31
0.0
  0
LINE
  5
BC6
100
AcDbEntity
  8
0
  6
BYBLOCK
 62
     0
100
AcDbLine
 10
-16.655141
 20
149.281498
 30
0.0
 11
-22.666054
 21
144.237743
 31
0.0
  0
SOLID
  5
BC7
100
AcDbEntity
  8
0
  6
BYBLOCK
 62
     0
100
AcDbTrace
 10
-11.94368
 20
153.778803
 30
0.0
 11
-11.408024
 21
153.140433
 31
0.0
 12
-13.590963
 22
151.852649
 32
0.0
 13
-13.590963
 23
151.852649
 33
0.0
  0
SOLID
  5
BC8
100
AcDbEntity
  8
0
  6
BYBLOCK
 62
     0
100
AcDbTrace
 10
-16.922969
 20
149.600683
 30
0.0
 11
-16.387313
 21
148.962313
 31
0.0
 12
-14.74003
 22
150.888467
 32
0.0
 13
-14.74003
 23
150.888467
 33
0.0
  0
MTEXT
  5
BC9
100
AcDbEntity
  8
0
  6
BYBLOCK
 62
     0
100
AcDbMText
 10
-21.984077
 20
147.58398
 30
0.0
 40
3.0
 41
0.0
 71
     5
 72
     1
  1
\A1;1.5
 11
0.766044
 21
0.642788
 31
0.0
  0
POINT
  5
BCA
100
AcDbEntity
  8
DEFPOINTS
  6
BYBLOCK
 62
     0
100
AcDbPoint
 10
-23.979653
 20
164.233407
 30
0.0
  0
POINT
  5
BCB
100
AcDbEntity
  8
DEFPOINTS
  6
BYBLOCK
 62
     0
100
AcDbPoint
 10
-23.979653
 20
161.899821
 30
0.0
  0
POINT
  5
BCC
100
AcDbEntity
  8
DEFPOINTS
  6
BYBLOCK
 62
     0
100
AcDbPoint
 10
-14.74003
 20
150.888467
 30
0.0
  0
ENDBLK
  5
BCD
100
AcDbEntity
  8
0
100
AcDbBlockEnd
  0
BLOCK
  5
C54
100
AcDbEntity
  8
0
100
AcDbBlockBegin
  2
*D21
 70
    65
 10
0.0
 20
0.0
 30
0.0
  3
*D21
  1

  0
LINE
  5
C55
100
AcDbEntity
  8
0
  6
BYBLOCK
 62
     0
100
AcDbLine
 10
-24.113506
 20
165.017927
 30
0.0
 11
-24.113506
 21
172.795404
 31
0.0
  0
LINE
  5
C56
100
AcDbEntity
  8
0
  6
BYBLOCK
 62
     0
100
AcDbLine
 10
55.886494
 20
165.017927
 30
0.0
 11
55.886494
 21
172.795404
 31
0.0
  0
LINE
  5
C57
100
AcDbEntity
  8
0
  6
BYBLOCK
 62
     0
100
AcDbLine
 10
-21.613506
 20
171.545404
 30
0.0
 11
53.386494
 21
171.545404
 31
0.0
  0
SOLID
  5
C58
100
AcDbEntity
  8
0
  6
BYBLOCK
 62
     0
100
AcDbTrace
 10
-21.613506
 20
171.96207
 30
0.0
 11
-21.613506
 21
171.128737
 31
0.0
 12
-24.113506
 22
171.545404
 32
0.0
 13
-24.113506
 23
171.545404
 33
0.0
  0
SOLID
  5
C59
100
AcDbEntity
  8
0
  6
BYBLOCK
 62
     0
100
AcDbTrace
 10
53.386494
 20
171.96207
 30
0.0
 11
53.386494
 21
171.128737
 31
0.0
 12
55.886494
 22
171.545404
 32
0.0
 13
55.886494
 23
171.545404
 33
0.0
  0
MTEXT
  5
C5A
100
AcDbEntity
  8
0
  6
BYBLOCK
 62
     0
100
AcDbMText
 10
8.431768
 20
173.670404
 30
0.0
 40
3.0
 41
0.0
 71
     5
 72
     1
  1
\A1;80±0.1
  0
POINT
  5
C5B
100
AcDbEntity
  8
DEFPOINTS
  6
BYBLOCK
 62
     0
100
AcDbPoint
 10
-24.113506
 20
164.392927
 30
0.0
  0
POINT
  5
C5C
100
AcDbEntity
  8
DEFPOINTS
  6
BYBLOCK
 62
     0
100
AcDbPoint
 10
55.886494
 20
164.392927
 30
0.0
  0
POINT
  5
C5D
100
AcDbEntity
  8
DEFPOINTS
  6
BYBLOCK
 62
     0
100
AcDbPoint
 10
55.886494
 20
171.545404
 30
0.0
  0
ENDBLK
  5
C5E
100
AcDbEntity
  8
0
100
AcDbBlockEnd
  0
BLOCK
  5
C60
100
AcDbEntity
  8
0
100
AcDbBlockBegin
  2
*D22
 70
    65
 10
0.0
 20
0.0
 30
0.0
  3
*D22
  1

  0
LINE
  5
C61
100
AcDbEntity
  8
0
  6
BYBLOCK
 62
     0
100
AcDbLine
 10
15.886494
 20
129.946436
 30
0.0
 11
21.631827
 21
125.125529
 31
0.0
  0
SOLID
  5
C62
100
AcDbEntity
  8
0
  6
BYBLOCK
 62
     0
100
AcDbTrace
 10
21.899656
 20
125.444714
 30
0.0
 11
21.363999
 21
124.806344
 31
0.0
 12
23.546938
 22
123.51856
 32
0.0
 13
23.546938
 23
123.51856
 33
0.0
  0
MTEXT
  5
C63
100
AcDbEntity
  8
0
  6
BYBLOCK
 62
     0
100
AcDbMText
 10
21.08264
 20
128.360342
 30
0.0
 40
3.0
 41
0.0
 71
     5
 72
     1
  1
\A1;R10
 11
0.766044
 21
-0.642788
 31
0.0
  0
POINT
  5
C64
100
AcDbEntity
  8
DEFPOINTS
  6
BYBLOCK
 62
     0
100
AcDbPoint
 10
23.546938
 20
123.51856
 30
0.0
  0
POINT
  5
C65
100
AcDbEntity
  8
DEFPOINTS
  6
BYBLOCK
 62
     0
100
AcDbPoint
 10
15.886494
 20
129.946436
 30
0.0
  0
ENDBLK
  5
C66
100
AcDbEntity
  8
0
100
AcDbBlockEnd
  0
BLOCK
  5
1179
100
AcDbEntity
  8
0
100
AcDbBlockBegin
  2
*D23
 70
    65
 10
0.0
 20
0.0
 30
0.0
  3
*D23
  1

  0
LINE
  5
117A
100
AcDbEntity
  8
0
  6
BYBLOCK
 62
     0
100
AcDbLine
 10
-182.903161
 20
154.323638
 30
0.0
 11
-131.428161
 21
154.323638
 31
0.0
  0
SOLID
  5
117B
100
AcDbEntity
  8
0
  6
BYBLOCK
 62
     0
100
AcDbTrace
 10
-182.903161
 20
154.740304
 30
0.0
 11
-182.903161
 21
153.906971
 31
0.0
 12
-185.403161
 22
154.323638
 32
0.0
 13
-185.403161
 23
154.323638
 33
0.0
  0
SOLID
  5
117C
100
AcDbEntity
  8
0
  6
BYBLOCK
 62
     0
100
AcDbTrace
 10
-131.428161
 20
154.740304
 30
0.0
 11
-131.428161
 21
153.906971
 31
0.0
 12
-128.928161
 22
154.323638
 32
0.0
 13
-128.928161
 23
154.323638
 33
0.0
  0
MTEXT
  5
117D
100
AcDbEntity
  8
0
  6
BYBLOCK
 62
     0
100
AcDbMText
 10
-157.165661
 20
156.448638
 30
0.0
 40
3.0
 41
0.0
 71
     5
 72
     1
  1
\A1;\U+2205112.95±0.01
  0
POINT
  5
117E
100
AcDbEntity
  8
DEFPOINTS
  6
BYBLOCK
 62
     0
100
AcDbPoint
 10
-128.928161
 20
154.323638
 30
0.0
  0
POINT
  5
117F
100
AcDbEntity
  8
DEFPOINTS
  6
BYBLOCK
 62
     0
100
AcDbPoint
 10
-185.403161
 20
154.323638
 30
0.0
  0
ENDBLK
  5
1180
100
AcDbEntity
  8
0
100
AcDbBlockEnd
  0
BLOCK
  5
1181
100
AcDbEntity
  8
0
100
AcDbBlockBegin
  2
*D24
 70
    65
 10
0.0
 20
0.0
 30
0.0
  3
*D24
  1

  0
LINE
  5
1182
100
AcDbEntity
  8
0
  6
BYBLOCK
 62
     0
100
AcDbLine
 10
-157.790661
 20
182.561138
 30
0.0
 11
-200.830106
 21
182.561138
 31
0.0
  0
LINE
  5
1183
100
AcDbEntity
  8
0
  6
BYBLOCK
 62
     0
100
AcDbLine
 10
-172.290661
 20
92.687726
 30
0.0
 11
-200.830106
 21
92.687726
 31
0.0
  0
LINE
  5
1184
100
AcDbEntity
  8
0
  6
BYBLOCK
 62
     0
100
AcDbLine
 10
-199.580106
 20
180.061138
 30
0.0
 11
-199.580106
 21
95.187726
 31
0.0
  0
SOLID
  5
1185
100
AcDbEntity
  8
0
  6
BYBLOCK
 62
     0
100
AcDbTrace
 10
-199.996773
 20
180.061138
 30
0.0
 11
-199.163439
 21
180.061138
 31
0.0
 12
-199.580106
 22
182.561138
 32
0.0
 13
-199.580106
 23
182.561138
 33
0.0
  0
SOLID
  5
1186
100
AcDbEntity
  8
0
  6
BYBLOCK
 62
     0
100
AcDbTrace
 10
-199.996773
 20
95.187726
 30
0.0
 11
-199.163439
 21
95.187726
 31
0.0
 12
-199.580106
 22
92.687726
 32
0.0
 13
-199.580106
 23
92.687726
 33
0.0
  0
MTEXT
  5
1187
100
AcDbEntity
  8
0
  6
BYBLOCK
 62
     0
100
AcDbMText
 10
-201.705106
 20
137.624432
 30
0.0
 40
3.0
 41
0.0
 71
     5
 72
     1
  1
\A1;179.75±0.01
 11
0.0
 21
1.0
 31
0.0
  0
POINT
  5
1188
100
AcDbEntity
  8
DEFPOINTS
  6
BYBLOCK
 62
     0
100
AcDbPoint
 10
-157.165661
 20
182.561138
 30
0.0
  0
POINT
  5
1189
100
AcDbEntity
  8
DEFPOINTS
  6
BYBLOCK
 62
     0
100
AcDbPoint
 10
-171.665661
 20
92.687726
 30
0.0
  0
POINT
  5
118A
100
AcDbEntity
  8
DEFPOINTS
  6
BYBLOCK
 62
     0
100
AcDbPoint
 10
-199.580106
 20
92.687726
 30
0.0
  0
ENDBLK
  5
118B
100
AcDbEntity
  8
0
100
AcDbBlockEnd
  0
BLOCK
  5
DB3
100
AcDbEntity
  8
0
100
AcDbBlockBegin
  2
*D25
 70
    65
 10
0.0
 20
0.0
 30
0.0
  3
*D25
  1

  0
LINE
  5
DAD
100
AcDbEntity
  8
0
  6
BYBLOCK
 62
     0
100
AcDbLine
 10
-254.684837
 20
204.594447
 30
0.0
 11
-146.74257
 21
203.30237
 31
0.0
  0
SOLID
  5
DAE
100
AcDbEntity
  8
0
  6
BYBLOCK
 62
     0
100
AcDbTrace
 10
-254.67985
 20
205.011084
 30
0.0
 11
-254.689824
 21
204.17781
 31
0.0
 12
-257.184658
 22
204.62437
 32
0.0
 13
-257.184658
 23
204.62437
 33
0.0
  0
SOLID
  5
DAF
100
AcDbEntity
  8
0
  6
BYBLOCK
 62
     0
100
AcDbTrace
 10
-146.737583
 20
203.719007
 30
0.0
 11
-146.747557
 21
202.885733
 31
0.0
 12
-144.242749
 22
203.272447
 32
0.0
 13
-144.242749
 23
203.272447
 33
0.0
  0
MTEXT
  5
DB0
100
AcDbEntity
  8
0
  6
BYBLOCK
 62
     0
100
AcDbMText
 10
-200.688269
 20
206.073256
 30
0.0
 40
3.0
 41
0.0
 71
     5
 72
     1
  1
\A1;\U+2205112.95±0.01
 11
0.999928
 21
-0.011969
 31
0.0
  0
POINT
  5
DB1
100
AcDbEntity
  8
DEFPOINTS
  6
BYBLOCK
 62
     0
100
AcDbPoint
 10
-144.242749
 20
203.272447
 30
0.0
  0
POINT
  5
DB2
100
AcDbEntity
  8
DEFPOINTS
  6
BYBLOCK
 62
     0
100
AcDbPoint
 10
-257.184658
 20
204.62437
 30
0.0
  0
ENDBLK
  5
DB4
100
AcDbEntity
  8
0
100
AcDbBlockEnd
  0
BLOCK
  5
DBF
100
AcDbEntity
  8
0
100
AcDbBlockBegin
  2
*D26
 70
    65
 10
0.0
 20
0.0
 30
0.0
  3
*D26
  1

  0
LINE
  5
DB6
100
AcDbEntity
  8
0
  6
BYBLOCK
 62
     0
100
AcDbLine
 10
-201.338704
 20
260.423408
 30
0.0
 11
-284.597907
 21
260.423408
 31
0.0
  0
LINE
  5
DB7
100
AcDbEntity
  8
0
  6
BYBLOCK
 62
     0
100
AcDbLine
 10
-230.338704
 20
81.310463
 30
0.0
 11
-284.597907
 21
81.310463
 31
0.0
  0
LINE
  5
DB8
100
AcDbEntity
  8
0
  6
BYBLOCK
 62
     0
100
AcDbLine
 10
-283.347907
 20
257.923408
 30
0.0
 11
-283.347907
 21
83.810463
 31
0.0
  0
SOLID
  5
DB9
100
AcDbEntity
  8
0
  6
BYBLOCK
 62
     0
100
AcDbTrace
 10
-283.764574
 20
257.923408
 30
0.0
 11
-282.931241
 21
257.923408
 31
0.0
 12
-283.347907
 22
260.423408
 32
0.0
 13
-283.347907
 23
260.423408
 33
0.0
  0
SOLID
  5
DBA
100
AcDbEntity
  8
0
  6
BYBLOCK
 62
     0
100
AcDbTrace
 10
-283.764574
 20
83.810463
 30
0.0
 11
-282.931241
 21
83.810463
 31
0.0
 12
-283.347907
 22
81.310463
 32
0.0
 13
-283.347907
 23
81.310463
 33
0.0
  0
MTEXT
  5
DBB
100
AcDbEntity
  8
0
  6
BYBLOCK
 62
     0
100
AcDbMText
 10
-285.472907
 20
170.866936
 30
0.0
 40
3.0
 41
0.0
 71
     5
 72
     1
  1
\A1;179.11±0.01
 11
0.0
 21
1.0
 31
0.0
  0
POINT
  5
DBC
100
AcDbEntity
  8
DEFPOINTS
  6
BYBLOCK
 62
     0
100
AcDbPoint
 10
-200.713704
 20
260.423408
 30
0.0
  0
POINT
  5
DBD
100
AcDbEntity
  8
DEFPOINTS
  6
BYBLOCK
 62
     0
100
AcDbPoint
 10
-229.713704
 20
81.310463
 30
0.0
  0
POINT
  5
DBE
100
AcDbEntity
  8
DEFPOINTS
  6
BYBLOCK
 62
     0
100
AcDbPoint
 10
-283.347907
 20
81.310463
 30
0.0
  0
ENDBLK
  5
DC0
100
AcDbEntity
  8
0
100
AcDbBlockEnd
  0
BLOCK
  5
DE0
100
AcDbEntity
  8
QUOTE
100
AcDbBlockBegin
  2
A$C52B4
 70
     0
 10
0.0
 20
0.0
 30
0.0
  3
A$C52B4
  1

  0
DIMENSION
  5
DC2
100
AcDbEntity
  8
QUOTE
100
AcDbDimension
  2
*D26
 10
3.743079
 20
0.984444
 30
0.0
 11
1.618079
 21
90.540916
 31
0.0
 12
287.090986
 22
-80.326019
 32
0.0
  3
STANDARD
100
AcDbAlignedDimension
 13
86.377283
 23
180.097389
 33
0.0
 14
57.377283
 24
0.984444
 34
0.0
 50
90.0
100
AcDbRotatedDimension
1001
ACAD
1000
DSTYLE
1002
{
1070
    47
1040
0.01
1070
    71
1070
     1
1070
    48
1040
0.01
1002
}
  0
CIRCLE
  5
DC3
100
AcDbEntity
  8
QUOTE
100
AcDbCircle
 10
86.377283
 20
123.622389
 30
0.0
 40
56.475
  0
LINE
  5
DC4
100
AcDbEntity
  8
DISEGNO
100
AcDbLine
 10
26.377283
 20
94.984444
 30
0.0
 11
26.377283
 21
21.984444
 31
0.0
1001
ACAD
1000
ASC_BOUNDS
1002
{
1070
    19
1002
}
  0
LINE
  5
DC5
100
AcDbEntity
  8
DISEGNO
100
AcDbLine
 10
146.377283
 20
59.484444
 30
0.0
 11
146.377283
 21
94.984444
 31
0.0
1001
ACAD
1000
ASC_BOUNDS
1002
{
1070
    19
1002
}
  0
LINE
  5
DC6
100
AcDbEntity
  8
DISEGNO
100
AcDbLine
 10
78.716838
 20
43.192541
 30
0.0
 11
46.377283
 21
81.733322
 31
0.0
  0
LINE
  5
DC7
100
AcDbEntity
  8
DISEGNO
100
AcDbLine
 10
126.377283
 20
81.733322
 30
0.0
 11
94.037727
 21
43.192541
 31
0.0
  0
LINE
  5
DC8
100
AcDbEntity
  8
DISEGNO
100
AcDbLine
 10
57.377283
 20
0.984444
 30
0.0
 11
115.377283
 21
0.984444
 31
0.0
  0
LINE
  5
DC9
100
AcDbEntity
  8
DISEGNO
100
AcDbLine
 10
26.377283
 20
21.984444
 30
0.0
 11
27.377283
 21
20.984444
 31
0.0
  0
LINE
  5
DCA
100
AcDbEntity
  8
DISEGNO
100
AcDbLine
 10
27.377283
 20
20.984444
 30
0.0
 11
56.377283
 21
20.984444
 31
0.0
  0
LINE
  5
DCB
100
AcDbEntity
  8
DISEGNO
100
AcDbLine
 10
56.377283
 20
20.984444
 30
0.0
 11
56.377283
 21
1.984444
 31
0.0
  0
LINE
  5
DCC
100
AcDbEntity
  8
DISEGNO
100
AcDbLine
 10
56.377283
 20
1.984444
 30
0.0
 11
57.377283
 21
0.984444
 31
0.0
  0
ARC
  5
DCD
100
AcDbEntity
  8
DISEGNO
100
AcDbCircle
 10
86.377283
 20
49.620417
 30
0.0
 40
10.0
100
AcDbArc
 50
220.0
 51
320.0
  0
LINE
  5
DCE
100
AcDbEntity
  8
DISEGNO
100
AcDbLine
 10
145.377283
 20
20.984444
 30
0.0
 11
146.377283
 21
21.984444
 31
0.0
  0
LINE
  5
DCF
100
AcDbEntity
  8
DISEGNO
100
AcDbLine
 10
116.377283
 20
20.984444
 30
0.0
 11
145.377283
 21
20.984444
 31
0.0
  0
LINE
  5
DD0
100
AcDbEntity
  8
DISEGNO
100
AcDbLine
 10
116.377283
 20
1.984444
 30
0.0
 11
116.377283
 21
20.984444
 31
0.0
  0
LINE
  5
DD1
100
AcDbEntity
  8
DISEGNO
100
AcDbLine
 10
115.377283
 20
0.984444
 30
0.0
 11
116.377283
 21
1.984444
 31
0.0
  0
LINE
  5
DD2
100
AcDbEntity
  8
DISEGNO
100
AcDbLine
 10
146.377283
 20
21.984444
 30
0.0
 11
146.377283
 21
57.484444
 31
0.0
1001
ACAD
1000
ASC_BOUNDS
1002
{
1070
    19
1002
}
  0
LINE
  5
DD3
100
AcDbEntity
  8
DISEGNO
100
AcDbLine
 10
146.377283
 20
59.484444
 30
0.0
 11
145.377283
 21
58.484444
 31
0.0
  0
LINE
  5
DD4
100
AcDbEntity
  8
DISEGNO
100
AcDbLine
 10
146.377283
 20
57.484444
 30
0.0
 11
145.377283
 21
58.484444
 31
0.0
  0
DIMENSION
  5
DD5
100
AcDbEntity
  8
QUOTE
100
AcDbDimension
  2
*D25
 10
29.906328
 20
124.298351
 30
0.0
 11
86.402717
 21
125.747237
 31
0.0
 12
287.090986
 22
-80.326019
 32
0.0
 70
     3
  3
STANDARD
100
AcDbDiametricDimension
 15
142.848237
 25
122.946428
 35
0.0
 40
0.0
1001
ACAD
1000
DSTYLE
1002
{
1070
    47
1040
0.01
1070
    71
1070
     1
1070
    48
1040
0.01
1002
}
  0
LINE
  5
DD6
100
AcDbEntity
  8
DISEGNO
100
AcDbLine
 10
46.377283
 20
84.066908
 30
0.0
 11
38.775177
 21
93.126745
 31
0.0
1001
ACAD
1000
ASC_BOUNDS
1002
{
1070
    19
1002
}
  0
LINE
  5
DD7
100
AcDbEntity
  8
DISEGNO
100
AcDbLine
 10
32.646822
 20
95.984444
 30
0.0
 11
27.377283
 21
95.984444
 31
0.0
1001
ACAD
1000
ASC_BOUNDS
1002
{
1070
    19
1002
}
  0
LINE
  5
DD8
100
AcDbEntity
  8
DISEGNO
100
AcDbLine
 10
27.377283
 20
95.984444
 30
0.0
 11
26.377283
 21
94.984444
 31
0.0
1001
ACAD
1000
ASC_BOUNDS
1002
{
1070
    19
1002
}
  0
ARC
  5
DD9
100
AcDbEntity
  8
DISEGNO
100
AcDbCircle
 10
32.646822
 20
87.984444
 30
0.0
 40
8.0
100
AcDbArc
 50
40.0
 51
90.0
1001
ACAD
1000
ASC_BOUNDS
1002
{
1070
    19
1002
}
  0
LINE
  5
DDA
100
AcDbEntity
  8
DISEGNO
100
AcDbLine
 10
46.377283
 20
81.733322
 30
0.0
 11
46.377283
 21
84.066908
 31
0.0
  0
LINE
  5
DDB
100
AcDbEntity
  8
DISEGNO
100
AcDbLine
 10
133.979389
 20
93.126745
 30
0.0
 11
126.377283
 21
84.066908
 31
0.0
1001
ACAD
1000
ASC_BOUNDS
1002
{
1070
    19
1002
}
  0
LINE
  5
DDC
100
AcDbEntity
  8
DISEGNO
100
AcDbLine
 10
126.377283
 20
84.066908
 30
0.0
 11
126.377283
 21
81.733322
 31
0.0
  0
ARC
  5
DDD
100
AcDbEntity
  8
DISEGNO
100
AcDbCircle
 10
140.107744
 20
87.984444
 30
0.0
 40
8.0
100
AcDbArc
 50
90.0
 51
140.0
1001
ACAD
1000
ASC_BOUNDS
1002
{
1070
    19
1002
}
  0
LINE
  5
DDE
100
AcDbEntity
  8
DISEGNO
100
AcDbLine
 10
145.377283
 20
95.984444
 30
0.0
 11
140.107744
 21
95.984444
 31
0.0
1001
ACAD
1000
ASC_BOUNDS
1002
{
1070
    19
1002
}
  0
LINE
  5
DDF
100
AcDbEntity
  8
DISEGNO
100
AcDbLine
 10
145.377283
 20
95.984444
 30
0.0
 11
146.377283
 21
94.984444
 31
0.0
1001
ACAD
1000
ASC_BOUNDS
1002
{
1070
    19
1002
}
  0
ENDBLK
  5
DE1
100
AcDbEntity
  8
QUOTE
100
AcDbBlockEnd
  0
BLOCK
  5
E7E
100
AcDbEntity
  8
0
100
AcDbBlockBegin
  2
*D28
 70
    65
 10
0.0
 20
0.0
 30
0.0
  3
*D28
  1

  0
LINE
  5
E74
100
AcDbEntity
  8
0
  6
BYBLOCK
 62
     0
100
AcDbLine
 10
377.973693
 20
75.623959
 30
0.0
 11
368.297774
 21
75.623959
 31
0.0
  0
ARC
  5
E75
100
AcDbEntity
  8
0
  6
BYBLOCK
 62
     0
100
AcDbCircle
 10
378.598693
 20
75.623959
 30
0.0
 40
9.050919
100
AcDbArc
 50
105.876703
 51
164.123297
  0
SOLID
  5
E76
100
AcDbEntity
  8
0
  6
BYBLOCK
 62
     0
100
AcDbTrace
 10
376.065106
 20
84.742283
 30
0.0
 11
376.180195
 21
83.916935
 31
0.0
 12
378.598693
 22
84.674878
 32
0.0
 13
378.598693
 23
84.674878
 33
0.0
  0
SOLID
  5
E77
100
AcDbEntity
  8
0
  6
BYBLOCK
 62
     0
100
AcDbTrace
 10
370.305717
 20
78.042457
 30
0.0
 11
369.480369
 21
78.157547
 31
0.0
 12
369.547774
 22
75.623959
 32
0.0
 13
369.547774
 23
75.623959
 33
0.0
  0
MTEXT
  5
E78
100
AcDbEntity
  8
0
  6
BYBLOCK
 62
     0
100
AcDbMText
 10
370.696125
 20
83.526527
 30
0.0
 40
3.0
 41
0.0
 71
     5
 72
     1
  1
\A2;90°
 11
0.707107
 21
0.707107
 31
0.0
  0
POINT
  5
E79
100
AcDbEntity
  8
DEFPOINTS
  6
BYBLOCK
 62
     0
100
AcDbPoint
 10
374.073234
 20
83.462285
 30
0.0
  0
POINT
  5
E7A
100
AcDbEntity
  8
DEFPOINTS
  6
BYBLOCK
 62
     0
100
AcDbPoint
 10
378.598693
 20
75.623959
 30
0.0
  0
POINT
  5
E7B
100
AcDbEntity
  8
DEFPOINTS
  6
BYBLOCK
 62
     0
100
AcDbPoint
 10
378.598693
 20
80.623959
 30
0.0
  0
POINT
  5
E7C
100
AcDbEntity
  8
DEFPOINTS
  6
BYBLOCK
 62
     0
100
AcDbPoint
 10
378.598693
 20
100.623959
 30
0.0
  0
POINT
  5
E7D
100
AcDbEntity
  8
DEFPOINTS
  6
BYBLOCK
 62
     0
100
AcDbPoint
 10
418.598693
 20
75.623959
 30
0.0
  0
ENDBLK
  5
E7F
100
AcDbEntity
  8
0
100
AcDbBlockEnd
  0
BLOCK
  5
E8B
100
AcDbEntity
  8
0
100
AcDbBlockBegin
  2
*D29
 70
    65
 10
0.0
 20
0.0
 30
0.0
  3
*D29
  1

  0
LINE
  5
E81
100
AcDbEntity
  8
0
  6
BYBLOCK
 62
     0
100
AcDbLine
 10
419.223693
 20
75.623959
 30
0.0
 11
429.019127
 21
75.623959
 31
0.0
  0
ARC
  5
E82
100
AcDbEntity
  8
0
  6
BYBLOCK
 62
     0
100
AcDbCircle
 10
418.598693
 20
75.623959
 30
0.0
 40
9.170434
100
AcDbArc
 50
15.66848
 51
74.33152
  0
SOLID
  5
E83
100
AcDbEntity
  8
0
  6
BYBLOCK
 62
     0
100
AcDbTrace
 10
427.841136
 20
78.15742
 30
0.0
 11
427.015581
 21
78.043831
 31
0.0
 12
427.769127
 22
75.623959
 32
0.0
 13
427.769127
 23
75.623959
 33
0.0
  0
SOLID
  5
E84
100
AcDbEntity
  8
0
  6
BYBLOCK
 62
     0
100
AcDbTrace
 10
421.018565
 20
84.040846
 30
0.0
 11
421.132155
 21
84.866402
 31
0.0
 12
418.598693
 22
84.794393
 32
0.0
 13
418.598693
 23
84.794393
 33
0.0
  0
MTEXT
  5
E85
100
AcDbEntity
  8
0
  6
BYBLOCK
 62
     0
100
AcDbMText
 10
426.585771
 20
83.611037
 30
0.0
 40
3.0
 41
0.0
 71
     5
 72
     1
  1
\A2;90°
 11
0.707107
 21
-0.707107
 31
0.0
  0
POINT
  5
E86
100
AcDbEntity
  8
DEFPOINTS
  6
BYBLOCK
 62
     0
100
AcDbPoint
 10
426.540522
 20
80.209176
 30
0.0
  0
POINT
  5
E87
100
AcDbEntity
  8
DEFPOINTS
  6
BYBLOCK
 62
     0
100
AcDbPoint
 10
418.598693
 20
100.623959
 30
0.0
  0
POINT
  5
E88
100
AcDbEntity
  8
DEFPOINTS
  6
BYBLOCK
 62
     0
100
AcDbPoint
 10
378.598693
 20
75.623959
 30
0.0
  0
POINT
  5
E89
100
AcDbEntity
  8
DEFPOINTS
  6
BYBLOCK
 62
     0
100
AcDbPoint
 10
418.598693
 20
75.623959
 30
0.0
  0
POINT
  5
E8A
100
AcDbEntity
  8
DEFPOINTS
  6
BYBLOCK
 62
     0
100
AcDbPoint
 10
418.598693
 20
80.623959
 30
0.0
  0
ENDBLK
  5
E8C
100
AcDbEntity
  8
0
100
AcDbBlockEnd
  0
BLOCK
  5
E98
100
AcDbEntity
  8
0
100
AcDbBlockBegin
  2
*D30
 70
    65
 10
0.0
 20
0.0
 30
0.0
  3
*D30
  1

  0
LINE
  5
E8E
100
AcDbEntity
  8
0
  6
BYBLOCK
 62
     0
100
AcDbLine
 10
395.415696
 20
97.925748
 30
0.0
 11
402.044029
 21
97.925748
 31
0.0
  0
LINE
  5
E8F
100
AcDbEntity
  8
0
  6
BYBLOCK
 62
     0
100
AcDbLine
 10
395.415696
 20
100.623959
 30
0.0
 11
402.044029
 21
100.623959
 31
0.0
  0
LINE
  5
E90
100
AcDbEntity
  8
0
  6
BYBLOCK
 62
     0
100
AcDbLine
 10
400.794029
 20
95.425748
 30
0.0
 11
400.794029
 21
92.925748
 31
0.0
  0
LINE
  5
E91
100
AcDbEntity
  8
0
  6
BYBLOCK
 62
     0
100
AcDbLine
 10
400.794029
 20
103.123959
 30
0.0
 11
400.794029
 21
108.796557
 31
0.0
  0
SOLID
  5
E92
100
AcDbEntity
  8
0
  6
BYBLOCK
 62
     0
100
AcDbTrace
 10
400.377362
 20
95.425748
 30
0.0
 11
401.210695
 21
95.425748
 31
0.0
 12
400.794029
 22
97.925748
 32
0.0
 13
400.794029
 23
97.925748
 33
0.0
  0
SOLID
  5
E93
100
AcDbEntity
  8
0
  6
BYBLOCK
 62
     0
100
AcDbTrace
 10
400.377362
 20
103.123959
 30
0.0
 11
401.210695
 21
103.123959
 31
0.0
 12
400.794029
 22
100.623959
 32
0.0
 13
400.794029
 23
100.623959
 33
0.0
  0
MTEXT
  5
E94
100
AcDbEntity
  8
0
  6
BYBLOCK
 62
     0
100
AcDbMText
 10
398.669029
 20
106.683959
 30
0.0
 40
3.0
 41
0.0
 71
     5
 72
     1
  1
\A1;{10}
 11
0.0
 21
1.0
 31
0.0
  0
POINT
  5
E95
100
AcDbEntity
  8
DEFPOINTS
  6
BYBLOCK
 62
     0
100
AcDbPoint
 10
394.790696
 20
97.925748
 30
0.0
  0
POINT
  5
E96
100
AcDbEntity
  8
DEFPOINTS
  6
BYBLOCK
 62
     0
100
AcDbPoint
 10
394.790696
 20
100.623959
 30
0.0
  0
POINT
  5
E97
100
AcDbEntity
  8
DEFPOINTS
  6
BYBLOCK
 62
     0
100
AcDbPoint
 10
400.794029
 20
100.623959
 30
0.0
  0
ENDBLK
  5
E99
100
AcDbEntity
  8
0
100
AcDbBlockEnd
  0
BLOCK
  5
EA5
100
AcDbEntity
  8
0
100
AcDbBlockBegin
  2
*D31
 70
    65
 10
0.0
 20
0.0
 30
0.0
  3
*D31
  1

  0
LINE
  5
E9B
100
AcDbEntity
  8
0
  6
BYBLOCK
 62
     0
100
AcDbLine
 10
378.598693
 20
101.248959
 30
0.0
 11
378.598693
 21
108.17943
 31
0.0
  0
LINE
  5
E9C
100
AcDbEntity
  8
0
  6
BYBLOCK
 62
     0
100
AcDbLine
 10
386.598693
 20
96.248959
 30
0.0
 11
386.598693
 21
108.17943
 31
0.0
  0
LINE
  5
E9D
100
AcDbEntity
  8
0
  6
BYBLOCK
 62
     0
100
AcDbLine
 10
376.098693
 20
106.92943
 30
0.0
 11
373.598693
 21
106.92943
 31
0.0
  0
LINE
  5
E9E
100
AcDbEntity
  8
0
  6
BYBLOCK
 62
     0
100
AcDbLine
 10
389.098693
 20
106.92943
 30
0.0
 11
391.598693
 21
106.92943
 31
0.0
  0
SOLID
  5
E9F
100
AcDbEntity
  8
0
  6
BYBLOCK
 62
     0
100
AcDbTrace
 10
376.098693
 20
107.346097
 30
0.0
 11
376.098693
 21
106.512763
 31
0.0
 12
378.598693
 22
106.92943
 32
0.0
 13
378.598693
 23
106.92943
 33
0.0
  0
SOLID
  5
EA0
100
AcDbEntity
  8
0
  6
BYBLOCK
 62
     0
100
AcDbTrace
 10
389.098693
 20
107.346097
 30
0.0
 11
389.098693
 21
106.512763
 31
0.0
 12
386.598693
 22
106.92943
 32
0.0
 13
386.598693
 23
106.92943
 33
0.0
  0
MTEXT
  5
EA1
100
AcDbEntity
  8
0
  6
BYBLOCK
 62
     0
100
AcDbMText
 10
382.598693
 20
109.05443
 30
0.0
 40
3.0
 41
0.0
 71
     5
 72
     1
  1
\A1;{50}
  0
POINT
  5
EA2
100
AcDbEntity
  8
DEFPOINTS
  6
BYBLOCK
 62
     0
100
AcDbPoint
 10
378.598693
 20
100.623959
 30
0.0
  0
POINT
  5
EA3
100
AcDbEntity
  8
DEFPOINTS
  6
BYBLOCK
 62
     0
100
AcDbPoint
 10
386.598693
 20
95.623959
 30
0.0
  0
POINT
  5
EA4
100
AcDbEntity
  8
DEFPOINTS
  6
BYBLOCK
 62
     0
100
AcDbPoint
 10
386.598693
 20
106.92943
 30
0.0
  0
ENDBLK
  5
EA6
100
AcDbEntity
  8
0
100
AcDbBlockEnd
  0
BLOCK
  5
EE0
100
AcDbEntity
  8
QUOTE
100
AcDbBlockBegin
  2
A$C6323
 70
     0
 10
0.0
 20
0.0
 30
0.0
  3
A$C6323
  1

  0
MTEXT
  5
EAA
100
AcDbEntity
  8
QUOTE
100
AcDbMText
 10
0.866633
 20
220.522624
 30
0.0
 40
4.0
 41
0.0
 71
     7
 72
     1
  1
{CORREDATO DI DISEGNO COSTRUTTIVO M80-45-40/FR}
  0
TEXT
  5
EAB
100
AcDbEntity
  8
TESTO
100
AcDbText
 10
165.834052
 20
127.128596
 30
0.0
 40
3.0
  1
LE TOLLERANZE DEI PROFILI SONO INDICATIVE
 50
90.0
 41
1.1
100
AcDbText
  0
TEXT
  5
EAC
100
AcDbEntity
  8
TESTO
100
AcDbText
 10
171.534052
 20
127.128596
 30
0.0
 40
3.0
  1
E SI RIFERISCONO AGLI SCOSTAMENTI RISPETTO
 50
90.0
 41
1.1
100
AcDbText
  0
TEXT
  5
EAD
100
AcDbEntity
  8
TESTO
100
AcDbText
 10
177.234052
 20
127.128596
 30
0.0
 40
3.0
  1
AL MASTER: M.80.45.40
 50
90.0
 41
1.1
100
AcDbText
  0
TEXT
  5
EAE
100
AcDbEntity
  8
TESTO
100
AcDbText
 10
1.029882
 20
9.116054
 30
0.0
 40
2.5
  1
TOLLERANZE AL METRO
 41
1.1
100
AcDbText
  0
LINE
  5
EAF
100
AcDbEntity
  8
TESTO
100
AcDbLine
 10
0.436297
 20
0.865406
 30
0.0
 11
41.555337
 21
0.865406
 31
0.0
  0
LINE
  5
EB0
100
AcDbEntity
  8
TESTO
100
AcDbLine
 10
41.555337
 20
13.580015
 30
0.0
 11
0.436297
 21
13.580015
 31
0.0
  0
LINE
  5
EB1
100
AcDbEntity
  8
TESTO
100
AcDbLine
 10
0.436297
 20
13.580015
 30
0.0
 11
0.436297
 21
0.865406
 31
0.0
  0
LINE
  5
EB2
100
AcDbEntity
  8
DISEGNO
100
AcDbLine
 10
90.839661
 20
11.417589
 30
0.0
 11
109.21551
 21
11.417589
 31
0.0
  0
LINE
  5
EB3
100
AcDbEntity
  8
QUOTE
  6
ACAD_ISO04W100
100
AcDbLine
 10
96.996356
 20
34.932069
 30
0.0
 11
86.577347
 21
3.529377
 31
0.0
  0
DIMENSION
  5
EB4
100
AcDbEntity
  8
QUOTE
100
AcDbDimension
  2
*D28
 10
109.21551
 20
7.203328
 30
0.0
 11
61.312942
 21
15.105896
 31
0.0
 12
-309.383183
 22
-68.420631
 32
0.0
 70
     2
  3
TOLL-01
100
AcDb2LineAngularDimension
 13
69.21551
 23
12.203328
 33
0.0
 14
69.21551
 24
32.203328
 34
0.0
 15
69.21551
 25
7.203328
 35
0.0
 16
64.690051
 26
15.041654
 36
0.0
1001
ACAD
1000
DSTYLE
1002
{
1070
    71
1070
     0
1002
}
  0
DIMENSION
  5
EB5
100
AcDbEntity
  8
QUOTE
100
AcDbDimension
  2
*D29
 10
109.21551
 20
12.203328
 30
0.0
 11
117.202588
 21
15.190405
 31
0.0
 12
-309.383183
 22
-68.420631
 32
0.0
 70
     2
  3
TOLL-01
100
AcDb2LineAngularDimension
 13
69.21551
 23
7.203328
 33
0.0
 14
109.21551
 24
7.203328
 34
0.0
 15
109.21551
 25
32.203328
 35
0.0
 16
117.157339
 26
11.788545
 36
0.0
1001
ACAD
1000
DSTYLE
1002
{
1070
    71
1070
     0
1002
}
  0
LINE
  5
EB6
100
AcDbEntity
  8
DISEGNO
100
AcDbLine
 10
69.21551
 20
32.203328
 30
0.0
 11
96.090995
 21
32.203328
 31
0.0
  0
MTEXT
  5
EB7
100
AcDbEntity
  8
QUOTE
100
AcDbMText
 10
81.463723
 20
43.711304
 30
0.0
 40
3.0
 41
0.0
 71
     7
 72
     1
  1
{ZONA MARC. LASER}
  0
LINE
  5
EB8
100
AcDbEntity
  8
DISEGNO
100
AcDbLine
 10
89.441423
 20
7.203328
 30
0.0
 11
109.21551
 21
7.203328
 31
0.0
  0
LINE
  5
EB9
100
AcDbEntity
  8
QUOTE
  6
ACAD_ISO04W100
100
AcDbLine
 10
98.641462
 20
34.932069
 30
0.0
 11
88.222453
 21
3.529377
 31
0.0
  0
TEXT
  5
EBA
100
AcDbEntity
  8
QUOTE
100
AcDbText
 10
32.818767
 20
32.686816
 30
0.0
 40
2.0
  1
M80-45-40
 41
1.1
100
AcDbText
  0
DIMENSION
  5
EBB
100
AcDbEntity
  8
QUOTE
100
AcDbDimension
  2
*D31
 10
77.21551
 20
38.508799
 30
0.0
 11
73.21551
 21
40.633799
 31
0.0
 12
-309.383183
 22
-68.420631
 32
0.0
  1
{50}
  3
STANDARD
100
AcDbAlignedDimension
 13
69.21551
 23
32.203328
 33
0.0
 14
77.21551
 24
27.203328
 34
0.0
100
AcDbRotatedDimension
  0
DIMENSION
  5
EBC
100
AcDbEntity
  8
QUOTE
100
AcDbDimension
  2
*D30
 10
91.410846
 20
32.203328
 30
0.0
 11
91.410846
 21
38.263328
 31
0.0
 12
-309.383183
 22
-68.420631
 32
0.0
 70
   128
  1
{10}
  3
STANDARD
100
AcDbAlignedDimension
 13
85.407513
 23
29.505117
 33
0.0
 14
85.407513
 24
32.203328
 34
0.0
 50
90.0
100
AcDbRotatedDimension
  0
LINE
  5
EBD
100
AcDbEntity
  8
TESTO
100
AcDbLine
 10
41.555337
 20
13.580015
 30
0.0
 11
54.149704
 21
13.580015
 31
0.0
  0
LINE
  5
EBE
100
AcDbEntity
  8
TESTO
100
AcDbLine
 10
54.149704
 20
0.934709
 30
0.0
 11
41.555337
 21
0.865406
 31
0.0
  0
TOLERANCE
  5
EBF
100
AcDbEntity
  8
TESTO
100
AcDbFcf
  3
STANDARD
 10
36.152705
 20
4.814053
 30
0.0
  1
{\Fgdt;f}%%v0.02%%v%%v%%v%%v
  0
TEXT
  5
EC0
100
AcDbEntity
  8
QUOTE
100
AcDbText
 10
32.818767
 20
28.886816
 30
0.0
 40
2.0
  1
H=80 A 45° V=40
 41
1.1
100
AcDbText
  0
TOLERANCE
  5
EC1
100
AcDbEntity
  8
TESTO
  6
CONTINUOUS
100
AcDbFcf
  3
ISO-25
 10
19.792395
 20
5.180122
 30
0.0
  1
{\Fgdt;u}%%v0.02%%v%%v%%v%%v
1001
ACAD
1000
DSTYLE
1002
{
1070
   140
1040
2.6
1070
    47
1040
0.02
1070
    73
1070
     0
1070
   272
1070
     2
1070
   147
1040
0.53
1070
    42
1040
0.5261
1070
    44
1040
1.0522
1070
    43
1040
3.1566
1070
   271
1070
     2
1070
   141
1040
2.1044
1070
    41
1040
2.6
1002
}
  0
TOLERANCE
  5
EC2
100
AcDbEntity
  8
TESTO
  6
CONTINUOUS
100
AcDbFcf
  3
ISO-25
 10
4.234437
 20
5.180122
 30
0.0
  1
{\Fgdt;b}%%v0.02%%v%%v%%v%%v
1001
ACAD
1000
DSTYLE
1002
{
1070
   140
1040
2.6
1070
    47
1040
0.02
1070
    73
1070
     0
1070
   272
1070
     2
1070
   147
1040
0.53
1070
    42
1040
0.5261
1070
    44
1040
1.0522
1070
    43
1040
3.1566
1070
   271
1070
     2
1070
   141
1040
2.1044
1070
    41
1040
2.6
1002
}
  0
LINE
  5
EC3
100
AcDbEntity
  8
DISEGNO
100
AcDbLine
 10
69.21551
 20
7.203328
 30
0.0
 11
69.21551
 21
12.203328
 31
0.0
  0
LINE
  5
EC4
100
AcDbEntity
  8
TESTO
100
AcDbLine
 10
54.149704
 20
13.580015
 30
0.0
 11
54.149704
 21
0.934709
 31
0.0
  0
LINE
  5
EC5
100
AcDbEntity
  8
DISEGNO
100
AcDbLine
 10
69.21551
 20
7.203328
 30
0.0
 11
87.796317
 21
7.203328
 31
0.0
  0
LINE
  5
EC6
100
AcDbEntity
  8
DISEGNO
100
AcDbLine
 10
69.21551
 20
21.193257
 30
0.0
 11
91.865037
 21
21.193257
 31
0.0
  0
LINE
  5
EC7
100
AcDbEntity
  8
DISEGNO
100
AcDbLine
 10
69.21551
 20
11.417589
 30
0.0
 11
89.194554
 21
11.417589
 31
0.0
  0
TEXT
  5
EC8
100
AcDbEntity
  8
QUOTE
100
AcDbText
 10
63.304232
 20
18.838341
 30
0.0
 40
2.0
  1
+ 0'
 50
15.237949
 41
1.1
100
AcDbText
  0
LINE
  5
EC9
100
AcDbEntity
  8
DISEGNO
100
AcDbLine
 10
69.21551
 20
12.203328
 30
0.0
 11
69.21551
 21
32.203328
 31
0.0
  0
TEXT
  5
ECA
100
AcDbEntity
  8
QUOTE
100
AcDbText
 10
63.970047
 20
16.394135
 30
0.0
 40
2.0
  1
- 2'
 50
15.237949
 41
1.1
100
AcDbText
  0
LINE
  5
ECB
100
AcDbEntity
  8
DISEGNO
100
AcDbLine
 10
77.407513
 20
24.505117
 30
0.0
 11
85.407513
 21
24.505117
 31
0.0
  0
LINE
  5
ECC
100
AcDbEntity
  8
DISEGNO
100
AcDbLine
 10
85.407513
 20
29.505117
 30
0.0
 11
77.407513
 21
29.505117
 31
0.0
  0
LINE
  5
ECD
100
AcDbEntity
  8
DISEGNO
100
AcDbLine
 10
77.407513
 20
29.505117
 30
0.0
 11
77.407513
 21
24.505117
 31
0.0
  0
LINE
  5
ECE
100
AcDbEntity
  8
DISEGNO
100
AcDbLine
 10
85.407513
 20
24.505117
 30
0.0
 11
85.407513
 21
29.505117
 31
0.0
  0
TEXT
  5
ECF
100
AcDbEntity
  8
QUOTE
100
AcDbText
 10
32.818767
 20
36.486816
 30
0.0
 40
2.0
  1
MARCARE AL LASER:
 41
1.1
100
AcDbText
  0
MTEXT
  5
ED0
100
AcDbEntity
  8
QUOTE
100
AcDbMText
 10
5.953283
 20
54.32781
 30
0.0
 40
3.0
 41
0.0
 71
     7
 72
     1
  1
{IN TESTA TENERE GLI SPIGOLI VIVI}
  0
TEXT
  5
ED1
100
AcDbEntity
  8
QUOTE
100
AcDbText
 10
5.72582
 20
48.714667
 30
0.0
 40
3.0
  1
ALTRI SMUSSI NON QUOTATI 1X45°
 41
1.1
100
AcDbText
  0
TEXT
  5
ED2
100
AcDbEntity
  8
QUOTE
100
AcDbText
 10
126.986806
 20
27.582568
 30
0.0
 40
5.0
  1
L= 835
 41
1.1
100
AcDbText
  0
INSERT
  5
ED3
100
AcDbEntity
  8
QUOTE
100
AcDbBlockReference
 66
     1
  2
RUGOSITA
 10
130.964257
 20
0.285187
 30
0.0
 41
2.0
 42
2.0
 43
2.0
  0
ATTRIB
  5
ED4
100
AcDbEntity
  8
QUOTE
100
AcDbText
 10
128.820485
 20
6.713399
 30
0.0
 40
3.0
  1
3.2
100
AcDbAttribute
  2
RUGOSITA
 70
     0
  0
SEQEND
  5
ED5
100
AcDbEntity
  8
QUOTE
  0
LINE
  5
ED6
100
AcDbEntity
  8
QUOTE
100
AcDbLine
 10
126.01359
 20
0.285187
 30
0.0
 11
155.145041
 21
0.285187
 31
0.0
  0
LINE
  5
ED7
100
AcDbEntity
  8
DISEGNO
100
AcDbLine
 10
109.21551
 20
32.203328
 30
0.0
 11
109.21551
 21
7.203328
 31
0.0
  0
LINE
  5
ED8
100
AcDbEntity
  8
DISEGNO
100
AcDbLine
 10
93.914493
 20
21.193257
 30
0.0
 11
109.21551
 21
21.193257
 31
0.0
  0
LINE
  5
ED9
100
AcDbEntity
  8
DISEGNO
100
AcDbLine
 10
97.736101
 20
32.203328
 30
0.0
 11
109.21551
 21
32.203328
 31
0.0
  0
TEXT
  5
EDA
100
AcDbEntity
  8
QUOTE
100
AcDbText
 10
117.928884
 20
11.743971
 30
0.0
 40
2.0
  1
- 2'
 50
293.655874
 41
1.1
100
AcDbText
  0
TEXT
  5
EDB
100
AcDbEntity
  8
QUOTE
100
AcDbText
 10
120.249287
 20
12.760426
 30
0.0
 40
2.0
  1
+ 0'
 50
293.655874
 41
1.1
100
AcDbText
  0
INSERT
  5
EDC
100
AcDbEntity
  8
QUOTE
100
AcDbBlockReference
 66
     1
  2
RUGOSITA
 10
146.838027
 20
0.285187
 30
0.0
 41
2.0
 42
2.0
 43
2.0
  0
ATTRIB
  5
EDD
100
AcDbEntity
  8
QUOTE
100
AcDbText
 10
144.694255
 20
6.713399
 30
0.0
 40
3.0
  1
0.8
100
AcDbAttribute
  2
RUGOSITA
 70
     0
  0
SEQEND
  5
EDE
100
AcDbEntity
  8
QUOTE
  0
MTEXT
  5
EDF
100
AcDbEntity
  8
QUOTE
100
AcDbMText
 10
101.936162
 20
49.918813
 30
0.0
 40
3.0
 41
0.0
 71
     7
 72
     1
  1
{VISTA DA "A"}
  0
ENDBLK
  5
EE1
100
AcDbEntity
  8
QUOTE
100
AcDbBlockEnd
  0
BLOCK
  5
F4E
100
AcDbEntity
  8
0
100
AcDbBlockBegin
  2
*D33
 70
    65
 10
0.0
 20
0.0
 30
0.0
  3
*D33
  1

  0
LINE
  5
F4F
100
AcDbEntity
  8
0
  6
BYBLOCK
 62
     0
100
AcDbLine
 10
342.465954
 20
55.679855
 30
0.0
 11
332.790035
 21
55.679855
 31
0.0
  0
ARC
  5
F50
100
AcDbEntity
  8
0
  6
BYBLOCK
 62
     0
100
AcDbCircle
 10
343.090954
 20
55.679855
 30
0.0
 40
9.050919
100
AcDbArc
 50
105.876703
 51
164.123297
  0
SOLID
  5
F51
100
AcDbEntity
  8
0
  6
BYBLOCK
 62
     0
100
AcDbTrace
 10
340.557366
 20
64.798179
 30
0.0
 11
340.672456
 21
63.972831
 31
0.0
 12
343.090954
 22
64.730774
 32
0.0
 13
343.090954
 23
64.730774
 33
0.0
  0
SOLID
  5
F52
100
AcDbEntity
  8
0
  6
BYBLOCK
 62
     0
100
AcDbTrace
 10
334.797977
 20
58.098353
 30
0.0
 11
333.97263
 21
58.213443
 31
0.0
 12
334.040035
 22
55.679855
 32
0.0
 13
334.040035
 23
55.679855
 33
0.0
  0
MTEXT
  5
F53
100
AcDbEntity
  8
0
  6
BYBLOCK
 62
     0
100
AcDbMText
 10
335.188386
 20
63.582423
 30
0.0
 40
3.0
 41
0.0
 71
     5
 72
     1
  1
\A2;90°
 11
0.707107
 21
0.707107
 31
0.0
  0
POINT
  5
F54
100
AcDbEntity
  8
DEFPOINTS
  6
BYBLOCK
 62
     0
100
AcDbPoint
 10
338.565494
 20
63.518181
 30
0.0
  0
POINT
  5
F55
100
AcDbEntity
  8
DEFPOINTS
  6
BYBLOCK
 62
     0
100
AcDbPoint
 10
343.090954
 20
55.679855
 30
0.0
  0
POINT
  5
F56
100
AcDbEntity
  8
DEFPOINTS
  6
BYBLOCK
 62
     0
100
AcDbPoint
 10
343.090954
 20
60.679855
 30
0.0
  0
POINT
  5
F57
100
AcDbEntity
  8
DEFPOINTS
  6
BYBLOCK
 62
     0
100
AcDbPoint
 10
343.090954
 20
80.679855
 30
0.0
  0
POINT
  5
F58
100
AcDbEntity
  8
DEFPOINTS
  6
BYBLOCK
 62
     0
100
AcDbPoint
 10
383.090954
 20
55.679855
 30
0.0
  0
ENDBLK
  5
F59
100
AcDbEntity
  8
0
100
AcDbBlockEnd
  0
BLOCK
  5
F5A
100
AcDbEntity
  8
0
100
AcDbBlockBegin
  2
*D34
 70
    65
 10
0.0
 20
0.0
 30
0.0
  3
*D34
  1

  0
LINE
  5
F5B
100
AcDbEntity
  8
0
  6
BYBLOCK
 62
     0
100
AcDbLine
 10
383.715954
 20
55.679855
 30
0.0
 11
393.511388
 21
55.679855
 31
0.0
  0
ARC
  5
F5C
100
AcDbEntity
  8
0
  6
BYBLOCK
 62
     0
100
AcDbCircle
 10
383.090954
 20
55.679855
 30
0.0
 40
9.170434
100
AcDbArc
 50
15.66848
 51
74.33152
  0
SOLID
  5
F5D
100
AcDbEntity
  8
0
  6
BYBLOCK
 62
     0
100
AcDbTrace
 10
392.333396
 20
58.213316
 30
0.0
 11
391.507841
 21
58.099726
 31
0.0
 12
392.261388
 22
55.679855
 32
0.0
 13
392.261388
 23
55.679855
 33
0.0
  0
SOLID
  5
F5E
100
AcDbEntity
  8
0
  6
BYBLOCK
 62
     0
100
AcDbTrace
 10
385.510825
 20
64.096742
 30
0.0
 11
385.624415
 21
64.922297
 31
0.0
 12
383.090954
 22
64.850289
 32
0.0
 13
383.090954
 23
64.850289
 33
0.0
  0
MTEXT
  5
F5F
100
AcDbEntity
  8
0
  6
BYBLOCK
 62
     0
100
AcDbMText
 10
391.078032
 20
63.666933
 30
0.0
 40
3.0
 41
0.0
 71
     5
 72
     1
  1
\A2;90°
 11
0.707107
 21
-0.707107
 31
0.0
  0
POINT
  5
F60
100
AcDbEntity
  8
DEFPOINTS
  6
BYBLOCK
 62
     0
100
AcDbPoint
 10
391.032783
 20
60.265072
 30
0.0
  0
POINT
  5
F61
100
AcDbEntity
  8
DEFPOINTS
  6
BYBLOCK
 62
     0
100
AcDbPoint
 10
383.090954
 20
80.679855
 30
0.0
  0
POINT
  5
F62
100
AcDbEntity
  8
DEFPOINTS
  6
BYBLOCK
 62
     0
100
AcDbPoint
 10
343.090954
 20
55.679855
 30
0.0
  0
POINT
  5
F63
100
AcDbEntity
  8
DEFPOINTS
  6
BYBLOCK
 62
     0
100
AcDbPoint
 10
383.090954
 20
55.679855
 30
0.0
  0
POINT
  5
F64
100
AcDbEntity
  8
DEFPOINTS
  6
BYBLOCK
 62
     0
100
AcDbPoint
 10
383.090954
 20
60.679855
 30
0.0
  0
ENDBLK
  5
F65
100
AcDbEntity
  8
0
100
AcDbBlockEnd
  0
BLOCK
  5
F66
100
AcDbEntity
  8
0
100
AcDbBlockBegin
  2
*D35
 70
    65
 10
0.0
 20
0.0
 30
0.0
  3
*D35
  1

  0
LINE
  5
F67
100
AcDbEntity
  8
0
  6
BYBLOCK
 62
     0
100
AcDbLine
 10
343.090954
 20
81.304855
 30
0.0
 11
343.090954
 21
88.235326
 31
0.0
  0
LINE
  5
F68
100
AcDbEntity
  8
0
  6
BYBLOCK
 62
     0
100
AcDbLine
 10
351.090954
 20
76.304855
 30
0.0
 11
351.090954
 21
88.235326
 31
0.0
  0
LINE
  5
F69
100
AcDbEntity
  8
0
  6
BYBLOCK
 62
     0
100
AcDbLine
 10
340.590954
 20
86.985326
 30
0.0
 11
338.090954
 21
86.985326
 31
0.0
  0
LINE
  5
F6A
100
AcDbEntity
  8
0
  6
BYBLOCK
 62
     0
100
AcDbLine
 10
353.590954
 20
86.985326
 30
0.0
 11
356.090954
 21
86.985326
 31
0.0
  0
SOLID
  5
F6B
100
AcDbEntity
  8
0
  6
BYBLOCK
 62
     0
100
AcDbTrace
 10
340.590954
 20
87.401992
 30
0.0
 11
340.590954
 21
86.568659
 31
0.0
 12
343.090954
 22
86.985326
 32
0.0
 13
343.090954
 23
86.985326
 33
0.0
  0
SOLID
  5
F6C
100
AcDbEntity
  8
0
  6
BYBLOCK
 62
     0
100
AcDbTrace
 10
353.590954
 20
87.401992
 30
0.0
 11
353.590954
 21
86.568659
 31
0.0
 12
351.090954
 22
86.985326
 32
0.0
 13
351.090954
 23
86.985326
 33
0.0
  0
MTEXT
  5
F6D
100
AcDbEntity
  8
0
  6
BYBLOCK
 62
     0
100
AcDbMText
 10
347.090954
 20
89.110326
 30
0.0
 40
3.0
 41
0.0
 71
     5
 72
     1
  1
\A1;{50}
  0
POINT
  5
F6E
100
AcDbEntity
  8
DEFPOINTS
  6
BYBLOCK
 62
     0
100
AcDbPoint
 10
343.090954
 20
80.679855
 30
0.0
  0
POINT
  5
F6F
100
AcDbEntity
  8
DEFPOINTS
  6
BYBLOCK
 62
     0
100
AcDbPoint
 10
351.090954
 20
75.679855
 30
0.0
  0
POINT
  5
F70
100
AcDbEntity
  8
DEFPOINTS
  6
BYBLOCK
 62
     0
100
AcDbPoint
 10
351.090954
 20
86.985326
 30
0.0
  0
ENDBLK
  5
F71
100
AcDbEntity
  8
0
100
AcDbBlockEnd
  0
BLOCK
  5
FC6
100
AcDbEntity
  8
0
100
AcDbBlockBegin
  2
*D36
 70
    65
 10
0.0
 20
0.0
 30
0.0
  3
*D36
  1

  0
LINE
  5
FC7
100
AcDbEntity
  8
0
  6
BYBLOCK
 62
     0
100
AcDbLine
 10
161.773673
 20
194.129694
 30
0.0
 11
168.402006
 21
194.129694
 31
0.0
  0
LINE
  5
FC8
100
AcDbEntity
  8
0
  6
BYBLOCK
 62
     0
100
AcDbLine
 10
161.773673
 20
196.827905
 30
0.0
 11
168.402006
 21
196.827905
 31
0.0
  0
LINE
  5
FC9
100
AcDbEntity
  8
0
  6
BYBLOCK
 62
     0
100
AcDbLine
 10
167.152006
 20
191.629694
 30
0.0
 11
167.152006
 21
189.129694
 31
0.0
  0
LINE
  5
FCA
100
AcDbEntity
  8
0
  6
BYBLOCK
 62
     0
100
AcDbLine
 10
167.152006
 20
199.327905
 30
0.0
 11
167.152006
 21
205.06625
 31
0.0
  0
SOLID
  5
FCB
100
AcDbEntity
  8
0
  6
BYBLOCK
 62
     0
100
AcDbTrace
 10
166.735339
 20
191.629694
 30
0.0
 11
167.568672
 21
191.629694
 31
0.0
 12
167.152006
 22
194.129694
 32
0.0
 13
167.152006
 23
194.129694
 33
0.0
  0
SOLID
  5
FCC
100
AcDbEntity
  8
0
  6
BYBLOCK
 62
     0
100
AcDbTrace
 10
166.735339
 20
199.327905
 30
0.0
 11
167.568672
 21
199.327905
 31
0.0
 12
167.152006
 22
196.827905
 32
0.0
 13
167.152006
 23
196.827905
 33
0.0
  0
MTEXT
  5
FCD
100
AcDbEntity
  8
0
  6
BYBLOCK
 62
     0
100
AcDbMText
 10
165.027006
 20
202.887905
 30
0.0
 40
3.0
 41
0.0
 71
     5
 72
     1
  1
\A1;{15}
 11
0.0
 21
1.0
 31
0.0
  0
POINT
  5
FCE
100
AcDbEntity
  8
DEFPOINTS
  6
BYBLOCK
 62
     0
100
AcDbPoint
 10
161.148673
 20
194.129694
 30
0.0
  0
POINT
  5
FCF
100
AcDbEntity
  8
DEFPOINTS
  6
BYBLOCK
 62
     0
100
AcDbPoint
 10
161.148673
 20
196.827905
 30
0.0
  0
POINT
  5
FD0
100
AcDbEntity
  8
DEFPOINTS
  6
BYBLOCK
 62
     0
100
AcDbPoint
 10
167.152006
 20
196.827905
 30
0.0
  0
ENDBLK
  5
FD1
100
AcDbEntity
  8
0
100
AcDbBlockEnd
  0
BLOCK
  5
F98
100
AcDbEntity
  8
0
100
AcDbBlockBegin
  2
*D37
 70
    65
 10
0.0
 20
0.0
 30
0.0
  3
*D37
  1

  0
LINE
  5
F99
100
AcDbEntity
  8
0
  6
BYBLOCK
 62
     0
100
AcDbLine
 10
-14.113506
 20
81.685463
 30
0.0
 11
-14.113506
 21
68.297122
 31
0.0
  0
LINE
  5
F9A
100
AcDbEntity
  8
0
  6
BYBLOCK
 62
     0
100
AcDbLine
 10
15.886494
 20
80.685463
 30
0.0
 11
15.886494
 21
68.297122
 31
0.0
  0
LINE
  5
F9B
100
AcDbEntity
  8
0
  6
BYBLOCK
 62
     0
100
AcDbLine
 10
-11.613506
 20
69.547122
 30
0.0
 11
13.386494
 21
69.547122
 31
0.0
  0
SOLID
  5
F9C
100
AcDbEntity
  8
0
  6
BYBLOCK
 62
     0
100
AcDbTrace
 10
-11.613506
 20
69.963788
 30
0.0
 11
-11.613506
 21
69.130455
 31
0.0
 12
-14.113506
 22
69.547122
 32
0.0
 13
-14.113506
 23
69.547122
 33
0.0
  0
SOLID
  5
F9D
100
AcDbEntity
  8
0
  6
BYBLOCK
 62
     0
100
AcDbTrace
 10
13.386494
 20
69.963788
 30
0.0
 11
13.386494
 21
69.130455
 31
0.0
 12
15.886494
 22
69.547122
 32
0.0
 13
15.886494
 23
69.547122
 33
0.0
  0
MTEXT
  5
F9E
100
AcDbEntity
  8
0
  6
BYBLOCK
 62
     0
100
AcDbMText
 10
0.886494
 20
71.672122
 30
0.0
 40
3.0
 41
0.0
 71
     5
 72
     1
  1
\A1;30±0.01
  0
POINT
  5
F9F
100
AcDbEntity
  8
DEFPOINTS
  6
BYBLOCK
 62
     0
100
AcDbPoint
 10
-14.113506
 20
82.310463
 30
0.0
  0
POINT
  5
FA0
100
AcDbEntity
  8
DEFPOINTS
  6
BYBLOCK
 62
     0
100
AcDbPoint
 10
15.886494
 20
81.310463
 30
0.0
  0
POINT
  5
FA1
100
AcDbEntity
  8
DEFPOINTS
  6
BYBLOCK
 62
     0
100
AcDbPoint
 10
15.886494
 20
69.547122
 30
0.0
  0
ENDBLK
  5
FA2
100
AcDbEntity
  8
0
100
AcDbBlockEnd
  0
BLOCK
  5
FB6
100
AcDbEntity
  8
0
100
AcDbBlockBegin
  2
*D38
 70
    65
 10
0.0
 20
0.0
 30
0.0
  3
*D38
  1

  0
LINE
  5
FB7
100
AcDbEntity
  8
0
  6
BYBLOCK
 62
     0
100
AcDbLine
 10
66.288236
 20
176.789241
 30
0.0
 11
72.202519
 21
183.837608
 31
0.0
  0
LINE
  5
FB8
100
AcDbEntity
  8
0
  6
BYBLOCK
 62
     0
100
AcDbLine
 10
-34.515248
 20
176.789241
 30
0.0
 11
-40.429531
 21
183.837608
 31
0.0
  0
ARC
  5
FB9
100
AcDbEntity
  8
0
  6
BYBLOCK
 62
     0
100
AcDbCircle
 10
15.886494
 20
116.722783
 30
0.0
 40
86.362182
100
AcDbArc
 50
51.658648
 51
128.341352
  0
SOLID
  5
FBA
100
AcDbEntity
  8
0
  6
BYBLOCK
 62
     0
100
AcDbTrace
 10
69.724045
 20
184.782163
 30
0.0
 11
69.197685
 21
184.136106
 31
0.0
 12
71.399035
 22
182.880053
 32
0.0
 13
71.399035
 23
182.880053
 33
0.0
  0
SOLID
  5
FBB
100
AcDbEntity
  8
0
  6
BYBLOCK
 62
     0
100
AcDbTrace
 10
-37.424697
 20
184.136106
 30
0.0
 11
-37.951057
 21
184.782163
 31
0.0
 12
-39.626046
 22
182.880053
 32
0.0
 13
-39.626046
 23
182.880053
 33
0.0
  0
MTEXT
  5
FBC
100
AcDbEntity
  8
0
  6
BYBLOCK
 62
     0
100
AcDbMText
 10
15.886494
 20
205.209965
 30
0.0
 40
3.0
 41
0.0
 71
     5
 72
     1
  1
\A1;80°
  0
POINT
  5
FBD
100
AcDbEntity
  8
DEFPOINTS
  6
BYBLOCK
 62
     0
100
AcDbPoint
 10
35.802984
 20
200.757062
 30
0.0
  0
POINT
  5
FBE
100
AcDbEntity
  8
DEFPOINTS
  6
BYBLOCK
 62
     0
100
AcDbPoint
 10
-34.113506
 20
176.310463
 30
0.0
  0
POINT
  5
FBF
100
AcDbEntity
  8
DEFPOINTS
  6
BYBLOCK
 62
     0
100
AcDbPoint
 10
65.886494
 20
176.310463
 30
0.0
  0
POINT
  5
FC0
100
AcDbEntity
  8
DEFPOINTS
  6
BYBLOCK
 62
     0
100
AcDbPoint
 10
55.886494
 20
164.392927
 30
0.0
  0
POINT
  5
FC1
100
AcDbEntity
  8
DEFPOINTS
  6
BYBLOCK
 62
     0
100
AcDbPoint
 10
-24.113506
 20
164.392927
 30
0.0
  0
ENDBLK
  5
FC2
100
AcDbEntity
  8
0
100
AcDbBlockEnd
  0
BLOCK
  5
1017
100
AcDbEntity
  8
0
100
AcDbBlockBegin
  2
*X39
 70
    65
 10
0.0
 20
0.0
 30
0.0
  3
*X39
  1

  0
LINE
  5
1019
100
AcDbEntity
  8
0
 62
     0
100
AcDbLine
 10
-26.203219
 20
166.872288
 30
0.0
 11
-26.198172
 21
166.877335
 31
0.0
  0
LINE
  5
101A
100
AcDbEntity
  8
0
 62
     0
100
AcDbLine
 10
-26.377393
 20
166.92262
 30
0.0
 11
-26.300604
 21
166.999409
 31
0.0
  0
LINE
  5
101B
100
AcDbEntity
  8
0
 62
     0
100
AcDbLine
 10
-26.551568
 20
166.972952
 30
0.0
 11
-26.403036
 21
167.121483
 31
0.0
  0
LINE
  5
101C
100
AcDbEntity
  8
0
 62
     0
100
AcDbLine
 10
-26.725742
 20
167.023283
 30
0.0
 11
-26.505469
 21
167.243557
 31
0.0
  0
LINE
  5
101D
100
AcDbEntity
  8
0
 62
     0
100
AcDbLine
 10
-26.899917
 20
167.073615
 30
0.0
 11
-26.607901
 21
167.365631
 31
0.0
  0
LINE
  5
101E
100
AcDbEntity
  8
0
 62
     0
100
AcDbLine
 10
-27.074092
 20
167.123947
 30
0.0
 11
-26.710333
 21
167.487705
 31
0.0
  0
LINE
  5
101F
100
AcDbEntity
  8
0
 62
     0
100
AcDbLine
 10
-27.248266
 20
167.174279
 30
0.0
 11
-26.812766
 21
167.609779
 31
0.0
  0
LINE
  5
1020
100
AcDbEntity
  8
0
 62
     0
100
AcDbLine
 10
-27.422441
 20
167.22461
 30
0.0
 11
-26.915198
 21
167.731854
 31
0.0
  0
LINE
  5
1021
100
AcDbEntity
  8
0
 62
     0
100
AcDbLine
 10
-27.596616
 20
167.274942
 30
0.0
 11
-27.01763
 21
167.853928
 31
0.0
  0
LINE
  5
1022
100
AcDbEntity
  8
0
 62
     0
100
AcDbLine
 10
-27.77079
 20
167.325274
 30
0.0
 11
-27.120063
 21
167.976002
 31
0.0
  0
LINE
  5
1023
100
AcDbEntity
  8
0
 62
     0
100
AcDbLine
 10
-27.944965
 20
167.375606
 30
0.0
 11
-27.222495
 21
168.098076
 31
0.0
  0
LINE
  5
1024
100
AcDbEntity
  8
0
 62
     0
100
AcDbLine
 10
-28.11914
 20
167.425937
 30
0.0
 11
-27.324927
 21
168.22015
 31
0.0
  0
LINE
  5
1025
100
AcDbEntity
  8
0
 62
     0
100
AcDbLine
 10
-28.293314
 20
167.476269
 30
0.0
 11
-27.42736
 21
168.342224
 31
0.0
  0
LINE
  5
1026
100
AcDbEntity
  8
0
 62
     0
100
AcDbLine
 10
-28.467489
 20
167.526601
 30
0.0
 11
-27.529792
 21
168.464298
 31
0.0
  0
LINE
  5
1027
100
AcDbEntity
  8
0
 62
     0
100
AcDbLine
 10
-28.641663
 20
167.576933
 30
0.0
 11
-27.632224
 21
168.586372
 31
0.0
  0
LINE
  5
1028
100
AcDbEntity
  8
0
 62
     0
100
AcDbLine
 10
-28.815838
 20
167.627265
 30
0.0
 11
-27.734656
 21
168.708446
 31
0.0
  0
LINE
  5
1029
100
AcDbEntity
  8
0
 62
     0
100
AcDbLine
 10
-28.990013
 20
167.677596
 30
0.0
 11
-27.837089
 21
168.83052
 31
0.0
  0
LINE
  5
102A
100
AcDbEntity
  8
0
 62
     0
100
AcDbLine
 10
-29.164187
 20
167.727928
 30
0.0
 11
-27.939521
 21
168.952594
 31
0.0
  0
LINE
  5
102B
100
AcDbEntity
  8
0
 62
     0
100
AcDbLine
 10
-29.338362
 20
167.77826
 30
0.0
 11
-28.041953
 21
169.074668
 31
0.0
  0
LINE
  5
102C
100
AcDbEntity
  8
0
 62
     0
100
AcDbLine
 10
-29.512537
 20
167.828592
 30
0.0
 11
-28.144386
 21
169.196743
 31
0.0
  0
LINE
  5
102D
100
AcDbEntity
  8
0
 62
     0
100
AcDbLine
 10
-29.686711
 20
167.878923
 30
0.0
 11
-28.246818
 21
169.318817
 31
0.0
  0
LINE
  5
102E
100
AcDbEntity
  8
0
 62
     0
100
AcDbLine
 10
-29.860886
 20
167.929255
 30
0.0
 11
-28.34925
 21
169.440891
 31
0.0
  0
LINE
  5
102F
100
AcDbEntity
  8
0
 62
     0
100
AcDbLine
 10
-30.035061
 20
167.979587
 30
0.0
 11
-28.451683
 21
169.562965
 31
0.0
  0
LINE
  5
1030
100
AcDbEntity
  8
0
 62
     0
100
AcDbLine
 10
-30.209235
 20
168.029919
 30
0.0
 11
-28.554115
 21
169.685039
 31
0.0
  0
LINE
  5
1031
100
AcDbEntity
  8
0
 62
     0
100
AcDbLine
 10
-30.38341
 20
168.08025
 30
0.0
 11
-28.656547
 21
169.807113
 31
0.0
  0
LINE
  5
1032
100
AcDbEntity
  8
0
 62
     0
100
AcDbLine
 10
-30.557584
 20
168.130582
 30
0.0
 11
-28.75898
 21
169.929187
 31
0.0
  0
LINE
  5
1033
100
AcDbEntity
  8
0
 62
     0
100
AcDbLine
 10
-30.731759
 20
168.180914
 30
0.0
 11
-28.861412
 21
170.051261
 31
0.0
  0
LINE
  5
1034
100
AcDbEntity
  8
0
 62
     0
100
AcDbLine
 10
-30.905934
 20
168.231246
 30
0.0
 11
-28.963844
 21
170.173335
 31
0.0
  0
LINE
  5
1035
100
AcDbEntity
  8
0
 62
     0
100
AcDbLine
 10
-31.080108
 20
168.281577
 30
0.0
 11
-29.066277
 21
170.295409
 31
0.0
  0
LINE
  5
1036
100
AcDbEntity
  8
0
 62
     0
100
AcDbLine
 10
-31.254283
 20
168.331909
 30
0.0
 11
-29.168709
 21
170.417483
 31
0.0
  0
LINE
  5
1037
100
AcDbEntity
  8
0
 62
     0
100
AcDbLine
 10
-31.428458
 20
168.382241
 30
0.0
 11
-29.271141
 21
170.539557
 31
0.0
  0
LINE
  5
1038
100
AcDbEntity
  8
0
 62
     0
100
AcDbLine
 10
-31.602632
 20
168.432573
 30
0.0
 11
-29.373574
 21
170.661632
 31
0.0
  0
LINE
  5
1039
100
AcDbEntity
  8
0
 62
     0
100
AcDbLine
 10
-31.776807
 20
168.482905
 30
0.0
 11
-29.476006
 21
170.783706
 31
0.0
  0
LINE
  5
103A
100
AcDbEntity
  8
0
 62
     0
100
AcDbLine
 10
-31.950982
 20
168.533236
 30
0.0
 11
-29.578438
 21
170.90578
 31
0.0
  0
LINE
  5
103B
100
AcDbEntity
  8
0
 62
     0
100
AcDbLine
 10
-32.125156
 20
168.583568
 30
0.0
 11
-29.680871
 21
171.027854
 31
0.0
  0
LINE
  5
103C
100
AcDbEntity
  8
0
 62
     0
100
AcDbLine
 10
-32.299331
 20
168.6339
 30
0.0
 11
-29.783303
 21
171.149928
 31
0.0
  0
LINE
  5
103D
100
AcDbEntity
  8
0
 62
     0
100
AcDbLine
 10
-32.473505
 20
168.684232
 30
0.0
 11
-29.885735
 21
171.272002
 31
0.0
  0
LINE
  5
103E
100
AcDbEntity
  8
0
 62
     0
100
AcDbLine
 10
-32.64768
 20
168.734563
 30
0.0
 11
-29.988167
 21
171.394076
 31
0.0
  0
LINE
  5
103F
100
AcDbEntity
  8
0
 62
     0
100
AcDbLine
 10
-32.821855
 20
168.784895
 30
0.0
 11
-30.0906
 21
171.51615
 31
0.0
  0
LINE
  5
1040
100
AcDbEntity
  8
0
 62
     0
100
AcDbLine
 10
-32.996029
 20
168.835227
 30
0.0
 11
-30.193032
 21
171.638224
 31
0.0
  0
LINE
  5
1041
100
AcDbEntity
  8
0
 62
     0
100
AcDbLine
 10
-33.170204
 20
168.885559
 30
0.0
 11
-30.295464
 21
171.760298
 31
0.0
  0
LINE
  5
1042
100
AcDbEntity
  8
0
 62
     0
100
AcDbLine
 10
-33.344379
 20
168.93589
 30
0.0
 11
-30.397897
 21
171.882372
 31
0.0
  0
LINE
  5
1043
100
AcDbEntity
  8
0
 62
     0
100
AcDbLine
 10
-33.518553
 20
168.986222
 30
0.0
 11
-30.500329
 21
172.004446
 31
0.0
  0
LINE
  5
1044
100
AcDbEntity
  8
0
 62
     0
100
AcDbLine
 10
-33.692728
 20
169.036554
 30
0.0
 11
-30.602761
 21
172.126521
 31
0.0
  0
LINE
  5
1045
100
AcDbEntity
  8
0
 62
     0
100
AcDbLine
 10
-33.866903
 20
169.086886
 30
0.0
 11
-30.705194
 21
172.248595
 31
0.0
  0
LINE
  5
1046
100
AcDbEntity
  8
0
 62
     0
100
AcDbLine
 10
-34.041077
 20
169.137217
 30
0.0
 11
-30.807626
 21
172.370669
 31
0.0
  0
LINE
  5
1047
100
AcDbEntity
  8
0
 62
     0
100
AcDbLine
 10
-34.215252
 20
169.187549
 30
0.0
 11
-30.910058
 21
172.492743
 31
0.0
  0
LINE
  5
1048
100
AcDbEntity
  8
0
 62
     0
100
AcDbLine
 10
-34.389427
 20
169.237881
 30
0.0
 11
-31.012491
 21
172.614817
 31
0.0
  0
LINE
  5
1049
100
AcDbEntity
  8
0
 62
     0
100
AcDbLine
 10
-34.563601
 20
169.288213
 30
0.0
 11
-31.114923
 21
172.736891
 31
0.0
  0
LINE
  5
104A
100
AcDbEntity
  8
0
 62
     0
100
AcDbLine
 10
-34.737776
 20
169.338545
 30
0.0
 11
-31.217355
 21
172.858965
 31
0.0
  0
LINE
  5
104B
100
AcDbEntity
  8
0
 62
     0
100
AcDbLine
 10
-34.91195
 20
169.388876
 30
0.0
 11
-31.319788
 21
172.981039
 31
0.0
  0
LINE
  5
104C
100
AcDbEntity
  8
0
 62
     0
100
AcDbLine
 10
-35.086125
 20
169.439208
 30
0.0
 11
-31.42222
 21
173.103113
 31
0.0
  0
LINE
  5
104D
100
AcDbEntity
  8
0
 62
     0
100
AcDbLine
 10
-35.2603
 20
169.48954
 30
0.0
 11
-31.524652
 21
173.225187
 31
0.0
  0
LINE
  5
104E
100
AcDbEntity
  8
0
 62
     0
100
AcDbLine
 10
-35.434474
 20
169.539872
 30
0.0
 11
-31.627085
 21
173.347261
 31
0.0
  0
LINE
  5
104F
100
AcDbEntity
  8
0
 62
     0
100
AcDbLine
 10
-35.608649
 20
169.590203
 30
0.0
 11
-31.729538
 21
173.469315
 31
0.0
  0
LINE
  5
1050
100
AcDbEntity
  8
0
 62
     0
100
AcDbLine
 10
-35.782824
 20
169.640535
 30
0.0
 11
-31.8334
 21
173.589959
 31
0.0
  0
LINE
  5
1051
100
AcDbEntity
  8
0
 62
     0
100
AcDbLine
 10
-35.956998
 20
169.690867
 30
0.0
 11
-31.939504
 21
173.708362
 31
0.0
  0
LINE
  5
1052
100
AcDbEntity
  8
0
 62
     0
100
AcDbLine
 10
-36.131173
 20
169.741199
 30
0.0
 11
-32.047842
 21
173.82453
 31
0.0
  0
LINE
  5
1053
100
AcDbEntity
  8
0
 62
     0
100
AcDbLine
 10
-36.305348
 20
169.79153
 30
0.0
 11
-32.15841
 21
173.938468
 31
0.0
  0
LINE
  5
1054
100
AcDbEntity
  8
0
 62
     0
100
AcDbLine
 10
-36.479522
 20
169.841862
 30
0.0
 11
-32.271206
 21
174.050178
 31
0.0
  0
LINE
  5
1055
100
AcDbEntity
  8
0
 62
     0
100
AcDbLine
 10
-36.653697
 20
169.892194
 30
0.0
 11
-32.38623
 21
174.15966
 31
0.0
  0
LINE
  5
1056
100
AcDbEntity
  8
0
 62
     0
100
AcDbLine
 10
-36.827871
 20
169.942526
 30
0.0
 11
-32.503487
 21
174.266911
 31
0.0
  0
LINE
  5
1057
100
AcDbEntity
  8
0
 62
     0
100
AcDbLine
 10
-37.002046
 20
169.992857
 30
0.0
 11
-32.622981
 21
174.371923
 31
0.0
  0
LINE
  5
1058
100
AcDbEntity
  8
0
 62
     0
100
AcDbLine
 10
-37.176221
 20
170.043189
 30
0.0
 11
-32.744721
 21
174.474689
 31
0.0
  0
LINE
  5
1059
100
AcDbEntity
  8
0
 62
     0
100
AcDbLine
 10
-37.350395
 20
170.093521
 30
0.0
 11
-32.868719
 21
174.575198
 31
0.0
  0
LINE
  5
105A
100
AcDbEntity
  8
0
 62
     0
100
AcDbLine
 10
-37.52457
 20
170.143853
 30
0.0
 11
-32.994988
 21
174.673434
 31
0.0
  0
LINE
  5
105B
100
AcDbEntity
  8
0
 62
     0
100
AcDbLine
 10
-37.698745
 20
170.194185
 30
0.0
 11
-33.123547
 21
174.769382
 31
0.0
  0
LINE
  5
105C
100
AcDbEntity
  8
0
 62
     0
100
AcDbLine
 10
-37.872919
 20
170.244516
 30
0.0
 11
-33.254415
 21
174.863021
 31
0.0
  0
LINE
  5
105D
100
AcDbEntity
  8
0
 62
     0
100
AcDbLine
 10
-38.047094
 20
170.294848
 30
0.0
 11
-33.387615
 21
174.954327
 31
0.0
  0
LINE
  5
105E
100
AcDbEntity
  8
0
 62
     0
100
AcDbLine
 10
-38.221269
 20
170.34518
 30
0.0
 11
-33.523174
 21
175.043274
 31
0.0
  0
LINE
  5
105F
100
AcDbEntity
  8
0
 62
     0
100
AcDbLine
 10
-38.395443
 20
170.395512
 30
0.0
 11
-33.661122
 21
175.129833
 31
0.0
  0
LINE
  5
1060
100
AcDbEntity
  8
0
 62
     0
100
AcDbLine
 10
-38.569618
 20
170.445843
 30
0.0
 11
-33.801492
 21
175.213969
 31
0.0
  0
LINE
  5
1061
100
AcDbEntity
  8
0
 62
     0
100
AcDbLine
 10
-38.743792
 20
170.496175
 30
0.0
 11
-33.944322
 21
175.295645
 31
0.0
  0
LINE
  5
1062
100
AcDbEntity
  8
0
 62
     0
100
AcDbLine
 10
-38.917967
 20
170.546507
 30
0.0
 11
-34.089654
 21
175.37482
 31
0.0
  0
LINE
  5
1063
100
AcDbEntity
  8
0
 62
     0
100
AcDbLine
 10
-39.092142
 20
170.596839
 30
0.0
 11
-34.237534
 21
175.451446
 31
0.0
  0
LINE
  5
1064
100
AcDbEntity
  8
0
 62
     0
100
AcDbLine
 10
-39.266316
 20
170.64717
 30
0.0
 11
-34.388013
 21
175.525474
 31
0.0
  0
LINE
  5
1065
100
AcDbEntity
  8
0
 62
     0
100
AcDbLine
 10
-39.440491
 20
170.697502
 30
0.0
 11
-34.541147
 21
175.596846
 31
0.0
  0
LINE
  5
1066
100
AcDbEntity
  8
0
 62
     0
100
AcDbLine
 10
-39.614666
 20
170.747834
 30
0.0
 11
-34.696998
 21
175.665501
 31
0.0
  0
LINE
  5
1067
100
AcDbEntity
  8
0
 62
     0
100
AcDbLine
 10
-39.78884
 20
170.798166
 30
0.0
 11
-34.855635
 21
175.731371
 31
0.0
  0
LINE
  5
1068
100
AcDbEntity
  8
0
 62
     0
100
AcDbLine
 10
-39.963015
 20
170.848497
 30
0.0
 11
-35.017133
 21
175.79438
 31
0.0
  0
LINE
  5
1069
100
AcDbEntity
  8
0
 62
     0
100
AcDbLine
 10
-40.13719
 20
170.898829
 30
0.0
 11
-35.181574
 21
175.854445
 31
0.0
  0
LINE
  5
106A
100
AcDbEntity
  8
0
 62
     0
100
AcDbLine
 10
-40.311364
 20
170.949161
 30
0.0
 11
-35.34905
 21
175.911475
 31
0.0
  0
LINE
  5
106B
100
AcDbEntity
  8
0
 62
     0
100
AcDbLine
 10
-40.485539
 20
170.999493
 30
0.0
 11
-35.519662
 21
175.96537
 31
0.0
  0
LINE
  5
106C
100
AcDbEntity
  8
0
 62
     0
100
AcDbLine
 10
-40.659714
 20
171.049825
 30
0.0
 11
-35.69352
 21
176.016018
 31
0.0
  0
LINE
  5
106D
100
AcDbEntity
  8
0
 62
     0
100
AcDbLine
 10
-40.833888
 20
171.100156
 30
0.0
 11
-35.870749
 21
176.063295
 31
0.0
  0
LINE
  5
106E
100
AcDbEntity
  8
0
 62
     0
100
AcDbLine
 10
-41.008063
 20
171.150488
 30
0.0
 11
-36.051485
 21
176.107065
 31
0.0
  0
LINE
  5
106F
100
AcDbEntity
  8
0
 62
     0
100
AcDbLine
 10
-41.182237
 20
171.20082
 30
0.0
 11
-36.235882
 21
176.147175
 31
0.0
  0
LINE
  5
1070
100
AcDbEntity
  8
0
 62
     0
100
AcDbLine
 10
-41.356412
 20
171.251152
 30
0.0
 11
-36.424109
 21
176.183455
 31
0.0
  0
LINE
  5
1071
100
AcDbEntity
  8
0
 62
     0
100
AcDbLine
 10
-41.530587
 20
171.301483
 30
0.0
 11
-36.616357
 21
176.215713
 31
0.0
  0
LINE
  5
1072
100
AcDbEntity
  8
0
 62
     0
100
AcDbLine
 10
-41.704761
 20
171.351815
 30
0.0
 11
-36.812843
 21
176.243734
 31
0.0
  0
LINE
  5
1073
100
AcDbEntity
  8
0
 62
     0
100
AcDbLine
 10
-41.878936
 20
171.402147
 30
0.0
 11
-37.013809
 21
176.267274
 31
0.0
  0
LINE
  5
1074
100
AcDbEntity
  8
0
 62
     0
100
AcDbLine
 10
-42.053111
 20
171.452479
 30
0.0
 11
-37.219533
 21
176.286056
 31
0.0
  0
LINE
  5
1075
100
AcDbEntity
  8
0
 62
     0
100
AcDbLine
 10
-42.227285
 20
171.50281
 30
0.0
 11
-37.430333
 21
176.299762
 31
0.0
  0
LINE
  5
1076
100
AcDbEntity
  8
0
 62
     0
100
AcDbLine
 10
-42.40146
 20
171.553142
 30
0.0
 11
-37.646575
 21
176.308027
 31
0.0
  0
LINE
  5
1077
100
AcDbEntity
  8
0
 62
     0
100
AcDbLine
 10
-42.575635
 20
171.603474
 30
0.0
 11
-37.868646
 21
176.310463
 31
0.0
  0
LINE
  5
1078
100
AcDbEntity
  8
0
 62
     0
100
AcDbLine
 10
-42.749809
 20
171.653806
 30
0.0
 11
-38.093152
 21
176.310463
 31
0.0
  0
LINE
  5
1079
100
AcDbEntity
  8
0
 62
     0
100
AcDbLine
 10
-42.923984
 20
171.704137
 30
0.0
 11
-38.317658
 21
176.310463
 31
0.0
  0
LINE
  5
107A
100
AcDbEntity
  8
0
 62
     0
100
AcDbLine
 10
-43.098158
 20
171.754469
 30
0.0
 11
-38.542165
 21
176.310463
 31
0.0
  0
LINE
  5
107B
100
AcDbEntity
  8
0
 62
     0
100
AcDbLine
 10
-43.272333
 20
171.804801
 30
0.0
 11
-38.766671
 21
176.310463
 31
0.0
  0
LINE
  5
107C
100
AcDbEntity
  8
0
 62
     0
100
AcDbLine
 10
-43.446508
 20
171.855133
 30
0.0
 11
-38.991178
 21
176.310463
 31
0.0
  0
LINE
  5
107D
100
AcDbEntity
  8
0
 62
     0
100
AcDbLine
 10
-43.620682
 20
171.905465
 30
0.0
 11
-39.215684
 21
176.310463
 31
0.0
  0
LINE
  5
107E
100
AcDbEntity
  8
0
 62
     0
100
AcDbLine
 10
-43.794857
 20
171.955796
 30
0.0
 11
-39.44019
 21
176.310463
 31
0.0
  0
LINE
  5
107F
100
AcDbEntity
  8
0
 62
     0
100
AcDbLine
 10
-43.969032
 20
172.006128
 30
0.0
 11
-39.664697
 21
176.310463
 31
0.0
  0
LINE
  5
1080
100
AcDbEntity
  8
0
 62
     0
100
AcDbLine
 10
-44.113506
 20
172.08616
 30
0.0
 11
-39.889203
 21
176.310463
 31
0.0
  0
LINE
  5
1081
100
AcDbEntity
  8
0
 62
     0
100
AcDbLine
 10
-44.113506
 20
172.310667
 30
0.0
 11
-40.11371
 21
176.310463
 31
0.0
  0
LINE
  5
1082
100
AcDbEntity
  8
0
 62
     0
100
AcDbLine
 10
-44.113506
 20
172.535173
 30
0.0
 11
-40.338216
 21
176.310463
 31
0.0
  0
LINE
  5
1083
100
AcDbEntity
  8
0
 62
     0
100
AcDbLine
 10
-44.113506
 20
172.759679
 30
0.0
 11
-40.562722
 21
176.310463
 31
0.0
  0
LINE
  5
1084
100
AcDbEntity
  8
0
 62
     0
100
AcDbLine
 10
-44.113506
 20
172.984186
 30
0.0
 11
-40.787229
 21
176.310463
 31
0.0
  0
LINE
  5
1085
100
AcDbEntity
  8
0
 62
     0
100
AcDbLine
 10
-44.113506
 20
173.208692
 30
0.0
 11
-41.011735
 21
176.310463
 31
0.0
  0
LINE
  5
1086
100
AcDbEntity
  8
0
 62
     0
100
AcDbLine
 10
-44.113506
 20
173.433199
 30
0.0
 11
-41.236242
 21
176.310463
 31
0.0
  0
LINE
  5
1087
100
AcDbEntity
  8
0
 62
     0
100
AcDbLine
 10
-44.113506
 20
173.657705
 30
0.0
 11
-41.460748
 21
176.310463
 31
0.0
  0
LINE
  5
1088
100
AcDbEntity
  8
0
 62
     0
100
AcDbLine
 10
-44.113506
 20
173.882211
 30
0.0
 11
-41.685254
 21
176.310463
 31
0.0
  0
LINE
  5
1089
100
AcDbEntity
  8
0
 62
     0
100
AcDbLine
 10
-44.113506
 20
174.106718
 30
0.0
 11
-41.909761
 21
176.310463
 31
0.0
  0
LINE
  5
108A
100
AcDbEntity
  8
0
 62
     0
100
AcDbLine
 10
-44.113506
 20
174.331224
 30
0.0
 11
-42.134267
 21
176.310463
 31
0.0
  0
LINE
  5
108B
100
AcDbEntity
  8
0
 62
     0
100
AcDbLine
 10
-44.113506
 20
174.555731
 30
0.0
 11
-42.358774
 21
176.310463
 31
0.0
  0
LINE
  5
108C
100
AcDbEntity
  8
0
 62
     0
100
AcDbLine
 10
-44.113506
 20
174.780237
 30
0.0
 11
-42.58328
 21
176.310463
 31
0.0
  0
LINE
  5
108D
100
AcDbEntity
  8
0
 62
     0
100
AcDbLine
 10
-44.113506
 20
175.004743
 30
0.0
 11
-42.807786
 21
176.310463
 31
0.0
  0
LINE
  5
108E
100
AcDbEntity
  8
0
 62
     0
100
AcDbLine
 10
-44.113506
 20
175.22925
 30
0.0
 11
-43.032293
 21
176.310463
 31
0.0
  0
LINE
  5
108F
100
AcDbEntity
  8
0
 62
     0
100
AcDbLine
 10
62.547116
 20
172.330747
 30
0.0
 11
65.190951
 21
174.974583
 31
0.0
  0
LINE
  5
1090
100
AcDbEntity
  8
0
 62
     0
100
AcDbLine
 10
61.376309
 20
170.935433
 30
0.0
 11
65.760406
 21
175.31953
 31
0.0
  0
LINE
  5
1091
100
AcDbEntity
  8
0
 62
     0
100
AcDbLine
 10
60.205502
 20
169.54012
 30
0.0
 11
66.217777
 21
175.552396
 31
0.0
  0
LINE
  5
1092
100
AcDbEntity
  8
0
 62
     0
100
AcDbLine
 10
59.034695
 20
168.144807
 30
0.0
 11
66.616274
 21
175.726386
 31
0.0
  0
LINE
  5
1093
100
AcDbEntity
  8
0
 62
     0
100
AcDbLine
 10
57.863889
 20
166.749494
 30
0.0
 11
66.97657
 21
175.862176
 31
0.0
  0
LINE
  5
1094
100
AcDbEntity
  8
0
 62
     0
100
AcDbLine
 10
57.744668
 20
166.405767
 30
0.0
 11
67.30931
 21
175.970409
 31
0.0
  0
LINE
  5
1095
100
AcDbEntity
  8
0
 62
     0
100
AcDbLine
 10
58.070512
 20
166.507105
 30
0.0
 11
67.620839
 21
176.057431
 31
0.0
  0
LINE
  5
1096
100
AcDbEntity
  8
0
 62
     0
100
AcDbLine
 10
58.396356
 20
166.608442
 30
0.0
 11
67.915306
 21
176.127393
 31
0.0
  0
LINE
  5
1097
100
AcDbEntity
  8
0
 62
     0
100
AcDbLine
 10
58.7222
 20
166.70978
 30
0.0
 11
68.195606
 21
176.183186
 31
0.0
  0
LINE
  5
1098
100
AcDbEntity
  8
0
 62
     0
100
AcDbLine
 10
59.048044
 20
166.811117
 30
0.0
 11
68.46385
 21
176.226924
 31
0.0
  0
LINE
  5
1099
100
AcDbEntity
  8
0
 62
     0
100
AcDbLine
 10
59.373888
 20
166.912455
 30
0.0
 11
68.721639
 21
176.260206
 31
0.0
  0
LINE
  5
109A
100
AcDbEntity
  8
0
 62
     0
100
AcDbLine
 10
59.699732
 20
167.013792
 30
0.0
 11
68.970218
 21
176.284278
 31
0.0
  0
LINE
  5
109B
100
AcDbEntity
  8
0
 62
     0
100
AcDbLine
 10
60.025575
 20
167.11513
 30
0.0
 11
69.210581
 21
176.300135
 31
0.0
  0
LINE
  5
109C
100
AcDbEntity
  8
0
 62
     0
100
AcDbLine
 10
60.351419
 20
167.216467
 30
0.0
 11
69.443535
 21
176.308583
 31
0.0
  0
LINE
  5
109D
100
AcDbEntity
  8
0
 62
     0
100
AcDbLine
 10
60.677263
 20
167.317805
 30
0.0
 11
69.669922
 21
176.310463
 31
0.0
  0
LINE
  5
109E
100
AcDbEntity
  8
0
 62
     0
100
AcDbLine
 10
61.003107
 20
167.419142
 30
0.0
 11
69.894428
 21
176.310463
 31
0.0
  0
LINE
  5
109F
100
AcDbEntity
  8
0
 62
     0
100
AcDbLine
 10
61.328951
 20
167.52048
 30
0.0
 11
70.118934
 21
176.310463
 31
0.0
  0
LINE
  5
10A0
100
AcDbEntity
  8
0
 62
     0
100
AcDbLine
 10
61.654795
 20
167.621817
 30
0.0
 11
70.343441
 21
176.310463
 31
0.0
  0
LINE
  5
10A1
100
AcDbEntity
  8
0
 62
     0
100
AcDbLine
 10
61.980639
 20
167.723155
 30
0.0
 11
70.567947
 21
176.310463
 31
0.0
  0
LINE
  5
10A2
100
AcDbEntity
  8
0
 62
     0
100
AcDbLine
 10
62.306483
 20
167.824492
 30
0.0
 11
70.792454
 21
176.310463
 31
0.0
  0
LINE
  5
10A3
100
AcDbEntity
  8
0
 62
     0
100
AcDbLine
 10
62.632327
 20
167.92583
 30
0.0
 11
71.01696
 21
176.310463
 31
0.0
  0
LINE
  5
10A4
100
AcDbEntity
  8
0
 62
     0
100
AcDbLine
 10
62.95817
 20
168.027167
 30
0.0
 11
71.241466
 21
176.310463
 31
0.0
  0
LINE
  5
10A5
100
AcDbEntity
  8
0
 62
     0
100
AcDbLine
 10
63.284014
 20
168.128505
 30
0.0
 11
71.465973
 21
176.310463
 31
0.0
  0
LINE
  5
10A6
100
AcDbEntity
  8
0
 62
     0
100
AcDbLine
 10
63.609858
 20
168.229842
 30
0.0
 11
71.690479
 21
176.310463
 31
0.0
  0
LINE
  5
10A7
100
AcDbEntity
  8
0
 62
     0
100
AcDbLine
 10
63.935702
 20
168.33118
 30
0.0
 11
71.914986
 21
176.310463
 31
0.0
  0
LINE
  5
10A8
100
AcDbEntity
  8
0
 62
     0
100
AcDbLine
 10
64.261546
 20
168.432517
 30
0.0
 11
72.139492
 21
176.310463
 31
0.0
  0
LINE
  5
10A9
100
AcDbEntity
  8
0
 62
     0
100
AcDbLine
 10
64.58739
 20
168.533855
 30
0.0
 11
72.363998
 21
176.310463
 31
0.0
  0
LINE
  5
10AA
100
AcDbEntity
  8
0
 62
     0
100
AcDbLine
 10
64.913234
 20
168.635192
 30
0.0
 11
72.588505
 21
176.310463
 31
0.0
  0
LINE
  5
10AB
100
AcDbEntity
  8
0
 62
     0
100
AcDbLine
 10
65.239078
 20
168.73653
 30
0.0
 11
72.813011
 21
176.310463
 31
0.0
  0
LINE
  5
10AC
100
AcDbEntity
  8
0
 62
     0
100
AcDbLine
 10
65.564922
 20
168.837867
 30
0.0
 11
73.037518
 21
176.310463
 31
0.0
  0
LINE
  5
10AD
100
AcDbEntity
  8
0
 62
     0
100
AcDbLine
 10
65.890766
 20
168.939205
 30
0.0
 11
73.262024
 21
176.310463
 31
0.0
  0
LINE
  5
10AE
100
AcDbEntity
  8
0
 62
     0
100
AcDbLine
 10
66.216609
 20
169.040542
 30
0.0
 11
73.48653
 21
176.310463
 31
0.0
  0
LINE
  5
10AF
100
AcDbEntity
  8
0
 62
     0
100
AcDbLine
 10
66.542453
 20
169.141879
 30
0.0
 11
73.711037
 21
176.310463
 31
0.0
  0
LINE
  5
10B0
100
AcDbEntity
  8
0
 62
     0
100
AcDbLine
 10
66.868297
 20
169.243217
 30
0.0
 11
73.935543
 21
176.310463
 31
0.0
  0
LINE
  5
10B1
100
AcDbEntity
  8
0
 62
     0
100
AcDbLine
 10
67.194141
 20
169.344554
 30
0.0
 11
74.16005
 21
176.310463
 31
0.0
  0
LINE
  5
10B2
100
AcDbEntity
  8
0
 62
     0
100
AcDbLine
 10
67.519985
 20
169.445892
 30
0.0
 11
74.384556
 21
176.310463
 31
0.0
  0
LINE
  5
10B3
100
AcDbEntity
  8
0
 62
     0
100
AcDbLine
 10
67.845829
 20
169.547229
 30
0.0
 11
74.609062
 21
176.310463
 31
0.0
  0
LINE
  5
10B4
100
AcDbEntity
  8
0
 62
     0
100
AcDbLine
 10
68.171673
 20
169.648567
 30
0.0
 11
74.833569
 21
176.310463
 31
0.0
  0
LINE
  5
10B5
100
AcDbEntity
  8
0
 62
     0
100
AcDbLine
 10
68.497517
 20
169.749904
 30
0.0
 11
74.972285
 21
176.224672
 31
0.0
  0
LINE
  5
10B6
100
AcDbEntity
  8
0
 62
     0
100
AcDbLine
 10
68.823361
 20
169.851242
 30
0.0
 11
75.084538
 21
176.112419
 31
0.0
  0
LINE
  5
10B7
100
AcDbEntity
  8
0
 62
     0
100
AcDbLine
 10
69.149204
 20
169.952579
 30
0.0
 11
75.196791
 21
176.000166
 31
0.0
  0
LINE
  5
10B8
100
AcDbEntity
  8
0
 62
     0
100
AcDbLine
 10
69.475048
 20
170.053917
 30
0.0
 11
75.309044
 21
175.887913
 31
0.0
  0
LINE
  5
10B9
100
AcDbEntity
  8
0
 62
     0
100
AcDbLine
 10
69.800892
 20
170.155254
 30
0.0
 11
75.421297
 21
175.77566
 31
0.0
  0
LINE
  5
10BA
100
AcDbEntity
  8
0
 62
     0
100
AcDbLine
 10
70.126736
 20
170.256592
 30
0.0
 11
75.533551
 21
175.663406
 31
0.0
  0
LINE
  5
10BB
100
AcDbEntity
  8
0
 62
     0
100
AcDbLine
 10
70.45258
 20
170.357929
 30
0.0
 11
75.645804
 21
175.551153
 31
0.0
  0
LINE
  5
10BC
100
AcDbEntity
  8
0
 62
     0
100
AcDbLine
 10
70.778424
 20
170.459267
 30
0.0
 11
75.758057
 21
175.4389
 31
0.0
  0
LINE
  5
10BD
100
AcDbEntity
  8
0
 62
     0
100
AcDbLine
 10
71.104268
 20
170.560604
 30
0.0
 11
75.87031
 21
175.326647
 31
0.0
  0
LINE
  5
10BE
100
AcDbEntity
  8
0
 62
     0
100
AcDbLine
 10
71.430112
 20
170.661942
 30
0.0
 11
75.886494
 21
175.118324
 31
0.0
  0
LINE
  5
10BF
100
AcDbEntity
  8
0
 62
     0
100
AcDbLine
 10
71.755956
 20
170.763279
 30
0.0
 11
75.886494
 21
174.893818
 31
0.0
  0
LINE
  5
10C0
100
AcDbEntity
  8
0
 62
     0
100
AcDbLine
 10
72.081799
 20
170.864617
 30
0.0
 11
75.886494
 21
174.669311
 31
0.0
  0
LINE
  5
10C1
100
AcDbEntity
  8
0
 62
     0
100
AcDbLine
 10
72.407643
 20
170.965954
 30
0.0
 11
75.886494
 21
174.444805
 31
0.0
  0
LINE
  5
10C2
100
AcDbEntity
  8
0
 62
     0
100
AcDbLine
 10
72.733487
 20
171.067292
 30
0.0
 11
75.886494
 21
174.220299
 31
0.0
  0
LINE
  5
10C3
100
AcDbEntity
  8
0
 62
     0
100
AcDbLine
 10
73.059331
 20
171.168629
 30
0.0
 11
75.886494
 21
173.995792
 31
0.0
  0
LINE
  5
10C4
100
AcDbEntity
  8
0
 62
     0
100
AcDbLine
 10
73.385175
 20
171.269967
 30
0.0
 11
75.886494
 21
173.771286
 31
0.0
  0
LINE
  5
10C5
100
AcDbEntity
  8
0
 62
     0
100
AcDbLine
 10
73.711019
 20
171.371304
 30
0.0
 11
75.886494
 21
173.546779
 31
0.0
  0
LINE
  5
10C6
100
AcDbEntity
  8
0
 62
     0
100
AcDbLine
 10
74.036863
 20
171.472642
 30
0.0
 11
75.886494
 21
173.322273
 31
0.0
  0
LINE
  5
10C7
100
AcDbEntity
  8
0
 62
     0
100
AcDbLine
 10
74.362707
 20
171.573979
 30
0.0
 11
75.886494
 21
173.097767
 31
0.0
  0
LINE
  5
10C8
100
AcDbEntity
  8
0
 62
     0
100
AcDbLine
 10
74.688551
 20
171.675317
 30
0.0
 11
75.886494
 21
172.87326
 31
0.0
  0
LINE
  5
10C9
100
AcDbEntity
  8
0
 62
     0
100
AcDbLine
 10
75.014394
 20
171.776654
 30
0.0
 11
75.886494
 21
172.648754
 31
0.0
  0
LINE
  5
10CA
100
AcDbEntity
  8
0
 62
     0
100
AcDbLine
 10
75.340238
 20
171.877992
 30
0.0
 11
75.886494
 21
172.424247
 31
0.0
  0
LINE
  5
10CB
100
AcDbEntity
  8
0
 62
     0
100
AcDbLine
 10
75.666082
 20
171.979329
 30
0.0
 11
75.886494
 21
172.199741
 31
0.0
  0
ENDBLK
  5
10CC
100
AcDbEntity
  8
0
100
AcDbBlockEnd
  0
BLOCK
  5
1153
100
AcDbEntity
  8
0
100
AcDbBlockBegin
  2
*D40
 70
    65
 10
0.0
 20
0.0
 30
0.0
  3
*D40
  1

  0
ARC
  5
1154
100
AcDbEntity
  8
0
  6
BYBLOCK
 62
     0
100
AcDbCircle
 10
-157.165661
 20
110.393886
 30
0.0
 40
35.460191
100
AcDbArc
 50
54.040281
 51
125.959719
  0
SOLID
  5
1155
100
AcDbEntity
  8
0
  6
BYBLOCK
 62
     0
100
AcDbTrace
 10
-136.086447
 20
139.424858
 30
0.0
 11
-136.599267
 21
138.768002
 31
0.0
 12
-134.372289
 22
137.557969
 32
0.0
 13
-134.372289
 23
137.557969
 33
0.0
  0
SOLID
  5
1156
100
AcDbEntity
  8
0
  6
BYBLOCK
 62
     0
100
AcDbTrace
 10
-177.732054
 20
138.768002
 30
0.0
 11
-178.244875
 21
139.424858
 31
0.0
 12
-179.959032
 22
137.557969
 32
0.0
 13
-179.959032
 23
137.557969
 33
0.0
  0
MTEXT
  5
1157
100
AcDbEntity
  8
0
  6
BYBLOCK
 62
     0
100
AcDbMText
 10
-157.165661
 20
147.979078
 30
0.0
 40
3.0
 41
0.0
 71
     5
 72
     1
  1
\A1;80°
  0
POINT
  5
1158
100
AcDbEntity
  8
DEFPOINTS
  6
BYBLOCK
 62
     0
100
AcDbPoint
 10
-148.987978
 20
144.898243
 30
0.0
  0
POINT
  5
1159
100
AcDbEntity
  8
DEFPOINTS
  6
BYBLOCK
 62
     0
100
AcDbPoint
 10
-180.966714
 20
138.758877
 30
0.0
  0
POINT
  5
115A
100
AcDbEntity
  8
DEFPOINTS
  6
BYBLOCK
 62
     0
100
AcDbPoint
 10
-133.364608
 20
138.758877
 30
0.0
  0
POINT
  5
115B
100
AcDbEntity
  8
DEFPOINTS
  6
BYBLOCK
 62
     0
100
AcDbPoint
 10
-137.165661
 20
134.228958
 30
0.0
  0
POINT
  5
115C
100
AcDbEntity
  8
DEFPOINTS
  6
BYBLOCK
 62
     0
100
AcDbPoint
 10
-177.165661
 20
134.228958
 30
0.0
  0
ENDBLK
  5
115D
100
AcDbEntity
  8
0
100
AcDbBlockEnd
  0
ENDSEC
  0
SECTION
  2
ENTITIES
  0
LINE
  5
328
100
AcDbEntity
  8
DISEGNO
100
AcDbLine
 10
-13.113506
 20
81.310463
 30
0.0
 11
44.886494
 21
81.310463
 31
0.0
  0
LINE
  5
329
100
AcDbEntity
  8
DISEGNO
100
AcDbLine
 10
45.886494
 20
82.310463
 30
0.0
 11
45.886494
 21
101.310463
 31
0.0
  0
LINE
  5
32A
100
AcDbEntity
  8
DISEGNO
100
AcDbLine
 10
45.886494
 20
101.310463
 30
0.0
 11
74.886494
 21
101.310463
 31
0.0
  0
LINE
  5
32B
100
AcDbEntity
  8
DISEGNO
100
AcDbLine
 10
75.886494
 20
102.310463
 30
0.0
 11
75.886494
 21
137.810463
 31
0.0
1001
ACAD
1000
ASC_BOUNDS
1002
{
1070
    19
1002
}
  0
LINE
  5
32D
100
AcDbEntity
  8
DISEGNO
100
AcDbLine
 10
-44.113506
 20
175.310463
 30
0.0
 11
-44.113506
 21
102.310463
 31
0.0
1001
ACAD
1000
ASC_BOUNDS
1002
{
1070
    19
1002
}
  0
LINE
  5
32E
100
AcDbEntity
  8
DISEGNO
100
AcDbLine
 10
-43.113506
 20
101.310463
 30
0.0
 11
-14.113506
 21
101.310463
 31
0.0
  0
LINE
  5
32F
100
AcDbEntity
  8
DISEGNO
100
AcDbLine
 10
-14.113506
 20
101.310463
 30
0.0
 11
-14.113506
 21
82.310463
 31
0.0
  0
LINE
  5
3C7
100
AcDbEntity
  8
DISEGNO
100
AcDbLine
 10
-43.113506
 20
176.310463
 30
0.0
 11
-44.113506
 21
175.310463
 31
0.0
1001
ACAD
1000
ASC_BOUNDS
1002
{
1070
    19
1002
}
  0
LINE
  5
3C8
100
AcDbEntity
  8
DISEGNO
100
AcDbLine
 10
-44.113506
 20
102.310463
 30
0.0
 11
-43.113506
 21
101.310463
 31
0.0
  0
LINE
  5
3C9
100
AcDbEntity
  8
DISEGNO
100
AcDbLine
 10
-14.113506
 20
82.310463
 30
0.0
 11
-13.113506
 21
81.310463
 31
0.0
  0
LINE
  5
3CA
100
AcDbEntity
  8
DISEGNO
100
AcDbLine
 10
44.886494
 20
81.310463
 30
0.0
 11
45.886494
 21
82.310463
 31
0.0
  0
LINE
  5
3CB
100
AcDbEntity
  8
DISEGNO
100
AcDbLine
 10
74.886494
 20
101.310463
 30
0.0
 11
75.886494
 21
102.310463
 31
0.0
  0
LINE
  5
3CC
100
AcDbEntity
  8
DISEGNO
100
AcDbLine
 10
74.886494
 20
176.310463
 30
0.0
 11
75.886494
 21
175.310463
 31
0.0
1001
ACAD
1000
ASC_BOUNDS
1002
{
1070
    19
1002
}
  0
LINE
  5
69D
100
AcDbEntity
  8
DISEGNO
100
AcDbLine
 10
75.886494
 20
139.810463
 30
0.0
 11
74.886494
 21
138.810463
 31
0.0
  0
LINE
  5
69E
100
AcDbEntity
  8
DISEGNO
100
AcDbLine
 10
75.886494
 20
137.810463
 30
0.0
 11
74.886494
 21
138.810463
 31
0.0
  0
LINE
  5
69F
100
AcDbEntity
  8
DISEGNO
100
AcDbLine
 10
75.886494
 20
139.810463
 30
0.0
 11
75.886494
 21
175.310463
 31
0.0
1001
ACAD
1000
ASC_BOUNDS
1002
{
1070
    19
1002
}
  0
LINE
  5
84A
100
AcDbEntity
  8
DISEGNO
100
AcDbLine
 10
8.22605
 20
123.51856
 30
0.0
 11
-24.113506
 21
162.059341
 31
0.0
  0
LINE
  5
853
100
AcDbEntity
  8
DISEGNO
100
AcDbLine
 10
-37.843967
 20
176.310463
 30
0.0
 11
-43.113506
 21
176.310463
 31
0.0
1001
ACAD
1000
ASC_BOUNDS
1002
{
1070
    19
1002
}
  0
LINE
  5
856
100
AcDbEntity
  8
DISEGNO
100
AcDbLine
 10
-24.113506
 20
162.059341
 30
0.0
 11
-24.113506
 21
164.392927
 31
0.0
  0
LINE
  5
859
100
AcDbEntity
  8
DISEGNO
100
AcDbLine
 10
55.886494
 20
162.059341
 30
0.0
 11
23.546938
 21
123.51856
 31
0.0
  0
ARC
  5
85E
100
AcDbEntity
  8
DISEGNO
100
AcDbCircle
 10
15.886494
 20
129.946436
 30
0.0
 40
10.0
100
AcDbArc
 50
220.0
 51
320.0
  0
LINE
  5
867
100
AcDbEntity
  8
DISEGNO
100
AcDbLine
 10
55.886494
 20
164.392927
 30
0.0
 11
55.886494
 21
162.059341
 31
0.0
  0
LINE
  5
869
100
AcDbEntity
  8
DISEGNO
100
AcDbLine
 10
74.886494
 20
176.310463
 30
0.0
 11
69.616955
 21
176.310463
 31
0.0
1001
ACAD
1000
ASC_BOUNDS
1002
{
1070
    19
1002
}
  0
LINE
  5
FB3
100
AcDbEntity
  8
DISEGNO
100
AcDbLine
 10
63.4886
 20
173.452764
 30
0.0
 11
55.886494
 21
164.392927
 31
0.0
1001
ACAD
1000
ASC_BOUNDS
1002
{
1070
    19
1002
}
  0
LINE
  5
FB4
100
AcDbEntity
  8
DISEGNO
100
AcDbLine
 10
-31.715612
 20
173.452764
 30
0.0
 11
-24.113506
 21
164.392927
 31
0.0
1001
ACAD
1000
ASC_BOUNDS
1002
{
1070
    19
1002
}
  0
ARC
  5
FC4
100
AcDbEntity
  8
DISEGNO
100
AcDbCircle
 10
69.616955
 20
168.310463
 30
0.0
 40
8.0
100
AcDbArc
 50
90.0
 51
140.0
1001
ACAD
1000
ASC_BOUNDS
1002
{
1070
    19
1002
}
  0
ARC
  5
FC5
100
AcDbEntity
  8
DISEGNO
100
AcDbCircle
 10
-37.843967
 20
168.310463
 30
0.0
 40
8.0
100
AcDbArc
 50
40.0
 51
90.0
1001
ACAD
1000
ASC_BOUNDS
1002
{
1070
    19
1002
}
  0
ENDSEC
  0
SECTION
  2
OBJECTS
  0
DICTIONARY
  5
C
100
AcDbDictionary
  3
ACAD_GROUP
350
D
  3
ACAD_MLINESTYLE
350
E
  0
DICTIONARY
  5
D
102
{ACAD_REACTORS
330
C
102
}
100
AcDbDictionary
  0
DICTIONARY
  5
E
102
{ACAD_REACTORS
330
C
102
}
100
AcDbDictionary
  3
STANDARD
350
1C
  0
MLINESTYLE
  5
1C
102
{ACAD_REACTORS
330
E
102
}
100
AcDbMlineStyle
  2
STANDARD
 70
     0
  3

 62
     0
 51
90.0
 52
90.0
 71
     2
 49
0.5
 62
   256
  6
BYLAYER
 49
-0.5
 62
   256
  6
BYLAYER
  0
ENDSEC
  0
EOF
