  0
SECTION
  2
HEADER
  9
$ACADVER
  1
AC1018
  9
$ACADMAINTVER
 70
     0
  9
$DWGCODEPAGE
  3
ANSI_1252
  9
$INSBASE
 10
0.0
 20
0.0
 30
0.0
  9
$EXTMIN
 10
1.000000E+20
 20
1.000000E+20
 30
1.000000E+20
  9
$EXTMAX
 10
-1.000000E+20
 20
-1.000000E+20
 30
-1.000000E+20
  9
$LIMMIN
 10
0.0
 20
0.0
  9
$LIMMAX
 10
420.0
 20
297.0
  9
$ORTHOMODE
 70
     0
  9
$REGENMODE
 70
     1
  9
$FILLMODE
 70
     1
  9
$QTEXTMODE
 70
     0
  9
$MIRRTEXT
 70
     1
  9
$LTSCALE
 40
1.0
  9
$ATTMODE
 70
     1
  9
$TEXTSIZE
 40
2.5
  9
$TRACEWID
 40
1.0
  9
$TEXTSTYLE
  7
Standard
  9
$CLAYER
  8
0
  9
$CELTYPE
  6
ByLayer
  9
$CECOLOR
 62
   256
  9
$CELTSCALE
 40
1.0
  9
$DISPSILH
 70
     0
  9
$DIMSCALE
 40
1.0
  9
$DIMASZ
 40
2.5
  9
$DIMEXO
 40
0.625
  9
$DIMDLI
 40
3.75
  9
$DIMRND
 40
0.0
  9
$DIMDLE
 40
0.0
  9
$DIMEXE
 40
1.25
  9
$DIMTP
 40
0.0
  9
$DIMTM
 40
0.0
  9
$DIMTXT
 40
2.5
  9
$DIMCEN
 40
2.5
  9
$DIMTSZ
 40
0.0
  9
$DIMTOL
 70
     0
  9
$DIMLIM
 70
     0
  9
$DIMTIH
 70
     0
  9
$DIMTOH
 70
     0
  9
$DIMSE1
 70
     0
  9
$DIMSE2
 70
     0
  9
$DIMTAD
 70
     1
  9
$DIMZIN
 70
     8
  9
$DIMBLK
  1

  9
$DIMASO
 70
     1
  9
$DIMSHO
 70
     1
  9
$DIMPOST
  1

  9
$DIMAPOST
  1

  9
$DIMALT
 70
     0
  9
$DIMALTD
 70
     3
  9
$DIMALTF
 40
0.03937
  9
$DIMLFAC
 40
1.0
  9
$DIMTOFL
 70
     1
  9
$DIMTVP
 40
0.0
  9
$DIMTIX
 70
     0
  9
$DIMSOXD
 70
     0
  9
$DIMSAH
 70
     0
  9
$DIMBLK1
  1

  9
$DIMBLK2
  1

  9
$DIMSTYLE
  2
ISO-25
  9
$DIMCLRD
 70
     0
  9
$DIMCLRE
 70
     0
  9
$DIMCLRT
 70
     0
  9
$DIMTFAC
 40
1.0
  9
$DIMGAP
 40
0.625
  9
$DIMJUST
 70
     0
  9
$DIMSD1
 70
     0
  9
$DIMSD2
 70
     0
  9
$DIMTOLJ
 70
     0
  9
$DIMTZIN
 70
     8
  9
$DIMALTZ
 70
     0
  9
$DIMALTTZ
 70
     0
  9
$DIMUPT
 70
     0
  9
$DIMDEC
 70
     2
  9
$DIMTDEC
 70
     2
  9
$DIMALTU
 70
     2
  9
$DIMALTTD
 70
     3
  9
$DIMTXSTY
  7
Standard
  9
$DIMAUNIT
 70
     0
  9
$DIMADEC
 70
     0
  9
$DIMALTRND
 40
0.0
  9
$DIMAZIN
 70
     0
  9
$DIMDSEP
 70
    44
  9
$DIMATFIT
 70
     3
  9
$DIMFRAC
 70
     0
  9
$DIMLDRBLK
  1

  9
$DIMLUNIT
 70
     2
  9
$DIMLWD
 70
    -2
  9
$DIMLWE
 70
    -2
  9
$DIMTMOVE
 70
     0
  9
$LUNITS
 70
     2
  9
$LUPREC
 70
     4
  9
$SKETCHINC
 40
1.0
  9
$FILLETRAD
 40
10.0
  9
$AUNITS
 70
     0
  9
$AUPREC
 70
     0
  9
$MENU
  1
.
  9
$ELEVATION
 40
0.0
  9
$PELEVATION
 40
0.0
  9
$THICKNESS
 40
0.0
  9
$LIMCHECK
 70
     0
  9
$CHAMFERA
 40
10.0
  9
$CHAMFERB
 40
10.0
  9
$CHAMFERC
 40
20.0
  9
$CHAMFERD
 40
0.0
  9
$SKPOLY
 70
     0
  9
$TDCREATE
 40
2455026.343760012
  9
$TDUCREATE
 40
2455026.260426678
  9
$TDUPDATE
 40
2455026.343760023
  9
$TDUUPDATE
 40
2455026.26042669
  9
$TDINDWG
 40
0.0000000116
  9
$TDUSRTIMER
 40
0.0000000116
  9
$USRTIMER
 70
     1
  9
$ANGBASE
 50
0.0
  9
$ANGDIR
 70
     0
  9
$PDMODE
 70
     0
  9
$PDSIZE
 40
0.0
  9
$PLINEWID
 40
0.0
  9
$SPLFRAME
 70
     0
  9
$SPLINETYPE
 70
     6
  9
$SPLINESEGS
 70
     8
  9
$HANDSEED
  5
18D
  9
$SURFTAB1
 70
     6
  9
$SURFTAB2
 70
     6
  9
$SURFTYPE
 70
     6
  9
$SURFU
 70
     6
  9
$SURFV
 70
     6
  9
$UCSBASE
  2

  9
$UCSNAME
  2

  9
$UCSORG
 10
0.0
 20
0.0
 30
0.0
  9
$UCSXDIR
 10
1.0
 20
0.0
 30
0.0
  9
$UCSYDIR
 10
0.0
 20
1.0
 30
0.0
  9
$UCSORTHOREF
  2

  9
$UCSORTHOVIEW
 70
     0
  9
$UCSORGTOP
 10
0.0
 20
0.0
 30
0.0
  9
$UCSORGBOTTOM
 10
0.0
 20
0.0
 30
0.0
  9
$UCSORGLEFT
 10
0.0
 20
0.0
 30
0.0
  9
$UCSORGRIGHT
 10
0.0
 20
0.0
 30
0.0
  9
$UCSORGFRONT
 10
0.0
 20
0.0
 30
0.0
  9
$UCSORGBACK
 10
0.0
 20
0.0
 30
0.0
  9
$PUCSBASE
  2

  9
$PUCSNAME
  2

  9
$PUCSORG
 10
0.0
 20
0.0
 30
0.0
  9
$PUCSXDIR
 10
1.0
 20
0.0
 30
0.0
  9
$PUCSYDIR
 10
0.0
 20
1.0
 30
0.0
  9
$PUCSORTHOREF
  2

  9
$PUCSORTHOVIEW
 70
     0
  9
$PUCSORGTOP
 10
0.0
 20
0.0
 30
0.0
  9
$PUCSORGBOTTOM
 10
0.0
 20
0.0
 30
0.0
  9
$PUCSORGLEFT
 10
0.0
 20
0.0
 30
0.0
  9
$PUCSORGRIGHT
 10
0.0
 20
0.0
 30
0.0
  9
$PUCSORGFRONT
 10
0.0
 20
0.0
 30
0.0
  9
$PUCSORGBACK
 10
0.0
 20
0.0
 30
0.0
  9
$USERI1
 70
     0
  9
$USERI2
 70
     0
  9
$USERI3
 70
     0
  9
$USERI4
 70
     0
  9
$USERI5
 70
     0
  9
$USERR1
 40
0.0
  9
$USERR2
 40
0.0
  9
$USERR3
 40
0.0
  9
$USERR4
 40
0.0
  9
$USERR5
 40
0.0
  9
$WORLDVIEW
 70
     1
  9
$SHADEDGE
 70
     3
  9
$SHADEDIF
 70
    70
  9
$TILEMODE
 70
     1
  9
$MAXACTVP
 70
    64
  9
$PINSBASE
 10
0.0
 20
0.0
 30
0.0
  9
$PLIMCHECK
 70
     0
  9
$PEXTMIN
 10
1.000000E+20
 20
1.000000E+20
 30
1.000000E+20
  9
$PEXTMAX
 10
-1.000000E+20
 20
-1.000000E+20
 30
-1.000000E+20
  9
$PLIMMIN
 10
0.0
 20
0.0
  9
$PLIMMAX
 10
420.0
 20
297.0
  9
$UNITMODE
 70
     0
  9
$VISRETAIN
 70
     1
  9
$PLINEGEN
 70
     0
  9
$PSLTSCALE
 70
     1
  9
$TREEDEPTH
 70
  3020
  9
$CMLSTYLE
  2
Standard
  9
$CMLJUST
 70
     0
  9
$CMLSCALE
 40
20.0
  9
$PROXYGRAPHICS
 70
     1
  9
$MEASUREMENT
 70
     1
  9
$CELWEIGHT
370
    -1
  9
$ENDCAPS
280
     0
  9
$JOINSTYLE
280
     0
  9
$LWDISPLAY
290
     0
  9
$INSUNITS
 70
     4
  9
$HYPERLINKBASE
  1

  9
$STYLESHEET
  1

  9
$XEDIT
290
     1
  9
$CEPSNTYPE
380
     0
  9
$PSTYLEMODE
290
     1
  9
$FINGERPRINTGUID
  2
{819F74A6-3390-49FE-98F0-976B924FF58A}
  9
$VERSIONGUID
  2
{FAEB1C32-E019-11D5-929B-00C0DF256EC4}
  9
$EXTNAMES
290
     1
  9
$PSVPSCALE
 40
0.0
  9
$OLESTARTUP
290
     0
  9
$SORTENTS
280
   127
  9
$INDEXCTL
280
     0
  9
$HIDETEXT
280
     1
  9
$XCLIPFRAME
290
     0
  9
$HALOGAP
280
     0
  9
$OBSCOLOR
 70
   257
  9
$OBSLTYPE
280
     0
  9
$INTERSECTIONDISPLAY
280
     0
  9
$INTERSECTIONCOLOR
 70
   257
  9
$DIMASSOC
280
     2
  9
$PROJECTNAME
  1

  0
ENDSEC
  0
SECTION
  2
CLASSES
  0
CLASS
  1
ACDBDICTIONARYWDFLT
  2
AcDbDictionaryWithDefault
  3
ObjectDBX Classes
 90
        0
 91
        3
280
     0
281
     0
  0
CLASS
  1
VISUALSTYLE
  2
AcDbVisualStyle
  3
ObjectDBX Classes
 90
     4095
 91
        3
280
     0
281
     0
  0
ENDSEC
  0
SECTION
  2
TABLES
  0
TABLE
  2
VPORT
  5
8
330
0
100
AcDbSymbolTable
 70
     1
  0
VPORT
  5
29
330
8
100
AcDbSymbolTableRecord
100
AcDbViewportTableRecord
  2
*Active
 70
     0
 10
0.0
 20
0.0
 11
1.0
 21
1.0
 12
344.186916
 22
148.5
 13
0.0
 23
0.0
 14
10.0
 24
10.0
 15
10.0
 25
10.0
 16
0.0
 26
0.0
 36
1.0
 17
0.0
 27
0.0
 37
0.0
 40
297.0
 41
1.972973
 42
50.0
 43
0.0
 44
0.0
 50
0.0
 51
0.0
 71
     0
 72
   100
 73
     1
 74
     3
 75
     0
 76
     0
 77
     0
 78
     0
281
     0
 65
     1
110
0.0
120
0.0
130
0.0
111
1.0
121
0.0
131
0.0
112
0.0
122
1.0
132
0.0
 79
     0
146
0.0
  0
ENDTAB
  0
TABLE
  2
LTYPE
  5
5
330
0
100
AcDbSymbolTable
 70
     1
  0
LTYPE
  5
14
330
5
100
AcDbSymbolTableRecord
100
AcDbLinetypeTableRecord
  2
ByBlock
 70
     0
  3

 72
    65
 73
     0
 40
0.0
  0
LTYPE
  5
15
330
5
100
AcDbSymbolTableRecord
100
AcDbLinetypeTableRecord
  2
ByLayer
 70
     0
  3

 72
    65
 73
     0
 40
0.0
  0
LTYPE
  5
16
330
5
100
AcDbSymbolTableRecord
100
AcDbLinetypeTableRecord
  2
Continuous
 70
     0
  3
Solid line
 72
    65
 73
     0
 40
0.0
  0
ENDTAB
  0
TABLE
  2
LAYER
  5
2
330
0
100
AcDbSymbolTable
 70
    11
  0
LAYER
  5
10
330
2
100
AcDbSymbolTableRecord
100
AcDbLayerTableRecord
  2
0
 70
     0
 62
     7
  6
Continuous
370
    -3
390
F
  0
LAYER
  5
3B
330
2
100
AcDbSymbolTableRecord
100
AcDbLayerTableRecord
  2
DISEGNO
 70
     0
 62
     7
  6
Continuous
370
    -3
390
F
  0
LAYER
  5
3C
330
2
100
AcDbSymbolTableRecord
100
AcDbLayerTableRecord
  2
ASSI
 70
     0
 62
     7
  6
Continuous
370
    -3
390
F
  0
LAYER
  5
3D
330
2
100
AcDbSymbolTableRecord
100
AcDbLayerTableRecord
  2
QUOTE
 70
     0
 62
     7
  6
Continuous
370
    -3
390
F
  0
LAYER
  5
3E
330
2
100
AcDbSymbolTableRecord
100
AcDbLayerTableRecord
  2
TEMPRA
 70
     0
 62
     7
  6
Continuous
370
    -3
390
F
  0
LAYER
  5
3F
330
2
100
AcDbSymbolTableRecord
100
AcDbLayerTableRecord
  2
MARCATURA
 70
     0
 62
     7
  6
Continuous
370
    -3
390
F
  0
LAYER
  5
40
330
2
100
AcDbSymbolTableRecord
100
AcDbLayerTableRecord
  2
TESTO
 70
     0
 62
     7
  6
Continuous
370
    -3
390
F
  0
LAYER
  5
41
330
2
100
AcDbSymbolTableRecord
100
AcDbLayerTableRecord
  2
SEZIONE
 70
     0
 62
     7
  6
Continuous
370
    -3
390
F
  0
LAYER
  5
42
330
2
100
AcDbSymbolTableRecord
100
AcDbLayerTableRecord
  2
TRATTEGGIO
 70
     0
 62
     7
  6
Continuous
370
    -3
390
F
  0
LAYER
  5
43
330
2
100
AcDbSymbolTableRecord
100
AcDbLayerTableRecord
  2
CARTIGLIO
 70
     0
 62
     7
  6
Continuous
370
    -3
390
F
  0
LAYER
  5
62
330
2
100
AcDbSymbolTableRecord
100
AcDbLayerTableRecord
  2
Defpoints
 70
     0
 62
     7
  6
Continuous
290
     0
370
    -3
390
F
  0
ENDTAB
  0
TABLE
  2
STYLE
  5
3
330
0
100
AcDbSymbolTable
 70
     4
  0
STYLE
  5
11
330
3
100
AcDbSymbolTableRecord
100
AcDbTextStyleTableRecord
  2
Standard
 70
     0
 40
0.0
 41
1.0
 50
0.0
 71
     0
 42
2.5
  3
txt
  4

  0
STYLE
  5
44
330
3
100
AcDbSymbolTableRecord
100
AcDbTextStyleTableRecord
  2
Default
 70
     0
 40
0.0
 41
1.0
 50
0.0
 71
     0
 42
0.2
  3

  4

1001
ACAD
1000
txt
1071
        0
  0
STYLE
  5
45
330
3
100
AcDbSymbolTableRecord
100
AcDbTextStyleTableRecord
  2
ANSI
 70
     0
 40
0.0
 41
1.0
 50
0.0
 71
     0
 42
0.2
  3

  4

1001
ACAD
1000
txt
1071
        0
  0
STYLE
  5
46
330
3
100
AcDbSymbolTableRecord
100
AcDbTextStyleTableRecord
  2
STEFANO
 70
     0
 40
0.0
 41
1.0
 50
0.0
 71
     0
 42
0.2
  3
ARIAL.TTF
  4

1001
ACAD
1000
Arial
1071
        0
  0
ENDTAB
  0
TABLE
  2
VIEW
  5
6
330
0
100
AcDbSymbolTable
 70
     0
  0
ENDTAB
  0
TABLE
  2
UCS
  5
7
330
0
100
AcDbSymbolTable
 70
     0
  0
ENDTAB
  0
TABLE
  2
APPID
  5
9
330
0
100
AcDbSymbolTable
 70
     1
  0
APPID
  5
12
330
9
100
AcDbSymbolTableRecord
100
AcDbRegAppTableRecord
  2
ACAD
 70
     0
  0
ENDTAB
  0
TABLE
  2
DIMSTYLE
  5
A
330
0
100
AcDbSymbolTable
 70
     4
100
AcDbDimStyleTable
  0
DIMSTYLE
105
27
330
A
100
AcDbSymbolTableRecord
100
AcDbDimStyleTableRecord
  2
ISO-25
 70
     0
 41
2.5
 42
0.625
 43
3.75
 44
1.25
 73
     0
 74
     0
 77
     1
 78
     8
140
2.5
141
2.5
143
0.03937
147
0.625
171
     3
172
     1
271
     2
272
     2
274
     3
278
    44
283
     0
284
     8
340
11
  0
DIMSTYLE
105
47
330
A
100
AcDbSymbolTableRecord
100
AcDbDimStyleTableRecord
  2
Default
 70
     0
  3
<>
 41
4.375
 42
1.05
 44
2.1
 73
     0
 74
     0
 77
     1
 78
     8
 79
    10
140
3.5
146
0.4
147
1.75
178
     1
179
     1
271
     2
272
     3
284
     8
340
44
341
48
342
48
  0
DIMSTYLE
105
4F
330
A
100
AcDbSymbolTableRecord
100
AcDbDimStyleTableRecord
  2
ANSI
 70
     0
  3
<>
 41
4.375
 42
1.05
 44
2.1
 78
    12
 79
    15
140
3.5
147
1.75
178
     1
179
     1
271
     3
272
     3
284
    12
340
45
341
48
342
48
  0
DIMSTYLE
105
50
102
{ACAD_REACTORS
330
63
330
70
330
7D
330
8C
330
9B
330
AA
330
B9
330
C8
330
D7
330
E2
330
EF
330
FE
330
10D
330
11C
330
12B
330
13A
330
149
330
159
330
168
330
177
102
}
330
A
100
AcDbSymbolTableRecord
100
AcDbDimStyleTableRecord
  2
STEFANO
 70
     0
  3
<>
 41
3.6
 42
0.9
 44
1.8
 73
     0
 74
     0
 77
     1
 78
     8
 79
    10
140
3.0
146
0.65
147
1.5
176
    21
177
    21
178
    21
179
     1
271
     2
272
     3
284
     8
340
46
  0
ENDTAB
  0
TABLE
  2
BLOCK_RECORD
  5
1
330
0
100
AcDbSymbolTable
 70
    23
  0
BLOCK_RECORD
  5
1F
330
1
100
AcDbSymbolTableRecord
100
AcDbBlockTableRecord
  2
*Model_Space
340
22
  0
BLOCK_RECORD
  5
1B
330
1
100
AcDbSymbolTableRecord
100
AcDbBlockTableRecord
  2
*Paper_Space
340
1E
  0
BLOCK_RECORD
  5
23
330
1
100
AcDbSymbolTableRecord
100
AcDbBlockTableRecord
  2
*Paper_Space0
340
26
  0
BLOCK_RECORD
  5
48
330
1
100
AcDbSymbolTableRecord
100
AcDbBlockTableRecord
  2
_CLOSED
340
0
  0
BLOCK_RECORD
  5
64
330
1
100
AcDbSymbolTableRecord
100
AcDbBlockTableRecord
  2
*D2
340
0
  0
BLOCK_RECORD
  5
71
330
1
100
AcDbSymbolTableRecord
100
AcDbBlockTableRecord
  2
*D3
340
0
  0
BLOCK_RECORD
  5
7E
330
1
100
AcDbSymbolTableRecord
100
AcDbBlockTableRecord
  2
*D4
340
0
  0
BLOCK_RECORD
  5
8D
330
1
100
AcDbSymbolTableRecord
100
AcDbBlockTableRecord
  2
*D5
340
0
  0
BLOCK_RECORD
  5
9C
330
1
100
AcDbSymbolTableRecord
100
AcDbBlockTableRecord
  2
*D6
340
0
  0
BLOCK_RECORD
  5
AB
330
1
100
AcDbSymbolTableRecord
100
AcDbBlockTableRecord
  2
*D7
340
0
  0
BLOCK_RECORD
  5
BA
330
1
100
AcDbSymbolTableRecord
100
AcDbBlockTableRecord
  2
*D8
340
0
  0
BLOCK_RECORD
  5
C9
330
1
100
AcDbSymbolTableRecord
100
AcDbBlockTableRecord
  2
*D9
340
0
  0
BLOCK_RECORD
  5
D8
330
1
100
AcDbSymbolTableRecord
100
AcDbBlockTableRecord
  2
*D10
340
0
  0
BLOCK_RECORD
  5
E3
330
1
100
AcDbSymbolTableRecord
100
AcDbBlockTableRecord
  2
*D11
340
0
  0
BLOCK_RECORD
  5
F0
330
1
100
AcDbSymbolTableRecord
100
AcDbBlockTableRecord
  2
*D12
340
0
  0
BLOCK_RECORD
  5
FF
330
1
100
AcDbSymbolTableRecord
100
AcDbBlockTableRecord
  2
*D13
340
0
  0
BLOCK_RECORD
  5
10E
330
1
100
AcDbSymbolTableRecord
100
AcDbBlockTableRecord
  2
*D14
340
0
  0
BLOCK_RECORD
  5
11D
330
1
100
AcDbSymbolTableRecord
100
AcDbBlockTableRecord
  2
*D15
340
0
  0
BLOCK_RECORD
  5
12C
330
1
100
AcDbSymbolTableRecord
100
AcDbBlockTableRecord
  2
*D16
340
0
  0
BLOCK_RECORD
  5
13B
330
1
100
AcDbSymbolTableRecord
100
AcDbBlockTableRecord
  2
*D17
340
0
  0
BLOCK_RECORD
  5
14A
330
1
100
AcDbSymbolTableRecord
100
AcDbBlockTableRecord
  2
*D18
340
0
  0
BLOCK_RECORD
  5
15A
330
1
100
AcDbSymbolTableRecord
100
AcDbBlockTableRecord
  2
*D19
340
0
  0
BLOCK_RECORD
  5
169
330
1
100
AcDbSymbolTableRecord
100
AcDbBlockTableRecord
  2
*D20
340
0
  0
BLOCK_RECORD
  5
178
330
1
100
AcDbSymbolTableRecord
100
AcDbBlockTableRecord
  2
*D21
340
0
  0
BLOCK_RECORD
  5
184
330
1
100
AcDbSymbolTableRecord
100
AcDbBlockTableRecord
  2
.TD_DIMENSION_1
340
0
102
{BLKREFS
331
185
102
}
  0
ENDTAB
  0
ENDSEC
  0
SECTION
  2
BLOCKS
  0
BLOCK
  5
20
330
1F
100
AcDbEntity
  8
0
100
AcDbBlockBegin
  2
*Model_Space
 70
     0
 71
     0
 10
0.0
 20
0.0
 30
0.0
  3
*Model_Space
  1

  0
ENDBLK
  5
21
330
1F
100
AcDbEntity
  8
0
100
AcDbBlockEnd
  0
BLOCK
  5
1C
330
1B
100
AcDbEntity
 67
     1
  8
0
100
AcDbBlockBegin
  2
*Paper_Space
 70
     0
 71
     0
 10
0.0
 20
0.0
 30
0.0
  3
*Paper_Space
  1

  0
ENDBLK
  5
1D
330
1B
100
AcDbEntity
 67
     1
  8
0
100
AcDbBlockEnd
  0
BLOCK
  5
24
330
23
100
AcDbEntity
  8
0
100
AcDbBlockBegin
  2
*Paper_Space0
 70
     0
 71
     0
 10
0.0
 20
0.0
 30
0.0
  3
*Paper_Space0
  1

  0
ENDBLK
  5
25
330
23
100
AcDbEntity
  8
0
100
AcDbBlockEnd
  0
BLOCK
  5
49
330
48
100
AcDbEntity
  8
0
100
AcDbBlockBegin
  2
_CLOSED
 70
     0
 71
     0
 10
0.0
 20
0.0
 30
0.0
  3
_CLOSED
  1

  0
LINE
  5
4B
330
48
100
AcDbEntity
  8
0
  6
ByBlock
 62
     0
370
    -2
100
AcDbLine
 10
-1.0
 20
0.166667
 30
0.0
 11
0.0
 21
0.0
 31
0.0
  0
LINE
  5
4C
330
48
100
AcDbEntity
  8
0
  6
ByBlock
 62
     0
370
    -2
100
AcDbLine
 10
0.0
 20
0.0
 30
0.0
 11
-1.0
 21
-0.166667
 31
0.0
  0
LINE
  5
4D
330
48
100
AcDbEntity
  8
0
  6
ByBlock
 62
     0
370
    -2
100
AcDbLine
 10
-1.0
 20
0.166667
 30
0.0
 11
-1.0
 21
-0.166667
 31
0.0
  0
LINE
  5
4E
330
48
100
AcDbEntity
  8
0
  6
ByBlock
 62
     0
370
    -2
100
AcDbLine
 10
0.0
 20
0.0
 30
0.0
 11
-1.0
 21
0.0
 31
0.0
  0
ENDBLK
  5
4A
330
48
100
AcDbEntity
  8
0
100
AcDbBlockEnd
  0
BLOCK
  5
6E
330
64
100
AcDbEntity
  8
0
100
AcDbBlockBegin
  2
*D2
 70
     1
 71
     0
 10
0.0
 20
0.0
 30
0.0
  3
*D2
  1

  0
LINE
  5
65
330
64
100
AcDbEntity
  8
0
  6
Continuous
 62
    21
370
    -2
100
AcDbLine
 10
851.801306
 20
417.889557
 30
0.0
 11
915.701245
 21
417.889557
 31
0.0
  0
LINE
  5
66
330
64
100
AcDbEntity
  8
0
  6
Continuous
 62
    21
370
    -2
100
AcDbLine
 10
851.801306
 20
399.689575
 30
0.0
 11
915.701245
 21
399.689575
 31
0.0
  0
LINE
  5
67
330
64
100
AcDbEntity
  8
0
  6
Continuous
 62
    21
370
    -2
100
AcDbLine
 10
913.901245
 20
414.289557
 30
0.0
 11
913.901245
 21
403.289575
 31
0.0
  0
SOLID
  5
68
330
64
100
AcDbEntity
  8
0
 62
    21
100
AcDbTrace
 10
914.501245
 20
414.289557
 30
0.0
 11
913.301245
 21
414.289557
 31
0.0
 12
913.901245
 22
417.889557
 32
0.0
 13
913.901245
 23
417.889557
 33
0.0
  0
SOLID
  5
69
330
64
100
AcDbEntity
  8
0
 62
    21
100
AcDbTrace
 10
913.301245
 20
403.289575
 30
0.0
 11
914.501245
 21
403.289575
 31
0.0
 12
913.901245
 22
399.689575
 32
0.0
 13
913.901245
 23
399.689575
 33
0.0
  0
MTEXT
  5
6A
330
64
100
AcDbEntity
  8
0
 62
    21
100
AcDbMText
 10
910.869745
 20
408.789566
 30
0.0
 40
3.0
 41
0.0
 71
     5
 72
     1
  1
\A1;18.2
  7
STEFANO
 11
0.0
 21
1.0
 31
0.0
 73
     1
 44
1.0
  0
POINT
  5
6B
330
64
100
AcDbEntity
  8
Defpoints
 62
     0
100
AcDbPoint
 10
850.901306
 20
417.889557
 30
0.0
  0
POINT
  5
6C
330
64
100
AcDbEntity
  8
Defpoints
 62
     0
100
AcDbPoint
 10
850.901306
 20
399.689575
 30
0.0
  0
POINT
  5
6D
330
64
100
AcDbEntity
  8
Defpoints
 62
     0
100
AcDbPoint
 10
913.901245
 20
399.689575
 30
0.0
  0
ENDBLK
  5
6F
330
64
100
AcDbEntity
  8
0
100
AcDbBlockEnd
  0
BLOCK
  5
7B
330
71
100
AcDbEntity
  8
0
100
AcDbBlockBegin
  2
*D3
 70
     1
 71
     0
 10
0.0
 20
0.0
 30
0.0
  3
*D3
  1

  0
LINE
  5
72
330
71
100
AcDbEntity
  8
0
  6
Continuous
 62
    21
370
    -2
100
AcDbLine
 10
850.901306
 20
416.989557
 30
0.0
 11
850.901306
 21
334.789569
 31
0.0
  0
LINE
  5
73
330
71
100
AcDbEntity
  8
0
  6
Continuous
 62
    21
370
    -2
100
AcDbLine
 10
800.901306
 20
416.989557
 30
0.0
 11
800.901306
 21
334.789569
 31
0.0
  0
LINE
  5
74
330
71
100
AcDbEntity
  8
0
  6
Continuous
 62
    21
370
    -2
100
AcDbLine
 10
847.301306
 20
336.589569
 30
0.0
 11
804.501306
 21
336.589569
 31
0.0
  0
SOLID
  5
75
330
71
100
AcDbEntity
  8
0
 62
    21
100
AcDbTrace
 10
847.301306
 20
335.989569
 30
0.0
 11
847.301306
 21
337.189569
 31
0.0
 12
850.901306
 22
336.589569
 32
0.0
 13
850.901306
 23
336.589569
 33
0.0
  0
SOLID
  5
76
330
71
100
AcDbEntity
  8
0
 62
    21
100
AcDbTrace
 10
804.501306
 20
337.189569
 30
0.0
 11
804.501306
 21
335.989569
 31
0.0
 12
800.901306
 22
336.589569
 32
0.0
 13
800.901306
 23
336.589569
 33
0.0
  0
MTEXT
  5
77
330
71
100
AcDbEntity
  8
0
 62
    21
100
AcDbMText
 10
825.901306
 20
339.621069
 30
0.0
 40
3.0
 41
0.0
 71
     5
 72
     1
  1
\A1;50
  7
STEFANO
 73
     1
 44
1.0
  0
POINT
  5
78
330
71
100
AcDbEntity
  8
Defpoints
 62
     0
100
AcDbPoint
 10
850.901306
 20
417.889557
 30
0.0
  0
POINT
  5
79
330
71
100
AcDbEntity
  8
Defpoints
 62
     0
100
AcDbPoint
 10
800.901306
 20
417.889557
 30
0.0
  0
POINT
  5
7A
330
71
100
AcDbEntity
  8
Defpoints
 62
     0
100
AcDbPoint
 10
800.901306
 20
336.589569
 30
0.0
  0
ENDBLK
  5
7C
330
71
100
AcDbEntity
  8
0
100
AcDbBlockEnd
  0
BLOCK
  5
8A
330
7E
100
AcDbEntity
  8
0
100
AcDbBlockBegin
  2
*D4
 70
     1
 71
     0
 10
0.0
 20
0.0
 30
0.0
  3
*D4
  1

  0
LINE
  5
7F
330
7E
100
AcDbEntity
  8
0
  6
Continuous
 62
    21
370
    -2
100
AcDbLine
 10
826.801306
 20
416.639557
 30
0.0
 11
884.201245
 21
416.639557
 31
0.0
  0
LINE
  5
80
330
7E
100
AcDbEntity
  8
0
  6
Continuous
 62
    21
370
    -2
100
AcDbLine
 10
826.801306
 20
417.889557
 30
0.0
 11
884.201245
 21
417.889557
 31
0.0
  0
LINE
  5
81
330
7E
100
AcDbEntity
  8
0
  6
Continuous
 62
    21
370
    -2
100
AcDbLine
 10
882.401245
 20
417.889557
 30
0.0
 11
882.401245
 21
443.061077
 31
0.0
  0
LINE
  5
82
330
7E
100
AcDbEntity
  8
0
  6
Continuous
 62
    21
370
    -2
100
AcDbLine
 10
882.401245
 20
413.039557
 30
0.0
 11
882.401245
 21
409.439557
 31
0.0
  0
LINE
  5
83
330
7E
100
AcDbEntity
  8
0
  6
Continuous
 62
    21
370
    -2
100
AcDbLine
 10
882.401245
 20
421.489557
 30
0.0
 11
882.401245
 21
425.089557
 31
0.0
  0
SOLID
  5
84
330
7E
100
AcDbEntity
  8
0
 62
    21
100
AcDbTrace
 10
883.001245
 20
413.039557
 30
0.0
 11
881.801245
 21
413.039557
 31
0.0
 12
882.401245
 22
416.639557
 32
0.0
 13
882.401245
 23
416.639557
 33
0.0
  0
SOLID
  5
85
330
7E
100
AcDbEntity
  8
0
 62
    21
100
AcDbTrace
 10
881.801245
 20
421.489557
 30
0.0
 11
883.001245
 21
421.489557
 31
0.0
 12
882.401245
 22
417.889557
 32
0.0
 13
882.401245
 23
417.889557
 33
0.0
  0
MTEXT
  5
86
330
7E
100
AcDbEntity
  8
0
 62
    21
100
AcDbMText
 10
879.350245
 20
433.060577
 30
0.0
 40
3.0
 41
0.0
 71
     5
 72
     1
  1
\A1;1.25 x45%%d
  7
STEFANO
 11
0.0
 21
1.0
 31
0.0
 73
     1
 44
1.0
  0
POINT
  5
87
330
7E
100
AcDbEntity
  8
Defpoints
 62
     0
100
AcDbPoint
 10
825.901306
 20
416.639557
 30
0.0
  0
POINT
  5
88
330
7E
100
AcDbEntity
  8
Defpoints
 62
     0
100
AcDbPoint
 10
825.901306
 20
417.889557
 30
0.0
  0
POINT
  5
89
330
7E
100
AcDbEntity
  8
Defpoints
 62
     0
100
AcDbPoint
 10
882.401245
 20
417.889557
 30
0.0
  0
ENDBLK
  5
8B
330
7E
100
AcDbEntity
  8
0
100
AcDbBlockEnd
  0
BLOCK
  5
99
330
8D
100
AcDbEntity
  8
0
100
AcDbBlockBegin
  2
*D5
 70
     1
 71
     0
 10
0.0
 20
0.0
 30
0.0
  3
*D5
  1

  0
LINE
  5
8E
330
8D
100
AcDbEntity
  8
0
  6
Continuous
 62
    21
370
    -2
100
AcDbLine
 10
851.801306
 20
436.139557
 30
0.0
 11
884.201245
 21
436.139557
 31
0.0
  0
LINE
  5
8F
330
8D
100
AcDbEntity
  8
0
  6
Continuous
 62
    21
370
    -2
100
AcDbLine
 10
851.801306
 20
433.639557
 30
0.0
 11
884.201245
 21
433.639557
 31
0.0
  0
LINE
  5
90
330
8D
100
AcDbEntity
  8
0
  6
Continuous
 62
    21
370
    -2
100
AcDbLine
 10
882.401245
 20
433.639557
 30
0.0
 11
882.401245
 21
420.810054
 31
0.0
  0
LINE
  5
91
330
8D
100
AcDbEntity
  8
0
  6
Continuous
 62
    21
370
    -2
100
AcDbLine
 10
882.401245
 20
439.739557
 30
0.0
 11
882.401245
 21
443.339557
 31
0.0
  0
LINE
  5
92
330
8D
100
AcDbEntity
  8
0
  6
Continuous
 62
    21
370
    -2
100
AcDbLine
 10
882.401245
 20
430.039557
 30
0.0
 11
882.401245
 21
426.439557
 31
0.0
  0
SOLID
  5
93
330
8D
100
AcDbEntity
  8
0
 62
    21
100
AcDbTrace
 10
881.801245
 20
439.739557
 30
0.0
 11
883.001245
 21
439.739557
 31
0.0
 12
882.401245
 22
436.139557
 32
0.0
 13
882.401245
 23
436.139557
 33
0.0
  0
SOLID
  5
94
330
8D
100
AcDbEntity
  8
0
 62
    21
100
AcDbTrace
 10
883.001245
 20
430.039557
 30
0.0
 11
881.801245
 21
430.039557
 31
0.0
 12
882.401245
 22
433.639557
 32
0.0
 13
882.401245
 23
433.639557
 33
0.0
  0
MTEXT
  5
95
330
8D
100
AcDbEntity
  8
0
 62
    21
100
AcDbMText
 10
879.369745
 20
425.074554
 30
0.0
 40
3.0
 41
0.0
 71
     5
 72
     1
  1
\A1;2.5
  7
STEFANO
 11
0.0
 21
1.0
 31
0.0
 73
     1
 44
1.0
  0
POINT
  5
96
330
8D
100
AcDbEntity
  8
Defpoints
 62
     0
100
AcDbPoint
 10
850.901306
 20
436.139557
 30
0.0
  0
POINT
  5
97
330
8D
100
AcDbEntity
  8
Defpoints
 62
     0
100
AcDbPoint
 10
850.901306
 20
433.639557
 30
0.0
  0
POINT
  5
98
330
8D
100
AcDbEntity
  8
Defpoints
 62
     0
100
AcDbPoint
 10
882.401245
 20
433.639557
 30
0.0
  0
ENDBLK
  5
9A
330
8D
100
AcDbEntity
  8
0
100
AcDbBlockEnd
  0
BLOCK
  5
A8
330
9C
100
AcDbEntity
  8
0
100
AcDbBlockBegin
  2
*D6
 70
     1
 71
     0
 10
0.0
 20
0.0
 30
0.0
  3
*D6
  1

  0
LINE
  5
9D
330
9C
100
AcDbEntity
  8
0
  6
Continuous
 62
    21
370
    -2
100
AcDbLine
 10
826.801306
 20
519.889587
 30
0.0
 11
884.201245
 21
519.889587
 31
0.0
  0
LINE
  5
9E
330
9C
100
AcDbEntity
  8
0
  6
Continuous
 62
    21
370
    -2
100
AcDbLine
 10
826.801306
 20
520.189575
 30
0.0
 11
884.201245
 21
520.189575
 31
0.0
  0
LINE
  5
9F
330
9C
100
AcDbEntity
  8
0
  6
Continuous
 62
    21
370
    -2
100
AcDbLine
 10
882.401245
 20
520.189575
 30
0.0
 11
882.401245
 21
543.198081
 31
0.0
  0
LINE
  5
A0
330
9C
100
AcDbEntity
  8
0
  6
Continuous
 62
    21
370
    -2
100
AcDbLine
 10
882.401245
 20
516.289587
 30
0.0
 11
882.401245
 21
512.689587
 31
0.0
  0
LINE
  5
A1
330
9C
100
AcDbEntity
  8
0
  6
Continuous
 62
    21
370
    -2
100
AcDbLine
 10
882.401245
 20
523.789575
 30
0.0
 11
882.401245
 21
527.389575
 31
0.0
  0
SOLID
  5
A2
330
9C
100
AcDbEntity
  8
0
 62
    21
100
AcDbTrace
 10
883.001245
 20
516.289587
 30
0.0
 11
881.801245
 21
516.289587
 31
0.0
 12
882.401245
 22
519.889587
 32
0.0
 13
882.401245
 23
519.889587
 33
0.0
  0
SOLID
  5
A3
330
9C
100
AcDbEntity
  8
0
 62
    21
100
AcDbTrace
 10
881.801245
 20
523.789575
 30
0.0
 11
883.001245
 21
523.789575
 31
0.0
 12
882.401245
 22
520.189575
 32
0.0
 13
882.401245
 23
520.189575
 33
0.0
  0
MTEXT
  5
A4
330
9C
100
AcDbEntity
  8
0
 62
    21
100
AcDbMText
 10
879.350245
 20
534.220581
 30
0.0
 40
3.0
 41
0.0
 71
     5
 72
     1
  1
\A1;0.3 x45%%d
  7
STEFANO
 11
0.0
 21
1.0
 31
0.0
 73
     1
 44
1.0
  0
POINT
  5
A5
330
9C
100
AcDbEntity
  8
Defpoints
 62
     0
100
AcDbPoint
 10
825.901306
 20
519.889587
 30
0.0
  0
POINT
  5
A6
330
9C
100
AcDbEntity
  8
Defpoints
 62
     0
100
AcDbPoint
 10
825.901306
 20
520.189575
 30
0.0
  0
POINT
  5
A7
330
9C
100
AcDbEntity
  8
Defpoints
 62
     0
100
AcDbPoint
 10
882.401245
 20
520.189575
 30
0.0
  0
ENDBLK
  5
A9
330
9C
100
AcDbEntity
  8
0
100
AcDbBlockEnd
  0
BLOCK
  5
B7
330
AB
100
AcDbEntity
  8
0
100
AcDbBlockBegin
  2
*D7
 70
     1
 71
     0
 10
0.0
 20
0.0
 30
0.0
  3
*D7
  1

  0
LINE
  5
AC
330
AB
100
AcDbEntity
  8
0
  6
Continuous
 62
    21
370
    -2
100
AcDbLine
 10
925.526648
 20
410.724396
 30
0.0
 11
989.426648
 21
410.724396
 31
0.0
  0
LINE
  5
AD
330
AB
100
AcDbEntity
  8
0
  6
Continuous
 62
    21
370
    -2
100
AcDbLine
 10
925.526648
 20
401.62439
 30
0.0
 11
989.426648
 21
401.62439
 31
0.0
  0
LINE
  5
AE
330
AB
100
AcDbEntity
  8
0
  6
Continuous
 62
    21
370
    -2
100
AcDbLine
 10
987.626648
 20
401.62439
 30
0.0
 11
987.626648
 21
386.684403
 31
0.0
  0
LINE
  5
AF
330
AB
100
AcDbEntity
  8
0
  6
Continuous
 62
    21
370
    -2
100
AcDbLine
 10
987.626648
 20
414.324396
 30
0.0
 11
987.626648
 21
417.924396
 31
0.0
  0
LINE
  5
B0
330
AB
100
AcDbEntity
  8
0
  6
Continuous
 62
    21
370
    -2
100
AcDbLine
 10
987.626648
 20
398.02439
 30
0.0
 11
987.626648
 21
394.424389
 31
0.0
  0
SOLID
  5
B1
330
AB
100
AcDbEntity
  8
0
 62
    21
100
AcDbTrace
 10
987.026648
 20
414.324396
 30
0.0
 11
988.226648
 21
414.324396
 31
0.0
 12
987.626648
 22
410.724396
 32
0.0
 13
987.626648
 23
410.724396
 33
0.0
  0
SOLID
  5
B2
330
AB
100
AcDbEntity
  8
0
 62
    21
100
AcDbTrace
 10
988.226648
 20
398.02439
 30
0.0
 11
987.026648
 21
398.02439
 31
0.0
 12
987.626648
 22
401.62439
 32
0.0
 13
987.626648
 23
401.62439
 33
0.0
  0
MTEXT
  5
B3
330
AB
100
AcDbEntity
  8
0
 62
     1
100
AcDbMText
 10
984.595148
 20
391.919403
 30
0.0
 40
3.0
 41
0.0
 71
     5
 72
     1
  1
\A1;18.2
  7
STEFANO
 11
0.0
 21
1.0
 31
0.0
 73
     1
 44
1.0
  0
POINT
  5
B4
330
AB
100
AcDbEntity
  8
Defpoints
 62
     0
100
AcDbPoint
 10
924.626648
 20
410.724396
 30
0.0
  0
POINT
  5
B5
330
AB
100
AcDbEntity
  8
Defpoints
 62
     0
100
AcDbPoint
 10
924.626648
 20
401.62439
 30
0.0
  0
POINT
  5
B6
330
AB
100
AcDbEntity
  8
Defpoints
 62
     0
100
AcDbPoint
 10
987.626648
 20
401.62439
 30
0.0
  0
ENDBLK
  5
B8
330
AB
100
AcDbEntity
  8
0
100
AcDbBlockEnd
  0
BLOCK
  5
C6
330
BA
100
AcDbEntity
  8
0
100
AcDbBlockBegin
  2
*D8
 70
     1
 71
     0
 10
0.0
 20
0.0
 30
0.0
  3
*D8
  1

  0
LINE
  5
BB
330
BA
100
AcDbEntity
  8
0
  6
Continuous
 62
    21
370
    -2
100
AcDbLine
 10
909.501648
 20
394.599402
 30
0.0
 11
909.501648
 21
493.001904
 31
0.0
  0
LINE
  5
BC
330
BA
100
AcDbEntity
  8
0
  6
Continuous
 62
    21
370
    -2
100
AcDbLine
 10
905.567688
 20
462.77439
 30
0.0
 11
905.567688
 21
493.001904
 31
0.0
  0
LINE
  5
BD
330
BA
100
AcDbEntity
  8
0
  6
Continuous
 62
    21
370
    -2
100
AcDbLine
 10
905.567688
 20
491.201904
 30
0.0
 11
890.483671
 21
491.201904
 31
0.0
  0
LINE
  5
BE
330
BA
100
AcDbEntity
  8
0
  6
Continuous
 62
    21
370
    -2
100
AcDbLine
 10
913.101648
 20
491.201904
 30
0.0
 11
916.701648
 21
491.201904
 31
0.0
  0
LINE
  5
BF
330
BA
100
AcDbEntity
  8
0
  6
Continuous
 62
    21
370
    -2
100
AcDbLine
 10
901.967688
 20
491.201904
 30
0.0
 11
898.367688
 21
491.201904
 31
0.0
  0
SOLID
  5
C0
330
BA
100
AcDbEntity
  8
0
 62
    21
100
AcDbTrace
 10
913.101648
 20
491.801904
 30
0.0
 11
913.101648
 21
490.601904
 31
0.0
 12
909.501648
 22
491.201904
 32
0.0
 13
909.501648
 23
491.201904
 33
0.0
  0
SOLID
  5
C1
330
BA
100
AcDbEntity
  8
0
 62
    21
100
AcDbTrace
 10
901.967688
 20
490.601904
 30
0.0
 11
901.967688
 21
491.801904
 31
0.0
 12
905.567688
 22
491.201904
 32
0.0
 13
905.567688
 23
491.201904
 33
0.0
  0
MTEXT
  5
C2
330
BA
100
AcDbEntity
  8
0
 62
     1
100
AcDbMText
 10
895.862671
 20
494.233404
 30
0.0
 40
3.0
 41
0.0
 71
     5
 72
     1
  1
\A1;7.87
  7
STEFANO
 73
     1
 44
1.0
  0
POINT
  5
C3
330
BA
100
AcDbEntity
  8
Defpoints
 62
     0
100
AcDbPoint
 10
909.501648
 20
393.699402
 30
0.0
  0
POINT
  5
C4
330
BA
100
AcDbEntity
  8
Defpoints
 62
     0
100
AcDbPoint
 10
905.567688
 20
461.87439
 30
0.0
  0
POINT
  5
C5
330
BA
100
AcDbEntity
  8
Defpoints
 62
     0
100
AcDbPoint
 10
905.567688
 20
491.201904
 30
0.0
  0
ENDBLK
  5
C7
330
BA
100
AcDbEntity
  8
0
100
AcDbBlockEnd
  0
BLOCK
  5
D5
330
C9
100
AcDbEntity
  8
0
100
AcDbBlockBegin
  2
*D9
 70
     1
 71
     0
 10
0.0
 20
0.0
 30
0.0
  3
*D9
  1

  0
LINE
  5
CA
330
C9
100
AcDbEntity
  8
0
  6
Continuous
 62
    21
370
    -2
100
AcDbLine
 10
909.501648
 20
394.599402
 30
0.0
 11
909.501648
 21
524.502026
 31
0.0
  0
LINE
  5
CB
330
C9
100
AcDbEntity
  8
0
  6
Continuous
 62
    21
370
    -2
100
AcDbLine
 10
913.435669
 20
462.77439
 30
0.0
 11
913.435669
 21
524.502026
 31
0.0
  0
LINE
  5
CC
330
C9
100
AcDbEntity
  8
0
  6
Continuous
 62
    21
370
    -2
100
AcDbLine
 10
909.501648
 20
522.702026
 30
0.0
 11
894.417631
 21
522.702026
 31
0.0
  0
LINE
  5
CD
330
C9
100
AcDbEntity
  8
0
  6
Continuous
 62
    21
370
    -2
100
AcDbLine
 10
905.901648
 20
522.702026
 30
0.0
 11
902.301648
 21
522.702026
 31
0.0
  0
LINE
  5
CE
330
C9
100
AcDbEntity
  8
0
  6
Continuous
 62
    21
370
    -2
100
AcDbLine
 10
917.035669
 20
522.702026
 30
0.0
 11
920.635669
 21
522.702026
 31
0.0
  0
SOLID
  5
CF
330
C9
100
AcDbEntity
  8
0
 62
    21
100
AcDbTrace
 10
905.901648
 20
522.102026
 30
0.0
 11
905.901648
 21
523.302026
 31
0.0
 12
909.501648
 22
522.702026
 32
0.0
 13
909.501648
 23
522.702026
 33
0.0
  0
SOLID
  5
D0
330
C9
100
AcDbEntity
  8
0
 62
    21
100
AcDbTrace
 10
917.035669
 20
523.302026
 30
0.0
 11
917.035669
 21
522.102026
 31
0.0
 12
913.435669
 22
522.702026
 32
0.0
 13
913.435669
 23
522.702026
 33
0.0
  0
MTEXT
  5
D1
330
C9
100
AcDbEntity
  8
0
 62
     1
100
AcDbMText
 10
899.796631
 20
525.733526
 30
0.0
 40
3.0
 41
0.0
 71
     5
 72
     1
  1
\A1;7.87
  7
STEFANO
 73
     1
 44
1.0
  0
POINT
  5
D2
330
C9
100
AcDbEntity
  8
Defpoints
 62
     0
100
AcDbPoint
 10
909.501648
 20
393.699402
 30
0.0
  0
POINT
  5
D3
330
C9
100
AcDbEntity
  8
Defpoints
 62
     0
100
AcDbPoint
 10
913.435669
 20
461.87439
 30
0.0
  0
POINT
  5
D4
330
C9
100
AcDbEntity
  8
Defpoints
 62
     0
100
AcDbPoint
 10
913.435669
 20
522.702026
 30
0.0
  0
ENDBLK
  5
D6
330
C9
100
AcDbEntity
  8
0
100
AcDbBlockEnd
  0
BLOCK
  5
E0
330
D8
100
AcDbEntity
  8
0
100
AcDbBlockBegin
  2
*D10
 70
     1
 71
     0
 10
0.0
 20
0.0
 30
0.0
  3
*D10
  1

  0
LINE
  5
D9
330
D8
100
AcDbEntity
  8
0
  6
Continuous
 62
    21
370
    -2
100
AcDbLine
 10
898.633097
 20
439.919011
 30
0.0
 11
907.49121
 21
454.685942
 31
0.0
  0
MTEXT
  5
DA
330
D8
100
AcDbEntity
  8
0
 62
     1
100
AcDbMText
 10
899.53657
 20
447.318324
 30
0.0
 40
3.0
 41
0.0
 71
     5
 72
     1
  1
\A1;R0.62
  7
STEFANO
 11
0.5144083990697655
 21
0.8575453334760099
 31
0.0
 73
     1
 44
1.0
  0
SOLID
  5
DB
330
D8
100
AcDbEntity
  8
0
 62
    21
100
AcDbTrace
 10
908.005737
 20
454.377297
 30
0.0
 11
906.976683
 21
454.994587
 31
0.0
 12
909.34308
 22
457.773105
 32
0.0
 13
909.34308
 23
457.773105
 33
0.0
  0
LINE
  5
DC
330
D8
100
AcDbEntity
  8
0
  6
Continuous
 62
    21
370
    -2
100
AcDbLine
 10
909.411648
 20
458.037445
 30
0.0
 11
909.591648
 21
458.037445
 31
0.0
  0
LINE
  5
DD
330
D8
100
AcDbEntity
  8
0
  6
Continuous
 62
    21
370
    -2
100
AcDbLine
 10
909.501648
 20
457.947445
 30
0.0
 11
909.501648
 21
458.127445
 31
0.0
  0
POINT
  5
DE
330
D8
100
AcDbEntity
  8
Defpoints
 62
     0
100
AcDbPoint
 10
909.34308
 20
457.773105
 30
0.0
  0
POINT
  5
DF
330
D8
100
AcDbEntity
  8
Defpoints
 62
     0
100
AcDbPoint
 10
909.501648
 20
458.037445
 30
0.0
  0
ENDBLK
  5
E1
330
D8
100
AcDbEntity
  8
0
100
AcDbBlockEnd
  0
BLOCK
  5
ED
330
E3
100
AcDbEntity
  8
0
100
AcDbBlockBegin
  2
*D11
 70
     1
 71
     0
 10
0.0
 20
0.0
 30
0.0
  3
*D11
  1

  0
LINE
  5
E4
330
E3
100
AcDbEntity
  8
0
  6
Continuous
 62
    21
370
    -2
100
AcDbLine
 10
916.401648
 20
461.87439
 30
0.0
 11
955.926648
 21
461.87439
 31
0.0
  0
LINE
  5
E5
330
E3
100
AcDbEntity
  8
0
  6
Continuous
 62
    21
370
    -2
100
AcDbLine
 10
925.526648
 20
410.724396
 30
0.0
 11
955.926648
 21
410.724396
 31
0.0
  0
LINE
  5
E6
330
E3
100
AcDbEntity
  8
0
  6
Continuous
 62
    21
370
    -2
100
AcDbLine
 10
954.126648
 20
458.27439
 30
0.0
 11
954.126648
 21
414.324396
 31
0.0
  0
SOLID
  5
E7
330
E3
100
AcDbEntity
  8
0
 62
    21
100
AcDbTrace
 10
954.726648
 20
458.27439
 30
0.0
 11
953.526648
 21
458.27439
 31
0.0
 12
954.126648
 22
461.87439
 32
0.0
 13
954.126648
 23
461.87439
 33
0.0
  0
SOLID
  5
E8
330
E3
100
AcDbEntity
  8
0
 62
    21
100
AcDbTrace
 10
953.526648
 20
414.324396
 30
0.0
 11
954.726648
 21
414.324396
 31
0.0
 12
954.126648
 22
410.724396
 32
0.0
 13
954.126648
 23
410.724396
 33
0.0
  0
MTEXT
  5
E9
330
E3
100
AcDbEntity
  8
0
 62
     1
100
AcDbMText
 10
951.095148
 20
436.299393
 30
0.0
 40
3.0
 41
0.0
 71
     5
 72
     1
  1
\A1;102.3
  7
STEFANO
 11
0.0
 21
1.0
 31
0.0
 73
     1
 44
1.0
  0
POINT
  5
EA
330
E3
100
AcDbEntity
  8
Defpoints
 62
     0
100
AcDbPoint
 10
915.501648
 20
461.87439
 30
0.0
  0
POINT
  5
EB
330
E3
100
AcDbEntity
  8
Defpoints
 62
     0
100
AcDbPoint
 10
924.626648
 20
410.724396
 30
0.0
  0
POINT
  5
EC
330
E3
100
AcDbEntity
  8
Defpoints
 62
     0
100
AcDbPoint
 10
954.126648
 20
410.724396
 30
0.0
  0
ENDBLK
  5
EE
330
E3
100
AcDbEntity
  8
0
100
AcDbBlockEnd
  0
BLOCK
  5
FC
330
F0
100
AcDbEntity
  8
0
100
AcDbBlockBegin
  2
*D12
 70
     1
 71
     0
 10
0.0
 20
0.0
 30
0.0
  3
*D12
  1

  0
LINE
  5
F1
330
F0
100
AcDbEntity
  8
0
  6
Continuous
 62
    21
370
    -2
100
AcDbLine
 10
915.351685
 20
462.77439
 30
0.0
 11
915.351685
 21
503.201978
 31
0.0
  0
LINE
  5
F2
330
F0
100
AcDbEntity
  8
0
  6
Continuous
 62
    21
370
    -2
100
AcDbLine
 10
915.501648
 20
462.624396
 30
0.0
 11
915.501648
 21
503.201978
 31
0.0
  0
LINE
  5
F3
330
F0
100
AcDbEntity
  8
0
  6
Continuous
 62
    21
370
    -2
100
AcDbLine
 10
915.501648
 20
501.401978
 30
0.0
 11
938.510154
 21
501.401978
 31
0.0
  0
LINE
  5
F4
330
F0
100
AcDbEntity
  8
0
  6
Continuous
 62
    21
370
    -2
100
AcDbLine
 10
911.751684
 20
501.401978
 30
0.0
 11
908.151684
 21
501.401978
 31
0.0
  0
LINE
  5
F5
330
F0
100
AcDbEntity
  8
0
  6
Continuous
 62
    21
370
    -2
100
AcDbLine
 10
919.101648
 20
501.401978
 30
0.0
 11
922.701648
 21
501.401978
 31
0.0
  0
SOLID
  5
F6
330
F0
100
AcDbEntity
  8
0
 62
    21
100
AcDbTrace
 10
911.751684
 20
500.801978
 30
0.0
 11
911.751684
 21
502.001978
 31
0.0
 12
915.351685
 22
501.401978
 32
0.0
 13
915.351685
 23
501.401978
 33
0.0
  0
SOLID
  5
F7
330
F0
100
AcDbEntity
  8
0
 62
    21
100
AcDbTrace
 10
919.101648
 20
502.001978
 30
0.0
 11
919.101648
 21
500.801978
 31
0.0
 12
915.501648
 22
501.401978
 32
0.0
 13
915.501648
 23
501.401978
 33
0.0
  0
MTEXT
  5
F8
330
F0
100
AcDbEntity
  8
0
 62
     1
100
AcDbMText
 10
929.532654
 20
504.452978
 30
0.0
 40
3.0
 41
0.0
 71
     5
 72
     1
  1
\A1;0.3 x45%%d
  7
STEFANO
 73
     1
 44
1.0
  0
POINT
  5
F9
330
F0
100
AcDbEntity
  8
Defpoints
 62
     0
100
AcDbPoint
 10
915.351685
 20
461.87439
 30
0.0
  0
POINT
  5
FA
330
F0
100
AcDbEntity
  8
Defpoints
 62
     0
100
AcDbPoint
 10
915.501648
 20
461.724396
 30
0.0
  0
POINT
  5
FB
330
F0
100
AcDbEntity
  8
Defpoints
 62
     0
100
AcDbPoint
 10
915.501648
 20
501.401978
 30
0.0
  0
ENDBLK
  5
FD
330
F0
100
AcDbEntity
  8
0
100
AcDbBlockEnd
  0
BLOCK
  5
10B
330
FF
100
AcDbEntity
  8
0
100
AcDbBlockBegin
  2
*D13
 70
     1
 71
     0
 10
0.0
 20
0.0
 30
0.0
  3
*D13
  1

  0
LINE
  5
100
330
FF
100
AcDbEntity
  8
0
  6
Continuous
 62
    21
370
    -2
100
AcDbLine
 10
893.476648
 20
410.099396
 30
0.0
 11
861.064136
 21
410.099396
 31
0.0
  0
LINE
  5
101
330
FF
100
AcDbEntity
  8
0
  6
Continuous
 62
    21
370
    -2
100
AcDbLine
 10
894.101648
 20
410.724396
 30
0.0
 11
861.064136
 21
410.724396
 31
0.0
  0
LINE
  5
102
330
FF
100
AcDbEntity
  8
0
  6
Continuous
 62
    21
370
    -2
100
AcDbLine
 10
862.864136
 20
410.724396
 30
0.0
 11
862.864136
 21
435.895916
 31
0.0
  0
LINE
  5
103
330
FF
100
AcDbEntity
  8
0
  6
Continuous
 62
    21
370
    -2
100
AcDbLine
 10
862.864136
 20
406.499396
 30
0.0
 11
862.864136
 21
402.899395
 31
0.0
  0
LINE
  5
104
330
FF
100
AcDbEntity
  8
0
  6
Continuous
 62
    21
370
    -2
100
AcDbLine
 10
862.864136
 20
414.324396
 30
0.0
 11
862.864136
 21
417.924396
 31
0.0
  0
SOLID
  5
105
330
FF
100
AcDbEntity
  8
0
 62
    21
100
AcDbTrace
 10
863.464136
 20
406.499396
 30
0.0
 11
862.264136
 21
406.499396
 31
0.0
 12
862.864136
 22
410.099396
 32
0.0
 13
862.864136
 23
410.099396
 33
0.0
  0
SOLID
  5
106
330
FF
100
AcDbEntity
  8
0
 62
    21
100
AcDbTrace
 10
862.264136
 20
414.324396
 30
0.0
 11
863.464136
 21
414.324396
 31
0.0
 12
862.864136
 22
410.724396
 32
0.0
 13
862.864136
 23
410.724396
 33
0.0
  0
MTEXT
  5
107
330
FF
100
AcDbEntity
  8
0
 62
     1
100
AcDbMText
 10
859.813136
 20
425.895416
 30
0.0
 40
3.0
 41
0.0
 71
     5
 72
     1
  1
\A1;1.25 x45%%d
  7
STEFANO
 11
0.0
 21
1.0
 31
0.0
 73
     1
 44
1.0
  0
POINT
  5
108
330
FF
100
AcDbEntity
  8
Defpoints
 62
     0
100
AcDbPoint
 10
894.376648
 20
410.099396
 30
0.0
  0
POINT
  5
109
330
FF
100
AcDbEntity
  8
Defpoints
 62
     0
100
AcDbPoint
 10
895.001648
 20
410.724396
 30
0.0
  0
POINT
  5
10A
330
FF
100
AcDbEntity
  8
Defpoints
 62
     0
100
AcDbPoint
 10
862.864136
 20
410.724396
 30
0.0
  0
ENDBLK
  5
10C
330
FF
100
AcDbEntity
  8
0
100
AcDbBlockEnd
  0
BLOCK
  5
11A
330
10E
100
AcDbEntity
  8
0
100
AcDbBlockBegin
  2
*D14
 70
     1
 71
     0
 10
0.0
 20
0.0
 30
0.0
  3
*D14
  1

  0
LINE
  5
10F
330
10E
100
AcDbEntity
  8
0
  6
Continuous
 62
    21
370
    -2
100
AcDbLine
 10
924.001648
 20
409.824396
 30
0.0
 11
924.001648
 21
336.786884
 31
0.0
  0
LINE
  5
110
330
10E
100
AcDbEntity
  8
0
  6
Continuous
 62
    21
370
    -2
100
AcDbLine
 10
924.626648
 20
409.199396
 30
0.0
 11
924.626648
 21
336.786884
 31
0.0
  0
LINE
  5
111
330
10E
100
AcDbEntity
  8
0
  6
Continuous
 62
    21
370
    -2
100
AcDbLine
 10
924.626648
 20
338.586884
 30
0.0
 11
949.798168
 21
338.586884
 31
0.0
  0
LINE
  5
112
330
10E
100
AcDbEntity
  8
0
  6
Continuous
 62
    21
370
    -2
100
AcDbLine
 10
920.401648
 20
338.586884
 30
0.0
 11
916.801648
 21
338.586884
 31
0.0
  0
LINE
  5
113
330
10E
100
AcDbEntity
  8
0
  6
Continuous
 62
    21
370
    -2
100
AcDbLine
 10
928.226648
 20
338.586884
 30
0.0
 11
931.826648
 21
338.586884
 31
0.0
  0
SOLID
  5
114
330
10E
100
AcDbEntity
  8
0
 62
    21
100
AcDbTrace
 10
920.401648
 20
337.986884
 30
0.0
 11
920.401648
 21
339.186884
 31
0.0
 12
924.001648
 22
338.586884
 32
0.0
 13
924.001648
 23
338.586884
 33
0.0
  0
SOLID
  5
115
330
10E
100
AcDbEntity
  8
0
 62
    21
100
AcDbTrace
 10
928.226648
 20
339.186884
 30
0.0
 11
928.226648
 21
337.986884
 31
0.0
 12
924.626648
 22
338.586884
 32
0.0
 13
924.626648
 23
338.586884
 33
0.0
  0
MTEXT
  5
116
330
10E
100
AcDbEntity
  8
0
 62
     1
100
AcDbMText
 10
939.797668
 20
341.637884
 30
0.0
 40
3.0
 41
0.0
 71
     5
 72
     1
  1
\A1;1.25 x45%%d
  7
STEFANO
 73
     1
 44
1.0
  0
POINT
  5
117
330
10E
100
AcDbEntity
  8
Defpoints
 62
     0
100
AcDbPoint
 10
924.001648
 20
410.724396
 30
0.0
  0
POINT
  5
118
330
10E
100
AcDbEntity
  8
Defpoints
 62
     0
100
AcDbPoint
 10
924.626648
 20
410.099396
 30
0.0
  0
POINT
  5
119
330
10E
100
AcDbEntity
  8
Defpoints
 62
     0
100
AcDbPoint
 10
924.626648
 20
338.586884
 30
0.0
  0
ENDBLK
  5
11B
330
10E
100
AcDbEntity
  8
0
100
AcDbBlockEnd
  0
BLOCK
  5
129
330
11D
100
AcDbEntity
  8
0
100
AcDbBlockBegin
  2
*D15
 70
     1
 71
     0
 10
0.0
 20
0.0
 30
0.0
  3
*D15
  1

  0
LINE
  5
11E
330
11D
100
AcDbEntity
  8
0
  6
Continuous
 62
    21
370
    -2
100
AcDbLine
 10
895.101685
 20
400.72439
 30
0.0
 11
895.101685
 21
336.811877
 31
0.0
  0
LINE
  5
11F
330
11D
100
AcDbEntity
  8
0
  6
Continuous
 62
    21
370
    -2
100
AcDbLine
 10
894.376648
 20
401.449396
 30
0.0
 11
894.376648
 21
336.811877
 31
0.0
  0
LINE
  5
120
330
11D
100
AcDbEntity
  8
0
  6
Continuous
 62
    21
370
    -2
100
AcDbLine
 10
894.376648
 20
338.611877
 30
0.0
 11
869.205127
 21
338.611877
 31
0.0
  0
LINE
  5
121
330
11D
100
AcDbEntity
  8
0
  6
Continuous
 62
    21
370
    -2
100
AcDbLine
 10
898.701685
 20
338.611877
 30
0.0
 11
902.301685
 21
338.611877
 31
0.0
  0
LINE
  5
122
330
11D
100
AcDbEntity
  8
0
  6
Continuous
 62
    21
370
    -2
100
AcDbLine
 10
890.776648
 20
338.611877
 30
0.0
 11
887.176648
 21
338.611877
 31
0.0
  0
SOLID
  5
123
330
11D
100
AcDbEntity
  8
0
 62
    21
100
AcDbTrace
 10
898.701685
 20
339.211877
 30
0.0
 11
898.701685
 21
338.011877
 31
0.0
 12
895.101685
 22
338.611877
 32
0.0
 13
895.101685
 23
338.611877
 33
0.0
  0
SOLID
  5
124
330
11D
100
AcDbEntity
  8
0
 62
    21
100
AcDbTrace
 10
890.776648
 20
338.011877
 30
0.0
 11
890.776648
 21
339.211877
 31
0.0
 12
894.376648
 22
338.611877
 32
0.0
 13
894.376648
 23
338.611877
 33
0.0
  0
MTEXT
  5
125
330
11D
100
AcDbEntity
  8
0
 62
     1
100
AcDbMText
 10
879.205627
 20
341.662877
 30
0.0
 40
3.0
 41
0.0
 71
     5
 72
     1
  1
\A1;1.45 x45%%d
  7
STEFANO
 73
     1
 44
1.0
  0
POINT
  5
126
330
11D
100
AcDbEntity
  8
Defpoints
 62
     0
100
AcDbPoint
 10
895.101685
 20
401.62439
 30
0.0
  0
POINT
  5
127
330
11D
100
AcDbEntity
  8
Defpoints
 62
     0
100
AcDbPoint
 10
894.376648
 20
402.349396
 30
0.0
  0
POINT
  5
128
330
11D
100
AcDbEntity
  8
Defpoints
 62
     0
100
AcDbPoint
 10
894.376648
 20
338.611877
 30
0.0
  0
ENDBLK
  5
12A
330
11D
100
AcDbEntity
  8
0
100
AcDbBlockEnd
  0
BLOCK
  5
138
330
12C
100
AcDbEntity
  8
0
100
AcDbBlockBegin
  2
*D16
 70
     1
 71
     0
 10
0.0
 20
0.0
 30
0.0
  3
*D16
  1

  0
LINE
  5
12D
330
12C
100
AcDbEntity
  8
0
  6
Continuous
 62
    21
370
    -2
100
AcDbLine
 10
925.526648
 20
402.349396
 30
0.0
 11
957.93916
 21
402.349396
 31
0.0
  0
LINE
  5
12E
330
12C
100
AcDbEntity
  8
0
  6
Continuous
 62
    21
370
    -2
100
AcDbLine
 10
924.801672
 20
401.62439
 30
0.0
 11
957.93916
 21
401.62439
 31
0.0
  0
LINE
  5
12F
330
12C
100
AcDbEntity
  8
0
  6
Continuous
 62
    21
370
    -2
100
AcDbLine
 10
956.13916
 20
401.62439
 30
0.0
 11
956.13916
 21
376.4529
 31
0.0
  0
LINE
  5
130
330
12C
100
AcDbEntity
  8
0
  6
Continuous
 62
    21
370
    -2
100
AcDbLine
 10
956.13916
 20
405.949396
 30
0.0
 11
956.13916
 21
409.549396
 31
0.0
  0
LINE
  5
131
330
12C
100
AcDbEntity
  8
0
  6
Continuous
 62
    21
370
    -2
100
AcDbLine
 10
956.13916
 20
398.02439
 30
0.0
 11
956.13916
 21
394.424389
 31
0.0
  0
SOLID
  5
132
330
12C
100
AcDbEntity
  8
0
 62
    21
100
AcDbTrace
 10
955.53916
 20
405.949396
 30
0.0
 11
956.73916
 21
405.949396
 31
0.0
 12
956.13916
 22
402.349396
 32
0.0
 13
956.13916
 23
402.349396
 33
0.0
  0
SOLID
  5
133
330
12C
100
AcDbEntity
  8
0
 62
    21
100
AcDbTrace
 10
956.73916
 20
398.02439
 30
0.0
 11
955.53916
 21
398.02439
 31
0.0
 12
956.13916
 22
401.62439
 32
0.0
 13
956.13916
 23
401.62439
 33
0.0
  0
MTEXT
  5
134
330
12C
100
AcDbEntity
  8
0
 62
     1
100
AcDbMText
 10
953.08816
 20
386.4534
 30
0.0
 40
3.0
 41
0.0
 71
     5
 72
     1
  1
\A1;1.45 x45%%d
  7
STEFANO
 11
0.0
 21
1.0
 31
0.0
 73
     1
 44
1.0
  0
POINT
  5
135
330
12C
100
AcDbEntity
  8
Defpoints
 62
     0
100
AcDbPoint
 10
924.626648
 20
402.349396
 30
0.0
  0
POINT
  5
136
330
12C
100
AcDbEntity
  8
Defpoints
 62
     0
100
AcDbPoint
 10
923.901672
 20
401.62439
 30
0.0
  0
POINT
  5
137
330
12C
100
AcDbEntity
  8
Defpoints
 62
     0
100
AcDbPoint
 10
956.13916
 20
401.62439
 30
0.0
  0
ENDBLK
  5
139
330
12C
100
AcDbEntity
  8
0
100
AcDbBlockEnd
  0
BLOCK
  5
147
330
13B
100
AcDbEntity
  8
0
100
AcDbBlockBegin
  2
*D17
 70
     1
 71
     0
 10
0.0
 20
0.0
 30
0.0
  3
*D17
  1

  0
LINE
  5
13C
330
13B
100
AcDbEntity
  8
0
  6
Continuous
 62
    21
370
    -2
100
AcDbLine
 10
902.601648
 20
419.849396
 30
0.0
 11
865.076648
 21
419.849396
 31
0.0
  0
LINE
  5
13D
330
13B
100
AcDbEntity
  8
0
  6
Continuous
 62
    21
370
    -2
100
AcDbLine
 10
902.601648
 20
418.599396
 30
0.0
 11
865.076648
 21
418.599396
 31
0.0
  0
LINE
  5
13E
330
13B
100
AcDbEntity
  8
0
  6
Continuous
 62
    21
370
    -2
100
AcDbLine
 10
866.876648
 20
418.599396
 30
0.0
 11
866.876648
 21
405.769893
 31
0.0
  0
LINE
  5
13F
330
13B
100
AcDbEntity
  8
0
  6
Continuous
 62
    21
370
    -2
100
AcDbLine
 10
866.876648
 20
423.449396
 30
0.0
 11
866.876648
 21
427.049396
 31
0.0
  0
LINE
  5
140
330
13B
100
AcDbEntity
  8
0
  6
Continuous
 62
    21
370
    -2
100
AcDbLine
 10
866.876648
 20
414.999396
 30
0.0
 11
866.876648
 21
411.399395
 31
0.0
  0
SOLID
  5
141
330
13B
100
AcDbEntity
  8
0
 62
    21
100
AcDbTrace
 10
866.276648
 20
423.449396
 30
0.0
 11
867.476648
 21
423.449396
 31
0.0
 12
866.876648
 22
419.849396
 32
0.0
 13
866.876648
 23
419.849396
 33
0.0
  0
SOLID
  5
142
330
13B
100
AcDbEntity
  8
0
 62
    21
100
AcDbTrace
 10
867.476648
 20
414.999396
 30
0.0
 11
866.276648
 21
414.999396
 31
0.0
 12
866.876648
 22
418.599396
 32
0.0
 13
866.876648
 23
418.599396
 33
0.0
  0
MTEXT
  5
143
330
13B
100
AcDbEntity
  8
0
 62
     1
100
AcDbMText
 10
863.845148
 20
410.034393
 30
0.0
 40
3.0
 41
0.0
 71
     5
 72
     1
  1
\A1;2.5
  7
STEFANO
 11
0.0
 21
1.0
 31
0.0
 73
     1
 44
1.0
  0
POINT
  5
144
330
13B
100
AcDbEntity
  8
Defpoints
 62
     0
100
AcDbPoint
 10
903.501648
 20
419.849396
 30
0.0
  0
POINT
  5
145
330
13B
100
AcDbEntity
  8
Defpoints
 62
     0
100
AcDbPoint
 10
903.501648
 20
418.599396
 30
0.0
  0
POINT
  5
146
330
13B
100
AcDbEntity
  8
Defpoints
 62
     0
100
AcDbPoint
 10
866.876648
 20
418.599396
 30
0.0
  0
ENDBLK
  5
148
330
13B
100
AcDbEntity
  8
0
100
AcDbBlockEnd
  0
BLOCK
  5
157
330
14A
100
AcDbEntity
  8
0
100
AcDbBlockBegin
  2
*D18
 70
     1
 71
     0
 10
0.0
 20
0.0
 30
0.0
  3
*D18
  1

  0
LINE
  5
14B
330
14A
100
AcDbEntity
  8
0
  6
Continuous
 62
    21
370
    -2
100
AcDbLine
 10
904.763044
 20
418.588
 30
0.0
 11
910.181759
 21
413.169284
 31
0.0
  0
LINE
  5
14C
330
14A
100
AcDbEntity
  8
0
  6
Continuous
 62
    21
370
    -2
100
AcDbLine
 10
904.763044
 20
419.860792
 30
0.0
 11
910.181759
 21
425.279507
 31
0.0
  0
ARC
  5
14D
330
14A
100
AcDbEntity
  8
0
  6
Continuous
 62
    21
370
    -2
100
AcDbCircle
 10
904.126648
 20
419.224396
 30
0.0
 40
6.763220806224581
100
AcDbArc
 50
253.259906
 51
284.129953
  0
ARC
  5
14E
330
14A
100
AcDbEntity
  8
0
  6
Continuous
 62
    21
370
    -2
100
AcDbCircle
 10
904.126648
 20
419.224396
 30
0.0
 40
6.763220806224581
100
AcDbArc
 50
75.870047
 51
106.740094
  0
SOLID
  5
14F
330
14A
100
AcDbEntity
  8
0
 62
    21
100
AcDbTrace
 10
906.073745
 20
412.143921
 30
0.0
 11
905.481653
 21
413.187677
 31
0.0
 12
908.908967
 22
414.442076
 32
0.0
 13
908.908967
 23
414.442076
 33
0.0
  0
SOLID
  5
150
330
14A
100
AcDbEntity
  8
0
 62
    21
100
AcDbTrace
 10
905.481653
 20
425.261114
 30
0.0
 11
906.073745
 21
426.30487
 31
0.0
 12
908.908967
 22
424.006715
 32
0.0
 13
908.908967
 23
424.006715
 33
0.0
  0
MTEXT
  5
151
330
14A
100
AcDbEntity
  8
0
 62
     1
100
AcDbMText
 10
907.838869
 20
419.224396
 30
0.0
 40
3.0
 41
0.0
 71
     5
 72
     1
  1
90%%d
  7
STEFANO
 11
0.0
 21
1.0
 31
0.0
 73
     1
 44
1.0
  0
POINT
  5
152
330
14A
100
AcDbEntity
  8
Defpoints
 62
     0
100
AcDbPoint
 10
910.889869
 20
419.224396
 30
0.0
  0
POINT
  5
153
330
14A
100
AcDbEntity
  8
Defpoints
 62
     0
100
AcDbPoint
 10
904.126648
 20
419.224396
 30
0.0
  0
POINT
  5
154
330
14A
100
AcDbEntity
  8
Defpoints
 62
     0
100
AcDbPoint
 10
904.126648
 20
419.224396
 30
0.0
  0
POINT
  5
155
330
14A
100
AcDbEntity
  8
Defpoints
 62
     0
100
AcDbPoint
 10
903.501648
 20
419.849396
 30
0.0
  0
POINT
  5
156
330
14A
100
AcDbEntity
  8
Defpoints
 62
     0
100
AcDbPoint
 10
903.501648
 20
418.599396
 30
0.0
  0
ENDBLK
  5
158
330
14A
100
AcDbEntity
  8
0
100
AcDbBlockEnd
  0
BLOCK
  5
166
330
15A
100
AcDbEntity
  8
0
100
AcDbBlockBegin
  2
*D19
 70
     1
 71
     0
 10
0.0
 20
0.0
 30
0.0
  3
*D19
  1

  0
LINE
  5
15B
330
15A
100
AcDbEntity
  8
0
  6
Continuous
 62
    21
370
    -2
100
AcDbLine
 10
902.601648
 20
461.724396
 30
0.0
 11
864.826648
 21
461.724396
 31
0.0
  0
LINE
  5
15C
330
15A
100
AcDbEntity
  8
0
  6
Continuous
 62
    21
370
    -2
100
AcDbLine
 10
902.751672
 20
461.87439
 30
0.0
 11
864.826648
 21
461.87439
 31
0.0
  0
LINE
  5
15D
330
15A
100
AcDbEntity
  8
0
  6
Continuous
 62
    21
370
    -2
100
AcDbLine
 10
866.626648
 20
461.87439
 30
0.0
 11
866.626648
 21
484.882896
 31
0.0
  0
LINE
  5
15E
330
15A
100
AcDbEntity
  8
0
  6
Continuous
 62
    21
370
    -2
100
AcDbLine
 10
866.626648
 20
458.124396
 30
0.0
 11
866.626648
 21
454.524395
 31
0.0
  0
LINE
  5
15F
330
15A
100
AcDbEntity
  8
0
  6
Continuous
 62
    21
370
    -2
100
AcDbLine
 10
866.626648
 20
465.47439
 30
0.0
 11
866.626648
 21
469.07439
 31
0.0
  0
SOLID
  5
160
330
15A
100
AcDbEntity
  8
0
 62
    21
100
AcDbTrace
 10
867.226648
 20
458.124396
 30
0.0
 11
866.026648
 21
458.124396
 31
0.0
 12
866.626648
 22
461.724396
 32
0.0
 13
866.626648
 23
461.724396
 33
0.0
  0
SOLID
  5
161
330
15A
100
AcDbEntity
  8
0
 62
    21
100
AcDbTrace
 10
866.026648
 20
465.47439
 30
0.0
 11
867.226648
 21
465.47439
 31
0.0
 12
866.626648
 22
461.87439
 32
0.0
 13
866.626648
 23
461.87439
 33
0.0
  0
MTEXT
  5
162
330
15A
100
AcDbEntity
  8
0
 62
     1
100
AcDbMText
 10
863.575648
 20
475.905396
 30
0.0
 40
3.0
 41
0.0
 71
     5
 72
     1
  1
\A1;0.3 x45%%d
  7
STEFANO
 11
0.0
 21
1.0
 31
0.0
 73
     1
 44
1.0
  0
POINT
  5
163
330
15A
100
AcDbEntity
  8
Defpoints
 62
     0
100
AcDbPoint
 10
903.501648
 20
461.724396
 30
0.0
  0
POINT
  5
164
330
15A
100
AcDbEntity
  8
Defpoints
 62
     0
100
AcDbPoint
 10
903.651672
 20
461.87439
 30
0.0
  0
POINT
  5
165
330
15A
100
AcDbEntity
  8
Defpoints
 62
     0
100
AcDbPoint
 10
866.626648
 20
461.87439
 30
0.0
  0
ENDBLK
  5
167
330
15A
100
AcDbEntity
  8
0
100
AcDbBlockEnd
  0
BLOCK
  5
175
330
169
100
AcDbEntity
  8
0
100
AcDbBlockBegin
  2
*D20
 70
     1
 71
     0
 10
0.0
 20
0.0
 30
0.0
  3
*D20
  1

  0
LINE
  5
16A
330
169
100
AcDbEntity
  8
0
  6
Continuous
 62
    21
370
    -2
100
AcDbLine
 10
902.601648
 20
410.724396
 30
0.0
 11
833.576648
 21
410.724396
 31
0.0
  0
LINE
  5
16B
330
169
100
AcDbEntity
  8
0
  6
Continuous
 62
    21
370
    -2
100
AcDbLine
 10
903.226648
 20
419.224396
 30
0.0
 11
833.576648
 21
419.224396
 31
0.0
  0
LINE
  5
16C
330
169
100
AcDbEntity
  8
0
  6
Continuous
 62
    21
370
    -2
100
AcDbLine
 10
835.376648
 20
410.724396
 30
0.0
 11
835.376648
 21
399.225401
 31
0.0
  0
LINE
  5
16D
330
169
100
AcDbEntity
  8
0
  6
Continuous
 62
    21
370
    -2
100
AcDbLine
 10
835.376648
 20
407.124396
 30
0.0
 11
835.376648
 21
403.524395
 31
0.0
  0
LINE
  5
16E
330
169
100
AcDbEntity
  8
0
  6
Continuous
 62
    21
370
    -2
100
AcDbLine
 10
835.376648
 20
422.824396
 30
0.0
 11
835.376648
 21
426.424396
 31
0.0
  0
SOLID
  5
16F
330
169
100
AcDbEntity
  8
0
 62
    21
100
AcDbTrace
 10
835.976648
 20
407.124396
 30
0.0
 11
834.776648
 21
407.124396
 31
0.0
 12
835.376648
 22
410.724396
 32
0.0
 13
835.376648
 23
410.724396
 33
0.0
  0
SOLID
  5
170
330
169
100
AcDbEntity
  8
0
 62
    21
100
AcDbTrace
 10
834.776648
 20
422.824396
 30
0.0
 11
835.976648
 21
422.824396
 31
0.0
 12
835.376648
 22
419.224396
 32
0.0
 13
835.376648
 23
419.224396
 33
0.0
  0
MTEXT
  5
171
330
169
100
AcDbEntity
  8
0
 62
     1
100
AcDbMText
 10
832.370648
 20
402.729401
 30
0.0
 40
3.0
 41
0.0
 71
     5
 72
     1
  1
\A1;17
  7
STEFANO
 11
0.0
 21
1.0
 31
0.0
 73
     1
 44
1.0
  0
POINT
  5
172
330
169
100
AcDbEntity
  8
Defpoints
 62
     0
100
AcDbPoint
 10
903.501648
 20
410.724396
 30
0.0
  0
POINT
  5
173
330
169
100
AcDbEntity
  8
Defpoints
 62
     0
100
AcDbPoint
 10
904.126648
 20
419.224396
 30
0.0
  0
POINT
  5
174
330
169
100
AcDbEntity
  8
Defpoints
 62
     0
100
AcDbPoint
 10
835.376648
 20
419.224396
 30
0.0
  0
ENDBLK
  5
176
330
169
100
AcDbEntity
  8
0
100
AcDbBlockEnd
  0
BLOCK
  5
180
330
178
100
AcDbEntity
  8
0
100
AcDbBlockBegin
  2
*D21
 70
     1
 71
     0
 10
0.0
 20
0.0
 30
0.0
  3
*D21
  1

  0
LINE
  5
179
330
178
100
AcDbEntity
  8
0
  6
Continuous
 62
    21
370
    -2
100
AcDbLine
 10
894.793062
 20
477.0837
 30
0.0
 11
904.890461
 21
466.743724
 31
0.0
  0
MTEXT
  5
17A
330
178
100
AcDbEntity
  8
0
 62
     1
100
AcDbMText
 10
899.698267
 20
476.399645
 30
0.0
 40
3.0
 41
0.0
 71
     5
 72
     1
  1
\A1;R6
  7
STEFANO
 11
0.6986647005474027
 21
-0.7154492548105758
 31
0.0
 73
     1
 44
1.0
  0
SOLID
  5
17B
330
178
100
AcDbEntity
  8
0
 62
    21
100
AcDbTrace
 10
904.461191
 20
466.324525
 30
0.0
 11
905.31973
 21
467.162923
 31
0.0
 12
907.405654
 22
464.168107
 32
0.0
 13
907.405654
 23
464.168107
 33
0.0
  0
LINE
  5
17C
330
178
100
AcDbEntity
  8
0
  6
Continuous
 62
    21
370
    -2
100
AcDbLine
 10
909.411648
 20
462.021759
 30
0.0
 11
909.591648
 21
462.021759
 31
0.0
  0
LINE
  5
17D
330
178
100
AcDbEntity
  8
0
  6
Continuous
 62
    21
370
    -2
100
AcDbLine
 10
909.501648
 20
461.931759
 30
0.0
 11
909.501648
 21
462.111759
 31
0.0
  0
POINT
  5
17E
330
178
100
AcDbEntity
  8
Defpoints
 62
     0
100
AcDbPoint
 10
907.405654
 20
464.168107
 30
0.0
  0
POINT
  5
17F
330
178
100
AcDbEntity
  8
Defpoints
 62
     0
100
AcDbPoint
 10
909.501648
 20
462.021759
 30
0.0
  0
ENDBLK
  5
181
330
178
100
AcDbEntity
  8
0
100
AcDbBlockEnd
  0
BLOCK
  5
186
330
184
100
AcDbEntity
  8
0
100
AcDbBlockBegin
  2
.TD_DIMENSION_1
 70
     0
 71
     0
 10
3.402823E+38
 20
3.402823E+38
 30
0.0
  3
.TD_DIMENSION_1
  1

  0
ENDBLK
  5
187
330
184
100
AcDbEntity
  8
0
100
AcDbBlockEnd
  0
ENDSEC
  0
SECTION
  2
ENTITIES
  0
LINE
  5
51
330
1F
100
AcDbEntity
  8
DISEGNO
  6
Continuous
 62
     7
100
AcDbLine
 10
227.573096
 20
480.639441
 30
0.0
 11
225.355427
 21
480.639441
 31
0.0
  0
LINE
  5
52
330
1F
100
AcDbEntity
  8
DISEGNO
  6
Continuous
 62
     7
100
AcDbLine
 10
224.855427
 20
480.139441
 30
0.0
 11
224.855427
 21
436.889441
 31
0.0
  0
LINE
  5
53
330
1F
100
AcDbEntity
  8
DISEGNO
  6
Continuous
 62
     7
100
AcDbLine
 10
238.355427
 20
480.639441
 30
0.0
 11
236.137773
 21
480.639441
 31
0.0
  0
LINE
  5
54
330
1F
100
AcDbEntity
  8
DISEGNO
  6
Continuous
 62
     7
100
AcDbLine
 10
238.855427
 20
418.639441
 30
0.0
 11
238.855427
 21
480.139441
 31
0.0
  0
LINE
  5
55
330
1F
100
AcDbEntity
  8
DISEGNO
  6
Continuous
 62
     7
100
AcDbLine
 10
201.855427
 20
401.639441
 30
0.0
 11
202.855427
 21
400.639441
 31
0.0
  0
LINE
  5
56
330
1F
100
AcDbEntity
  8
DISEGNO
  6
Continuous
 62
     7
100
AcDbLine
 10
202.855427
 20
400.639441
 30
0.0
 11
260.855427
 21
400.639441
 31
0.0
  0
LINE
  5
57
330
1F
100
AcDbEntity
  8
DISEGNO
  6
Continuous
 62
     7
100
AcDbLine
 10
201.855427
 20
417.639441
 30
0.0
 11
201.855427
 21
401.639441
 31
0.0
  0
LINE
  5
58
330
1F
100
AcDbEntity
  8
DISEGNO
  6
Continuous
 62
     7
100
AcDbLine
 10
261.855427
 20
401.639441
 30
0.0
 11
260.855427
 21
400.639441
 31
0.0
  0
LINE
  5
59
330
1F
100
AcDbEntity
  8
DISEGNO
  6
Continuous
 62
     7
100
AcDbLine
 10
260.855427
 20
418.639441
 30
0.0
 11
261.855427
 21
417.639441
 31
0.0
  0
LINE
  5
5A
330
1F
100
AcDbEntity
  8
DISEGNO
  6
Continuous
 62
     7
100
AcDbLine
 10
261.855427
 20
401.639441
 30
0.0
 11
261.855427
 21
417.639441
 31
0.0
  0
LINE
  5
5B
330
1F
100
AcDbEntity
  8
DISEGNO
  6
Continuous
 62
     7
100
AcDbLine
 10
260.855427
 20
418.639441
 30
0.0
 11
238.855427
 21
418.639441
 31
0.0
  0
LINE
  5
5C
330
1F
100
AcDbEntity
  8
DISEGNO
  6
Continuous
 62
     7
100
AcDbLine
 10
201.855427
 20
417.639441
 30
0.0
 11
202.855427
 21
418.639441
 31
0.0
  0
LINE
  5
5D
330
1F
100
AcDbEntity
  8
DISEGNO
  6
Continuous
 62
     7
100
AcDbLine
 10
224.855427
 20
418.639441
 30
0.0
 11
202.855427
 21
418.639441
 31
0.0
  0
LINE
  5
5E
330
1F
100
AcDbEntity
  8
DISEGNO
  6
Continuous
 62
     7
100
AcDbLine
 10
234.031151
 20
479.657107
 30
0.0
 11
232.238457
 21
477.520657
 31
0.0
  0
LINE
  5
5F
330
1F
100
AcDbEntity
  8
DISEGNO
  6
Continuous
 62
     7
100
AcDbLine
 10
226.105427
 20
435.639441
 30
0.0
 11
224.855427
 21
434.389441
 31
0.0
  0
LINE
  5
60
330
1F
100
AcDbEntity
  8
DISEGNO
  6
Continuous
 62
     7
100
AcDbLine
 10
224.855427
 20
436.889441
 30
0.0
 11
226.105427
 21
435.639441
 31
0.0
  0
LINE
  5
61
330
1F
100
AcDbEntity
  8
DISEGNO
  6
Continuous
 62
     7
100
AcDbLine
 10
224.855427
 20
434.389441
 30
0.0
 11
224.855427
 21
418.639441
 31
0.0
  0
DIMENSION
  5
63
330
1F
100
AcDbEntity
  8
0
  6
Continuous
 62
    21
 60
     1
100
AcDbDimension
  2
*D2
 10
913.901245
 20
399.689575
 30
0.0
 11
910.869745
 21
408.789566
 31
0.0
 70
    33
  1
18.2
 71
     5
 42
18.199982
  3
STEFANO
100
AcDbAlignedDimension
 13
850.901306
 23
417.889557
 33
0.0
 14
850.901306
 24
399.689575
 34
0.0
1001
ACAD
1000
DSTYLE
1002
{
1070
   280
1070
     0
1070
   344
1005
0
1070
   343
1005
0
1070
    76
1070
     0
1070
    75
1070
     0
1002
}
  0
DIMENSION
  5
70
330
1F
100
AcDbEntity
  8
0
  6
Continuous
 62
    21
 60
     1
100
AcDbDimension
  2
*D3
 10
800.901306
 20
336.589569
 30
0.0
 11
825.901306
 21
339.621069
 31
0.0
 70
    33
  1
50
 71
     5
 42
50.0
  3
STEFANO
100
AcDbAlignedDimension
 13
850.901306
 23
417.889557
 33
0.0
 14
800.901306
 24
417.889557
 34
0.0
1001
ACAD
1000
DSTYLE
1002
{
1070
   280
1070
     0
1070
   344
1005
0
1070
   343
1005
0
1070
    76
1070
     0
1070
    75
1070
     0
1002
}
  0
DIMENSION
  5
7D
330
1F
100
AcDbEntity
  8
0
  6
Continuous
 62
    21
 60
     1
100
AcDbDimension
  2
*D4
 10
882.401245
 20
417.889557
 30
0.0
 11
882.401245
 21
433.060577
 31
0.0
 70
   161
  1
1.25 x45%%d
 71
     5
 42
1.25
  3
STEFANO
100
AcDbAlignedDimension
 13
825.901306
 23
416.639557
 33
0.0
 14
825.901306
 24
417.889557
 34
0.0
1001
ACAD
1000
DSTYLE
1002
{
1070
   279
1070
     0
1002
}
  0
DIMENSION
  5
8C
330
1F
100
AcDbEntity
  8
0
  6
Continuous
 62
    21
 60
     1
100
AcDbDimension
  2
*D5
 10
882.401245
 20
433.639557
 30
0.0
 11
882.401245
 21
425.074554
 31
0.0
 70
   161
  1
2.5
 71
     5
 42
2.5
  3
STEFANO
100
AcDbAlignedDimension
 13
850.901306
 23
436.139557
 33
0.0
 14
850.901306
 24
433.639557
 34
0.0
1001
ACAD
1000
DSTYLE
1002
{
1070
   280
1070
     0
1070
   344
1005
0
1070
   343
1005
0
1070
    76
1070
     0
1070
    75
1070
     0
1070
   279
1070
     0
1002
}
  0
DIMENSION
  5
9B
330
1F
100
AcDbEntity
  8
0
  6
Continuous
 62
    21
 60
     1
100
AcDbDimension
  2
*D6
 10
882.401245
 20
520.189575
 30
0.0
 11
882.401245
 21
534.220581
 31
0.0
 70
   161
  1
0.3 x45%%d
 71
     5
 42
0.299988
  3
STEFANO
100
AcDbAlignedDimension
 13
825.901306
 23
519.889587
 33
0.0
 14
825.901306
 24
520.189575
 34
0.0
1001
ACAD
1000
DSTYLE
1002
{
1070
   279
1070
     0
1002
}
  0
DIMENSION
  5
AA
330
1F
100
AcDbEntity
  8
0
  6
Continuous
 62
    21
 60
     1
100
AcDbDimension
  2
*D7
 10
987.626648
 20
401.62439
 30
0.0
 11
987.626648
 21
391.919403
 31
0.0
 70
   161
  1
18.2
 71
     5
 42
9.100006
  3
STEFANO
100
AcDbAlignedDimension
 13
924.626648
 23
410.724396
 33
0.0
 14
924.626648
 24
401.62439
 34
0.0
1001
ACAD
1000
DSTYLE
1002
{
1070
   280
1070
     0
1070
   344
1005
0
1070
   343
1005
0
1070
    76
1070
     0
1070
    75
1070
     0
1070
   279
1070
     0
1070
   178
1070
     1
1002
}
  0
DIMENSION
  5
B9
330
1F
100
AcDbEntity
  8
0
  6
Continuous
 62
    21
 60
     1
100
AcDbDimension
  2
*D8
 10
905.567688
 20
491.201904
 30
0.0
 11
895.862671
 21
491.201904
 31
0.0
 70
   160
  1
7.87
 71
     5
 42
3.93396
  3
STEFANO
100
AcDbAlignedDimension
 13
909.501648
 23
393.699402
 33
0.0
 14
905.567688
 24
461.87439
 34
0.0
100
AcDbRotatedDimension
1001
ACAD
1000
DSTYLE
1002
{
1070
   280
1070
     0
1070
   344
1005
0
1070
   343
1005
0
1070
    76
1070
     0
1070
    75
1070
     0
1070
   279
1070
     0
1070
   178
1070
     1
1002
}
  0
DIMENSION
  5
C8
330
1F
100
AcDbEntity
  8
0
  6
Continuous
 62
    21
 60
     1
100
AcDbDimension
  2
*D9
 10
913.435669
 20
522.702026
 30
0.0
 11
899.796631
 21
522.702026
 31
0.0
 70
   160
  1
7.87
 71
     5
 42
3.934021
  3
STEFANO
100
AcDbAlignedDimension
 13
909.501648
 23
393.699402
 33
0.0
 14
913.435669
 24
461.87439
 34
0.0
100
AcDbRotatedDimension
1001
ACAD
1000
DSTYLE
1002
{
1070
   279
1070
     0
1070
   178
1070
     1
1002
}
  0
DIMENSION
  5
D7
330
1F
100
AcDbEntity
  8
0
  6
Continuous
 62
    21
 60
     1
100
AcDbDimension
  2
*D10
 10
909.501648
 20
458.037445
 30
0.0
 11
902.136219
 21
445.758895
 31
0.0
 70
   164
  1
R0.62
 71
     5
 42
0.308252
  3
STEFANO
100
AcDbRadialDimension
 15
909.34308
 25
457.773105
 35
0.0
 40
0.0
1001
ACAD
1000
DSTYLE
1002
{
1070
   172
1070
     0
1070
   178
1070
     1
1002
}
  0
DIMENSION
  5
E2
330
1F
100
AcDbEntity
  8
0
  6
Continuous
 62
    21
 60
     1
100
AcDbDimension
  2
*D11
 10
954.126648
 20
410.724396
 30
0.0
 11
951.095148
 21
436.299393
 31
0.0
 70
    32
  1
102.3
 71
     5
 42
51.149994
  3
STEFANO
100
AcDbAlignedDimension
 13
915.501648
 23
461.87439
 33
0.0
 14
924.626648
 24
410.724396
 34
0.0
 50
90.0
100
AcDbRotatedDimension
1001
ACAD
1000
DSTYLE
1002
{
1070
   280
1070
     0
1070
   344
1005
0
1070
   343
1005
0
1070
    76
1070
     0
1070
    75
1070
     0
1070
   178
1070
     1
1002
}
  0
DIMENSION
  5
EF
330
1F
100
AcDbEntity
  8
0
  6
Continuous
 62
    21
 60
     1
100
AcDbDimension
  2
*D12
 10
915.501648
 20
501.401978
 30
0.0
 11
929.532654
 21
501.401978
 31
0.0
 70
   160
  1
0.3 x45%%d
 71
     5
 42
0.149963
  3
STEFANO
100
AcDbAlignedDimension
 13
915.351685
 23
461.87439
 33
0.0
 14
915.501648
 24
461.724396
 34
0.0
100
AcDbRotatedDimension
1001
ACAD
1000
DSTYLE
1002
{
1070
   279
1070
     0
1070
   178
1070
     1
1002
}
  0
DIMENSION
  5
FE
330
1F
100
AcDbEntity
  8
0
  6
Continuous
 62
    21
 60
     1
100
AcDbDimension
  2
*D13
 10
862.864136
 20
410.724396
 30
0.0
 11
862.864136
 21
425.895416
 31
0.0
 70
   160
  1
1.25 x45%%d
 71
     5
 42
0.625
  3
STEFANO
100
AcDbAlignedDimension
 13
894.376648
 23
410.099396
 33
0.0
 14
895.001648
 24
410.724396
 34
0.0
 50
90.0
100
AcDbRotatedDimension
1001
ACAD
1000
DSTYLE
1002
{
1070
   279
1070
     0
1070
   178
1070
     1
1002
}
  0
DIMENSION
  5
10D
330
1F
100
AcDbEntity
  8
0
  6
Continuous
 62
    21
 60
     1
100
AcDbDimension
  2
*D14
 10
924.626648
 20
338.586884
 30
0.0
 11
939.797668
 21
338.586884
 31
0.0
 70
   160
  1
1.25 x45%%d
 71
     5
 42
0.625
  3
STEFANO
100
AcDbAlignedDimension
 13
924.001648
 23
410.724396
 33
0.0
 14
924.626648
 24
410.099396
 34
0.0
100
AcDbRotatedDimension
1001
ACAD
1000
DSTYLE
1002
{
1070
   279
1070
     0
1070
   178
1070
     1
1002
}
  0
DIMENSION
  5
11C
330
1F
100
AcDbEntity
  8
0
  6
Continuous
 62
    21
 60
     1
100
AcDbDimension
  2
*D15
 10
894.376648
 20
338.611877
 30
0.0
 11
879.205627
 21
338.611877
 31
0.0
 70
   160
  1
1.45 x45%%d
 71
     5
 42
0.725037
  3
STEFANO
100
AcDbAlignedDimension
 13
895.101685
 23
401.62439
 33
0.0
 14
894.376648
 24
402.349396
 34
0.0
100
AcDbRotatedDimension
1001
ACAD
1000
DSTYLE
1002
{
1070
   280
1070
     0
1070
   344
1005
0
1070
   343
1005
0
1070
    76
1070
     0
1070
    75
1070
     0
1070
   279
1070
     0
1070
   178
1070
     1
1002
}
  0
DIMENSION
  5
12B
330
1F
100
AcDbEntity
  8
0
  6
Continuous
 62
    21
 60
     1
100
AcDbDimension
  2
*D16
 10
956.13916
 20
401.62439
 30
0.0
 11
956.13916
 21
386.4534
 31
0.0
 70
   160
  1
1.45 x45%%d
 71
     5
 42
0.725006
  3
STEFANO
100
AcDbAlignedDimension
 13
924.626648
 23
402.349396
 33
0.0
 14
923.901672
 24
401.62439
 34
0.0
 50
90.0
100
AcDbRotatedDimension
1001
ACAD
1000
DSTYLE
1002
{
1070
   280
1070
     0
1070
   344
1005
0
1070
   343
1005
0
1070
    76
1070
     0
1070
    75
1070
     0
1070
   279
1070
     0
1070
   178
1070
     1
1002
}
  0
DIMENSION
  5
13A
330
1F
100
AcDbEntity
  8
0
  6
Continuous
 62
    21
 60
     1
100
AcDbDimension
  2
*D17
 10
866.876648
 20
418.599396
 30
0.0
 11
866.876648
 21
410.034393
 31
0.0
 70
   161
  1
2.5
 71
     5
 42
1.25
  3
STEFANO
100
AcDbAlignedDimension
 13
903.501648
 23
419.849396
 33
0.0
 14
903.501648
 24
418.599396
 34
0.0
1001
ACAD
1000
DSTYLE
1002
{
1070
   280
1070
     0
1070
   344
1005
0
1070
   343
1005
0
1070
    76
1070
     0
1070
    75
1070
     0
1070
   279
1070
     0
1070
   178
1070
     1
1002
}
  0
DIMENSION
  5
149
330
1F
100
AcDbEntity
  8
0
  6
Continuous
 62
    21
 60
     1
100
AcDbDimension
  2
*D18
 10
903.501648
 20
418.599396
 30
0.0
 11
907.838869
 21
419.224396
 31
0.0
 70
    34
  1
90%%d
 71
     5
 42
1.570796
  3
STEFANO
100
AcDb2LineAngularDimension
 13
904.126648
 23
419.224396
 33
0.0
 14
903.501648
 24
419.849396
 34
0.0
 15
904.126648
 25
419.224396
 35
0.0
 16
910.889869
 26
419.224396
 36
0.0
1001
ACAD
1000
DSTYLE
1002
{
1070
   178
1070
     1
1070
   272
1070
     2
1070
   284
1070
    12
1002
}
  0
DIMENSION
  5
159
330
1F
100
AcDbEntity
  8
0
  6
Continuous
 62
    21
 60
     1
100
AcDbDimension
  2
*D19
 10
866.626648
 20
461.87439
 30
0.0
 11
866.626648
 21
475.905396
 31
0.0
 70
   160
  1
0.3 x45%%d
 71
     5
 42
0.149994
  3
STEFANO
100
AcDbAlignedDimension
 13
903.501648
 23
461.724396
 33
0.0
 14
903.651672
 24
461.87439
 34
0.0
 50
90.0
100
AcDbRotatedDimension
1001
ACAD
1000
DSTYLE
1002
{
1070
   279
1070
     0
1070
   178
1070
     1
1002
}
  0
DIMENSION
  5
168
330
1F
100
AcDbEntity
  8
0
  6
Continuous
 62
    21
 60
     1
100
AcDbDimension
  2
*D20
 10
835.376648
 20
419.224396
 30
0.0
 11
835.376648
 21
402.729401
 31
0.0
 70
   160
  1
17
 71
     5
 42
8.5
  3
STEFANO
100
AcDbAlignedDimension
 13
903.501648
 23
410.724396
 33
0.0
 14
904.126648
 24
419.224396
 34
0.0
 50
90.0
100
AcDbRotatedDimension
1001
ACAD
1000
DSTYLE
1002
{
1070
   279
1070
     0
1070
   178
1070
     1
1002
}
  0
DIMENSION
  5
177
330
1F
100
AcDbEntity
  8
0
  6
Continuous
 62
    21
 60
     1
100
AcDbDimension
  2
*D21
 10
909.501648
 20
462.021759
 30
0.0
 11
897.529383
 21
474.281643
 31
0.0
 70
   164
  1
R6
 71
     5
 42
3.0
  3
STEFANO
100
AcDbRadialDimension
 15
907.405654
 25
464.168107
 35
0.0
 40
0.0
1001
ACAD
1000
DSTYLE
1002
{
1070
   172
1070
     0
1070
   178
1070
     1
1002
}
  0
LINE
  5
182
330
1F
100
AcDbEntity
  8
DISEGNO
  6
Continuous
 62
     7
100
AcDbLine
 10
224.855427
 20
480.139441
 30
0.0
 11
225.355427
 21
480.639441
 31
0.0
  0
LINE
  5
183
330
1F
100
AcDbEntity
  8
DISEGNO
  6
Continuous
 62
     7
100
AcDbLine
 10
238.355427
 20
480.639441
 30
0.0
 11
238.855427
 21
480.139441
 31
0.0
  0
INSERT
  5
185
330
1F
100
AcDbEntity
  8
QUOTE
  6
Continuous
 62
    21
100
AcDbBlockReference
  2
.TD_DIMENSION_1
 10
3.402823E+38
 20
3.402823E+38
 30
0.0
  0
LINE
  5
188
330
1F
100
AcDbEntity
  8
DISEGNO
  6
Continuous
 62
     7
100
AcDbLine
 10
229.679718
 20
479.657107
 30
0.0
 11
231.472412
 21
477.520657
 31
0.0
  0
ARC
  5
189
330
1F
100
AcDbEntity
  8
DISEGNO
  6
Continuous
 62
     7
100
AcDbCircle
 10
231.855434
 20
477.842051
 30
0.0
 40
0.5
100
AcDbArc
 50
220.0
 51
320.0
  0
ARC
  5
18A
330
1F
100
AcDbEntity
  8
DISEGNO
  6
Continuous
 62
     7
100
AcDbCircle
 10
-227.573096
 20
477.889441
 30
0.0
 40
2.75
210
0.0
220
0.0
230
-1.0
100
AcDbArc
 50
90.0
 51
140.0
  0
ARC
  5
18B
330
1F
100
AcDbEntity
  8
DISEGNO
  6
Continuous
 62
     7
100
AcDbCircle
 10
-236.137773
 20
477.889441
 30
0.0
 40
2.75
210
0.0
220
0.0
230
-1.0
100
AcDbArc
 50
40.0
 51
90.0
  0
ENDSEC
  0
SECTION
  2
OBJECTS
  0
DICTIONARY
  5
C
330
0
100
AcDbDictionary
281
     1
  3
ACAD_GROUP
350
D
  3
ACAD_LAYOUT
350
1A
  3
ACAD_MLINESTYLE
350
17
  3
ACAD_PLOTSETTINGS
350
19
  3
ACAD_PLOTSTYLENAME
350
E
  3
ACAD_TABLESTYLE
350
18C
  3
ACAD_VISUALSTYLE
350
2A
  0
DICTIONARY
  5
D
102
{ACAD_REACTORS
330
C
102
}
330
C
100
AcDbDictionary
281
     1
  0
DICTIONARY
  5
1A
102
{ACAD_REACTORS
330
C
102
}
330
C
100
AcDbDictionary
281
     1
  3
Layout1
350
1E
  3
Layout2
350
26
  3
Model
350
22
  0
DICTIONARY
  5
17
102
{ACAD_REACTORS
330
C
102
}
330
C
100
AcDbDictionary
281
     1
  3
Standard
350
18
  0
DICTIONARY
  5
19
102
{ACAD_REACTORS
330
C
102
}
330
C
100
AcDbDictionary
281
     1
  0
ACDBDICTIONARYWDFLT
  5
E
102
{ACAD_REACTORS
330
C
102
}
330
C
100
AcDbDictionary
281
     1
  3
Normal
350
F
100
AcDbDictionaryWithDefault
340
F
  0
DICTIONARY
  5
18C
102
{ACAD_REACTORS
330
C
102
}
330
C
100
AcDbDictionary
281
     1
  0
DICTIONARY
  5
2A
102
{ACAD_REACTORS
330
C
102
}
330
C
100
AcDbDictionary
281
     1
  3
2dWireframe
350
2F
  3
3D Hidden
350
31
  3
3dWireframe
350
30
  3
Basic
350
32
  3
Brighten
350
36
  3
ColorChange
350
3A
  3
Conceptual
350
34
  3
Dim
350
35
  3
Facepattern
350
39
  3
Flat
350
2B
  3
FlatWithEdges
350
2C
  3
Gouraud
350
2D
  3
GouraudWithEdges
350
2E
  3
Linepattern
350
38
  3
Realistic
350
33
  3
Thicken
350
37
  0
LAYOUT
  5
1E
102
{ACAD_REACTORS
330
1A
102
}
330
1A
100
AcDbPlotSettings
  1

  2
none_device
  4

  6

 40
0.0
 41
0.0
 42
0.0
 43
0.0
 44
0.0
 45
0.0
 46
0.0
 47
0.0
 48
0.0
 49
0.0
140
0.0
141
0.0
142
1.0
143
1.0
 70
   688
 72
     0
 73
     0
 74
     5
  7

 75
    16
 76
     0
 77
     2
 78
   300
147
1.0
148
0.0
149
0.0
100
AcDbLayout
  1
Layout1
 70
     1
 71
     1
 10
0.0
 20
0.0
 11
420.0
 21
297.0
 12
0.0
 22
0.0
 32
0.0
 14
1.000000E+20
 24
1.000000E+20
 34
1.000000E+20
 15
-1.000000E+20
 25
-1.000000E+20
 35
-1.000000E+20
146
0.0
 13
0.0
 23
0.0
 33
0.0
 16
1.0
 26
0.0
 36
0.0
 17
0.0
 27
1.0
 37
0.0
 76
     0
330
1B
  0
LAYOUT
  5
26
102
{ACAD_REACTORS
330
1A
102
}
330
1A
100
AcDbPlotSettings
  1

  2
none_device
  4

  6

 40
0.0
 41
0.0
 42
0.0
 43
0.0
 44
0.0
 45
0.0
 46
0.0
 47
0.0
 48
0.0
 49
0.0
140
0.0
141
0.0
142
1.0
143
1.0
 70
   688
 72
     0
 73
     0
 74
     5
  7

 75
    16
 76
     0
 77
     2
 78
   300
147
1.0
148
0.0
149
0.0
100
AcDbLayout
  1
Layout2
 70
     1
 71
     2
 10
0.0
 20
0.0
 11
0.0
 21
0.0
 12
0.0
 22
0.0
 32
0.0
 14
0.0
 24
0.0
 34
0.0
 15
0.0
 25
0.0
 35
0.0
146
0.0
 13
0.0
 23
0.0
 33
0.0
 16
1.0
 26
0.0
 36
0.0
 17
0.0
 27
1.0
 37
0.0
 76
     0
330
23
  0
LAYOUT
  5
22
102
{ACAD_REACTORS
330
1A
102
}
330
1A
100
AcDbPlotSettings
  1

  2
none_device
  4

  6

 40
0.0
 41
0.0
 42
0.0
 43
0.0
 44
0.0
 45
0.0
 46
0.0
 47
0.0
 48
0.0
 49
0.0
140
0.0
141
0.0
142
1.0
143
1.0
 70
  1712
 72
     0
 73
     0
 74
     0
  7

 75
     0
 76
     0
 77
     2
 78
   300
147
1.0
148
0.0
149
0.0
100
AcDbLayout
  1
Model
 70
     1
 71
     0
 10
0.0
 20
0.0
 11
420.0
 21
297.0
 12
0.0
 22
0.0
 32
0.0
 14
1.000000E+20
 24
1.000000E+20
 34
1.000000E+20
 15
-1.000000E+20
 25
-1.000000E+20
 35
-1.000000E+20
146
0.0
 13
0.0
 23
0.0
 33
0.0
 16
1.0
 26
0.0
 36
0.0
 17
0.0
 27
1.0
 37
0.0
 76
     0
330
1F
331
29
  0
MLINESTYLE
  5
18
102
{ACAD_REACTORS
330
17
102
}
330
17
100
AcDbMlineStyle
  2
Standard
 70
     0
  3

 62
   256
 51
90.0
 52
90.0
 71
     2
 49
0.5
 62
   256
  6
BYLAYER
 49
-0.5
 62
   256
  6
BYLAYER
  0
ACDBPLACEHOLDER
  5
F
102
{ACAD_REACTORS
330
E
102
}
330
E
  0
VISUALSTYLE
  5
2F
102
{ACAD_REACTORS
330
2A
102
}
330
2A
100
AcDbVisualStyle
  2
2dWireframe
 70
     4
 71
     0
 72
     2
 73
     0
 90
        0
 40
-0.6
 41
-30.0
 62
     5
 63
     7
421
 16777215
 74
     1
 91
        4
 64
     7
 65
   257
 75
     1
175
     1
 42
1.0
 92
        0
 66
   257
 43
1.0
 76
     1
 77
     6
 78
     2
 67
     7
 79
     5
170
     0
171
     0
290
     0
174
     0
 93
        1
 44
0.0
173
     0
291
     0
 45
0.0
1001
ACAD
1000
AcDbSavedByObjectVersion
1070
     0
  0
VISUALSTYLE
  5
31
102
{ACAD_REACTORS
330
2A
102
}
330
2A
100
AcDbVisualStyle
  2
3D Hidden
 70
     6
 71
     1
 72
     2
 73
     2
 90
        0
 40
-0.6
 41
-30.0
 62
     5
 63
     7
421
 16777215
 74
     2
 91
        2
 64
     7
 65
   257
 75
     2
175
     1
 42
40.0
 92
        0
 66
   257
 43
1.0
 76
     1
 77
     6
 78
     2
 67
     7
 79
     3
170
     0
171
     0
290
     0
174
     0
 93
        1
 44
0.0
173
     0
291
     0
 45
0.0
1001
ACAD
1000
AcDbSavedByObjectVersion
1070
     0
  0
VISUALSTYLE
  5
30
102
{ACAD_REACTORS
330
2A
102
}
330
2A
100
AcDbVisualStyle
  2
3dWireframe
 70
     5
 71
     0
 72
     2
 73
     0
 90
        0
 40
-0.6
 41
-30.0
 62
     5
 63
     7
421
 16777215
 74
     1
 91
        4
 64
     7
 65
   257
 75
     1
175
     1
 42
1.0
 92
        0
 66
   257
 43
1.0
 76
     1
 77
     6
 78
     2
 67
     7
 79
     5
170
     0
171
     0
290
     0
174
     0
 93
        1
 44
0.0
173
     0
291
     0
 45
0.0
1001
ACAD
1000
AcDbSavedByObjectVersion
1070
     0
  0
VISUALSTYLE
  5
32
102
{ACAD_REACTORS
330
2A
102
}
330
2A
100
AcDbVisualStyle
  2
Basic
 70
     7
 71
     1
 72
     0
 73
     1
 90
        0
 40
-0.6
 41
-30.0
 62
     5
 63
     7
421
 16777215
 74
     0
 91
        4
 64
     7
 65
   257
 75
     1
175
     1
 42
1.0
 92
        8
 66
     7
 43
1.0
 76
     1
 77
     6
 78
     2
 67
     7
 79
     5
170
     0
171
     0
290
     0
174
     0
 93
        1
 44
0.0
173
     0
291
     1
 45
0.0
1001
ACAD
1000
AcDbSavedByObjectVersion
1070
     0
  0
VISUALSTYLE
  5
36
102
{ACAD_REACTORS
330
2A
102
}
330
2A
100
AcDbVisualStyle
  2
Brighten
 70
    12
 71
     2
 72
     2
 73
     0
 90
        0
 40
-0.6
 41
-30.0
 62
     5
 63
     7
421
 16777215
 74
     1
 91
        4
 64
     7
 65
   257
 75
     1
175
     1
 42
1.0
 92
        8
 66
     7
 43
1.0
 76
     1
 77
     6
 78
     2
 67
     7
 79
     5
170
     0
171
     0
290
     0
174
     0
 93
        1
 44
50.0
173
     0
291
     1
 45
0.0
1001
ACAD
1000
AcDbSavedByObjectVersion
1070
     0
  0
VISUALSTYLE
  5
3A
102
{ACAD_REACTORS
330
2A
102
}
330
2A
100
AcDbVisualStyle
  2
ColorChange
 70
    16
 71
     2
 72
     2
 73
     3
 90
        0
 40
-0.6
 41
-30.0
 62
     5
 63
     8
421
  8421504
 74
     1
 91
        4
 64
     7
 65
   257
 75
     1
175
     1
 42
1.0
 92
        8
 66
     8
424
  8421504
 43
1.0
 76
     1
 77
     6
 78
     2
 67
     7
 79
     5
170
     0
171
     0
290
     0
174
     0
 93
        1
 44
0.0
173
     0
291
     1
 45
0.0
1001
ACAD
1000
AcDbSavedByObjectVersion
1070
     0
  0
VISUALSTYLE
  5
34
102
{ACAD_REACTORS
330
2A
102
}
330
2A
100
AcDbVisualStyle
  2
Conceptual
 70
     9
 71
     3
 72
     2
 73
     0
 90
        0
 40
-0.6
 41
-30.0
 62
     5
 63
     7
421
 16777215
 74
     2
 91
        2
 64
     7
 65
   257
 75
     1
175
     1
 42
40.0
 92
        8
 66
     7
 43
1.0
 76
     1
 77
     6
 78
     2
 67
     7
 79
     3
170
     0
171
     0
290
     0
174
     0
 93
        1
 44
0.0
173
     0
291
     0
 45
0.0
1001
ACAD
1000
AcDbSavedByObjectVersion
1070
     0
  0
VISUALSTYLE
  5
35
102
{ACAD_REACTORS
330
2A
102
}
330
2A
100
AcDbVisualStyle
  2
Dim
 70
    11
 71
     2
 72
     2
 73
     0
 90
        0
 40
-0.6
 41
-30.0
 62
     5
 63
     7
421
 16777215
 74
     1
 91
        4
 64
     7
 65
   257
 75
     1
175
     1
 42
1.0
 92
        8
 66
     7
 43
1.0
 76
     1
 77
     6
 78
     2
 67
     7
 79
     5
170
     0
171
     0
290
     0
174
     0
 93
        1
 44
-50.0
173
     0
291
     1
 45
0.0
1001
ACAD
1000
AcDbSavedByObjectVersion
1070
     0
  0
VISUALSTYLE
  5
39
102
{ACAD_REACTORS
330
2A
102
}
330
2A
100
AcDbVisualStyle
  2
Facepattern
 70
    15
 71
     2
 72
     2
 73
     0
 90
        0
 40
-0.6
 41
-30.0
 62
     5
 63
     7
421
 16777215
 74
     1
 91
        4
 64
     7
 65
   257
 75
     1
175
     1
 42
1.0
 92
        8
 66
     7
 43
1.0
 76
     1
 77
     6
 78
     2
 67
     7
 79
     5
170
     0
171
     0
290
     0
174
     0
 93
        1
 44
0.0
173
     0
291
     1
 45
0.0
1001
ACAD
1000
AcDbSavedByObjectVersion
1070
     0
  0
VISUALSTYLE
  5
2B
102
{ACAD_REACTORS
330
2A
102
}
330
2A
100
AcDbVisualStyle
  2
Flat
 70
     0
 71
     2
 72
     1
 73
     1
 90
        2
 40
-0.6
 41
30.0
 62
     5
 63
     7
421
 16777215
 74
     0
 91
        4
 64
     7
 65
   257
 75
     1
175
     1
 42
1.0
 92
        8
 66
     7
 43
1.0
 76
     1
 77
     6
 78
     2
 67
     7
 79
     5
170
     0
171
     0
290
     0
174
     0
 93
       13
 44
0.0
173
     0
291
     1
 45
0.0
1001
ACAD
1000
AcDbSavedByObjectVersion
1070
     0
  0
VISUALSTYLE
  5
2C
102
{ACAD_REACTORS
330
2A
102
}
330
2A
100
AcDbVisualStyle
  2
FlatWithEdges
 70
     1
 71
     2
 72
     1
 73
     1
 90
        2
 40
-0.6
 41
30.0
 62
     5
 63
     7
421
 16777215
 74
     1
 91
        4
 64
     7
 65
   257
 75
     1
175
     1
 42
1.0
 92
        0
 66
   257
 43
1.0
 76
     1
 77
     6
 78
     2
 67
     7
 79
     5
170
     0
171
     0
290
     0
174
     0
 93
       13
 44
0.0
173
     0
291
     1
 45
0.0
1001
ACAD
1000
AcDbSavedByObjectVersion
1070
     0
  0
VISUALSTYLE
  5
2D
102
{ACAD_REACTORS
330
2A
102
}
330
2A
100
AcDbVisualStyle
  2
Gouraud
 70
     2
 71
     2
 72
     2
 73
     1
 90
        2
 40
-0.6
 41
30.0
 62
     5
 63
     7
421
 16777215
 74
     0
 91
        4
 64
     7
 65
   257
 75
     1
175
     1
 42
1.0
 92
        0
 66
     7
 43
1.0
 76
     1
 77
     6
 78
     2
 67
     7
 79
     5
170
     0
171
     0
290
     0
174
     0
 93
       13
 44
0.0
173
     0
291
     1
 45
0.0
1001
ACAD
1000
AcDbSavedByObjectVersion
1070
     0
  0
VISUALSTYLE
  5
2E
102
{ACAD_REACTORS
330
2A
102
}
330
2A
100
AcDbVisualStyle
  2
GouraudWithEdges
 70
     3
 71
     2
 72
     2
 73
     1
 90
        2
 40
-0.6
 41
30.0
 62
     5
 63
     7
421
 16777215
 74
     1
 91
        4
 64
     7
 65
   257
 75
     1
175
     1
 42
1.0
 92
        0
 66
   257
 43
1.0
 76
     1
 77
     6
 78
     2
 67
     7
 79
     5
170
     0
171
     0
290
     0
174
     0
 93
       13
 44
0.0
173
     0
291
     1
 45
0.0
1001
ACAD
1000
AcDbSavedByObjectVersion
1070
     0
  0
VISUALSTYLE
  5
38
102
{ACAD_REACTORS
330
2A
102
}
330
2A
100
AcDbVisualStyle
  2
Linepattern
 70
    14
 71
     2
 72
     2
 73
     0
 90
        0
 40
-0.6
 41
-30.0
 62
     5
 63
     7
421
 16777215
 74
     1
 91
        4
 64
     7
 65
   257
 75
     7
175
     7
 42
1.0
 92
        8
 66
     7
 43
1.0
 76
     1
 77
     6
 78
     2
 67
     7
 79
     5
170
     0
171
     0
290
     0
174
     0
 93
        1
 44
0.0
173
     0
291
     1
 45
0.0
1001
ACAD
1000
AcDbSavedByObjectVersion
1070
     0
  0
VISUALSTYLE
  5
33
102
{ACAD_REACTORS
330
2A
102
}
330
2A
100
AcDbVisualStyle
  2
Realistic
 70
     8
 71
     2
 72
     2
 73
     0
 90
        0
 40
-0.6
 41
-30.0
 62
     5
 63
     7
421
 16777215
 74
     1
 91
        0
 64
     7
 65
   257
 75
     1
175
     1
 42
1.0
 92
        8
 66
     8
424
  7895160
 43
1.0
 76
     1
 77
     6
 78
     2
 67
     7
 79
     5
170
     0
171
     0
290
     0
174
     0
 93
       13
 44
0.0
173
     0
291
     0
 45
0.0
1001
ACAD
1000
AcDbSavedByObjectVersion
1070
     0
  0
VISUALSTYLE
  5
37
102
{ACAD_REACTORS
330
2A
102
}
330
2A
100
AcDbVisualStyle
  2
Thicken
 70
    13
 71
     2
 72
     2
 73
     0
 90
        0
 40
-0.6
 41
-30.0
 62
     5
 63
     7
421
 16777215
 74
     1
 91
        4
 64
     7
 65
   257
 75
     1
175
     1
 42
1.0
 92
       12
 66
     7
 43
1.0
 76
     1
 77
     6
 78
     2
 67
     7
 79
     5
170
     0
171
     0
290
     0
174
     0
 93
        1
 44
0.0
173
     0
291
     1
 45
0.0
1001
ACAD
1000
AcDbSavedByObjectVersion
1070
     0
  0
ENDSEC
  0
EOF
