  0
SECTION
  2
HEADER
  9
$ACADVER
  1
AC1012
  9
$DWGCODEPAGE
  3
iso8859-1
  9
$INSBASE
 10
0.0
 20
0.0
 30
0.0
  9
$EXTMIN
 10
85.565228
 20
32.217221
 30
0.0
  9
$EXTMAX
 10
147.711188
 20
218.179972
 30
0.0
  9
$LIMMIN
 10
0.0
 20
0.0
  9
$LIMMAX
 10
200.0
 20
250.0
  9
$ORTHOMODE
 70
     1
  9
$REGENMODE
 70
     1
  9
$FILLMODE
 70
     1
  9
$QTEXTMODE
 70
     0
  9
$MIRRTEXT
 70
     1
  9
$DRAGMODE
 70
     2
  9
$LTSCALE
 40
0.841751
  9
$OSMODE
 70
     0
  9
$ATTMODE
 70
     1
  9
$TEXTSIZE
 40
5.0
  9
$TRACEWID
 40
1.0
  9
$TEXTSTYLE
  7
STANDARD
  9
$CLAYER
  8
QUOTE
  9
$CELTYPE
  6
CONTINUOUS
  9
$CECOLOR
 62
   256
  9
$CELTSCALE
 40
1.0
  9
$DELOBJ
 70
     1
  9
$DISPSILH
 70
     0
  9
$DIMSCALE
 40
1.0
  9
$DIMASZ
 40
2.6
  9
$DIMEXO
 40
0.53
  9
$DIMDLI
 40
3.16
  9
$DIMRND
 40
0.0
  9
$DIMDLE
 40
0.0
  9
$DIMEXE
 40
1.05
  9
$DIMTP
 40
0.2
  9
$DIMTM
 40
0.0
  9
$DIMTXT
 40
5.0
  9
$DIMCEN
 40
2.1
  9
$DIMTSZ
 40
0.0
  9
$DIMTOL
 70
     0
  9
$DIMLIM
 70
     0
  9
$DIMTIH
 70
     0
  9
$DIMTOH
 70
     0
  9
$DIMSE1
 70
     0
  9
$DIMSE2
 70
     0
  9
$DIMTAD
 70
     1
  9
$DIMZIN
 70
     8
  9
$DIMBLK
  1

  9
$DIMASO
 70
     1
  9
$DIMSHO
 70
     1
  9
$DIMPOST
  1

  9
$DIMAPOST
  1

  9
$DIMALT
 70
     0
  9
$DIMALTD
 70
     2
  9
$DIMALTF
 40
0.0394
  9
$DIMLFAC
 40
1.0
  9
$DIMTOFL
 70
     1
  9
$DIMTVP
 40
1.0
  9
$DIMTIX
 70
     0
  9
$DIMSOXD
 70
     0
  9
$DIMSAH
 70
     0
  9
$DIMBLK1
  1

  9
$DIMBLK2
  1

  9
$DIMSTYLE
  2
ISO-25
  9
$DIMCLRD
 70
     0
  9
$DIMCLRE
 70
     0
  9
$DIMCLRT
 70
     0
  9
$DIMTFAC
 40
1.0
  9
$DIMGAP
 40
0.53
  9
$DIMJUST
 70
     0
  9
$DIMSD1
 70
     0
  9
$DIMSD2
 70
     0
  9
$DIMTOLJ
 70
     1
  9
$DIMTZIN
 70
     0
  9
$DIMALTZ
 70
     0
  9
$DIMALTTZ
 70
     0
  9
$DIMFIT
 70
     3
  9
$DIMUPT
 70
     0
  9
$DIMUNIT
 70
     2
  9
$DIMDEC
 70
     2
  9
$DIMTDEC
 70
     2
  9
$DIMALTU
 70
     2
  9
$DIMALTTD
 70
     2
  9
$DIMTXSTY
  7
STANDARD
  9
$DIMAUNIT
 70
     0
  9
$LUNITS
 70
     2
  9
$LUPREC
 70
     2
  9
$SKETCHINC
 40
1.0
  9
$FILLETRAD
 40
1.0
  9
$AUNITS
 70
     0
  9
$AUPREC
 70
     2
  9
$MENU
  1
.
  9
$ELEVATION
 40
0.0
  9
$PELEVATION
 40
0.0
  9
$THICKNESS
 40
0.0
  9
$LIMCHECK
 70
     0
  9
$BLIPMODE
 70
     1
  9
$CHAMFERA
 40
1.0
  9
$CHAMFERB
 40
1.0
  9
$CHAMFERC
 40
16.835017
  9
$CHAMFERD
 40
0.0
  9
$SKPOLY
 70
     0
  9
$TDCREATE
 40
2450962.329882870
  9
$TDUPDATE
 40
2451781.614134375
  9
$TDINDWG
 40
0.9919343750
  9
$TDUSRTIMER
 40
0.9919343750
  9
$USRTIMER
 70
     1
  9
$ANGBASE
 50
0.0
  9
$ANGDIR
 70
     0
  9
$PDMODE
 70
     0
  9
$PDSIZE
 40
0.0
  9
$PLINEWID
 40
0.0
  9
$COORDS
 70
     0
  9
$SPLFRAME
 70
     0
  9
$SPLINETYPE
 70
     6
  9
$SPLINESEGS
 70
     8
  9
$ATTDIA
 70
     0
  9
$ATTREQ
 70
     1
  9
$HANDLING
 70
     1
  9
$HANDSEED
  5
34FD
  9
$SURFTAB1
 70
     6
  9
$SURFTAB2
 70
     6
  9
$SURFTYPE
 70
     6
  9
$SURFU
 70
     6
  9
$SURFV
 70
     6
  9
$UCSNAME
  2

  9
$UCSORG
 10
0.0
 20
0.0
 30
0.0
  9
$UCSXDIR
 10
1.0
 20
0.0
 30
0.0
  9
$UCSYDIR
 10
0.0
 20
1.0
 30
0.0
  9
$PUCSNAME
  2

  9
$PUCSORG
 10
0.0
 20
0.0
 30
0.0
  9
$PUCSXDIR
 10
1.0
 20
0.0
 30
0.0
  9
$PUCSYDIR
 10
0.0
 20
1.0
 30
0.0
  9
$USERI1
 70
     0
  9
$USERI2
 70
     0
  9
$USERI3
 70
     0
  9
$USERI4
 70
     0
  9
$USERI5
 70
     0
  9
$USERR1
 40
0.0
  9
$USERR2
 40
0.0
  9
$USERR3
 40
0.0
  9
$USERR4
 40
0.0
  9
$USERR5
 40
0.0
  9
$WORLDVIEW
 70
     1
  9
$SHADEDGE
 70
     3
  9
$SHADEDIF
 70
    70
  9
$TILEMODE
 70
     1
  9
$MAXACTVP
 70
    16
  9
$PINSBASE
 10
0.0
 20
0.0
 30
0.0
  9
$PLIMCHECK
 70
     0
  9
$PEXTMIN
 10
1.000000E+20
 20
1.000000E+20
 30
1.000000E+20
  9
$PEXTMAX
 10
-1.000000E+20
 20
-1.000000E+20
 30
-1.000000E+20
  9
$PLIMMIN
 10
0.0
 20
0.0
  9
$PLIMMAX
 10
420.0
 20
297.0
  9
$UNITMODE
 70
     0
  9
$VISRETAIN
 70
     0
  9
$PLINEGEN
 70
     0
  9
$PSLTSCALE
 70
     1
  9
$TREEDEPTH
 70
  3020
  9
$PICKSTYLE
 70
     1
  9
$CMLSTYLE
  2
STANDARD
  9
$CMLJUST
 70
     0
  9
$CMLSCALE
 40
1.0
  9
$SAVEIMAGES
 70
     0
  0
ENDSEC
  0
SECTION
  2
CLASSES
  0
ENDSEC
  0
SECTION
  2
TABLES
  0
TABLE
  2
VPORT
  5
8
100
AcDbSymbolTable
 70
     2
  0
VPORT
  5
34FC
100
AcDbSymbolTableRecord
100
AcDbViewportTableRecord
  2
*ACTIVE
 70
     0
 10
0.0
 20
0.0
 11
1.0
 21
1.0
 12
93.799309
 22
90.545439
 13
0.0
 23
0.0
 14
5.0
 24
5.0
 15
5.0
 25
5.0
 16
0.0
 26
0.0
 36
1.0
 17
0.0
 27
0.0
 37
0.0
 40
402.287825
 41
1.563011
 42
50.0
 43
0.0
 44
0.0
 50
0.0
 51
0.0
 71
     0
 72
   100
 73
     1
 74
     0
 75
     0
 76
     0
 77
     0
 78
     2
  0
ENDTAB
  0
TABLE
  2
LTYPE
  5
5
100
AcDbSymbolTable
 70
     4
  0
LTYPE
  5
14
100
AcDbSymbolTableRecord
100
AcDbLinetypeTableRecord
  2
BYBLOCK
 70
     0
  3

 72
    65
 73
     0
 40
0.0
  0
LTYPE
  5
15
100
AcDbSymbolTableRecord
100
AcDbLinetypeTableRecord
  2
BYLAYER
 70
     0
  3

 72
    65
 73
     0
 40
0.0
  0
LTYPE
  5
16
100
AcDbSymbolTableRecord
100
AcDbLinetypeTableRecord
  2
CONTINUOUS
 70
    64
  3
Solid line
 72
    65
 73
     0
 40
0.0
  0
LTYPE
  5
62
100
AcDbSymbolTableRecord
100
AcDbLinetypeTableRecord
  2
LINEA-LINEETTEX2
 70
    64
  3
____________    ____    ____    ____________   
 72
    65
 73
     6
 40
5.0
 49
2.5
 74
     0
 49
-0.5
 74
     0
 49
0.5
 74
     0
 49
-0.5
 74
     0
 49
0.5
 74
     0
 49
-0.5
 74
     0
  0
LTYPE
  5
63
100
AcDbSymbolTableRecord
100
AcDbLinetypeTableRecord
  2
TRATTEGGIATA
 70
    64
  3
__ __ __ __ __ __ __ __ __ __ __ __ __ __ __ __
 72
    65
 73
     2
 40
0.75
 49
0.5
 74
     0
 49
-0.25
 74
     0
  0
LTYPE
  5
1428
100
AcDbSymbolTableRecord
100
AcDbLinetypeTableRecord
  2
TRATTO-PUNTO
 70
    64
  3
__ . __ . __ . __ . __ . __ . __ . __ . __ . __
 72
    65
 73
     4
 40
1.0
 49
0.5
 74
     0
 49
-0.25
 74
     0
 49
0.0
 74
     0
 49
-0.25
 74
     0
  0
ENDTAB
  0
TABLE
  2
LAYER
  5
2
100
AcDbSymbolTable
 70
     8
  0
LAYER
  5
F
100
AcDbSymbolTableRecord
100
AcDbLayerTableRecord
  2
0
 70
     0
 62
     7
  6
CONTINUOUS
  0
LAYER
  5
64
100
AcDbSymbolTableRecord
100
AcDbLayerTableRecord
  2
OGGETTO
 70
    64
 62
     7
  6
CONTINUOUS
  0
LAYER
  5
65
100
AcDbSymbolTableRecord
100
AcDbLayerTableRecord
  2
QUOTE
 70
    64
 62
     1
  6
CONTINUOUS
  0
LAYER
  5
66
100
AcDbSymbolTableRecord
100
AcDbLayerTableRecord
  2
CENTRO
 70
    64
 62
     3
  6
TRATTO-PUNTO
  0
LAYER
  5
67
100
AcDbSymbolTableRecord
100
AcDbLayerTableRecord
  2
NASCOSTA
 70
    64
 62
     5
  6
TRATTEGGIATA
  0
LAYER
  5
68
100
AcDbSymbolTableRecord
100
AcDbLayerTableRecord
  2
SEZIONE
 70
    64
 62
     8
  6
CONTINUOUS
  0
LAYER
  5
94
100
AcDbSymbolTableRecord
100
AcDbLayerTableRecord
  2
DEFPOINTS
 70
    64
 62
     7
  6
CONTINUOUS
  0
LAYER
  5
F74
100
AcDbSymbolTableRecord
100
AcDbLayerTableRecord
  2
TESTO
 70
    64
 62
     6
  6
CONTINUOUS
  0
ENDTAB
  0
TABLE
  2
STYLE
  5
3
100
AcDbSymbolTable
 70
     5
  0
STYLE
  5
10
100
AcDbSymbolTableRecord
100
AcDbTextStyleTableRecord
  2
STANDARD
 70
    64
 40
5.0
 41
1.0
 50
0.0
 71
     0
 42
5.0
  3
C:\Programmi\AutoCAD LT\isocp.shx
  4

  0
STYLE
  5
6A
100
AcDbSymbolTableRecord
100
AcDbTextStyleTableRecord
  2

 70
    65
 40
0.0
 41
1.0
 50
0.0
 71
     0
 42
2.104377
  3
ltypeshp.shx
  4

  0
STYLE
  5
176C
100
AcDbSymbolTableRecord
100
AcDbTextStyleTableRecord
  2
QUOTE
 70
    64
 40
0.0
 41
1.0
 50
0.0
 71
     0
 42
3.5
  3
C:\Programmi\AutoCAD LT\monosbi.ttf
  4

  0
STYLE
  5
259D
100
AcDbSymbolTableRecord
100
AcDbTextStyleTableRecord
  2
TABELLA
 70
    64
 40
5.0
 41
0.7
 50
0.0
 71
     0
 42
5.0
  3
C:\Programmi\AutoCAD LT\italicc.shx
  4

  0
STYLE
  5
292E
100
AcDbSymbolTableRecord
100
AcDbTextStyleTableRecord
  2
ARIAL
 70
    64
 40
5.0
 41
1.0
 50
0.0
 71
     0
 42
5.0
  3
C:\Windows\FONTS\Arial.ttf
  4

  0
ENDTAB
  0
TABLE
  2
VIEW
  5
6
100
AcDbSymbolTable
 70
     0
  0
ENDTAB
  0
TABLE
  2
UCS
  5
7
100
AcDbSymbolTable
 70
     0
  0
ENDTAB
  0
TABLE
  2
APPID
  5
9
100
AcDbSymbolTable
 70
     1
  0
APPID
  5
11
100
AcDbSymbolTableRecord
100
AcDbRegAppTableRecord
  2
ACAD
 70
     0
  0
ENDTAB
  0
TABLE
  2
DIMSTYLE
  5
A
100
AcDbSymbolTable
 70
     9
  0
DIMSTYLE
105
1D
100
AcDbSymbolTableRecord
100
AcDbDimStyleTableRecord
  2
STANDARD
 70
     0
  3

  4

  5

  6

  7

 40
1.0
 41
0.18
 42
0.0625
 43
0.38
 44
0.18
 45
0.0
 46
0.0
 47
0.0
 48
0.0
140
0.18
141
0.09
142
0.0
143
25.4
144
1.0
145
0.0
146
1.0
147
0.09
 71
     0
 72
     0
 73
     1
 74
     1
 75
     0
 76
     0
 77
     0
 78
     0
170
     0
171
     2
172
     0
173
     0
174
     0
175
     0
176
     0
177
     0
178
     0
270
     2
271
     4
272
     4
273
     2
274
     2
340
10
275
     0
280
     0
281
     0
282
     0
283
     1
284
     0
285
     0
286
     0
287
     3
288
     0
  0
DIMSTYLE
105
24
100
AcDbSymbolTableRecord
100
AcDbDimStyleTableRecord
  2
ISO-25
 70
     0
  3

  4

  5

  6

  7

 40
1.0
 41
2.5
 42
0.625
 43
3.75
 44
1.25
 45
0.0
 46
0.0
 47
0.0
 48
0.0
140
2.5
141
2.5
142
0.0
143
0.0394
144
1.0
145
1.0
146
1.0
147
0.625
 71
     0
 72
     0
 73
     1
 74
     0
 75
     0
 76
     0
 77
     1
 78
     8
170
     0
171
     2
172
     1
173
     0
174
     0
175
     0
176
     0
177
     0
178
     0
270
     2
271
     4
272
     4
273
     2
274
     2
340
10
275
     0
280
     0
281
     0
282
     0
283
     1
284
     0
285
     0
286
     0
287
     3
288
     0
  0
DIMSTYLE
105
25
100
AcDbSymbolTableRecord
100
AcDbDimStyleTableRecord
  2
ISO-35
 70
     0
  3

  4

  5

  6

  7

 40
1.0
 41
3.5
 42
0.875
 43
5.25
 44
1.75
 45
0.0
 46
0.0
 47
0.0
 48
0.0
140
3.5
141
3.5
142
0.0
143
0.0394
144
1.0
145
1.4
146
1.0
147
0.875
 71
     0
 72
     0
 73
     1
 74
     0
 75
     0
 76
     0
 77
     1
 78
     8
170
     0
171
     2
172
     1
173
     0
174
     0
175
     0
176
     0
177
     0
178
     0
270
     2
271
     4
272
     4
273
     2
274
     2
340
10
275
     0
280
     0
281
     0
282
     0
283
     1
284
     0
285
     0
286
     0
287
     3
288
     0
  0
DIMSTYLE
105
26
100
AcDbSymbolTableRecord
100
AcDbDimStyleTableRecord
  2
ISO-5
 70
     0
  3

  4

  5

  6

  7

 40
1.0
 41
5.0
 42
1.25
 43
7.5
 44
2.5
 45
0.0
 46
0.0
 47
0.0
 48
0.0
140
5.0
141
5.0
142
0.0
143
0.0394
144
1.0
145
2.0
146
1.0
147
1.25
 71
     0
 72
     0
 73
     1
 74
     0
 75
     0
 76
     0
 77
     1
 78
     8
170
     0
171
     2
172
     1
173
     0
174
     0
175
     0
176
     0
177
     0
178
     0
270
     2
271
     4
272
     4
273
     2
274
     2
340
10
275
     0
280
     0
281
     0
282
     0
283
     1
284
     0
285
     0
286
     0
287
     3
288
     0
  0
DIMSTYLE
105
27
100
AcDbSymbolTableRecord
100
AcDbDimStyleTableRecord
  2
ISO-7
 70
     0
  3

  4

  5

  6

  7

 40
1.0
 41
7.0
 42
1.75
 43
10.5
 44
3.5
 45
0.0
 46
0.0
 47
0.0
 48
0.0
140
7.0
141
7.0
142
0.0
143
0.0394
144
1.0
145
2.8
146
1.0
147
1.75
 71
     0
 72
     0
 73
     1
 74
     0
 75
     0
 76
     0
 77
     1
 78
     8
170
     0
171
     2
172
     1
173
     0
174
     0
175
     0
176
     0
177
     0
178
     0
270
     2
271
     4
272
     4
273
     2
274
     2
340
10
275
     0
280
     0
281
     0
282
     0
283
     1
284
     0
285
     0
286
     0
287
     3
288
     0
  0
DIMSTYLE
105
28
100
AcDbSymbolTableRecord
100
AcDbDimStyleTableRecord
  2
ISO1
 70
     0
  3

  4

  5

  6

  7

 40
1.0
 41
10.0
 42
2.5
 43
15.0
 44
5.0
 45
0.0
 46
0.0
 47
0.0
 48
0.0
140
10.0
141
10.0
142
0.0
143
0.0394
144
1.0
145
4.0
146
1.0
147
2.5
 71
     0
 72
     0
 73
     1
 74
     0
 75
     0
 76
     0
 77
     1
 78
     8
170
     0
171
     2
172
     1
173
     0
174
     0
175
     0
176
     0
177
     0
178
     0
270
     2
271
     4
272
     4
273
     2
274
     2
340
10
275
     0
280
     0
281
     0
282
     0
283
     1
284
     0
285
     0
286
     0
287
     3
288
     0
  0
DIMSTYLE
105
29
100
AcDbSymbolTableRecord
100
AcDbDimStyleTableRecord
  2
ISO1-4
 70
     0
  3

  4

  5

  6

  7

 40
1.0
 41
14.0
 42
3.5
 43
21.0
 44
7.0
 45
0.0
 46
0.0
 47
0.0
 48
0.0
140
14.0
141
14.0
142
0.0
143
0.0394
144
1.0
145
5.6
146
1.0
147
3.5
 71
     0
 72
     0
 73
     1
 74
     0
 75
     0
 76
     0
 77
     1
 78
     8
170
     0
171
     2
172
     1
173
     0
174
     0
175
     0
176
     0
177
     0
178
     0
270
     2
271
     4
272
     4
273
     2
274
     2
340
10
275
     0
280
     0
281
     0
282
     0
283
     1
284
     0
285
     0
286
     0
287
     3
288
     0
  0
DIMSTYLE
105
2A
100
AcDbSymbolTableRecord
100
AcDbDimStyleTableRecord
  2
ISO2
 70
     0
  3

  4

  5

  6

  7

 40
1.0
 41
20.0
 42
5.0
 43
30.0
 44
10.0
 45
0.0
 46
0.0
 47
0.0
 48
0.0
140
20.0
141
20.0
142
0.0
143
0.0394
144
1.0
145
8.0
146
1.0
147
5.0
 71
     0
 72
     0
 73
     1
 74
     0
 75
     0
 76
     0
 77
     1
 78
     8
170
     0
171
     2
172
     1
173
     0
174
     0
175
     0
176
     0
177
     0
178
     0
270
     2
271
     4
272
     4
273
     2
274
     2
340
10
275
     0
280
     0
281
     0
282
     0
283
     1
284
     0
285
     0
286
     0
287
     3
288
     0
  0
DIMSTYLE
105
176D
100
AcDbSymbolTableRecord
100
AcDbDimStyleTableRecord
  2
TOLL-01-03
 70
     0
  3
 <>
  4
inch[]
  5

  6

  7

 40
1.0
 41
5.0
 42
2.0
 43
3.75
 44
1.25
 45
0.0
 46
0.0
 47
0.01
 48
0.03
140
5.0
141
-5.0
142
0.0
143
0.03937
144
1.0
145
0.0
146
0.5
147
2.0
 71
     1
 72
     0
 73
     0
 74
     0
 75
     0
 76
     0
 77
     3
 78
     8
170
     0
171
     2
172
     0
173
     0
174
     0
175
     0
176
     0
177
     0
178
     0
270
     2
271
     3
272
     2
273
     2
274
     2
340
176C
275
     0
280
     0
281
     0
282
     0
283
     2
284
     8
285
     8
286
     0
287
     5
288
     0
  0
ENDTAB
  0
TABLE
  2
BLOCK_RECORD
  5
1
100
AcDbSymbolTable
 70
    23
  0
BLOCK_RECORD
  5
1A
100
AcDbSymbolTableRecord
100
AcDbBlockTableRecord
  2
*MODEL_SPACE
  0
BLOCK_RECORD
  5
17
100
AcDbSymbolTableRecord
100
AcDbBlockTableRecord
  2
*PAPER_SPACE
  0
BLOCK_RECORD
  5
176E
100
AcDbSymbolTableRecord
100
AcDbBlockTableRecord
  2
TABELLA
  0
BLOCK_RECORD
  5
2942
100
AcDbSymbolTableRecord
100
AcDbBlockTableRecord
  2
A$C21F4
  0
BLOCK_RECORD
  5
2F5B
100
AcDbSymbolTableRecord
100
AcDbBlockTableRecord
  2
*D2
  0
BLOCK_RECORD
  5
2FC9
100
AcDbSymbolTableRecord
100
AcDbBlockTableRecord
  2
*D3
  0
BLOCK_RECORD
  5
323A
100
AcDbSymbolTableRecord
100
AcDbBlockTableRecord
  2
*D4
  0
BLOCK_RECORD
  5
3248
100
AcDbSymbolTableRecord
100
AcDbBlockTableRecord
  2
*D5
  0
BLOCK_RECORD
  5
3256
100
AcDbSymbolTableRecord
100
AcDbBlockTableRecord
  2
*D6
  0
BLOCK_RECORD
  5
3262
100
AcDbSymbolTableRecord
100
AcDbBlockTableRecord
  2
*D7
  0
BLOCK_RECORD
  5
3270
100
AcDbSymbolTableRecord
100
AcDbBlockTableRecord
  2
*D8
  0
BLOCK_RECORD
  5
327C
100
AcDbSymbolTableRecord
100
AcDbBlockTableRecord
  2
*D9
  0
BLOCK_RECORD
  5
3288
100
AcDbSymbolTableRecord
100
AcDbBlockTableRecord
  2
*D10
  0
BLOCK_RECORD
  5
3294
100
AcDbSymbolTableRecord
100
AcDbBlockTableRecord
  2
A$CB174
  0
BLOCK_RECORD
  5
32BC
100
AcDbSymbolTableRecord
100
AcDbBlockTableRecord
  2
*D12
  0
BLOCK_RECORD
  5
32D8
100
AcDbSymbolTableRecord
100
AcDbBlockTableRecord
  2
*D13
  0
BLOCK_RECORD
  5
32F2
100
AcDbSymbolTableRecord
100
AcDbBlockTableRecord
  2
*D14
  0
BLOCK_RECORD
  5
32FE
100
AcDbSymbolTableRecord
100
AcDbBlockTableRecord
  2
*D15
  0
BLOCK_RECORD
  5
330A
100
AcDbSymbolTableRecord
100
AcDbBlockTableRecord
  2
*D16
  0
BLOCK_RECORD
  5
339E
100
AcDbSymbolTableRecord
100
AcDbBlockTableRecord
  2
*D17
  0
BLOCK_RECORD
  5
342B
100
AcDbSymbolTableRecord
100
AcDbBlockTableRecord
  2
*D20
  0
BLOCK_RECORD
  5
348C
100
AcDbSymbolTableRecord
100
AcDbBlockTableRecord
  2
*X21
  0
BLOCK_RECORD
  5
34D1
100
AcDbSymbolTableRecord
100
AcDbBlockTableRecord
  2
*D22
  0
ENDTAB
  0
ENDSEC
  0
SECTION
  2
BLOCKS
  0
BLOCK
  5
1B
100
AcDbEntity
  8
0
100
AcDbBlockBegin
  2
*MODEL_SPACE
 70
     0
 10
0.0
 20
0.0
 30
0.0
  3
*MODEL_SPACE
  1

  0
ENDBLK
  5
1C
100
AcDbEntity
  8
0
100
AcDbBlockEnd
  0
BLOCK
  5
18
100
AcDbEntity
 67
     1
  8
0
100
AcDbBlockBegin
  2
*PAPER_SPACE
 70
     0
 10
0.0
 20
0.0
 30
0.0
  3
*PAPER_SPACE
  1

  0
ENDBLK
  5
19
100
AcDbEntity
 67
     1
  8
0
100
AcDbBlockEnd
  0
BLOCK
  5
1776
100
AcDbEntity
  8
SEZIONE
  6
CONTINUOUS
100
AcDbBlockBegin
  2
TABELLA
 70
     2
 10
0.0
 20
0.0
 30
0.0
  3
TABELLA
  1

  0
ATTDEF
  5
176F
100
AcDbEntity
  8
QUOTE
100
AcDbText
 10
-33.649491
 20
11.454845
 30
0.0
 40
3.5
  1

  7
QUOTE
100
AcDbAttributeDefinition
  3
revisione ?
  2
REVISIONE
 70
     0
  0
LINE
  5
1770
100
AcDbEntity
  8
QUOTE
100
AcDbLine
 10
-43.336415
 20
9.418407
 30
0.0
 11
0.0
 21
9.418407
 31
0.0
  0
LINE
  5
1771
100
AcDbEntity
  8
QUOTE
100
AcDbLine
 10
0.0
 20
0.0
 30
0.0
 11
-43.336415
 21
0.0
 31
0.0
  0
LINE
  5
1772
100
AcDbEntity
  8
QUOTE
100
AcDbLine
 10
-43.336415
 20
18.836814
 30
0.0
 11
0.0
 21
18.836814
 31
0.0
  0
LINE
  5
1773
100
AcDbEntity
  8
QUOTE
100
AcDbLine
 10
-43.336415
 20
0.0
 30
0.0
 11
-43.336415
 21
18.836814
 31
0.0
  0
ATTDEF
  5
1774
100
AcDbEntity
  8
QUOTE
100
AcDbText
 10
-30.845352
 20
2.545496
 30
0.0
 40
3.5
  1

  7
QUOTE
100
AcDbAttributeDefinition
  3
numero del codice ?
  2
CODICE
 70
     0
  0
LINE
  5
1775
100
AcDbEntity
  8
QUOTE
100
AcDbLine
 10
0.0
 20
18.836814
 30
0.0
 11
0.0
 21
0.0
 31
0.0
  0
ENDBLK
  5
1777
100
AcDbEntity
  8
SEZIONE
  6
CONTINUOUS
100
AcDbBlockEnd
  0
BLOCK
  5
2948
100
AcDbEntity
  8
SEZIONE
  6
CONTINUOUS
100
AcDbBlockBegin
  2
A$C21F4
 70
     0
 10
0.0
 20
0.0
 30
0.0
  3
A$C21F4
  1

  0
TEXT
  5
2943
100
AcDbEntity
  8
SEZIONE
  6
CONTINUOUS
 62
     7
100
AcDbText
 10
11.030145
 20
2.688394
 30
0.0
 40
5.0
  1
42CrMo4
  7
ARIAL
 72
     4
 11
25.150818
 21
5.188394
 31
0.0
100
AcDbText
  0
LINE
  5
2944
100
AcDbEntity
  8
SEZIONE
  6
CONTINUOUS
 62
     7
100
AcDbLine
 10
0.150818
 20
10.188394
 30
0.0
 11
50.150818
 21
10.188394
 31
0.0
  0
LINE
  5
2945
100
AcDbEntity
  8
SEZIONE
  6
CONTINUOUS
 62
     7
100
AcDbLine
 10
50.150818
 20
0.188394
 30
0.0
 11
0.150818
 21
0.188394
 31
0.0
  0
LINE
  5
2946
100
AcDbEntity
  8
SEZIONE
  6
CONTINUOUS
 62
     7
100
AcDbLine
 10
0.150818
 20
0.188394
 30
0.0
 11
0.150818
 21
10.188394
 31
0.0
  0
LINE
  5
2947
100
AcDbEntity
  8
SEZIONE
  6
CONTINUOUS
 62
     7
100
AcDbLine
 10
50.150818
 20
10.188394
 30
0.0
 11
50.150818
 21
0.188394
 31
0.0
  0
ENDBLK
  5
2949
100
AcDbEntity
  8
SEZIONE
  6
CONTINUOUS
100
AcDbBlockEnd
  0
BLOCK
  5
2F5C
100
AcDbEntity
  8
0
100
AcDbBlockBegin
  2
*D2
 70
    65
 10
0.0
 20
0.0
 30
0.0
  3
*D2
  1

  0
LINE
  5
2F5D
100
AcDbEntity
  8
0
  6
BYBLOCK
 62
     0
100
AcDbLine
 10
171.314267
 20
198.340471
 30
0.0
 11
155.7142
 21
198.340471
 31
0.0
  0
LINE
  5
2F5E
100
AcDbEntity
  8
0
  6
BYBLOCK
 62
     0
100
AcDbLine
 10
181.314267
 20
43.340471
 30
0.0
 11
155.7142
 21
43.340471
 31
0.0
  0
LINE
  5
2F5F
100
AcDbEntity
  8
0
  6
BYBLOCK
 62
     0
100
AcDbLine
 10
156.7642
 20
195.740471
 30
0.0
 11
156.7642
 21
45.940471
 31
0.0
  0
SOLID
  5
2F60
100
AcDbEntity
  8
0
  6
BYBLOCK
 62
     0
100
AcDbTrace
 10
156.330866
 20
195.740471
 30
0.0
 11
157.197533
 21
195.740471
 31
0.0
 12
156.7642
 22
198.340471
 32
0.0
 13
156.7642
 23
198.340471
 33
0.0
  0
SOLID
  5
2F61
100
AcDbEntity
  8
0
  6
BYBLOCK
 62
     0
100
AcDbTrace
 10
156.330866
 20
45.940471
 30
0.0
 11
157.197533
 21
45.940471
 31
0.0
 12
156.7642
 22
43.340471
 32
0.0
 13
156.7642
 23
43.340471
 33
0.0
  0
MTEXT
  5
2F62
100
AcDbEntity
  8
0
  6
BYBLOCK
 62
     0
100
AcDbMText
 10
153.7342
 20
120.840471
 30
0.0
 40
5.0
 41
0.0
 71
     5
 72
     1
  1
\A1;155
 11
0.0
 21
1.0
 31
0.0
  0
POINT
  5
2F63
100
AcDbEntity
  8
DEFPOINTS
  6
BYBLOCK
 62
     0
100
AcDbPoint
 10
171.844267
 20
198.340471
 30
0.0
  0
POINT
  5
2F64
100
AcDbEntity
  8
DEFPOINTS
  6
BYBLOCK
 62
     0
100
AcDbPoint
 10
181.844267
 20
43.340471
 30
0.0
  0
POINT
  5
2F65
100
AcDbEntity
  8
DEFPOINTS
  6
BYBLOCK
 62
     0
100
AcDbPoint
 10
156.7642
 20
43.340471
 30
0.0
  0
ENDBLK
  5
2F66
100
AcDbEntity
  8
0
100
AcDbBlockEnd
  0
BLOCK
  5
34C5
100
AcDbEntity
  8
0
100
AcDbBlockBegin
  2
*D3
 70
    65
 10
0.0
 20
0.0
 30
0.0
  3
*D3
  1

  0
LINE
  5
34C6
100
AcDbEntity
  8
0
  6
BYBLOCK
 62
     0
100
AcDbLine
 10
128.705296
 20
198.340471
 30
0.0
 11
147.711188
 21
198.340471
 31
0.0
  0
LINE
  5
34C7
100
AcDbEntity
  8
0
  6
BYBLOCK
 62
     0
100
AcDbLine
 10
136.705296
 20
153.340471
 30
0.0
 11
147.711188
 21
153.340471
 31
0.0
  0
LINE
  5
34C8
100
AcDbEntity
  8
0
  6
BYBLOCK
 62
     0
100
AcDbLine
 10
146.661188
 20
195.740471
 30
0.0
 11
146.661188
 21
155.940471
 31
0.0
  0
SOLID
  5
34C9
100
AcDbEntity
  8
0
  6
BYBLOCK
 62
     0
100
AcDbTrace
 10
146.227855
 20
195.740471
 30
0.0
 11
147.094521
 21
195.740471
 31
0.0
 12
146.661188
 22
198.340471
 32
0.0
 13
146.661188
 23
198.340471
 33
0.0
  0
SOLID
  5
34CA
100
AcDbEntity
  8
0
  6
BYBLOCK
 62
     0
100
AcDbTrace
 10
146.227855
 20
155.940471
 30
0.0
 11
147.094521
 21
155.940471
 31
0.0
 12
146.661188
 22
153.340471
 32
0.0
 13
146.661188
 23
153.340471
 33
0.0
  0
MTEXT
  5
34CB
100
AcDbEntity
  8
0
  6
BYBLOCK
 62
     0
100
AcDbMText
 10
143.631188
 20
175.840471
 30
0.0
 40
5.0
 41
0.0
 71
     5
 72
     1
  1
\A1;45
 11
0.0
 21
1.0
 31
0.0
  0
POINT
  5
34CC
100
AcDbEntity
  8
DEFPOINTS
  6
BYBLOCK
 62
     0
100
AcDbPoint
 10
128.175296
 20
198.340471
 30
0.0
  0
POINT
  5
34CD
100
AcDbEntity
  8
DEFPOINTS
  6
BYBLOCK
 62
     0
100
AcDbPoint
 10
136.175296
 20
153.340471
 30
0.0
  0
POINT
  5
34CE
100
AcDbEntity
  8
DEFPOINTS
  6
BYBLOCK
 62
     0
100
AcDbPoint
 10
146.661188
 20
153.340471
 30
0.0
  0
ENDBLK
  5
34CF
100
AcDbEntity
  8
0
100
AcDbBlockEnd
  0
BLOCK
  5
3246
100
AcDbEntity
  8
0
100
AcDbBlockBegin
  2
*D4
 70
    65
 10
0.0
 20
0.0
 30
0.0
  3
*D4
  1

  0
LINE
  5
323B
100
AcDbEntity
  8
0
  6
BYBLOCK
 62
     0
100
AcDbLine
 10
171.844267
 20
198.870471
 30
0.0
 11
171.844267
 21
207.290928
 31
0.0
  0
LINE
  5
323C
100
AcDbEntity
  8
0
  6
BYBLOCK
 62
     0
100
AcDbLine
 10
181.844267
 20
198.870471
 30
0.0
 11
181.844267
 21
207.290928
 31
0.0
  0
LINE
  5
323D
100
AcDbEntity
  8
0
  6
BYBLOCK
 62
     0
100
AcDbLine
 10
169.244267
 20
206.240928
 30
0.0
 11
166.644267
 21
206.240928
 31
0.0
  0
LINE
  5
323E
100
AcDbEntity
  8
0
  6
BYBLOCK
 62
     0
100
AcDbLine
 10
184.444267
 20
206.240928
 30
0.0
 11
187.044267
 21
206.240928
 31
0.0
  0
LINE
  5
323F
100
AcDbEntity
  8
0
  6
BYBLOCK
 62
     0
100
AcDbLine
 10
171.844267
 20
206.240928
 30
0.0
 11
181.844267
 21
206.240928
 31
0.0
  0
SOLID
  5
3240
100
AcDbEntity
  8
0
  6
BYBLOCK
 62
     0
100
AcDbTrace
 10
169.244267
 20
206.674261
 30
0.0
 11
169.244267
 21
205.807595
 31
0.0
 12
171.844267
 22
206.240928
 32
0.0
 13
171.844267
 23
206.240928
 33
0.0
  0
SOLID
  5
3241
100
AcDbEntity
  8
0
  6
BYBLOCK
 62
     0
100
AcDbTrace
 10
184.444267
 20
206.674261
 30
0.0
 11
184.444267
 21
205.807595
 31
0.0
 12
181.844267
 22
206.240928
 32
0.0
 13
181.844267
 23
206.240928
 33
0.0
  0
MTEXT
  5
3242
100
AcDbEntity
  8
0
  6
BYBLOCK
 62
     0
100
AcDbMText
 10
176.844267
 20
209.270928
 30
0.0
 40
5.0
 41
0.0
 71
     5
 72
     1
  1
\A1;10
  0
POINT
  5
3243
100
AcDbEntity
  8
DEFPOINTS
  6
BYBLOCK
 62
     0
100
AcDbPoint
 10
171.844267
 20
198.340471
 30
0.0
  0
POINT
  5
3244
100
AcDbEntity
  8
DEFPOINTS
  6
BYBLOCK
 62
     0
100
AcDbPoint
 10
181.844267
 20
198.340471
 30
0.0
  0
POINT
  5
3245
100
AcDbEntity
  8
DEFPOINTS
  6
BYBLOCK
 62
     0
100
AcDbPoint
 10
181.844267
 20
206.240928
 30
0.0
  0
ENDBLK
  5
3247
100
AcDbEntity
  8
0
100
AcDbBlockEnd
  0
BLOCK
  5
3254
100
AcDbEntity
  8
0
100
AcDbBlockBegin
  2
*D5
 70
    65
 10
0.0
 20
0.0
 30
0.0
  3
*D5
  1

  0
LINE
  5
3249
100
AcDbEntity
  8
0
  6
BYBLOCK
 62
     0
100
AcDbLine
 10
116.175296
 20
198.870471
 30
0.0
 11
116.175296
 21
207.290928
 31
0.0
  0
LINE
  5
324A
100
AcDbEntity
  8
0
  6
BYBLOCK
 62
     0
100
AcDbLine
 10
126.175296
 20
198.870471
 30
0.0
 11
126.175296
 21
207.290928
 31
0.0
  0
LINE
  5
324B
100
AcDbEntity
  8
0
  6
BYBLOCK
 62
     0
100
AcDbLine
 10
113.575296
 20
206.240928
 30
0.0
 11
110.975296
 21
206.240928
 31
0.0
  0
LINE
  5
324C
100
AcDbEntity
  8
0
  6
BYBLOCK
 62
     0
100
AcDbLine
 10
128.775296
 20
206.240928
 30
0.0
 11
131.375296
 21
206.240928
 31
0.0
  0
LINE
  5
324D
100
AcDbEntity
  8
0
  6
BYBLOCK
 62
     0
100
AcDbLine
 10
116.175296
 20
206.240928
 30
0.0
 11
126.175296
 21
206.240928
 31
0.0
  0
SOLID
  5
324E
100
AcDbEntity
  8
0
  6
BYBLOCK
 62
     0
100
AcDbTrace
 10
113.575296
 20
206.674261
 30
0.0
 11
113.575296
 21
205.807595
 31
0.0
 12
116.175296
 22
206.240928
 32
0.0
 13
116.175296
 23
206.240928
 33
0.0
  0
SOLID
  5
324F
100
AcDbEntity
  8
0
  6
BYBLOCK
 62
     0
100
AcDbTrace
 10
128.775296
 20
206.674261
 30
0.0
 11
128.775296
 21
205.807595
 31
0.0
 12
126.175296
 22
206.240928
 32
0.0
 13
126.175296
 23
206.240928
 33
0.0
  0
MTEXT
  5
3250
100
AcDbEntity
  8
0
  6
BYBLOCK
 62
     0
100
AcDbMText
 10
121.175296
 20
209.270928
 30
0.0
 40
5.0
 41
0.0
 71
     5
 72
     1
  1
\A1;10
  0
POINT
  5
3251
100
AcDbEntity
  8
DEFPOINTS
  6
BYBLOCK
 62
     0
100
AcDbPoint
 10
116.175296
 20
198.340471
 30
0.0
  0
POINT
  5
3252
100
AcDbEntity
  8
DEFPOINTS
  6
BYBLOCK
 62
     0
100
AcDbPoint
 10
126.175296
 20
198.340471
 30
0.0
  0
POINT
  5
3253
100
AcDbEntity
  8
DEFPOINTS
  6
BYBLOCK
 62
     0
100
AcDbPoint
 10
126.175296
 20
206.240928
 30
0.0
  0
ENDBLK
  5
3255
100
AcDbEntity
  8
0
100
AcDbBlockEnd
  0
BLOCK
  5
3260
100
AcDbEntity
  8
0
100
AcDbBlockBegin
  2
*D6
 70
    65
 10
0.0
 20
0.0
 30
0.0
  3
*D6
  1

  0
LINE
  5
3257
100
AcDbEntity
  8
0
  6
BYBLOCK
 62
     0
100
AcDbLine
 10
106.175296
 20
197.870471
 30
0.0
 11
106.175296
 21
215.589039
 31
0.0
  0
LINE
  5
3258
100
AcDbEntity
  8
0
  6
BYBLOCK
 62
     0
100
AcDbLine
 10
126.175296
 20
197.870471
 30
0.0
 11
126.175296
 21
215.589039
 31
0.0
  0
LINE
  5
3259
100
AcDbEntity
  8
0
  6
BYBLOCK
 62
     0
100
AcDbLine
 10
108.775296
 20
214.539039
 30
0.0
 11
123.575296
 21
214.539039
 31
0.0
  0
SOLID
  5
325A
100
AcDbEntity
  8
0
  6
BYBLOCK
 62
     0
100
AcDbTrace
 10
108.775296
 20
214.972372
 30
0.0
 11
108.775296
 21
214.105706
 31
0.0
 12
106.175296
 22
214.539039
 32
0.0
 13
106.175296
 23
214.539039
 33
0.0
  0
SOLID
  5
325B
100
AcDbEntity
  8
0
  6
BYBLOCK
 62
     0
100
AcDbTrace
 10
123.575296
 20
214.972372
 30
0.0
 11
123.575296
 21
214.105706
 31
0.0
 12
126.175296
 22
214.539039
 32
0.0
 13
126.175296
 23
214.539039
 33
0.0
  0
MTEXT
  5
325C
100
AcDbEntity
  8
0
  6
BYBLOCK
 62
     0
100
AcDbMText
 10
116.175296
 20
217.569039
 30
0.0
 40
5.0
 41
0.0
 71
     5
 72
     1
  1
\A1;20
  0
POINT
  5
325D
100
AcDbEntity
  8
DEFPOINTS
  6
BYBLOCK
 62
     0
100
AcDbPoint
 10
106.175296
 20
197.340471
 30
0.0
  0
POINT
  5
325E
100
AcDbEntity
  8
DEFPOINTS
  6
BYBLOCK
 62
     0
100
AcDbPoint
 10
126.175296
 20
197.340471
 30
0.0
  0
POINT
  5
325F
100
AcDbEntity
  8
DEFPOINTS
  6
BYBLOCK
 62
     0
100
AcDbPoint
 10
126.175296
 20
214.539039
 30
0.0
  0
ENDBLK
  5
3261
100
AcDbEntity
  8
0
100
AcDbBlockEnd
  0
BLOCK
  5
326E
100
AcDbEntity
  8
0
100
AcDbBlockBegin
  2
*D7
 70
    65
 10
0.0
 20
0.0
 30
0.0
  3
*D7
  1

  0
LINE
  5
3263
100
AcDbEntity
  8
0
  6
BYBLOCK
 62
     0
100
AcDbLine
 10
105.800529
 20
183.965704
 30
0.0
 11
99.949722
 21
178.114897
 31
0.0
  0
ARC
  5
3264
100
AcDbEntity
  8
0
  6
BYBLOCK
 62
     0
100
AcDbCircle
 10
110.675296
 20
188.840471
 30
0.0
 40
14.118252
100
AcDbArc
 50
212.282499
 51
225.0
  0
ARC
  5
3265
100
AcDbEntity
  8
0
  6
BYBLOCK
 62
     0
100
AcDbCircle
 10
110.675296
 20
188.840471
 30
0.0
 40
14.118252
100
AcDbArc
 50
235.566488
 51
259.433512
  0
SOLID
  5
3266
100
AcDbEntity
  8
0
  6
BYBLOCK
 62
     0
100
AcDbTrace
 10
102.41524
 20
176.862652
 30
0.0
 11
102.969034
 21
177.529303
 31
0.0
 12
100.692184
 22
178.857359
 32
0.0
 13
100.692184
 23
178.857359
 33
0.0
  0
SOLID
  5
3267
100
AcDbEntity
  8
0
  6
BYBLOCK
 62
     0
100
AcDbTrace
 10
108.126242
 20
175.393118
 30
0.0
 11
108.04644
 21
174.530133
 31
0.0
 12
110.675296
 22
174.722219
 32
0.0
 13
110.675296
 23
174.722219
 33
0.0
  0
MTEXT
  5
3268
100
AcDbEntity
  8
0
  6
BYBLOCK
 62
     0
100
AcDbMText
 10
98.614517
 20
187.170788
 30
0.0
 40
5.0
 41
0.0
 71
     5
 72
     1
  1
\A1;45°
 11
0.534094
 21
-0.845425
 31
0.0
  0
POINT
  5
3269
100
AcDbEntity
  8
DEFPOINTS
  6
BYBLOCK
 62
     0
100
AcDbPoint
 10
107.021223
 20
175.203287
 30
0.0
  0
POINT
  5
326A
100
AcDbEntity
  8
DEFPOINTS
  6
BYBLOCK
 62
     0
100
AcDbPoint
 10
106.175296
 20
184.340471
 30
0.0
  0
POINT
  5
326B
100
AcDbEntity
  8
DEFPOINTS
  6
BYBLOCK
 62
     0
100
AcDbPoint
 10
110.675296
 20
188.840471
 30
0.0
  0
POINT
  5
326C
100
AcDbEntity
  8
DEFPOINTS
  6
BYBLOCK
 62
     0
100
AcDbPoint
 10
110.675296
 20
170.340471
 30
0.0
  0
POINT
  5
326D
100
AcDbEntity
  8
DEFPOINTS
  6
BYBLOCK
 62
     0
100
AcDbPoint
 10
110.675296
 20
188.840471
 30
0.0
  0
ENDBLK
  5
326F
100
AcDbEntity
  8
0
100
AcDbBlockEnd
  0
BLOCK
  5
327A
100
AcDbEntity
  8
0
100
AcDbBlockBegin
  2
*D8
 70
    65
 10
0.0
 20
0.0
 30
0.0
  3
*D8
  1

  0
LINE
  5
3271
100
AcDbEntity
  8
0
  6
BYBLOCK
 62
     0
100
AcDbLine
 10
125.705296
 20
198.340471
 30
0.0
 11
138.011218
 21
198.340471
 31
0.0
  0
LINE
  5
3272
100
AcDbEntity
  8
0
  6
BYBLOCK
 62
     0
100
AcDbLine
 10
126.705296
 20
184.340471
 30
0.0
 11
138.011218
 21
184.340471
 31
0.0
  0
LINE
  5
3273
100
AcDbEntity
  8
0
  6
BYBLOCK
 62
     0
100
AcDbLine
 10
136.961218
 20
195.740471
 30
0.0
 11
136.961218
 21
186.940471
 31
0.0
  0
SOLID
  5
3274
100
AcDbEntity
  8
0
  6
BYBLOCK
 62
     0
100
AcDbTrace
 10
136.527885
 20
195.740471
 30
0.0
 11
137.394551
 21
195.740471
 31
0.0
 12
136.961218
 22
198.340471
 32
0.0
 13
136.961218
 23
198.340471
 33
0.0
  0
SOLID
  5
3275
100
AcDbEntity
  8
0
  6
BYBLOCK
 62
     0
100
AcDbTrace
 10
136.527885
 20
186.940471
 30
0.0
 11
137.394551
 21
186.940471
 31
0.0
 12
136.961218
 22
184.340471
 32
0.0
 13
136.961218
 23
184.340471
 33
0.0
  0
MTEXT
  5
3276
100
AcDbEntity
  8
0
  6
BYBLOCK
 62
     0
100
AcDbMText
 10
133.931218
 20
191.340471
 30
0.0
 40
5.0
 41
0.0
 71
     5
 72
     1
  1
\A1;14
 11
0.0
 21
1.0
 31
0.0
  0
POINT
  5
3277
100
AcDbEntity
  8
DEFPOINTS
  6
BYBLOCK
 62
     0
100
AcDbPoint
 10
125.175296
 20
198.340471
 30
0.0
  0
POINT
  5
3278
100
AcDbEntity
  8
DEFPOINTS
  6
BYBLOCK
 62
     0
100
AcDbPoint
 10
126.175296
 20
184.340471
 30
0.0
  0
POINT
  5
3279
100
AcDbEntity
  8
DEFPOINTS
  6
BYBLOCK
 62
     0
100
AcDbPoint
 10
136.961218
 20
184.340471
 30
0.0
  0
ENDBLK
  5
327B
100
AcDbEntity
  8
0
100
AcDbBlockEnd
  0
BLOCK
  5
3286
100
AcDbEntity
  8
0
100
AcDbBlockBegin
  2
*D9
 70
    65
 10
0.0
 20
0.0
 30
0.0
  3
*D9
  1

  0
LINE
  5
327D
100
AcDbEntity
  8
0
  6
BYBLOCK
 62
     0
100
AcDbLine
 10
126.705296
 20
184.340471
 30
0.0
 11
138.011218
 21
184.340471
 31
0.0
  0
LINE
  5
327E
100
AcDbEntity
  8
0
  6
BYBLOCK
 62
     0
100
AcDbLine
 10
126.705296
 20
170.340471
 30
0.0
 11
138.011218
 21
170.340471
 31
0.0
  0
LINE
  5
327F
100
AcDbEntity
  8
0
  6
BYBLOCK
 62
     0
100
AcDbLine
 10
136.961218
 20
181.740471
 30
0.0
 11
136.961218
 21
172.940471
 31
0.0
  0
SOLID
  5
3280
100
AcDbEntity
  8
0
  6
BYBLOCK
 62
     0
100
AcDbTrace
 10
136.527885
 20
181.740471
 30
0.0
 11
137.394551
 21
181.740471
 31
0.0
 12
136.961218
 22
184.340471
 32
0.0
 13
136.961218
 23
184.340471
 33
0.0
  0
SOLID
  5
3281
100
AcDbEntity
  8
0
  6
BYBLOCK
 62
     0
100
AcDbTrace
 10
136.527885
 20
172.940471
 30
0.0
 11
137.394551
 21
172.940471
 31
0.0
 12
136.961218
 22
170.340471
 32
0.0
 13
136.961218
 23
170.340471
 33
0.0
  0
MTEXT
  5
3282
100
AcDbEntity
  8
0
  6
BYBLOCK
 62
     0
100
AcDbMText
 10
133.931218
 20
177.340471
 30
0.0
 40
5.0
 41
0.0
 71
     5
 72
     1
  1
\A1;14
 11
0.0
 21
1.0
 31
0.0
  0
POINT
  5
3283
100
AcDbEntity
  8
DEFPOINTS
  6
BYBLOCK
 62
     0
100
AcDbPoint
 10
126.175296
 20
184.340471
 30
0.0
  0
POINT
  5
3284
100
AcDbEntity
  8
DEFPOINTS
  6
BYBLOCK
 62
     0
100
AcDbPoint
 10
126.175296
 20
170.340471
 30
0.0
  0
POINT
  5
3285
100
AcDbEntity
  8
DEFPOINTS
  6
BYBLOCK
 62
     0
100
AcDbPoint
 10
136.961218
 20
170.340471
 30
0.0
  0
ENDBLK
  5
3287
100
AcDbEntity
  8
0
100
AcDbBlockEnd
  0
BLOCK
  5
3292
100
AcDbEntity
  8
0
100
AcDbBlockBegin
  2
*D10
 70
    65
 10
0.0
 20
0.0
 30
0.0
  3
*D10
  1

  0
LINE
  5
3289
100
AcDbEntity
  8
0
  6
BYBLOCK
 62
     0
100
AcDbLine
 10
110.675296
 20
169.810471
 30
0.0
 11
110.675296
 21
162.46148
 31
0.0
  0
LINE
  5
328A
100
AcDbEntity
  8
0
  6
BYBLOCK
 62
     0
100
AcDbLine
 10
121.675296
 20
169.810471
 30
0.0
 11
121.675296
 21
162.46148
 31
0.0
  0
LINE
  5
328B
100
AcDbEntity
  8
0
  6
BYBLOCK
 62
     0
100
AcDbLine
 10
113.275296
 20
163.51148
 30
0.0
 11
119.075296
 21
163.51148
 31
0.0
  0
SOLID
  5
328C
100
AcDbEntity
  8
0
  6
BYBLOCK
 62
     0
100
AcDbTrace
 10
113.275296
 20
163.944813
 30
0.0
 11
113.275296
 21
163.078146
 31
0.0
 12
110.675296
 22
163.51148
 32
0.0
 13
110.675296
 23
163.51148
 33
0.0
  0
SOLID
  5
328D
100
AcDbEntity
  8
0
  6
BYBLOCK
 62
     0
100
AcDbTrace
 10
119.075296
 20
163.944813
 30
0.0
 11
119.075296
 21
163.078146
 31
0.0
 12
121.675296
 22
163.51148
 32
0.0
 13
121.675296
 23
163.51148
 33
0.0
  0
MTEXT
  5
328E
100
AcDbEntity
  8
0
  6
BYBLOCK
 62
     0
100
AcDbMText
 10
116.175296
 20
166.54148
 30
0.0
 40
5.0
 41
0.0
 71
     5
 72
     1
  1
\A1;11
  0
POINT
  5
328F
100
AcDbEntity
  8
DEFPOINTS
  6
BYBLOCK
 62
     0
100
AcDbPoint
 10
110.675296
 20
170.340471
 30
0.0
  0
POINT
  5
3290
100
AcDbEntity
  8
DEFPOINTS
  6
BYBLOCK
 62
     0
100
AcDbPoint
 10
121.675296
 20
170.340471
 30
0.0
  0
POINT
  5
3291
100
AcDbEntity
  8
DEFPOINTS
  6
BYBLOCK
 62
     0
100
AcDbPoint
 10
121.675296
 20
163.51148
 30
0.0
  0
ENDBLK
  5
3293
100
AcDbEntity
  8
0
100
AcDbBlockEnd
  0
BLOCK
  5
32A7
100
AcDbEntity
  8
OGGETTO
  6
CONTINUOUS
100
AcDbBlockBegin
  2
A$CB174
 70
     0
 10
0.0
 20
0.0
 30
0.0
  3
A$CB174
  1

  0
DIMENSION
  5
3295
100
AcDbEntity
  8
QUOTE
  6
CONTINUOUS
100
AcDbDimension
  2
*D7
 10
16.253387
 20
26.916367
 30
0.0
 11
4.192608
 21
25.246684
 31
0.0
 12
-94.421909
 22
-161.924104
 32
0.0
 70
     2
  3
ISO-25
100
AcDb2LineAngularDimension
 13
16.253387
 23
26.916367
 33
0.0
 14
16.253387
 24
8.416367
 34
0.0
 15
11.753387
 25
22.416367
 35
0.0
 16
12.599314
 26
13.279183
 36
0.0
1001
ACAD
1000
DSTYLE
1002
{
1070
   140
1040
5.0
1070
    47
1040
0.2
1070
    73
1070
     0
1070
   272
1070
     2
1070
   147
1040
0.53
1070
    42
1040
0.53
1070
    44
1040
1.05
1070
    43
1040
3.16
1070
   271
1070
     2
1070
   141
1040
2.1
1070
    41
1040
2.6
1002
}
  0
DIMENSION
  5
3296
100
AcDbEntity
  8
QUOTE
  6
CONTINUOUS
100
AcDbDimension
  2
*D4
 10
21.753387
 20
44.316824
 30
0.0
 11
16.753387
 21
47.346824
 31
0.0
 12
-160.09088
 22
-161.924104
 32
0.0
  3
ISO-25
100
AcDbAlignedDimension
 13
11.753387
 23
36.416367
 33
0.0
 14
21.753387
 24
36.416367
 34
0.0
100
AcDbRotatedDimension
1001
ACAD
1000
DSTYLE
1002
{
1070
   140
1040
5.0
1070
    47
1040
0.2
1070
    73
1070
     0
1070
   272
1070
     2
1070
   147
1040
0.53
1070
    42
1040
0.53
1070
    44
1040
1.05
1070
    43
1040
3.16
1070
   271
1070
     2
1070
   141
1040
2.1
1070
    41
1040
2.6
1002
}
  0
DIMENSION
  5
3297
100
AcDbEntity
  8
QUOTE
  6
CONTINUOUS
100
AcDbDimension
  2
*D6
 10
31.753387
 20
52.614935
 30
0.0
 11
21.753387
 21
55.644935
 31
0.0
 12
-94.421909
 22
-161.924104
 32
0.0
  3
ISO-25
100
AcDbAlignedDimension
 13
11.753387
 23
35.416367
 33
0.0
 14
31.753387
 24
35.416367
 34
0.0
100
AcDbRotatedDimension
1001
ACAD
1000
DSTYLE
1002
{
1070
   140
1040
5.0
1070
    47
1040
0.2
1070
    73
1070
     0
1070
   272
1070
     2
1070
   147
1040
0.53
1070
    42
1040
0.53
1070
    44
1040
1.05
1070
    43
1040
3.16
1070
   271
1070
     2
1070
   141
1040
2.1
1070
    41
1040
2.6
1002
}
  0
DIMENSION
  5
3298
100
AcDbEntity
  8
QUOTE
  6
CONTINUOUS
100
AcDbDimension
  2
*D5
 10
31.753387
 20
44.316824
 30
0.0
 11
26.753387
 21
47.346824
 31
0.0
 12
-94.421909
 22
-161.924104
 32
0.0
  3
ISO-25
100
AcDbAlignedDimension
 13
21.753387
 23
36.416367
 33
0.0
 14
31.753387
 24
36.416367
 34
0.0
100
AcDbRotatedDimension
1001
ACAD
1000
DSTYLE
1002
{
1070
   140
1040
5.0
1070
    47
1040
0.2
1070
    73
1070
     0
1070
   272
1070
     2
1070
   147
1040
0.53
1070
    42
1040
0.53
1070
    44
1040
1.05
1070
    43
1040
3.16
1070
   271
1070
     2
1070
   141
1040
2.1
1070
    41
1040
2.6
1002
}
  0
DIMENSION
  5
3299
100
AcDbEntity
  8
QUOTE
  6
CONTINUOUS
100
AcDbDimension
  2
*D9
 10
42.539309
 20
8.416367
 30
0.0
 11
39.509309
 21
15.416367
 31
0.0
 12
-94.421909
 22
-161.924104
 32
0.0
  3
ISO-25
100
AcDbAlignedDimension
 13
31.753387
 23
22.416367
 33
0.0
 14
31.753387
 24
8.416367
 34
0.0
 50
90.0
100
AcDbRotatedDimension
1001
ACAD
1000
DSTYLE
1002
{
1070
   140
1040
5.0
1070
    47
1040
0.2
1070
    73
1070
     0
1070
   272
1070
     2
1070
   147
1040
0.53
1070
    42
1040
0.53
1070
    44
1040
1.05
1070
    43
1040
3.16
1070
   271
1070
     2
1070
   141
1040
2.1
1070
    41
1040
2.6
1002
}
  0
DIMENSION
  5
329A
100
AcDbEntity
  8
QUOTE
  6
CONTINUOUS
100
AcDbDimension
  2
*D8
 10
42.539309
 20
22.416367
 30
0.0
 11
39.509309
 21
29.416367
 31
0.0
 12
-94.421909
 22
-161.924104
 32
0.0
  3
ISO-25
100
AcDbAlignedDimension
 13
30.753387
 23
36.416367
 33
0.0
 14
31.753387
 24
22.416367
 34
0.0
 50
90.0
100
AcDbRotatedDimension
1001
ACAD
1000
DSTYLE
1002
{
1070
   140
1040
5.0
1070
    47
1040
0.2
1070
    73
1070
     0
1070
   272
1070
     2
1070
   147
1040
0.53
1070
    42
1040
0.53
1070
    44
1040
1.05
1070
    43
1040
3.16
1070
   271
1070
     2
1070
   141
1040
2.1
1070
    41
1040
2.6
1002
}
  0
DIMENSION
  5
329B
100
AcDbEntity
  8
QUOTE
  6
CONTINUOUS
100
AcDbDimension
  2
*D10
 10
27.253387
 20
1.587376
 30
0.0
 11
21.753387
 21
4.617376
 31
0.0
 12
-94.421909
 22
-161.924104
 32
0.0
  3
ISO-25
100
AcDbAlignedDimension
 13
16.253387
 23
8.416367
 33
0.0
 14
27.253387
 24
8.416367
 34
0.0
100
AcDbRotatedDimension
1001
ACAD
1000
DSTYLE
1002
{
1070
   140
1040
5.0
1070
    47
1040
0.2
1070
    73
1070
     0
1070
   272
1070
     2
1070
   147
1040
0.53
1070
    42
1040
0.53
1070
    44
1040
1.05
1070
    43
1040
3.16
1070
   271
1070
     2
1070
   141
1040
2.1
1070
    41
1040
2.6
1002
}
  0
LINE
  5
329C
100
AcDbEntity
  8
OGGETTO
  6
CONTINUOUS
100
AcDbLine
 10
30.753387
 20
36.416367
 30
0.0
 11
12.753387
 21
36.416367
 31
0.0
  0
LINE
  5
329D
100
AcDbEntity
  8
OGGETTO
  6
CONTINUOUS
100
AcDbLine
 10
16.253387
 20
26.916367
 30
0.0
 11
16.253387
 21
8.416367
 31
0.0
  0
LINE
  5
329E
100
AcDbEntity
  8
OGGETTO
  6
CONTINUOUS
100
AcDbLine
 10
16.253387
 20
8.416367
 30
0.0
 11
11.753387
 21
8.416367
 31
0.0
  0
LINE
  5
329F
100
AcDbEntity
  8
OGGETTO
  6
CONTINUOUS
100
AcDbLine
 10
11.753387
 20
35.416367
 30
0.0
 11
11.753387
 21
22.416367
 31
0.0
  0
LINE
  5
32A0
100
AcDbEntity
  8
OGGETTO
  6
CONTINUOUS
100
AcDbLine
 10
11.753387
 20
22.416367
 30
0.0
 11
16.253387
 21
26.916367
 31
0.0
  0
LINE
  5
32A1
100
AcDbEntity
  8
OGGETTO
  6
CONTINUOUS
100
AcDbLine
 10
12.753387
 20
36.416367
 30
0.0
 11
11.753387
 21
35.416367
 31
0.0
  0
LINE
  5
32A2
100
AcDbEntity
  8
OGGETTO
  6
CONTINUOUS
100
AcDbLine
 10
27.253387
 20
26.916367
 30
0.0
 11
27.253387
 21
8.416367
 31
0.0
  0
LINE
  5
32A3
100
AcDbEntity
  8
OGGETTO
  6
CONTINUOUS
100
AcDbLine
 10
31.753387
 20
8.416367
 30
0.0
 11
27.253387
 21
8.416367
 31
0.0
  0
LINE
  5
32A4
100
AcDbEntity
  8
OGGETTO
  6
CONTINUOUS
100
AcDbLine
 10
31.753387
 20
35.416367
 30
0.0
 11
31.753387
 21
22.416367
 31
0.0
  0
LINE
  5
32A5
100
AcDbEntity
  8
OGGETTO
  6
CONTINUOUS
100
AcDbLine
 10
31.753387
 20
22.416367
 30
0.0
 11
27.253387
 21
26.916367
 31
0.0
  0
LINE
  5
32A6
100
AcDbEntity
  8
OGGETTO
  6
CONTINUOUS
100
AcDbLine
 10
30.753387
 20
36.416367
 30
0.0
 11
31.753387
 21
35.416367
 31
0.0
  0
ENDBLK
  5
32A8
100
AcDbEntity
  8
OGGETTO
  6
CONTINUOUS
100
AcDbBlockEnd
  0
BLOCK
  5
3316
100
AcDbEntity
  8
0
100
AcDbBlockBegin
  2
*D12
 70
    65
 10
0.0
 20
0.0
 30
0.0
  3
*D12
  1

  0
LINE
  5
3317
100
AcDbEntity
  8
0
  6
BYBLOCK
 62
     0
100
AcDbLine
 10
26.901038
 20
208.442484
 30
0.0
 11
21.050231
 21
202.591676
 31
0.0
  0
ARC
  5
3318
100
AcDbEntity
  8
0
  6
BYBLOCK
 62
     0
100
AcDbCircle
 10
31.775804
 20
213.31725
 30
0.0
 40
14.118252
100
AcDbArc
 50
212.282499
 51
225.0
  0
ARC
  5
3319
100
AcDbEntity
  8
0
  6
BYBLOCK
 62
     0
100
AcDbCircle
 10
31.775804
 20
213.31725
 30
0.0
 40
14.118252
100
AcDbArc
 50
235.566488
 51
259.433512
  0
SOLID
  5
331A
100
AcDbEntity
  8
0
  6
BYBLOCK
 62
     0
100
AcDbTrace
 10
23.515749
 20
201.339432
 30
0.0
 11
24.069543
 21
202.006083
 31
0.0
 12
21.792693
 22
203.334139
 32
0.0
 13
21.792693
 23
203.334139
 33
0.0
  0
SOLID
  5
331B
100
AcDbEntity
  8
0
  6
BYBLOCK
 62
     0
100
AcDbTrace
 10
29.226751
 20
199.869897
 30
0.0
 11
29.146949
 21
199.006912
 31
0.0
 12
31.775804
 22
199.198998
 32
0.0
 13
31.775804
 23
199.198998
 33
0.0
  0
MTEXT
  5
331C
100
AcDbEntity
  8
0
  6
BYBLOCK
 62
     0
100
AcDbMText
 10
19.715025
 20
211.647568
 30
0.0
 40
5.0
 41
0.0
 71
     5
 72
     1
  1
\A1;45°
 11
0.534094
 21
-0.845425
 31
0.0
  0
POINT
  5
331D
100
AcDbEntity
  8
DEFPOINTS
  6
BYBLOCK
 62
     0
100
AcDbPoint
 10
28.121732
 20
199.680066
 30
0.0
  0
POINT
  5
331E
100
AcDbEntity
  8
DEFPOINTS
  6
BYBLOCK
 62
     0
100
AcDbPoint
 10
27.275804
 20
208.81725
 30
0.0
  0
POINT
  5
331F
100
AcDbEntity
  8
DEFPOINTS
  6
BYBLOCK
 62
     0
100
AcDbPoint
 10
31.775804
 20
213.31725
 30
0.0
  0
POINT
  5
3320
100
AcDbEntity
  8
DEFPOINTS
  6
BYBLOCK
 62
     0
100
AcDbPoint
 10
31.775804
 20
194.81725
 30
0.0
  0
POINT
  5
3321
100
AcDbEntity
  8
DEFPOINTS
  6
BYBLOCK
 62
     0
100
AcDbPoint
 10
31.775804
 20
213.31725
 30
0.0
  0
ENDBLK
  5
3322
100
AcDbEntity
  8
0
100
AcDbBlockEnd
  0
BLOCK
  5
3450
100
AcDbEntity
  8
0
100
AcDbBlockBegin
  2
*D13
 70
    65
 10
0.0
 20
0.0
 30
0.0
  3
*D13
  1

  0
LINE
  5
3451
100
AcDbEntity
  8
0
  6
BYBLOCK
 62
     0
100
AcDbLine
 10
106.175296
 20
197.870471
 30
0.0
 11
106.175296
 21
213.699972
 31
0.0
  0
LINE
  5
3452
100
AcDbEntity
  8
0
  6
BYBLOCK
 62
     0
100
AcDbLine
 10
126.175296
 20
197.870471
 30
0.0
 11
126.175296
 21
213.699972
 31
0.0
  0
LINE
  5
3453
100
AcDbEntity
  8
0
  6
BYBLOCK
 62
     0
100
AcDbLine
 10
108.775296
 20
212.649972
 30
0.0
 11
123.575296
 21
212.649972
 31
0.0
  0
SOLID
  5
3454
100
AcDbEntity
  8
0
  6
BYBLOCK
 62
     0
100
AcDbTrace
 10
108.775296
 20
213.083306
 30
0.0
 11
108.775296
 21
212.216639
 31
0.0
 12
106.175296
 22
212.649972
 32
0.0
 13
106.175296
 23
212.649972
 33
0.0
  0
SOLID
  5
3455
100
AcDbEntity
  8
0
  6
BYBLOCK
 62
     0
100
AcDbTrace
 10
123.575296
 20
213.083306
 30
0.0
 11
123.575296
 21
212.216639
 31
0.0
 12
126.175296
 22
212.649972
 32
0.0
 13
126.175296
 23
212.649972
 33
0.0
  0
MTEXT
  5
3456
100
AcDbEntity
  8
0
  6
BYBLOCK
 62
     0
100
AcDbMText
 10
116.175296
 20
215.679972
 30
0.0
 40
5.0
 41
0.0
 71
     5
 72
     1
  1
\A1;20
  0
POINT
  5
3457
100
AcDbEntity
  8
DEFPOINTS
  6
BYBLOCK
 62
     0
100
AcDbPoint
 10
106.175296
 20
197.340471
 30
0.0
  0
POINT
  5
3458
100
AcDbEntity
  8
DEFPOINTS
  6
BYBLOCK
 62
     0
100
AcDbPoint
 10
126.175296
 20
197.340471
 30
0.0
  0
POINT
  5
3459
100
AcDbEntity
  8
DEFPOINTS
  6
BYBLOCK
 62
     0
100
AcDbPoint
 10
126.175296
 20
212.649972
 30
0.0
  0
ENDBLK
  5
345A
100
AcDbEntity
  8
0
100
AcDbBlockEnd
  0
BLOCK
  5
3348
100
AcDbEntity
  8
0
100
AcDbBlockBegin
  2
*D14
 70
    65
 10
0.0
 20
0.0
 30
0.0
  3
*D14
  1

  0
LINE
  5
3349
100
AcDbEntity
  8
0
  6
BYBLOCK
 62
     0
100
AcDbLine
 10
47.805804
 20
208.81725
 30
0.0
 11
59.111727
 21
208.81725
 31
0.0
  0
LINE
  5
334A
100
AcDbEntity
  8
0
  6
BYBLOCK
 62
     0
100
AcDbLine
 10
47.805804
 20
194.81725
 30
0.0
 11
59.111727
 21
194.81725
 31
0.0
  0
LINE
  5
334B
100
AcDbEntity
  8
0
  6
BYBLOCK
 62
     0
100
AcDbLine
 10
58.061727
 20
206.21725
 30
0.0
 11
58.061727
 21
197.41725
 31
0.0
  0
SOLID
  5
334C
100
AcDbEntity
  8
0
  6
BYBLOCK
 62
     0
100
AcDbTrace
 10
57.628393
 20
206.21725
 30
0.0
 11
58.49506
 21
206.21725
 31
0.0
 12
58.061727
 22
208.81725
 32
0.0
 13
58.061727
 23
208.81725
 33
0.0
  0
SOLID
  5
334D
100
AcDbEntity
  8
0
  6
BYBLOCK
 62
     0
100
AcDbTrace
 10
57.628393
 20
197.41725
 30
0.0
 11
58.49506
 21
197.41725
 31
0.0
 12
58.061727
 22
194.81725
 32
0.0
 13
58.061727
 23
194.81725
 33
0.0
  0
MTEXT
  5
334E
100
AcDbEntity
  8
0
  6
BYBLOCK
 62
     0
100
AcDbMText
 10
55.031727
 20
201.81725
 30
0.0
 40
5.0
 41
0.0
 71
     5
 72
     1
  1
\A1;14
 11
0.0
 21
1.0
 31
0.0
  0
POINT
  5
334F
100
AcDbEntity
  8
DEFPOINTS
  6
BYBLOCK
 62
     0
100
AcDbPoint
 10
47.275804
 20
208.81725
 30
0.0
  0
POINT
  5
3350
100
AcDbEntity
  8
DEFPOINTS
  6
BYBLOCK
 62
     0
100
AcDbPoint
 10
47.275804
 20
194.81725
 30
0.0
  0
POINT
  5
3351
100
AcDbEntity
  8
DEFPOINTS
  6
BYBLOCK
 62
     0
100
AcDbPoint
 10
58.061727
 20
194.81725
 30
0.0
  0
ENDBLK
  5
3352
100
AcDbEntity
  8
0
100
AcDbBlockEnd
  0
BLOCK
  5
3353
100
AcDbEntity
  8
0
100
AcDbBlockBegin
  2
*D15
 70
    65
 10
0.0
 20
0.0
 30
0.0
  3
*D15
  1

  0
LINE
  5
3354
100
AcDbEntity
  8
0
  6
BYBLOCK
 62
     0
100
AcDbLine
 10
46.805804
 20
222.81725
 30
0.0
 11
59.111727
 21
222.81725
 31
0.0
  0
LINE
  5
3355
100
AcDbEntity
  8
0
  6
BYBLOCK
 62
     0
100
AcDbLine
 10
47.805804
 20
208.81725
 30
0.0
 11
59.111727
 21
208.81725
 31
0.0
  0
LINE
  5
3356
100
AcDbEntity
  8
0
  6
BYBLOCK
 62
     0
100
AcDbLine
 10
58.061727
 20
220.21725
 30
0.0
 11
58.061727
 21
211.41725
 31
0.0
  0
SOLID
  5
3357
100
AcDbEntity
  8
0
  6
BYBLOCK
 62
     0
100
AcDbTrace
 10
57.628393
 20
220.21725
 30
0.0
 11
58.49506
 21
220.21725
 31
0.0
 12
58.061727
 22
222.81725
 32
0.0
 13
58.061727
 23
222.81725
 33
0.0
  0
SOLID
  5
3358
100
AcDbEntity
  8
0
  6
BYBLOCK
 62
     0
100
AcDbTrace
 10
57.628393
 20
211.41725
 30
0.0
 11
58.49506
 21
211.41725
 31
0.0
 12
58.061727
 22
208.81725
 32
0.0
 13
58.061727
 23
208.81725
 33
0.0
  0
MTEXT
  5
3359
100
AcDbEntity
  8
0
  6
BYBLOCK
 62
     0
100
AcDbMText
 10
55.031727
 20
215.81725
 30
0.0
 40
5.0
 41
0.0
 71
     5
 72
     1
  1
\A1;14
 11
0.0
 21
1.0
 31
0.0
  0
POINT
  5
335A
100
AcDbEntity
  8
DEFPOINTS
  6
BYBLOCK
 62
     0
100
AcDbPoint
 10
46.275804
 20
222.81725
 30
0.0
  0
POINT
  5
335B
100
AcDbEntity
  8
DEFPOINTS
  6
BYBLOCK
 62
     0
100
AcDbPoint
 10
47.275804
 20
208.81725
 30
0.0
  0
POINT
  5
335C
100
AcDbEntity
  8
DEFPOINTS
  6
BYBLOCK
 62
     0
100
AcDbPoint
 10
58.061727
 20
208.81725
 30
0.0
  0
ENDBLK
  5
335D
100
AcDbEntity
  8
0
100
AcDbBlockEnd
  0
BLOCK
  5
335E
100
AcDbEntity
  8
0
100
AcDbBlockBegin
  2
*D16
 70
    65
 10
0.0
 20
0.0
 30
0.0
  3
*D16
  1

  0
LINE
  5
335F
100
AcDbEntity
  8
0
  6
BYBLOCK
 62
     0
100
AcDbLine
 10
31.775804
 20
194.28725
 30
0.0
 11
31.775804
 21
186.938259
 31
0.0
  0
LINE
  5
3360
100
AcDbEntity
  8
0
  6
BYBLOCK
 62
     0
100
AcDbLine
 10
42.775804
 20
194.28725
 30
0.0
 11
42.775804
 21
186.938259
 31
0.0
  0
LINE
  5
3361
100
AcDbEntity
  8
0
  6
BYBLOCK
 62
     0
100
AcDbLine
 10
34.375804
 20
187.988259
 30
0.0
 11
40.175804
 21
187.988259
 31
0.0
  0
SOLID
  5
3362
100
AcDbEntity
  8
0
  6
BYBLOCK
 62
     0
100
AcDbTrace
 10
34.375804
 20
188.421593
 30
0.0
 11
34.375804
 21
187.554926
 31
0.0
 12
31.775804
 22
187.988259
 32
0.0
 13
31.775804
 23
187.988259
 33
0.0
  0
SOLID
  5
3363
100
AcDbEntity
  8
0
  6
BYBLOCK
 62
     0
100
AcDbTrace
 10
40.175804
 20
188.421593
 30
0.0
 11
40.175804
 21
187.554926
 31
0.0
 12
42.775804
 22
187.988259
 32
0.0
 13
42.775804
 23
187.988259
 33
0.0
  0
MTEXT
  5
3364
100
AcDbEntity
  8
0
  6
BYBLOCK
 62
     0
100
AcDbMText
 10
37.275804
 20
191.018259
 30
0.0
 40
5.0
 41
0.0
 71
     5
 72
     1
  1
\A1;11
  0
POINT
  5
3365
100
AcDbEntity
  8
DEFPOINTS
  6
BYBLOCK
 62
     0
100
AcDbPoint
 10
31.775804
 20
194.81725
 30
0.0
  0
POINT
  5
3366
100
AcDbEntity
  8
DEFPOINTS
  6
BYBLOCK
 62
     0
100
AcDbPoint
 10
42.775804
 20
194.81725
 30
0.0
  0
POINT
  5
3367
100
AcDbEntity
  8
DEFPOINTS
  6
BYBLOCK
 62
     0
100
AcDbPoint
 10
42.775804
 20
187.988259
 30
0.0
  0
ENDBLK
  5
3368
100
AcDbEntity
  8
0
100
AcDbBlockEnd
  0
BLOCK
  5
339F
100
AcDbEntity
  8
0
100
AcDbBlockBegin
  2
*D17
 70
    65
 10
0.0
 20
0.0
 30
0.0
  3
*D17
  1

  0
LINE
  5
33A0
100
AcDbEntity
  8
0
  6
BYBLOCK
 62
     0
100
AcDbLine
 10
115.817233
 20
42.229433
 30
0.0
 11
108.437782
 21
34.176175
 31
0.0
  0
LINE
  5
33A1
100
AcDbEntity
  8
0
  6
BYBLOCK
 62
     0
100
AcDbLine
 10
116.533358
 20
42.229433
 30
0.0
 11
123.912809
 21
34.176175
 31
0.0
  0
ARC
  5
33A2
100
AcDbEntity
  8
0
  6
BYBLOCK
 62
     0
100
AcDbCircle
 10
116.175296
 20
42.62019
 30
0.0
 40
10.402969
100
AcDbArc
 50
241.857391
 51
298.142609
  0
SOLID
  5
33A3
100
AcDbEntity
  8
0
  6
BYBLOCK
 62
     0
100
AcDbTrace
 10
111.018014
 20
33.093531
 30
0.0
 11
111.519087
 21
33.800664
 31
0.0
 12
109.147152
 22
34.950316
 32
0.0
 13
109.147152
 23
34.950316
 33
0.0
  0
SOLID
  5
33A4
100
AcDbEntity
  8
0
  6
BYBLOCK
 62
     0
100
AcDbTrace
 10
120.831504
 20
33.800664
 30
0.0
 11
121.332577
 21
33.093531
 31
0.0
 12
123.20344
 22
34.950316
 32
0.0
 13
123.20344
 23
34.950316
 33
0.0
  0
MTEXT
  5
33A5
100
AcDbEntity
  8
0
  6
BYBLOCK
 62
     0
100
AcDbMText
 10
116.175296
 20
35.247221
 30
0.0
 40
5.0
 41
0.0
 71
     5
 72
     1
  1
\A1;85°
  0
POINT
  5
33A6
100
AcDbEntity
  8
DEFPOINTS
  6
BYBLOCK
 62
     0
100
AcDbPoint
 10
113.629238
 20
32.533597
 30
0.0
  0
POINT
  5
33A7
100
AcDbEntity
  8
DEFPOINTS
  6
BYBLOCK
 62
     0
100
AcDbPoint
 10
115.06938
 20
43.827085
 30
0.0
  0
POINT
  5
33A8
100
AcDbEntity
  8
DEFPOINTS
  6
BYBLOCK
 62
     0
100
AcDbPoint
 10
117.281212
 20
43.827085
 30
0.0
  0
POINT
  5
33A9
100
AcDbEntity
  8
DEFPOINTS
  6
BYBLOCK
 62
     0
100
AcDbPoint
 10
121.65123
 20
48.596124
 30
0.0
  0
POINT
  5
33AA
100
AcDbEntity
  8
DEFPOINTS
  6
BYBLOCK
 62
     0
100
AcDbPoint
 10
112.032011
 20
47.141792
 30
0.0
  0
ENDBLK
  5
33AB
100
AcDbEntity
  8
0
100
AcDbBlockEnd
  0
BLOCK
  5
342C
100
AcDbEntity
  8
0
100
AcDbBlockBegin
  2
*D20
 70
    65
 10
0.0
 20
0.0
 30
0.0
  3
*D20
  1

  0
LINE
  5
342D
100
AcDbEntity
  8
0
  6
BYBLOCK
 62
     0
100
AcDbLine
 10
106.175296
 20
197.870471
 30
0.0
 11
106.175296
 21
206.322495
 31
0.0
  0
LINE
  5
342E
100
AcDbEntity
  8
0
  6
BYBLOCK
 62
     0
100
AcDbLine
 10
116.175296
 20
198.870471
 30
0.0
 11
116.175296
 21
206.322495
 31
0.0
  0
LINE
  5
342F
100
AcDbEntity
  8
0
  6
BYBLOCK
 62
     0
100
AcDbLine
 10
103.575296
 20
205.272495
 30
0.0
 11
100.975296
 21
205.272495
 31
0.0
  0
LINE
  5
3430
100
AcDbEntity
  8
0
  6
BYBLOCK
 62
     0
100
AcDbLine
 10
118.775296
 20
205.272495
 30
0.0
 11
121.375296
 21
205.272495
 31
0.0
  0
LINE
  5
3431
100
AcDbEntity
  8
0
  6
BYBLOCK
 62
     0
100
AcDbLine
 10
106.175296
 20
205.272495
 30
0.0
 11
116.175296
 21
205.272495
 31
0.0
  0
SOLID
  5
3432
100
AcDbEntity
  8
0
  6
BYBLOCK
 62
     0
100
AcDbTrace
 10
103.575296
 20
205.705828
 30
0.0
 11
103.575296
 21
204.839161
 31
0.0
 12
106.175296
 22
205.272495
 32
0.0
 13
106.175296
 23
205.272495
 33
0.0
  0
SOLID
  5
3433
100
AcDbEntity
  8
0
  6
BYBLOCK
 62
     0
100
AcDbTrace
 10
118.775296
 20
205.705828
 30
0.0
 11
118.775296
 21
204.839161
 31
0.0
 12
116.175296
 22
205.272495
 32
0.0
 13
116.175296
 23
205.272495
 33
0.0
  0
MTEXT
  5
3434
100
AcDbEntity
  8
0
  6
BYBLOCK
 62
     0
100
AcDbMText
 10
111.175296
 20
208.302495
 30
0.0
 40
5.0
 41
0.0
 71
     5
 72
     1
  1
\A1;10
  0
POINT
  5
3435
100
AcDbEntity
  8
DEFPOINTS
  6
BYBLOCK
 62
     0
100
AcDbPoint
 10
106.175296
 20
197.340471
 30
0.0
  0
POINT
  5
3436
100
AcDbEntity
  8
DEFPOINTS
  6
BYBLOCK
 62
     0
100
AcDbPoint
 10
116.175296
 20
198.340471
 30
0.0
  0
POINT
  5
3437
100
AcDbEntity
  8
DEFPOINTS
  6
BYBLOCK
 62
     0
100
AcDbPoint
 10
116.175296
 20
205.272495
 30
0.0
  0
ENDBLK
  5
3438
100
AcDbEntity
  8
0
100
AcDbBlockEnd
  0
BLOCK
  5
348D
100
AcDbEntity
  8
0
100
AcDbBlockBegin
  2
*X21
 70
    65
 10
0.0
 20
0.0
 30
0.0
  3
*X21
  1

  0
LINE
  5
348F
100
AcDbEntity
  8
0
  6
CONTINUOUS
 62
     0
100
AcDbLine
 10
114.934209
 20
44.214692
 30
0.0
 11
116.175296
 21
45.455779
 31
0.0
  0
LINE
  5
3490
100
AcDbEntity
  8
0
  6
CONTINUOUS
 62
     0
100
AcDbLine
 10
116.175296
 20
45.455779
 30
0.0
 11
117.370225
 21
46.650708
 31
0.0
  0
LINE
  5
3491
100
AcDbEntity
  8
0
  6
CONTINUOUS
 62
     0
100
AcDbLine
 10
114.826857
 20
44.331846
 30
0.0
 11
116.175296
 21
45.680285
 31
0.0
  0
LINE
  5
3492
100
AcDbEntity
  8
0
  6
CONTINUOUS
 62
     0
100
AcDbLine
 10
116.175296
 20
45.680285
 30
0.0
 11
117.124555
 21
46.629545
 31
0.0
  0
LINE
  5
3493
100
AcDbEntity
  8
0
  6
CONTINUOUS
 62
     0
100
AcDbLine
 10
114.719505
 20
44.449001
 30
0.0
 11
116.175296
 21
45.904792
 31
0.0
  0
LINE
  5
3494
100
AcDbEntity
  8
0
  6
CONTINUOUS
 62
     0
100
AcDbLine
 10
116.175296
 20
45.904792
 30
0.0
 11
116.884194
 21
46.61369
 31
0.0
  0
LINE
  5
3495
100
AcDbEntity
  8
0
  6
CONTINUOUS
 62
     0
100
AcDbLine
 10
114.612153
 20
44.566155
 30
0.0
 11
116.175296
 21
46.129298
 31
0.0
  0
LINE
  5
3496
100
AcDbEntity
  8
0
  6
CONTINUOUS
 62
     0
100
AcDbLine
 10
116.175296
 20
46.129298
 30
0.0
 11
116.648794
 21
46.602796
 31
0.0
  0
LINE
  5
3497
100
AcDbEntity
  8
0
  6
CONTINUOUS
 62
     0
100
AcDbLine
 10
114.5048
 20
44.683309
 30
0.0
 11
116.175296
 21
46.353804
 31
0.0
  0
LINE
  5
3498
100
AcDbEntity
  8
0
  6
CONTINUOUS
 62
     0
100
AcDbLine
 10
116.175296
 20
46.353804
 30
0.0
 11
116.418046
 21
46.596554
 31
0.0
  0
LINE
  5
3499
100
AcDbEntity
  8
0
  6
CONTINUOUS
 62
     0
100
AcDbLine
 10
114.397448
 20
44.800463
 30
0.0
 11
116.175296
 21
46.578311
 31
0.0
  0
LINE
  5
349A
100
AcDbEntity
  8
0
  6
CONTINUOUS
 62
     0
100
AcDbLine
 10
116.175296
 20
46.578311
 30
0.0
 11
116.191679
 21
46.594694
 31
0.0
  0
LINE
  5
349B
100
AcDbEntity
  8
0
  6
CONTINUOUS
 62
     0
100
AcDbLine
 10
114.290096
 20
44.917618
 30
0.0
 11
115.96945
 21
46.596971
 31
0.0
  0
LINE
  5
349C
100
AcDbEntity
  8
0
  6
CONTINUOUS
 62
     0
100
AcDbLine
 10
114.182744
 20
45.034772
 30
0.0
 11
115.751143
 21
46.603171
 31
0.0
  0
LINE
  5
349D
100
AcDbEntity
  8
0
  6
CONTINUOUS
 62
     0
100
AcDbLine
 10
114.075392
 20
45.151926
 30
0.0
 11
115.536562
 21
46.613096
 31
0.0
  0
LINE
  5
349E
100
AcDbEntity
  8
0
  6
CONTINUOUS
 62
     0
100
AcDbLine
 10
113.96804
 20
45.26908
 30
0.0
 11
115.325532
 21
46.626572
 31
0.0
  0
LINE
  5
349F
100
AcDbEntity
  8
0
  6
CONTINUOUS
 62
     0
100
AcDbLine
 10
113.860688
 20
45.386235
 30
0.0
 11
115.117892
 21
46.643439
 31
0.0
  0
LINE
  5
34A0
100
AcDbEntity
  8
0
  6
CONTINUOUS
 62
     0
100
AcDbLine
 10
113.753336
 20
45.503389
 30
0.0
 11
114.913498
 21
46.663552
 31
0.0
  0
LINE
  5
34A1
100
AcDbEntity
  8
0
  6
CONTINUOUS
 62
     0
100
AcDbLine
 10
113.645983
 20
45.620543
 30
0.0
 11
114.712218
 21
46.686778
 31
0.0
  0
LINE
  5
34A2
100
AcDbEntity
  8
0
  6
CONTINUOUS
 62
     0
100
AcDbLine
 10
113.538631
 20
45.737698
 30
0.0
 11
114.513929
 21
46.712995
 31
0.0
  0
LINE
  5
34A3
100
AcDbEntity
  8
0
  6
CONTINUOUS
 62
     0
100
AcDbLine
 10
113.431279
 20
45.854852
 30
0.0
 11
114.318521
 21
46.742094
 31
0.0
  0
LINE
  5
34A4
100
AcDbEntity
  8
0
  6
CONTINUOUS
 62
     0
100
AcDbLine
 10
113.323927
 20
45.972006
 30
0.0
 11
114.125892
 21
46.773971
 31
0.0
  0
LINE
  5
34A5
100
AcDbEntity
  8
0
  6
CONTINUOUS
 62
     0
100
AcDbLine
 10
113.216575
 20
46.08916
 30
0.0
 11
113.935946
 21
46.808532
 31
0.0
  0
LINE
  5
34A6
100
AcDbEntity
  8
0
  6
CONTINUOUS
 62
     0
100
AcDbLine
 10
113.109223
 20
46.206315
 30
0.0
 11
113.748598
 21
46.845689
 31
0.0
  0
LINE
  5
34A7
100
AcDbEntity
  8
0
  6
CONTINUOUS
 62
     0
100
AcDbLine
 10
113.001871
 20
46.323469
 30
0.0
 11
113.563765
 21
46.885363
 31
0.0
  0
LINE
  5
34A8
100
AcDbEntity
  8
0
  6
CONTINUOUS
 62
     0
100
AcDbLine
 10
112.894519
 20
46.440623
 30
0.0
 11
113.381374
 21
46.927478
 31
0.0
  0
LINE
  5
34A9
100
AcDbEntity
  8
0
  6
CONTINUOUS
 62
     0
100
AcDbLine
 10
112.787166
 20
46.557778
 30
0.0
 11
113.201354
 21
46.971965
 31
0.0
  0
LINE
  5
34AA
100
AcDbEntity
  8
0
  6
CONTINUOUS
 62
     0
100
AcDbLine
 10
112.679814
 20
46.674932
 30
0.0
 11
113.023642
 21
47.018759
 31
0.0
  0
LINE
  5
34AB
100
AcDbEntity
  8
0
  6
CONTINUOUS
 62
     0
100
AcDbLine
 10
112.572462
 20
46.792086
 30
0.0
 11
112.848176
 21
47.0678
 31
0.0
  0
LINE
  5
34AC
100
AcDbEntity
  8
0
  6
CONTINUOUS
 62
     0
100
AcDbLine
 10
112.46511
 20
46.90924
 30
0.0
 11
112.674901
 21
47.119031
 31
0.0
  0
LINE
  5
34AD
100
AcDbEntity
  8
0
  6
CONTINUOUS
 62
     0
100
AcDbLine
 10
112.357758
 20
47.026395
 30
0.0
 11
112.503763
 21
47.1724
 31
0.0
  0
LINE
  5
34AE
100
AcDbEntity
  8
0
  6
CONTINUOUS
 62
     0
100
AcDbLine
 10
112.250406
 20
47.143549
 30
0.0
 11
112.334715
 21
47.227858
 31
0.0
  0
LINE
  5
34AF
100
AcDbEntity
  8
0
  6
CONTINUOUS
 62
     0
100
AcDbLine
 10
112.143054
 20
47.260703
 30
0.0
 11
112.167709
 21
47.285359
 31
0.0
  0
LINE
  5
34B0
100
AcDbEntity
  8
0
  6
CONTINUOUS
 62
     0
100
AcDbLine
 10
115.041561
 20
44.097538
 30
0.0
 11
116.175296
 21
45.231272
 31
0.0
  0
LINE
  5
34B1
100
AcDbEntity
  8
0
  6
CONTINUOUS
 62
     0
100
AcDbLine
 10
116.175296
 20
45.231272
 30
0.0
 11
117.621603
 21
46.677579
 31
0.0
  0
LINE
  5
34B2
100
AcDbEntity
  8
0
  6
CONTINUOUS
 62
     0
100
AcDbLine
 10
115.148913
 20
43.980383
 30
0.0
 11
116.175296
 21
45.006766
 31
0.0
  0
LINE
  5
34B3
100
AcDbEntity
  8
0
  6
CONTINUOUS
 62
     0
100
AcDbLine
 10
116.175296
 20
45.006766
 30
0.0
 11
117.879149
 21
46.710619
 31
0.0
  0
LINE
  5
34B4
100
AcDbEntity
  8
0
  6
CONTINUOUS
 62
     0
100
AcDbLine
 10
115.256265
 20
43.863229
 30
0.0
 11
116.175296
 21
44.782259
 31
0.0
  0
LINE
  5
34B5
100
AcDbEntity
  8
0
  6
CONTINUOUS
 62
     0
100
AcDbLine
 10
116.175296
 20
44.782259
 30
0.0
 11
118.143398
 21
46.750362
 31
0.0
  0
LINE
  5
34B6
100
AcDbEntity
  8
0
  6
CONTINUOUS
 62
     0
100
AcDbLine
 10
115.363617
 20
43.746075
 30
0.0
 11
116.175296
 21
44.557753
 31
0.0
  0
LINE
  5
34B7
100
AcDbEntity
  8
0
  6
CONTINUOUS
 62
     0
100
AcDbLine
 10
116.175296
 20
44.557753
 30
0.0
 11
118.414979
 21
46.797436
 31
0.0
  0
LINE
  5
34B8
100
AcDbEntity
  8
0
  6
CONTINUOUS
 62
     0
100
AcDbLine
 10
115.47181
 20
43.629761
 30
0.0
 11
116.175296
 21
44.333247
 31
0.0
  0
LINE
  5
34B9
100
AcDbEntity
  8
0
  6
CONTINUOUS
 62
     0
100
AcDbLine
 10
116.175296
 20
44.333247
 30
0.0
 11
118.694637
 21
46.852588
 31
0.0
  0
LINE
  5
34BA
100
AcDbEntity
  8
0
  6
CONTINUOUS
 62
     0
100
AcDbLine
 10
115.593611
 20
43.527056
 30
0.0
 11
116.175296
 21
44.10874
 31
0.0
  0
LINE
  5
34BB
100
AcDbEntity
  8
0
  6
CONTINUOUS
 62
     0
100
AcDbLine
 10
116.175296
 20
44.10874
 30
0.0
 11
118.983268
 21
46.916713
 31
0.0
  0
LINE
  5
34BC
100
AcDbEntity
  8
0
  6
CONTINUOUS
 62
     0
100
AcDbLine
 10
115.734114
 20
43.443053
 30
0.0
 11
116.175296
 21
43.884234
 31
0.0
  0
LINE
  5
34BD
100
AcDbEntity
  8
0
  6
CONTINUOUS
 62
     0
100
AcDbLine
 10
116.175296
 20
43.884234
 30
0.0
 11
119.281968
 21
46.990907
 31
0.0
  0
LINE
  5
34BE
100
AcDbEntity
  8
0
  6
CONTINUOUS
 62
     0
100
AcDbLine
 10
115.895871
 20
43.380303
 30
0.0
 11
116.175296
 21
43.659727
 31
0.0
  0
LINE
  5
34BF
100
AcDbEntity
  8
0
  6
CONTINUOUS
 62
     0
100
AcDbLine
 10
116.175296
 20
43.659727
 30
0.0
 11
119.592098
 21
47.07653
 31
0.0
  0
LINE
  5
34C0
100
AcDbEntity
  8
0
  6
CONTINUOUS
 62
     0
100
AcDbLine
 10
116.084661
 20
43.344586
 30
0.0
 11
116.175296
 21
43.435221
 31
0.0
  0
LINE
  5
34C1
100
AcDbEntity
  8
0
  6
CONTINUOUS
 62
     0
100
AcDbLine
 10
116.175296
 20
43.435221
 30
0.0
 11
119.915384
 21
47.17531
 31
0.0
  0
LINE
  5
34C2
100
AcDbEntity
  8
0
  6
CONTINUOUS
 62
     0
100
AcDbLine
 10
116.314835
 20
43.350254
 30
0.0
 11
120.013177
 21
47.048596
 31
0.0
  0
LINE
  5
34C3
100
AcDbEntity
  8
0
  6
CONTINUOUS
 62
     0
100
AcDbLine
 10
116.648728
 20
43.45964
 30
0.0
 11
117.554409
 21
44.365322
 31
0.0
  0
ENDBLK
  5
34C4
100
AcDbEntity
  8
0
100
AcDbBlockEnd
  0
BLOCK
  5
34E9
100
AcDbEntity
  8
0
100
AcDbBlockBegin
  2
*D22
 70
    65
 10
0.0
 20
0.0
 30
0.0
  3
*D22
  1

  0
LINE
  5
34EA
100
AcDbEntity
  8
0
  6
BYBLOCK
 62
     0
100
AcDbLine
 10
106.175296
 20
145.610182
 30
0.0
 11
106.175296
 21
144.680322
 31
0.0
  0
LINE
  5
34EB
100
AcDbEntity
  8
0
  6
BYBLOCK
 62
     0
100
AcDbLine
 10
136.175296
 20
145.610182
 30
0.0
 11
136.175296
 21
144.680322
 31
0.0
  0
LINE
  5
34EC
100
AcDbEntity
  8
0
  6
BYBLOCK
 62
     0
100
AcDbLine
 10
108.775296
 20
145.730322
 30
0.0
 11
133.575296
 21
145.730322
 31
0.0
  0
SOLID
  5
34ED
100
AcDbEntity
  8
0
  6
BYBLOCK
 62
     0
100
AcDbTrace
 10
108.775296
 20
146.163655
 30
0.0
 11
108.775296
 21
145.296988
 31
0.0
 12
106.175296
 22
145.730322
 32
0.0
 13
106.175296
 23
145.730322
 33
0.0
  0
SOLID
  5
34EE
100
AcDbEntity
  8
0
  6
BYBLOCK
 62
     0
100
AcDbTrace
 10
133.575296
 20
146.163655
 30
0.0
 11
133.575296
 21
145.296988
 31
0.0
 12
136.175296
 22
145.730322
 32
0.0
 13
136.175296
 23
145.730322
 33
0.0
  0
MTEXT
  5
34EF
100
AcDbEntity
  8
0
  6
BYBLOCK
 62
     0
100
AcDbMText
 10
121.175296
 20
148.760322
 30
0.0
 40
5.0
 41
0.0
 71
     5
 72
     1
  1
\A1;30
  0
POINT
  5
34F0
100
AcDbEntity
  8
DEFPOINTS
  6
BYBLOCK
 62
     0
100
AcDbPoint
 10
106.175296
 20
146.140182
 30
0.0
  0
POINT
  5
34F1
100
AcDbEntity
  8
DEFPOINTS
  6
BYBLOCK
 62
     0
100
AcDbPoint
 10
136.175296
 20
146.140182
 30
0.0
  0
POINT
  5
34F2
100
AcDbEntity
  8
DEFPOINTS
  6
BYBLOCK
 62
     0
100
AcDbPoint
 10
136.175296
 20
145.730322
 30
0.0
  0
ENDBLK
  5
34F3
100
AcDbEntity
  8
0
100
AcDbBlockEnd
  0
ENDSEC
  0
SECTION
  2
ENTITIES
  0
MTEXT
  5
F7E
100
AcDbEntity
  8
TESTO
  6
CONTINUOUS
100
AcDbMText
 10
138.285367
 20
36.885825
 30
0.0
 40
2.6
 41
0.0
 71
     7
 72
     1
  1

  0
MTEXT
  5
1095
100
AcDbEntity
  8
TESTO
  6
CONTINUOUS
100
AcDbMText
 10
126.076483
 20
23.185707
 30
0.0
 40
2.6
 41
0.0
 71
     7
 72
     1
  1

  0
LINE
  5
2F31
100
AcDbEntity
  8
OGGETTO
  6
CONTINUOUS
100
AcDbLine
 10
106.175296
 20
197.340471
 30
0.0
 11
106.175296
 21
184.340471
 31
0.0
  0
LINE
  5
2F36
100
AcDbEntity
  8
OGGETTO
  6
CONTINUOUS
100
AcDbLine
 10
126.175296
 20
192.18577
 30
0.0
 11
126.175296
 21
184.340471
 31
0.0
  0
LINE
  5
32B1
100
AcDbEntity
  8
OGGETTO
  6
CONTINUOUS
100
AcDbLine
 10
125.175296
 20
198.340471
 30
0.0
 11
107.175296
 21
198.340471
 31
0.0
  0
LINE
  5
32B2
100
AcDbEntity
  8
OGGETTO
  6
CONTINUOUS
100
AcDbLine
 10
110.675296
 20
188.840471
 30
0.0
 11
110.675296
 21
170.340471
 31
0.0
  0
LINE
  5
32B3
100
AcDbEntity
  8
OGGETTO
  6
CONTINUOUS
100
AcDbLine
 10
110.675296
 20
170.340471
 30
0.0
 11
106.175296
 21
170.340471
 31
0.0
  0
LINE
  5
32B4
100
AcDbEntity
  8
OGGETTO
  6
CONTINUOUS
100
AcDbLine
 10
106.175296
 20
197.340471
 30
0.0
 11
106.175296
 21
184.340471
 31
0.0
  0
LINE
  5
32B5
100
AcDbEntity
  8
OGGETTO
  6
CONTINUOUS
100
AcDbLine
 10
106.175296
 20
184.340471
 30
0.0
 11
110.675296
 21
188.840471
 31
0.0
  0
LINE
  5
32B6
100
AcDbEntity
  8
OGGETTO
  6
CONTINUOUS
100
AcDbLine
 10
107.175296
 20
198.340471
 30
0.0
 11
106.175296
 21
197.340471
 31
0.0
  0
LINE
  5
32B7
100
AcDbEntity
  8
OGGETTO
  6
CONTINUOUS
100
AcDbLine
 10
121.675296
 20
188.840471
 30
0.0
 11
121.675296
 21
170.340471
 31
0.0
  0
LINE
  5
32B8
100
AcDbEntity
  8
OGGETTO
  6
CONTINUOUS
100
AcDbLine
 10
126.175296
 20
170.340471
 30
0.0
 11
121.675296
 21
170.340471
 31
0.0
  0
LINE
  5
32B9
100
AcDbEntity
  8
OGGETTO
  6
CONTINUOUS
100
AcDbLine
 10
126.175296
 20
197.340471
 30
0.0
 11
126.175296
 21
184.340471
 31
0.0
  0
LINE
  5
32BA
100
AcDbEntity
  8
OGGETTO
  6
CONTINUOUS
100
AcDbLine
 10
126.175296
 20
184.340471
 30
0.0
 11
121.675296
 21
188.840471
 31
0.0
  0
LINE
  5
32BB
100
AcDbEntity
  8
OGGETTO
  6
CONTINUOUS
100
AcDbLine
 10
125.175296
 20
198.340471
 30
0.0
 11
126.175296
 21
197.340471
 31
0.0
  0
LINE
  5
336D
100
AcDbEntity
  8
OGGETTO
  6
CONTINUOUS
100
AcDbLine
 10
126.175296
 20
170.340471
 30
0.0
 11
126.175296
 21
153.340471
 31
0.0
  0
LINE
  5
336E
100
AcDbEntity
  8
OGGETTO
  6
CONTINUOUS
100
AcDbLine
 10
106.175296
 20
170.340471
 30
0.0
 11
106.175296
 21
143.340471
 31
0.0
  0
LINE
  5
3386
100
AcDbEntity
  8
OGGETTO
  6
CONTINUOUS
100
AcDbLine
 10
126.175296
 20
153.340471
 30
0.0
 11
135.175296
 21
153.340471
 31
0.0
  0
LINE
  5
338E
100
AcDbEntity
  8
OGGETTO
  6
CONTINUOUS
100
AcDbLine
 10
116.912573
 20
43.66488
 30
0.0
 11
124.350268
 21
51.7817
 31
0.0
1001
ACAD
1000
ASC_BOUNDS
1002
{
1070
    19
1002
}
  0
LINE
  5
338F
100
AcDbEntity
  8
OGGETTO
  6
CONTINUOUS
100
AcDbLine
 10
115.438018
 20
43.66488
 30
0.0
 11
108.000324
 21
51.7817
 31
0.0
1001
ACAD
1000
ASC_BOUNDS
1002
{
1070
    19
1002
}
  0
LINE
  5
3398
100
AcDbEntity
  8
OGGETTO
  6
CONTINUOUS
100
AcDbLine
 10
124.350268
 20
51.7817
 30
0.0
 11
124.319424
 21
52.488134
 31
0.0
  0
ARC
  5
346E
100
AcDbEntity
  8
OGGETTO
  6
CONTINUOUS
100
AcDbCircle
 10
116.175296
 20
44.340471
 30
0.0
 40
1.0
100
AcDbArc
 50
222.5
 51
317.5
1001
ACAD
1000
ASC_BOUNDS
1002
{
1070
    19
1002
}
  0
LINE
  5
3472
100
AcDbEntity
  8
OGGETTO
  6
CONTINUOUS
100
AcDbLine
 10
118.675296
 20
130.840471
 30
0.0
 11
118.675296
 21
62.456672
 31
0.0
  0
LINE
  5
3473
100
AcDbEntity
  8
OGGETTO
  6
CONTINUOUS
100
AcDbLine
 10
108.000324
 20
51.7817
 30
0.0
 11
118.675296
 21
62.456672
 31
0.0
  0
LINE
  5
3474
100
AcDbEntity
  8
OGGETTO
  6
CONTINUOUS
100
AcDbLine
 10
106.175296
 20
143.340471
 30
0.0
 11
118.675296
 21
130.840471
 31
0.0
  0
LINE
  5
3475
100
AcDbEntity
  8
OGGETTO
  6
CONTINUOUS
100
AcDbLine
 10
136.175296
 20
152.340471
 30
0.0
 11
136.175296
 21
65.426547
 31
0.0
  0
LINE
  5
34D0
100
AcDbEntity
  8
OGGETTO
  6
CONTINUOUS
100
AcDbLine
 10
135.175296
 20
153.340471
 30
0.0
 11
136.175296
 21
152.340471
 31
0.0
  0
LINE
  5
34F5
100
AcDbEntity
  8
OGGETTO
  6
CONTINUOUS
100
AcDbLine
 10
124.319424
 20
52.488134
 30
0.0
 11
136.175296
 21
65.426547
 31
0.0
  0
VIEWPORT
  5
22
100
AcDbEntity
 67
     1
  8
0
100
AcDbViewport
 10
261.517699
 20
154.724298
 30
0.0
 40
523.035398
 41
309.448596
 68
    -1
 69
     1
1001
ACAD
1000
MVIEW
1002
{
1070
    16
1010
0.0
1020
0.0
1030
0.0
1010
0.0
1020
0.0
1030
1.0
1040
0.0
1040
309.448596
1040
261.517699
1040
154.724298
1040
50.0
1040
0.0
1040
0.0
1070
     0
1070
   100
1070
     1
1070
     0
1070
     0
1070
     0
1070
     0
1070
     0
1040
0.0
1040
0.0
1040
0.0
1040
1.0
1040
1.0
1040
10.0
1040
10.0
1070
     0
1002
{
1002
}
1002
}
  0
ENDSEC
  0
SECTION
  2
OBJECTS
  0
DICTIONARY
  5
C
100
AcDbDictionary
  3
ACAD_GROUP
350
D
  3
ACAD_MLINESTYLE
350
E
  0
DICTIONARY
  5
D
102
{ACAD_REACTORS
330
C
102
}
100
AcDbDictionary
  0
DICTIONARY
  5
E
102
{ACAD_REACTORS
330
C
102
}
100
AcDbDictionary
  3
STANDARD
350
13
  0
MLINESTYLE
  5
13
102
{ACAD_REACTORS
330
E
102
}
100
AcDbMlineStyle
  2
STANDARD
 70
     0
  3

 62
     0
 51
90.0
 52
90.0
 71
     2
 49
0.5
 62
   256
  6
BYLAYER
 49
-0.5
 62
   256
  6
BYLAYER
  0
ENDSEC
  0
EOF
