  0
SECTION
  2
HEADER
  9
$ACADVER
  1
AC1012
  9
$DWGCODEPAGE
  3
iso8859-1
  9
$INSBASE
 10
0.0
 20
0.0
 30
0.0
  9
$EXTMIN
 10
-1940.234365
 20
-1659.251698
 30
0.0
  9
$EXTMAX
 10
-1502.042851
 20
-1372.037392
 30
0.0
  9
$LIMMIN
 10
0.0
 20
0.0
  9
$LIMMAX
 10
210.0
 20
297.0
  9
$ORTHOMODE
 70
     0
  9
$REGENMODE
 70
     1
  9
$FILLMODE
 70
     1
  9
$QTEXTMODE
 70
     0
  9
$MIRRTEXT
 70
     1
  9
$DRAGMODE
 70
     2
  9
$LTSCALE
 40
1.0
  9
$OSMODE
 70
     0
  9
$ATTMODE
 70
     1
  9
$TEXTSIZE
 40
3.0
  9
$TRACEWID
 40
0.05
  9
$TEXTSTYLE
  7
STANDARD
  9
$CLAYER
  8
QUOTE
  9
$CELTYPE
  6
BYLAYER
  9
$CECOLOR
 62
   256
  9
$CELTSCALE
 40
1.0
  9
$DELOBJ
 70
     1
  9
$DISPSILH
 70
     0
  9
$DIMSCALE
 40
1.0
  9
$DIMASZ
 40
2.5
  9
$DIMEXO
 40
0.625
  9
$DIMDLI
 40
3.75
  9
$DIMRND
 40
0.0
  9
$DIMDLE
 40
0.0
  9
$DIMEXE
 40
1.25
  9
$DIMTP
 40
0.0
  9
$DIMTM
 40
0.0
  9
$DIMTXT
 40
3.0
  9
$DIMCEN
 40
0.0
  9
$DIMTSZ
 40
0.0
  9
$DIMTOL
 70
     0
  9
$DIMLIM
 70
     0
  9
$DIMTIH
 70
     0
  9
$DIMTOH
 70
     0
  9
$DIMSE1
 70
     0
  9
$DIMSE2
 70
     0
  9
$DIMTAD
 70
     1
  9
$DIMZIN
 70
     8
  9
$DIMBLK
  1

  9
$DIMASO
 70
     1
  9
$DIMSHO
 70
     1
  9
$DIMPOST
  1

  9
$DIMAPOST
  1

  9
$DIMALT
 70
     0
  9
$DIMALTD
 70
     2
  9
$DIMALTF
 40
0.03937
  9
$DIMLFAC
 40
1.0
  9
$DIMTOFL
 70
     0
  9
$DIMTVP
 40
0.0
  9
$DIMTIX
 70
     0
  9
$DIMSOXD
 70
     0
  9
$DIMSAH
 70
     0
  9
$DIMBLK1
  1

  9
$DIMBLK2
  1

  9
$DIMSTYLE
  2
STANDARD
  9
$DIMCLRD
 70
     0
  9
$DIMCLRE
 70
     0
  9
$DIMCLRT
 70
     0
  9
$DIMTFAC
 40
1.0
  9
$DIMGAP
 40
0.625
  9
$DIMJUST
 70
     0
  9
$DIMSD1
 70
     0
  9
$DIMSD2
 70
     0
  9
$DIMTOLJ
 70
     1
  9
$DIMTZIN
 70
     8
  9
$DIMALTZ
 70
     0
  9
$DIMALTTZ
 70
     0
  9
$DIMFIT
 70
     3
  9
$DIMUPT
 70
     0
  9
$DIMUNIT
 70
     2
  9
$DIMDEC
 70
     2
  9
$DIMTDEC
 70
     2
  9
$DIMALTU
 70
     2
  9
$DIMALTTD
 70
     2
  9
$DIMTXSTY
  7
STANDARD
  9
$DIMAUNIT
 70
     0
  9
$LUNITS
 70
     2
  9
$LUPREC
 70
     4
  9
$SKETCHINC
 40
0.1
  9
$FILLETRAD
 40
6.0
  9
$AUNITS
 70
     0
  9
$AUPREC
 70
     0
  9
$MENU
  1
acad
  9
$ELEVATION
 40
0.0
  9
$PELEVATION
 40
0.0
  9
$THICKNESS
 40
0.0
  9
$LIMCHECK
 70
     0
  9
$BLIPMODE
 70
     1
  9
$CHAMFERA
 40
0.0
  9
$CHAMFERB
 40
0.0
  9
$CHAMFERC
 40
20.0
  9
$CHAMFERD
 40
0.0
  9
$SKPOLY
 70
     0
  9
$TDCREATE
 40
2452115.448139814
  9
$TDUPDATE
 40
2452630.523768518
  9
$TDINDWG
 40
0.1174140046
  9
$TDUSRTIMER
 40
0.1174140046
  9
$USRTIMER
 70
     1
  9
$ANGBASE
 50
0.0
  9
$ANGDIR
 70
     0
  9
$PDMODE
 70
     0
  9
$PDSIZE
 40
0.0
  9
$PLINEWID
 40
0.0
  9
$COORDS
 70
     1
  9
$SPLFRAME
 70
     0
  9
$SPLINETYPE
 70
     6
  9
$SPLINESEGS
 70
     8
  9
$ATTDIA
 70
     0
  9
$ATTREQ
 70
     1
  9
$HANDLING
 70
     1
  9
$HANDSEED
  5
E6C
  9
$SURFTAB1
 70
     6
  9
$SURFTAB2
 70
     6
  9
$SURFTYPE
 70
     6
  9
$SURFU
 70
     6
  9
$SURFV
 70
     6
  9
$UCSNAME
  2

  9
$UCSORG
 10
0.0
 20
0.0
 30
0.0
  9
$UCSXDIR
 10
1.0
 20
0.0
 30
0.0
  9
$UCSYDIR
 10
0.0
 20
1.0
 30
0.0
  9
$PUCSNAME
  2

  9
$PUCSORG
 10
0.0
 20
0.0
 30
0.0
  9
$PUCSXDIR
 10
1.0
 20
0.0
 30
0.0
  9
$PUCSYDIR
 10
0.0
 20
1.0
 30
0.0
  9
$USERI1
 70
     0
  9
$USERI2
 70
     0
  9
$USERI3
 70
     0
  9
$USERI4
 70
     0
  9
$USERI5
 70
     0
  9
$USERR1
 40
0.0
  9
$USERR2
 40
0.0
  9
$USERR3
 40
0.0
  9
$USERR4
 40
0.0
  9
$USERR5
 40
0.0
  9
$WORLDVIEW
 70
     1
  9
$SHADEDGE
 70
     3
  9
$SHADEDIF
 70
    70
  9
$TILEMODE
 70
     1
  9
$MAXACTVP
 70
    16
  9
$PINSBASE
 10
0.0
 20
0.0
 30
0.0
  9
$PLIMCHECK
 70
     0
  9
$PEXTMIN
 10
1.000000E+20
 20
1.000000E+20
 30
1.000000E+20
  9
$PEXTMAX
 10
-1.000000E+20
 20
-1.000000E+20
 30
-1.000000E+20
  9
$PLIMMIN
 10
0.0
 20
0.0
  9
$PLIMMAX
 10
12.0
 20
9.0
  9
$UNITMODE
 70
     0
  9
$VISRETAIN
 70
     0
  9
$PLINEGEN
 70
     0
  9
$PSLTSCALE
 70
     1
  9
$TREEDEPTH
 70
  3020
  9
$PICKSTYLE
 70
     1
  9
$CMLSTYLE
  2
STANDARD
  9
$CMLJUST
 70
     0
  9
$CMLSCALE
 40
20.0
  9
$SAVEIMAGES
 70
     0
  0
ENDSEC
  0
SECTION
  2
CLASSES
  0
ENDSEC
  0
SECTION
  2
TABLES
  0
TABLE
  2
VPORT
  5
8
100
AcDbSymbolTable
 70
     3
  0
VPORT
  5
E6B
100
AcDbSymbolTableRecord
100
AcDbViewportTableRecord
  2
*ACTIVE
 70
     0
 10
0.0
 20
0.0
 11
1.0
 21
1.0
 12
-1841.651236
 22
-1490.13809
 13
0.0
 23
0.0
 14
10.0
 24
10.0
 15
10.0
 25
10.0
 16
0.0
 26
0.0
 36
1.0
 17
0.0
 27
0.0
 37
0.0
 40
267.721413
 41
1.873134
 42
50.0
 43
0.0
 44
0.0
 50
0.0
 51
0.0
 71
     0
 72
   100
 73
     1
 74
     0
 75
     0
 76
     0
 77
     0
 78
     0
  0
ENDTAB
  0
TABLE
  2
LTYPE
  5
5
100
AcDbSymbolTable
 70
     4
  0
LTYPE
  5
13
100
AcDbSymbolTableRecord
100
AcDbLinetypeTableRecord
  2
BYBLOCK
 70
     0
  3

 72
    65
 73
     0
 40
0.0
  0
LTYPE
  5
14
100
AcDbSymbolTableRecord
100
AcDbLinetypeTableRecord
  2
BYLAYER
 70
     0
  3

 72
    65
 73
     0
 40
0.0
  0
LTYPE
  5
15
100
AcDbSymbolTableRecord
100
AcDbLinetypeTableRecord
  2
CONTINUOUS
 70
    64
  3
Solid line
 72
    65
 73
     0
 40
0.0
  0
LTYPE
  5
94
100
AcDbSymbolTableRecord
100
AcDbLinetypeTableRecord
  2
ACAD_ISO04W100
 70
    64
  3
____ . ____ . ____ . ____ . ____ . ____ . ____ 
 72
    65
 73
     4
 40
30.5
 49
24.0
 74
     0
 49
-3.0
 74
     0
 49
0.5
 74
     0
 49
-3.0
 74
     0
  0
LTYPE
  5
225
100
AcDbSymbolTableRecord
100
AcDbLinetypeTableRecord
  2
TRATTEGGIATAX2
 70
    64
  3
____  ____  ____  ____  ____  ____  ____  ____ 
 72
    65
 73
     2
 40
1.5
 49
1.0
 74
     0
 49
-0.5
 74
     0
  0
LTYPE
  5
226
100
AcDbSymbolTableRecord
100
AcDbLinetypeTableRecord
  2
NASCOSTA
 70
    64
  3
__ __ __ __ __ __ __ __ __ __ __ __ __ __ __ __
 72
    65
 73
     2
 40
0.375
 49
0.25
 74
     0
 49
-0.125
 74
     0
  0
ENDTAB
  0
TABLE
  2
LAYER
  5
2
100
AcDbSymbolTable
 70
    11
  0
LAYER
  5
F
100
AcDbSymbolTableRecord
100
AcDbLayerTableRecord
  2
0
 70
     0
 62
     7
  6
CONTINUOUS
  0
LAYER
  5
95
100
AcDbSymbolTableRecord
100
AcDbLayerTableRecord
  2
DISEGNO
 70
    64
 62
     7
  6
CONTINUOUS
  0
LAYER
  5
96
100
AcDbSymbolTableRecord
100
AcDbLayerTableRecord
  2
ASSI
 70
    64
 62
     1
  6
ACAD_ISO04W100
  0
LAYER
  5
97
100
AcDbSymbolTableRecord
100
AcDbLayerTableRecord
  2
SEZIONE
 70
    64
 62
     3
  6
CONTINUOUS
  0
LAYER
  5
98
100
AcDbSymbolTableRecord
100
AcDbLayerTableRecord
  2
TEMPRA
 70
    64
 62
     2
  6
CONTINUOUS
  0
LAYER
  5
99
100
AcDbSymbolTableRecord
100
AcDbLayerTableRecord
  2
QUOTE
 70
    64
 62
     5
  6
CONTINUOUS
  0
LAYER
  5
1A3
100
AcDbSymbolTableRecord
100
AcDbLayerTableRecord
  2
TRATTO
 70
    64
 62
     6
  6
NASCOSTA
  0
LAYER
  5
28A
100
AcDbSymbolTableRecord
100
AcDbLayerTableRecord
  2
DEFPOINTS
 70
    64
 62
     7
  6
CONTINUOUS
  0
LAYER
  5
4A6
100
AcDbSymbolTableRecord
100
AcDbLayerTableRecord
  2
TABELLA
 70
    64
 62
     8
  6
CONTINUOUS
  0
LAYER
  5
55B
100
AcDbSymbolTableRecord
100
AcDbLayerTableRecord
  2
MARCATURA
 70
    64
 62
   136
  6
CONTINUOUS
  0
LAYER
  5
55C
100
AcDbSymbolTableRecord
100
AcDbLayerTableRecord
  2
TESTO
 70
    64
 62
   160
  6
CONTINUOUS
  0
ENDTAB
  0
TABLE
  2
STYLE
  5
3
100
AcDbSymbolTable
 70
     2
  0
STYLE
  5
10
100
AcDbSymbolTableRecord
100
AcDbTextStyleTableRecord
  2
STANDARD
 70
    64
 40
0.0
 41
1.1
 50
0.0
 71
     0
 42
3.0
  3
C:\Programmi\AutoCAD LT\isocp.shx
  4

  0
STYLE
  5
B0
100
AcDbSymbolTableRecord
100
AcDbTextStyleTableRecord
  2
STYLE3
 70
    64
 40
0.0
 41
1.1
 50
0.0
 71
     0
 42
4.0
  3
C:\Programmi\AutoCAD LT\isocp.shx
  4

  0
ENDTAB
  0
TABLE
  2
VIEW
  5
6
100
AcDbSymbolTable
 70
     0
  0
ENDTAB
  0
TABLE
  2
UCS
  5
7
100
AcDbSymbolTable
 70
     0
  0
ENDTAB
  0
TABLE
  2
APPID
  5
9
100
AcDbSymbolTable
 70
     1
  0
APPID
  5
11
100
AcDbSymbolTableRecord
100
AcDbRegAppTableRecord
  2
ACAD
 70
     0
  0
ENDTAB
  0
TABLE
  2
DIMSTYLE
  5
A
100
AcDbSymbolTable
 70
    13
  0
DIMSTYLE
105
1D
100
AcDbSymbolTableRecord
100
AcDbDimStyleTableRecord
  2
STANDARD
 70
     0
  3

  4

  5

  6

  7

 40
1.0
 41
2.5
 42
0.625
 43
3.75
 44
1.25
 45
0.0
 46
0.0
 47
0.0
 48
0.0
140
3.0
141
2.5
142
0.0
143
0.03937
144
1.0
145
0.0
146
1.0
147
0.625
 71
     0
 72
     0
 73
     0
 74
     0
 75
     0
 76
     0
 77
     1
 78
     8
170
     0
171
     2
172
     0
173
     0
174
     0
175
     0
176
     0
177
     0
178
     0
270
     2
271
     2
272
     2
273
     2
274
     2
340
10
275
     0
280
     0
281
     0
282
     0
283
     1
284
     8
285
     0
286
     0
287
     3
288
     0
  0
DIMSTYLE
105
198
100
AcDbSymbolTableRecord
100
AcDbDimStyleTableRecord
  2
TOLL-06
 70
     0
  3

  4

  5

  6

  7

 40
1.0
 41
2.5
 42
0.625
 43
3.75
 44
1.25
 45
0.0
 46
0.0
 47
-0.05
 48
0.0
140
3.0
141
2.5
142
0.0
143
0.03937
144
1.0
145
0.0
146
0.8
147
0.625
 71
     1
 72
     0
 73
     0
 74
     0
 75
     0
 76
     0
 77
     1
 78
     8
170
     0
171
     2
172
     0
173
     0
174
     0
175
     0
176
     0
177
     0
178
     0
270
     2
271
     2
272
     2
273
     2
274
     2
340
10
275
     0
280
     0
281
     0
282
     0
283
     2
284
     8
285
     0
286
     0
287
     3
288
     0
  0
DIMSTYLE
105
20B
100
AcDbSymbolTableRecord
100
AcDbDimStyleTableRecord
  2
TOLL-01
 70
     0
  3

  4

  5

  6

  7

 40
1.0
 41
2.5
 42
0.625
 43
3.75
 44
1.25
 45
0.0
 46
0.0
 47
0.02
 48
0.0
140
3.0
141
2.5
142
0.0
143
0.03937
144
1.0
145
0.0
146
0.8
147
0.625
 71
     1
 72
     0
 73
     0
 74
     0
 75
     0
 76
     0
 77
     1
 78
     8
170
     0
171
     2
172
     0
173
     0
174
     0
175
     0
176
     0
177
     0
178
     0
270
     2
271
     2
272
     2
273
     2
274
     2
340
10
275
     0
280
     0
281
     0
282
     0
283
     2
284
     8
285
     0
286
     0
287
     3
288
     0
  0
DIMSTYLE
105
232
100
AcDbSymbolTableRecord
100
AcDbDimStyleTableRecord
  2
TOLL-02
 70
     0
  3

  4

  5

  6

  7

 40
1.0
 41
2.5
 42
0.625
 43
3.75
 44
1.25
 45
0.0
 46
0.0
 47
-0.02
 48
0.0
140
3.0
141
2.5
142
0.0
143
0.03937
144
1.0
145
0.0
146
0.8
147
0.625
 71
     1
 72
     0
 73
     0
 74
     0
 75
     0
 76
     0
 77
     1
 78
     8
170
     0
171
     2
172
     0
173
     0
174
     0
175
     0
176
     0
177
     0
178
     0
270
     2
271
     2
272
     2
273
     2
274
     2
340
10
275
     0
280
     0
281
     0
282
     0
283
     2
284
     8
285
     0
286
     0
287
     3
288
     0
  0
DIMSTYLE
105
233
100
AcDbSymbolTableRecord
100
AcDbDimStyleTableRecord
  2
TOLL-03
 70
     0
  3

  4

  5

  6

  7

 40
1.0
 41
2.5
 42
0.625
 43
3.75
 44
1.25
 45
0.0
 46
0.0
 47
0.01
 48
0.01
140
3.0
141
2.5
142
0.0
143
0.03937
144
1.0
145
0.0
146
0.8
147
0.625
 71
     1
 72
     0
 73
     0
 74
     0
 75
     0
 76
     0
 77
     1
 78
     8
170
     0
171
     2
172
     0
173
     0
174
     0
175
     0
176
     0
177
     0
178
     0
270
     2
271
     2
272
     2
273
     2
274
     2
340
10
275
     0
280
     0
281
     0
282
     0
283
     2
284
     8
285
     0
286
     0
287
     3
288
     0
  0
DIMSTYLE
105
234
100
AcDbSymbolTableRecord
100
AcDbDimStyleTableRecord
  2
TOLL-04
 70
     0
  3

  4

  5

  6

  7

 40
1.0
 41
2.5
 42
0.625
 43
3.75
 44
1.25
 45
0.0
 46
0.0
 47
0.05
 48
0.05
140
3.0
141
2.5
142
0.0
143
0.03937
144
1.0
145
0.0
146
0.8
147
0.625
 71
     1
 72
     0
 73
     0
 74
     0
 75
     0
 76
     0
 77
     1
 78
     8
170
     0
171
     2
172
     0
173
     0
174
     0
175
     0
176
     0
177
     0
178
     0
270
     2
271
     2
272
     2
273
     2
274
     2
340
10
275
     0
280
     0
281
     0
282
     0
283
     2
284
     8
285
     0
286
     0
287
     3
288
     0
  0
DIMSTYLE
105
235
100
AcDbSymbolTableRecord
100
AcDbDimStyleTableRecord
  2
TOLL-05
 70
     0
  3

  4

  5

  6

  7

 40
1.0
 41
2.5
 42
0.625
 43
3.75
 44
1.25
 45
0.0
 46
0.0
 47
0.05
 48
0.0
140
3.0
141
2.5
142
0.0
143
0.03937
144
1.0
145
0.0
146
0.8
147
0.625
 71
     1
 72
     0
 73
     0
 74
     0
 75
     0
 76
     0
 77
     1
 78
     8
170
     0
171
     2
172
     0
173
     0
174
     0
175
     0
176
     0
177
     0
178
     0
270
     2
271
     2
272
     2
273
     2
274
     2
340
10
275
     0
280
     0
281
     0
282
     0
283
     2
284
     8
285
     0
286
     0
287
     3
288
     0
  0
DIMSTYLE
105
247
100
AcDbSymbolTableRecord
100
AcDbDimStyleTableRecord
  2
TOLL-07
 70
     0
  3

  4

  5

  6

  7

 40
1.0
 41
2.5
 42
0.625
 43
3.75
 44
1.25
 45
0.0
 46
0.0
 47
0.1
 48
0.1
140
3.0
141
2.5
142
0.0
143
0.03937
144
1.0
145
0.0
146
1.0
147
0.625
 71
     1
 72
     0
 73
     0
 74
     0
 75
     0
 76
     0
 77
     1
 78
     8
170
     0
171
     2
172
     0
173
     0
174
     0
175
     0
176
     0
177
     0
178
     0
270
     2
271
     2
272
     2
273
     2
274
     2
340
10
275
     0
280
     0
281
     0
282
     0
283
     1
284
     8
285
     0
286
     0
287
     3
288
     0
  0
DIMSTYLE
105
251
100
AcDbSymbolTableRecord
100
AcDbDimStyleTableRecord
  2
TOLL-08
 70
     0
  3

  4

  5

  6

  7

 40
1.0
 41
2.5
 42
0.625
 43
3.75
 44
1.25
 45
0.0
 46
0.0
 47
0.1
 48
0.0
140
3.0
141
2.5
142
0.0
143
0.03937
144
1.0
145
0.0
146
1.0
147
0.625
 71
     1
 72
     0
 73
     0
 74
     0
 75
     0
 76
     0
 77
     1
 78
     8
170
     0
171
     2
172
     0
173
     0
174
     0
175
     0
176
     0
177
     0
178
     0
270
     2
271
     2
272
     2
273
     2
274
     2
340
10
275
     0
280
     0
281
     0
282
     0
283
     1
284
     8
285
     0
286
     0
287
     3
288
     0
  0
DIMSTYLE
105
257
100
AcDbSymbolTableRecord
100
AcDbDimStyleTableRecord
  2
TOLL-09
 70
     0
  3

  4

  5

  6

  7

 40
1.0
 41
2.5
 42
0.625
 43
3.75
 44
1.25
 45
0.0
 46
0.0
 47
-0.1
 48
0.0
140
3.0
141
2.5
142
0.0
143
0.03937
144
1.0
145
0.0
146
1.0
147
0.625
 71
     1
 72
     0
 73
     0
 74
     0
 75
     0
 76
     0
 77
     1
 78
     8
170
     0
171
     2
172
     0
173
     0
174
     0
175
     0
176
     0
177
     0
178
     0
270
     2
271
     2
272
     2
273
     2
274
     2
340
10
275
     0
280
     0
281
     0
282
     0
283
     1
284
     8
285
     0
286
     0
287
     3
288
     0
  0
DIMSTYLE
105
258
100
AcDbSymbolTableRecord
100
AcDbDimStyleTableRecord
  2
TOLL-10
 70
     0
  3

  4

  5

  6

  7

 40
1.0
 41
2.5
 42
0.625
 43
3.75
 44
1.25
 45
0.0
 46
0.0
 47
0.2
 48
0.2
140
3.0
141
2.5
142
0.0
143
0.03937
144
1.0
145
0.0
146
1.0
147
0.625
 71
     1
 72
     0
 73
     0
 74
     0
 75
     0
 76
     0
 77
     1
 78
     8
170
     0
171
     2
172
     0
173
     0
174
     0
175
     0
176
     0
177
     0
178
     0
270
     2
271
     2
272
     2
273
     2
274
     2
340
10
275
     0
280
     0
281
     0
282
     0
283
     1
284
     8
285
     0
286
     0
287
     3
288
     0
  0
DIMSTYLE
105
259
100
AcDbSymbolTableRecord
100
AcDbDimStyleTableRecord
  2
TOLL-11
 70
     0
  3

  4

  5

  6

  7

 40
1.0
 41
2.5
 42
0.625
 43
3.75
 44
1.25
 45
0.0
 46
0.0
 47
0.2
 48
0.0
140
3.0
141
2.5
142
0.0
143
0.03937
144
1.0
145
0.0
146
1.0
147
0.625
 71
     1
 72
     0
 73
     0
 74
     0
 75
     0
 76
     0
 77
     1
 78
     8
170
     0
171
     2
172
     0
173
     0
174
     0
175
     0
176
     0
177
     0
178
     0
270
     2
271
     2
272
     2
273
     2
274
     2
340
10
275
     0
280
     0
281
     0
282
     0
283
     1
284
     8
285
     0
286
     0
287
     3
288
     0
  0
DIMSTYLE
105
4A7
100
AcDbSymbolTableRecord
100
AcDbDimStyleTableRecord
  2
ISO-25
 70
     0
  3

  4

  5

  6

  7

 40
1.0
 41
2.5
 42
0.625
 43
3.75
 44
1.25
 45
0.0
 46
0.0
 47
0.0
 48
0.0
140
2.5
141
2.5
142
0.0
143
0.0394
144
1.0
145
1.0
146
1.0
147
0.625
 71
     0
 72
     0
 73
     1
 74
     0
 75
     0
 76
     0
 77
     1
 78
     8
170
     0
171
     2
172
     1
173
     0
174
     0
175
     0
176
     0
177
     0
178
     0
270
     2
271
     4
272
     4
273
     2
274
     2
340
10
275
     0
280
     0
281
     0
282
     0
283
     1
284
     0
285
     0
286
     0
287
     3
288
     0
  0
ENDTAB
  0
TABLE
  2
BLOCK_RECORD
  5
1
100
AcDbSymbolTable
 70
    66
  0
BLOCK_RECORD
  5
19
100
AcDbSymbolTableRecord
100
AcDbBlockTableRecord
  2
*MODEL_SPACE
  0
BLOCK_RECORD
  5
16
100
AcDbSymbolTableRecord
100
AcDbBlockTableRecord
  2
*PAPER_SPACE
  0
BLOCK_RECORD
  5
3A2
100
AcDbSymbolTableRecord
100
AcDbBlockTableRecord
  2
RUGOSITA
  0
BLOCK_RECORD
  5
4A8
100
AcDbSymbolTableRecord
100
AcDbBlockTableRecord
  2
A$C52B2
  0
BLOCK_RECORD
  5
56E
100
AcDbSymbolTableRecord
100
AcDbBlockTableRecord
  2
*D2
  0
BLOCK_RECORD
  5
57A
100
AcDbSymbolTableRecord
100
AcDbBlockTableRecord
  2
*D3
  0
BLOCK_RECORD
  5
587
100
AcDbSymbolTableRecord
100
AcDbBlockTableRecord
  2
*D4
  0
BLOCK_RECORD
  5
594
100
AcDbSymbolTableRecord
100
AcDbBlockTableRecord
  2
*D5
  0
BLOCK_RECORD
  5
5A1
100
AcDbSymbolTableRecord
100
AcDbBlockTableRecord
  2
*D6
  0
BLOCK_RECORD
  5
5AD
100
AcDbSymbolTableRecord
100
AcDbBlockTableRecord
  2
*D7
  0
BLOCK_RECORD
  5
5BA
100
AcDbSymbolTableRecord
100
AcDbBlockTableRecord
  2
*D8
  0
BLOCK_RECORD
  5
5C6
100
AcDbSymbolTableRecord
100
AcDbBlockTableRecord
  2
*D9
  0
BLOCK_RECORD
  5
5D2
100
AcDbSymbolTableRecord
100
AcDbBlockTableRecord
  2
*D10
  0
BLOCK_RECORD
  5
5E0
100
AcDbSymbolTableRecord
100
AcDbBlockTableRecord
  2
*D11
  0
BLOCK_RECORD
  5
5ED
100
AcDbSymbolTableRecord
100
AcDbBlockTableRecord
  2
*D12
  0
BLOCK_RECORD
  5
5F7
100
AcDbSymbolTableRecord
100
AcDbBlockTableRecord
  2
*D13
  0
BLOCK_RECORD
  5
603
100
AcDbSymbolTableRecord
100
AcDbBlockTableRecord
  2
*D14
  0
BLOCK_RECORD
  5
610
100
AcDbSymbolTableRecord
100
AcDbBlockTableRecord
  2
*X15
  0
BLOCK_RECORD
  5
660
100
AcDbSymbolTableRecord
100
AcDbBlockTableRecord
  2
*D16
  0
BLOCK_RECORD
  5
66C
100
AcDbSymbolTableRecord
100
AcDbBlockTableRecord
  2
*D17
  0
BLOCK_RECORD
  5
679
100
AcDbSymbolTableRecord
100
AcDbBlockTableRecord
  2
*D18
  0
BLOCK_RECORD
  5
686
100
AcDbSymbolTableRecord
100
AcDbBlockTableRecord
  2
*D19
  0
BLOCK_RECORD
  5
68E
100
AcDbSymbolTableRecord
100
AcDbBlockTableRecord
  2
*D20
  0
BLOCK_RECORD
  5
69A
100
AcDbSymbolTableRecord
100
AcDbBlockTableRecord
  2
A$CD0E1
  0
BLOCK_RECORD
  5
728
100
AcDbSymbolTableRecord
100
AcDbBlockTableRecord
  2
*D22
  0
BLOCK_RECORD
  5
734
100
AcDbSymbolTableRecord
100
AcDbBlockTableRecord
  2
*D23
  0
BLOCK_RECORD
  5
73C
100
AcDbSymbolTableRecord
100
AcDbBlockTableRecord
  2
*D24
  0
BLOCK_RECORD
  5
748
100
AcDbSymbolTableRecord
100
AcDbBlockTableRecord
  2
*D25
  0
BLOCK_RECORD
  5
754
100
AcDbSymbolTableRecord
100
AcDbBlockTableRecord
  2
*D26
  0
BLOCK_RECORD
  5
760
100
AcDbSymbolTableRecord
100
AcDbBlockTableRecord
  2
*D27
  0
BLOCK_RECORD
  5
76D
100
AcDbSymbolTableRecord
100
AcDbBlockTableRecord
  2
*D28
  0
BLOCK_RECORD
  5
779
100
AcDbSymbolTableRecord
100
AcDbBlockTableRecord
  2
*D29
  0
BLOCK_RECORD
  5
786
100
AcDbSymbolTableRecord
100
AcDbBlockTableRecord
  2
*D30
  0
BLOCK_RECORD
  5
794
100
AcDbSymbolTableRecord
100
AcDbBlockTableRecord
  2
*D31
  0
BLOCK_RECORD
  5
79E
100
AcDbSymbolTableRecord
100
AcDbBlockTableRecord
  2
*D32
  0
BLOCK_RECORD
  5
7AB
100
AcDbSymbolTableRecord
100
AcDbBlockTableRecord
  2
*D33
  0
BLOCK_RECORD
  5
7B8
100
AcDbSymbolTableRecord
100
AcDbBlockTableRecord
  2
*D34
  0
BLOCK_RECORD
  5
7C5
100
AcDbSymbolTableRecord
100
AcDbBlockTableRecord
  2
*D35
  0
BLOCK_RECORD
  5
7D1
100
AcDbSymbolTableRecord
100
AcDbBlockTableRecord
  2
*D36
  0
BLOCK_RECORD
  5
7DE
100
AcDbSymbolTableRecord
100
AcDbBlockTableRecord
  2
*D37
  0
BLOCK_RECORD
  5
7EB
100
AcDbSymbolTableRecord
100
AcDbBlockTableRecord
  2
*D38
  0
BLOCK_RECORD
  5
7F7
100
AcDbSymbolTableRecord
100
AcDbBlockTableRecord
  2
*D39
  0
BLOCK_RECORD
  5
8EC
100
AcDbSymbolTableRecord
100
AcDbBlockTableRecord
  2
*D40
  0
BLOCK_RECORD
  5
91D
100
AcDbSymbolTableRecord
100
AcDbBlockTableRecord
  2
*D41
  0
BLOCK_RECORD
  5
92B
100
AcDbSymbolTableRecord
100
AcDbBlockTableRecord
  2
*D42
  0
BLOCK_RECORD
  5
A0A
100
AcDbSymbolTableRecord
100
AcDbBlockTableRecord
  2
*D43
  0
BLOCK_RECORD
  5
AA7
100
AcDbSymbolTableRecord
100
AcDbBlockTableRecord
  2
*D44
  0
BLOCK_RECORD
  5
BA8
100
AcDbSymbolTableRecord
100
AcDbBlockTableRecord
  2
*D45
  0
BLOCK_RECORD
  5
BB5
100
AcDbSymbolTableRecord
100
AcDbBlockTableRecord
  2
*D46
  0
BLOCK_RECORD
  5
C2D
100
AcDbSymbolTableRecord
100
AcDbBlockTableRecord
  2
*D48
  0
BLOCK_RECORD
  5
C3B
100
AcDbSymbolTableRecord
100
AcDbBlockTableRecord
  2
*D49
  0
BLOCK_RECORD
  5
C4A
100
AcDbSymbolTableRecord
100
AcDbBlockTableRecord
  2
*D50
  0
BLOCK_RECORD
  5
C57
100
AcDbSymbolTableRecord
100
AcDbBlockTableRecord
  2
*D51
  0
BLOCK_RECORD
  5
C65
100
AcDbSymbolTableRecord
100
AcDbBlockTableRecord
  2
*D52
  0
BLOCK_RECORD
  5
C7F
100
AcDbSymbolTableRecord
100
AcDbBlockTableRecord
  2
*D53
  0
BLOCK_RECORD
  5
C8C
100
AcDbSymbolTableRecord
100
AcDbBlockTableRecord
  2
*D54
  0
BLOCK_RECORD
  5
C99
100
AcDbSymbolTableRecord
100
AcDbBlockTableRecord
  2
*D55
  0
BLOCK_RECORD
  5
D06
100
AcDbSymbolTableRecord
100
AcDbBlockTableRecord
  2
*D56
  0
BLOCK_RECORD
  5
D3D
100
AcDbSymbolTableRecord
100
AcDbBlockTableRecord
  2
*D57
  0
BLOCK_RECORD
  5
D4A
100
AcDbSymbolTableRecord
100
AcDbBlockTableRecord
  2
*D58
  0
BLOCK_RECORD
  5
D58
100
AcDbSymbolTableRecord
100
AcDbBlockTableRecord
  2
*D59
  0
BLOCK_RECORD
  5
DD0
100
AcDbSymbolTableRecord
100
AcDbBlockTableRecord
  2
*D62
  0
BLOCK_RECORD
  5
E01
100
AcDbSymbolTableRecord
100
AcDbBlockTableRecord
  2
*X63
  0
BLOCK_RECORD
  5
E33
100
AcDbSymbolTableRecord
100
AcDbBlockTableRecord
  2
*D64
  0
BLOCK_RECORD
  5
E56
100
AcDbSymbolTableRecord
100
AcDbBlockTableRecord
  2
*D65
  0
ENDTAB
  0
ENDSEC
  0
SECTION
  2
BLOCKS
  0
BLOCK
  5
1A
100
AcDbEntity
  8
0
100
AcDbBlockBegin
  2
*MODEL_SPACE
 70
     0
 10
0.0
 20
0.0
 30
0.0
  3
*MODEL_SPACE
  1

  0
ENDBLK
  5
1B
100
AcDbEntity
  8
0
100
AcDbBlockEnd
  0
BLOCK
  5
17
100
AcDbEntity
 67
     1
  8
0
100
AcDbBlockBegin
  2
*PAPER_SPACE
 70
     0
 10
0.0
 20
0.0
 30
0.0
  3
*PAPER_SPACE
  1

  0
ENDBLK
  5
18
100
AcDbEntity
 67
     1
  8
0
100
AcDbBlockEnd
  0
BLOCK
  5
3A7
100
AcDbEntity
  8
DISEGNO
100
AcDbBlockBegin
  2
RUGOSITA
 70
     2
 10
0.0
 20
0.0
 30
0.0
  3
RUGOSITA
  1

  0
ATTDEF
  5
3A3
100
AcDbEntity
  8
QUOTE
100
AcDbText
 10
-1.071886
 20
3.214106
 30
0.0
 40
1.5
  1
0.8
100
AcDbAttributeDefinition
  3
CHE RUGOSITA ?
  2
RUGOSITA
 70
     0
  0
LINE
  5
3A4
100
AcDbEntity
  8
QUOTE
100
AcDbLine
 10
0.0
 20
0.0
 30
0.0
 11
4.0
 21
6.928203
 31
0.0
  0
LINE
  5
3A5
100
AcDbEntity
  8
QUOTE
100
AcDbLine
 10
0.0
 20
0.0
 30
0.0
 11
-1.75
 21
3.031089
 31
0.0
  0
LINE
  5
3A6
100
AcDbEntity
  8
QUOTE
100
AcDbLine
 10
-1.75
 20
3.031089
 30
0.0
 11
1.75
 21
3.031089
 31
0.0
  0
ENDBLK
  5
3A8
100
AcDbEntity
  8
DISEGNO
100
AcDbBlockEnd
  0
BLOCK
  5
547
100
AcDbEntity
  8
QUOTE
100
AcDbBlockBegin
  2
A$C52B2
 70
     0
 10
0.0
 20
0.0
 30
0.0
  3
A$C52B2
  1

  0
LINE
  5
4A9
100
AcDbEntity
  8
TABELLA
  6
CONTINUOUS
100
AcDbLine
 10
100.781064
 20
5.387067
 30
0.0
 11
103.281064
 21
0.387067
 31
0.0
  0
LINE
  5
4AA
100
AcDbEntity
  8
TABELLA
  6
CONTINUOUS
100
AcDbLine
 10
100.781064
 20
0.387067
 30
0.0
 11
103.281064
 21
0.387067
 31
0.0
  0
LINE
  5
4AB
100
AcDbEntity
  8
TABELLA
  6
CONTINUOUS
100
AcDbLine
 10
103.281064
 20
287.387067
 30
0.0
 11
100.781064
 21
282.387067
 31
0.0
  0
LINE
  5
4AC
100
AcDbEntity
  8
TABELLA
  6
CONTINUOUS
100
AcDbLine
 10
100.781064
 20
287.387067
 30
0.0
 11
103.281064
 21
287.387067
 31
0.0
  0
TEXT
  5
4AD
100
AcDbEntity
  8
TABELLA
  6
CONTINUOUS
100
AcDbText
 10
83.891226
 20
14.123583
 30
0.0
 40
6.0
  1
ROLLERI
100
AcDbText
  0
LINE
  5
4AE
100
AcDbEntity
  8
TABELLA
  6
CONTINUOUS
100
AcDbLine
 10
115.706968
 20
22.612261
 30
0.0
 11
84.107383
 21
22.612261
 31
0.0
1001
ACAD
1000
ASC_BOUNDS
1002
{
1070
    19
1002
}
  0
LINE
  5
4AF
100
AcDbEntity
  8
TABELLA
  6
CONTINUOUS
100
AcDbLine
 10
82.055262
 20
11.456564
 30
0.0
 11
113.654847
 21
11.456564
 31
0.0
1001
ACAD
1000
ASC_BOUNDS
1002
{
1070
    19
1002
}
  0
LINE
  5
4B0
100
AcDbEntity
  8
TABELLA
  6
CONTINUOUS
100
AcDbLine
 10
116.407176
 20
23.612261
 30
0.0
 11
83.407176
 21
23.612261
 31
0.0
1001
ACAD
1000
ASC_BOUNDS
1002
{
1070
    19
1002
}
  0
LINE
  5
4B1
100
AcDbEntity
  8
TABELLA
  6
CONTINUOUS
100
AcDbLine
 10
81.355055
 20
10.456564
 30
0.0
 11
114.355055
 21
10.456564
 31
0.0
1001
ACAD
1000
ASC_BOUNDS
1002
{
1070
    19
1002
}
  0
TEXT
  5
4B2
100
AcDbEntity
  8
TABELLA
  6
CONTINUOUS
100
AcDbText
 10
79.770815
 20
6.679292
 30
0.0
 40
2.0
  1
Vigolzone ( Piacenza ) - ITALIA
100
AcDbText
  0
LINE
  5
4B3
100
AcDbEntity
  8
TABELLA
  6
CONTINUOUS
100
AcDbLine
 10
125.782064
 20
35.387067
 30
0.0
 11
75.782064
 21
35.387067
 31
0.0
  0
LINE
  5
4B4
100
AcDbEntity
  8
TABELLA
  6
CONTINUOUS
100
AcDbLine
 10
195.782064
 20
45.387067
 30
0.0
 11
5.697058
 21
45.395351
 31
0.0
  0
LINE
  5
4B5
100
AcDbEntity
  8
TABELLA
  6
CONTINUOUS
100
AcDbLine
 10
125.782064
 20
25.387067
 30
0.0
 11
75.782064
 21
25.387067
 31
0.0
  0
LINE
  5
4B6
100
AcDbEntity
  8
TABELLA
  6
CONTINUOUS
100
AcDbLine
 10
195.782064
 20
5.387067
 30
0.0
 11
5.782064
 21
5.387067
 31
0.0
  0
LINE
  5
4B7
100
AcDbEntity
  8
TABELLA
  6
CONTINUOUS
100
AcDbLine
 10
5.782064
 20
282.387067
 30
0.0
 11
195.782064
 21
282.387067
 31
0.0
  0
LINE
  5
4B8
100
AcDbEntity
  8
TABELLA
  6
CONTINUOUS
100
AcDbLine
 10
5.782064
 20
143.887067
 30
0.0
 11
0.782064
 21
141.387067
 31
0.0
  0
LINE
  5
4B9
100
AcDbEntity
  8
TABELLA
  6
CONTINUOUS
100
AcDbLine
 10
0.782064
 20
143.887067
 30
0.0
 11
0.782064
 21
141.387067
 31
0.0
  0
LINE
  5
4BA
100
AcDbEntity
  8
TABELLA
  6
CONTINUOUS
100
AcDbLine
 10
5.782064
 20
5.387067
 30
0.0
 11
5.782064
 21
282.387067
 31
0.0
  0
POLYLINE
  5
4BB
100
AcDbEntity
  8
QUOTE
100
AcDb2dPolyline
 66
     1
 10
0.0
 20
0.0
 30
0.0
 70
     1
  0
VERTEX
  5
4BC
100
AcDbEntity
  8
QUOTE
100
AcDbVertex
100
AcDb2dVertex
 10
11.507487
 20
62.582414
 30
0.0
  0
VERTEX
  5
4BD
100
AcDbEntity
  8
QUOTE
100
AcDbVertex
100
AcDb2dVertex
 10
11.507487
 20
49.867806
 30
0.0
  0
VERTEX
  5
4BE
100
AcDbEntity
  8
QUOTE
100
AcDbVertex
100
AcDb2dVertex
 10
52.626527
 20
49.867806
 30
0.0
  0
VERTEX
  5
4BF
100
AcDbEntity
  8
QUOTE
100
AcDbVertex
100
AcDb2dVertex
 10
52.626527
 20
62.582414
 30
0.0
  0
SEQEND
  5
4C0
100
AcDbEntity
  8
QUOTE
  0
TOLERANCE
  5
4C1
100
AcDbEntity
  8
QUOTE
  6
CONTINUOUS
100
AcDbFcf
  3
ISO-25
 10
30.863585
 20
54.182522
 30
0.0
  1
{\Fgdt;u}%%v0.02%%v%%v%%v%%v
1001
ACAD
1000
DSTYLE
1002
{
1070
   140
1040
2.6
1070
    47
1040
0.02
1070
    73
1070
     0
1070
   272
1070
     2
1070
   147
1040
0.53
1070
    42
1040
0.5261
1070
    44
1040
1.0522
1070
    43
1040
3.1566
1070
   271
1070
     2
1070
   141
1040
2.1044
1070
    41
1040
2.6
1002
}
  0
TEXT
  5
4C2
100
AcDbEntity
  8
QUOTE
100
AcDbText
 10
12.101072
 20
58.118453
 30
0.0
 40
2.5
  1
TOLLERANZE AL METRO
 41
1.1
100
AcDbText
  0
TEXT
  5
4C3
100
AcDbEntity
  8
TABELLA
  6
CONTINUOUS
100
AcDbText
 10
7.271803
 20
15.7314
 30
0.0
 40
2.0
  1
- Angoli su superfici lavorate = +/- 30'
100
AcDbText
  0
TEXT
  5
4C4
100
AcDbEntity
  8
TABELLA
  6
CONTINUOUS
100
AcDbText
 10
7.271803
 20
23.3314
 30
0.0
 40
2.0
  1
   da mm 151 a mm 500 = +/- 0.4
100
AcDbText
  0
TEXT
  5
4C5
100
AcDbEntity
  8
TABELLA
  6
CONTINUOUS
100
AcDbText
 10
7.271803
 20
27.1314
 30
0.0
 40
2.0
  1
   da mm 51 a mm 150 = +/- 0.3
100
AcDbText
  0
TEXT
  5
4C6
100
AcDbEntity
  8
TABELLA
  6
CONTINUOUS
100
AcDbText
 10
7.271803
 20
30.9314
 30
0.0
 40
2.0
  1
- Superfici lavorate da mm 1 a mm 50 = +/- 0.2
100
AcDbText
  0
TEXT
  5
4C7
100
AcDbEntity
  8
TABELLA
  6
CONTINUOUS
100
AcDbText
 10
7.271803
 20
34.7314
 30
0.0
 40
2.0
  1
- Parti fuse con spessori >10 mm = +/- 10%
100
AcDbText
  0
TEXT
  5
4C8
100
AcDbEntity
  8
TABELLA
  6
CONTINUOUS
100
AcDbText
 10
7.271803
 20
38.5314
 30
0.0
 40
2.0
  1
- Parti fuse con spessori <10 mm = +/- 1 mm
100
AcDbText
  0
TOLERANCE
  5
4C9
100
AcDbEntity
  8
QUOTE
  6
CONTINUOUS
100
AcDbFcf
  3
ISO-25
 10
15.305627
 20
54.182522
 30
0.0
  1
{\Fgdt;b}%%v0.02%%v%%v%%v%%v
1001
ACAD
1000
DSTYLE
1002
{
1070
   140
1040
2.6
1070
    47
1040
0.02
1070
    73
1070
     0
1070
   272
1070
     2
1070
   147
1040
0.53
1070
    42
1040
0.5261
1070
    44
1040
1.0522
1070
    43
1040
3.1566
1070
   271
1070
     2
1070
   141
1040
2.1044
1070
    41
1040
2.6
1002
}
  0
TEXT
  5
4CA
100
AcDbEntity
  8
TABELLA
  6
CONTINUOUS
100
AcDbText
 10
0.769342
 20
51.259863
 30
0.0
 40
4.0
  1
B
100
AcDbText
  0
TEXT
  5
4CB
100
AcDbEntity
  8
TABELLA
  6
CONTINUOUS
100
AcDbText
 10
0.353187
 20
15.100813
 30
0.0
 40
4.0
  1
A
100
AcDbText
  0
LINE
  5
4CC
100
AcDbEntity
  8
TABELLA
  6
CONTINUOUS
100
AcDbLine
 10
5.782064
 20
36.262067
 30
0.0
 11
0.782064
 21
36.262067
 31
0.0
  0
TEXT
  5
4CD
100
AcDbEntity
  8
TABELLA
  6
CONTINUOUS
100
AcDbText
 10
15.583223
 20
0.138446
 30
0.0
 40
4.0
  1
6
100
AcDbText
  0
LINE
  5
4CE
100
AcDbEntity
  8
TABELLA
  6
CONTINUOUS
100
AcDbLine
 10
34.115064
 20
5.387067
 30
0.0
 11
34.115064
 21
0.387067
 31
0.0
  0
TEXT
  5
4CF
100
AcDbEntity
  8
TABELLA
  6
CONTINUOUS
100
AcDbText
 10
7.271803
 20
11.9314
 30
0.0
 40
2.0
  1
- Interassi fori = +/- 0.25
100
AcDbText
  0
TEXT
  5
4D0
100
AcDbEntity
  8
TABELLA
  6
CONTINUOUS
100
AcDbText
 10
7.271803
 20
19.5314
 30
0.0
 40
2.0
  1
   oltre 500 mm = +/- 0.5
100
AcDbText
  0
TEXT
  5
4D1
100
AcDbEntity
  8
TABELLA
  6
CONTINUOUS
100
AcDbText
 10
7.271803
 20
42.3314
 30
0.0
 40
2.0
  1
TOLLERANZE GENERALI :
100
AcDbText
  0
LINE
  5
4D2
100
AcDbEntity
  8
TABELLA
  6
CONTINUOUS
100
AcDbLine
 10
5.782064
 20
72.137067
 30
0.0
 11
0.782064
 21
72.137067
 31
0.0
  0
TEXT
  5
4D3
100
AcDbEntity
  8
TABELLA
  6
CONTINUOUS
100
AcDbText
 10
0.769342
 20
87.459725
 30
0.0
 40
4.0
  1
C
100
AcDbText
  0
LINE
  5
4D4
100
AcDbEntity
  8
TABELLA
  6
CONTINUOUS
100
AcDbLine
 10
5.782064
 20
108.012067
 30
0.0
 11
0.782064
 21
108.012067
 31
0.0
  0
TEXT
  5
4D5
100
AcDbEntity
  8
TABELLA
  6
CONTINUOUS
100
AcDbText
 10
0.769342
 20
124.034397
 30
0.0
 40
4.0
  1
D
100
AcDbText
  0
LINE
  5
4D6
100
AcDbEntity
  8
TABELLA
  6
CONTINUOUS
100
AcDbLine
 10
65.792444
 20
45.394891
 30
0.0
 11
65.782064
 21
5.389662
 31
0.0
  0
TEXT
  5
4D7
100
AcDbEntity
  8
TABELLA
  6
CONTINUOUS
100
AcDbText
 10
68.438556
 20
7.454028
 30
0.0
 40
1.5
  1
A termine di legge la Rolleri si riserva la
 50
90.0
100
AcDbText
  0
TEXT
  5
4D8
100
AcDbEntity
  8
TABELLA
  6
CONTINUOUS
100
AcDbText
 10
49.29176
 20
0.138446
 30
0.0
 40
4.0
  1
5
100
AcDbText
  0
LINE
  5
4D9
100
AcDbEntity
  8
TABELLA
  6
CONTINUOUS
100
AcDbLine
 10
67.448064
 20
5.387067
 30
0.0
 11
67.448064
 21
0.387067
 31
0.0
  0
LINE
  5
4DA
100
AcDbEntity
  8
TABELLA
  6
CONTINUOUS
100
AcDbLine
 10
75.792442
 20
45.387067
 30
0.0
 11
75.792442
 21
5.387067
 31
0.0
  0
TEXT
  5
4DB
100
AcDbEntity
  8
TABELLA
  6
CONTINUOUS
100
AcDbText
 10
74.138556
 20
7.454028
 30
0.0
 40
1.5
  1
di riprodurlo e di comunicarlo a terzi.
 50
90.0
100
AcDbText
  0
TEXT
  5
4DC
100
AcDbEntity
  8
TABELLA
  6
CONTINUOUS
100
AcDbText
 10
71.288556
 20
7.454028
 30
0.0
 40
1.5
  1
proprietà di questo disegno, con divieto
 50
90.0
100
AcDbText
  0
TEXT
  5
4DD
100
AcDbEntity
  8
TABELLA
  6
CONTINUOUS
100
AcDbText
 10
83.416451
 20
0.554068
 30
0.0
 40
4.0
  1
4
100
AcDbText
  0
LINE
  5
4DE
100
AcDbEntity
  8
TABELLA
  6
CONTINUOUS
100
AcDbLine
 10
98.281064
 20
0.387067
 30
0.0
 11
100.781064
 21
5.387067
 31
0.0
  0
LINE
  5
4DF
100
AcDbEntity
  8
TABELLA
  6
CONTINUOUS
100
AcDbLine
 10
100.781064
 20
5.387067
 30
0.0
 11
100.781064
 21
0.387067
 31
0.0
  0
LINE
  5
4E0
100
AcDbEntity
  8
TABELLA
  6
CONTINUOUS
100
AcDbLine
 10
100.781064
 20
0.387067
 30
0.0
 11
98.281064
 21
0.387067
 31
0.0
  0
TEXT
  5
4E1
100
AcDbEntity
  8
TABELLA
  6
CONTINUOUS
100
AcDbText
 10
77.180326
 20
42.484843
 30
0.0
 40
2.0
  1
Materiale
100
AcDbText
  0
TEXT
  5
4E2
100
AcDbEntity
  8
TABELLA
  6
CONTINUOUS
100
AcDbText
 10
76.949018
 20
32.320687
 30
0.0
 40
2.0
  1
Disegnato da
100
AcDbText
  0
LINE
  5
4E3
100
AcDbEntity
  8
TABELLA
  6
CONTINUOUS
100
AcDbLine
 10
84.107383
 20
22.612261
 30
0.0
 11
81.051152
 21
14.215335
 31
0.0
1001
ACAD
1000
ASC_BOUNDS
1002
{
1070
    19
1002
}
  0
LINE
  5
4E4
100
AcDbEntity
  8
TABELLA
  6
CONTINUOUS
100
AcDbLine
 10
83.407176
 20
23.612261
 30
0.0
 11
79.986974
 21
14.215335
 31
0.0
1001
ACAD
1000
ASC_BOUNDS
1002
{
1070
    19
1002
}
  0
LINE
  5
4E5
100
AcDbEntity
  8
TABELLA
  6
CONTINUOUS
100
AcDbLine
 10
81.051152
 20
14.215335
 30
0.0
 11
82.055262
 21
11.456564
 31
0.0
1001
ACAD
1000
ASC_BOUNDS
1002
{
1070
    19
1002
}
  0
LINE
  5
4E6
100
AcDbEntity
  8
TABELLA
  6
CONTINUOUS
100
AcDbLine
 10
79.986974
 20
14.215335
 30
0.0
 11
81.355055
 21
10.456564
 31
0.0
1001
ACAD
1000
ASC_BOUNDS
1002
{
1070
    19
1002
}
  0
LINE
  5
4E7
100
AcDbEntity
  8
TABELLA
  6
CONTINUOUS
100
AcDbLine
 10
100.782064
 20
35.387067
 30
0.0
 11
100.782064
 21
25.387067
 31
0.0
  0
TEXT
  5
4E8
100
AcDbEntity
  8
TABELLA
  6
CONTINUOUS
100
AcDbText
 10
1.185497
 20
230.800736
 30
0.0
 40
4.0
  1
G
100
AcDbText
  0
LINE
  5
4E9
100
AcDbEntity
  8
TABELLA
  6
CONTINUOUS
100
AcDbLine
 10
0.782064
 20
146.387067
 30
0.0
 11
5.782064
 21
143.887067
 31
0.0
  0
LINE
  5
4EA
100
AcDbEntity
  8
TABELLA
  6
CONTINUOUS
100
AcDbLine
 10
5.782064
 20
143.887067
 30
0.0
 11
0.782064
 21
143.887067
 31
0.0
  0
LINE
  5
4EB
100
AcDbEntity
  8
TABELLA
  6
CONTINUOUS
100
AcDbLine
 10
0.782064
 20
143.887067
 30
0.0
 11
0.782064
 21
146.387067
 31
0.0
  0
TEXT
  5
4EC
100
AcDbEntity
  8
TABELLA
  6
CONTINUOUS
100
AcDbText
 10
1.601651
 20
158.319393
 30
0.0
 40
4.0
  1
E
100
AcDbText
  0
LINE
  5
4ED
100
AcDbEntity
  8
TABELLA
  6
CONTINUOUS
100
AcDbLine
 10
5.782064
 20
179.762067
 30
0.0
 11
0.782064
 21
179.762067
 31
0.0
  0
TEXT
  5
4EE
100
AcDbEntity
  8
TABELLA
  6
CONTINUOUS
100
AcDbText
 10
1.185497
 20
195.309687
 30
0.0
 40
4.0
  1
F
100
AcDbText
  0
LINE
  5
4EF
100
AcDbEntity
  8
TABELLA
  6
CONTINUOUS
100
AcDbLine
 10
5.782064
 20
215.637067
 30
0.0
 11
0.782064
 21
215.637067
 31
0.0
  0
LINE
  5
4F0
100
AcDbEntity
  8
TABELLA
  6
CONTINUOUS
100
AcDbLine
 10
5.782064
 20
251.512067
 30
0.0
 11
0.782064
 21
251.512067
 31
0.0
  0
TEXT
  5
4F1
100
AcDbEntity
  8
TABELLA
  6
CONTINUOUS
100
AcDbText
 10
1.185497
 20
268.206651
 30
0.0
 40
4.0
  1
H
100
AcDbText
  0
TEXT
  5
4F2
100
AcDbEntity
  8
TABELLA
  6
CONTINUOUS
100
AcDbText
 10
15.583224
 20
283.209827
 30
0.0
 40
4.0
  1
6
100
AcDbText
  0
LINE
  5
4F3
100
AcDbEntity
  8
TABELLA
  6
CONTINUOUS
100
AcDbLine
 10
34.115064
 20
282.387067
 30
0.0
 11
34.115064
 21
287.387067
 31
0.0
  0
TEXT
  5
4F4
100
AcDbEntity
  8
TABELLA
  6
CONTINUOUS
100
AcDbText
 10
50.12407
 20
283.250638
 30
0.0
 40
4.0
  1
5
100
AcDbText
  0
LINE
  5
4F5
100
AcDbEntity
  8
TABELLA
  6
CONTINUOUS
100
AcDbLine
 10
67.448064
 20
282.387067
 30
0.0
 11
67.448064
 21
287.387067
 31
0.0
  0
TEXT
  5
4F6
100
AcDbEntity
  8
TABELLA
  6
CONTINUOUS
100
AcDbText
 10
83.832607
 20
283.250638
 30
0.0
 40
4.0
  1
4
100
AcDbText
  0
LINE
  5
4F7
100
AcDbEntity
  8
TABELLA
  6
CONTINUOUS
100
AcDbLine
 10
100.781064
 20
282.387067
 30
0.0
 11
98.281064
 21
287.387067
 31
0.0
  0
LINE
  5
4F8
100
AcDbEntity
  8
TABELLA
  6
CONTINUOUS
100
AcDbLine
 10
100.781064
 20
282.387067
 30
0.0
 11
100.781064
 21
287.387067
 31
0.0
  0
LINE
  5
4F9
100
AcDbEntity
  8
TABELLA
  6
CONTINUOUS
100
AcDbLine
 10
100.781064
 20
287.387067
 30
0.0
 11
98.281064
 21
287.387067
 31
0.0
  0
LINE
  5
4FA
100
AcDbEntity
  8
TABELLA
  6
CONTINUOUS
100
AcDbLine
 10
200.782064
 20
141.387067
 30
0.0
 11
195.782064
 21
143.887067
 31
0.0
  0
LINE
  5
4FB
100
AcDbEntity
  8
TABELLA
  6
CONTINUOUS
100
AcDbLine
 10
200.782064
 20
143.887067
 30
0.0
 11
200.782064
 21
141.387067
 31
0.0
  0
LINE
  5
4FC
100
AcDbEntity
  8
TABELLA
  6
CONTINUOUS
100
AcDbLine
 10
191.781227
 20
165.387241
 30
0.0
 11
191.781227
 21
45.387241
 31
0.0
  0
LINE
  5
4FD
100
AcDbEntity
  8
TABELLA
  6
CONTINUOUS
100
AcDbLine
 10
195.782064
 20
5.387067
 30
0.0
 11
195.782064
 21
282.387067
 31
0.0
  0
TEXT
  5
4FE
100
AcDbEntity
  8
TABELLA
  6
CONTINUOUS
100
AcDbText
 10
147.267168
 20
42.484843
 30
0.0
 40
2.0
  1
Trattamento Termico
100
AcDbText
  0
TEXT
  5
4FF
100
AcDbEntity
  8
TABELLA
  6
CONTINUOUS
100
AcDbText
 10
161.83968
 20
32.089683
 30
0.0
 40
2.0
  1
Scala
100
AcDbText
  0
TEXT
  5
500
100
AcDbEntity
  8
TABELLA
  6
CONTINUOUS
100
AcDbText
 10
162.070991
 20
12.223377
 30
0.0
 40
2.0
  1
Data
100
AcDbText
  0
LINE
  5
501
100
AcDbEntity
  8
TABELLA
  6
CONTINUOUS
100
AcDbLine
 10
125.782064
 20
35.387067
 30
0.0
 11
195.782064
 21
35.387067
 31
0.0
  0
LINE
  5
502
100
AcDbEntity
  8
TABELLA
  6
CONTINUOUS
100
AcDbLine
 10
125.782064
 20
25.387067
 30
0.0
 11
195.782064
 21
25.387067
 31
0.0
  0
LINE
  5
503
100
AcDbEntity
  8
TABELLA
  6
CONTINUOUS
100
AcDbLine
 10
120.666552
 20
15.457427
 30
0.0
 11
195.782064
 21
15.387067
 31
0.0
  0
TEXT
  5
504
100
AcDbEntity
  8
TABELLA
  6
CONTINUOUS
100
AcDbText
 10
116.965597
 20
42.484843
 30
0.0
 40
2.0
  1
Dimensioni di prelievo
100
AcDbText
  0
TEXT
  5
505
100
AcDbEntity
  8
TABELLA
  6
CONTINUOUS
100
AcDbText
 10
126.911915
 20
32.089683
 30
0.0
 40
2.0
  1
Approvato da - data
100
AcDbText
  0
TEXT
  5
506
100
AcDbEntity
  8
TABELLA
  6
CONTINUOUS
100
AcDbText
 10
121.823101
 20
22.387534
 30
0.0
 40
2.0
  1
Particolare
100
AcDbText
  0
LINE
  5
507
100
AcDbEntity
  8
TABELLA
  6
CONTINUOUS
100
AcDbLine
 10
120.782064
 20
15.387067
 30
0.0
 11
120.782064
 21
5.387067
 31
0.0
  0
TEXT
  5
508
100
AcDbEntity
  8
TABELLA
  6
CONTINUOUS
100
AcDbText
 10
116.708833
 20
0.138446
 30
0.0
 40
4.0
  1
3
100
AcDbText
  0
LINE
  5
509
100
AcDbEntity
  8
TABELLA
  6
CONTINUOUS
100
AcDbLine
 10
116.711078
 20
19.853491
 30
0.0
 11
115.706968
 21
22.612261
 31
0.0
1001
ACAD
1000
ASC_BOUNDS
1002
{
1070
    19
1002
}
  0
LINE
  5
50A
100
AcDbEntity
  8
TABELLA
  6
CONTINUOUS
100
AcDbLine
 10
113.654847
 20
11.456564
 30
0.0
 11
116.711078
 21
19.853491
 31
0.0
1001
ACAD
1000
ASC_BOUNDS
1002
{
1070
    19
1002
}
  0
LINE
  5
50B
100
AcDbEntity
  8
TABELLA
  6
CONTINUOUS
100
AcDbLine
 10
114.355055
 20
10.456564
 30
0.0
 11
117.775256
 21
19.853491
 31
0.0
1001
ACAD
1000
ASC_BOUNDS
1002
{
1070
    19
1002
}
  0
TEXT
  5
50C
100
AcDbEntity
  8
TABELLA
  6
CONTINUOUS
100
AcDbText
 10
101.930465
 20
32.089683
 30
0.0
 40
2.0
  1
Controllato da
100
AcDbText
  0
LINE
  5
50D
100
AcDbEntity
  8
TABELLA
  6
CONTINUOUS
100
AcDbLine
 10
115.782064
 20
35.387067
 30
0.0
 11
115.782064
 21
45.387067
 31
0.0
  0
LINE
  5
50E
100
AcDbEntity
  8
TABELLA
  6
CONTINUOUS
100
AcDbLine
 10
125.782064
 20
35.387067
 30
0.0
 11
125.782064
 21
25.387067
 31
0.0
  0
TEXT
  5
50F
100
AcDbEntity
  8
TABELLA
  6
CONTINUOUS
100
AcDbText
 10
121.591791
 20
12.223377
 30
0.0
 40
2.0
  1
Disegno
100
AcDbText
  0
LINE
  5
510
100
AcDbEntity
  8
TABELLA
  6
CONTINUOUS
100
AcDbLine
 10
117.775256
 20
19.853491
 30
0.0
 11
116.407176
 21
23.612261
 31
0.0
1001
ACAD
1000
ASC_BOUNDS
1002
{
1070
    19
1002
}
  0
LINE
  5
511
100
AcDbEntity
  8
TABELLA
  6
CONTINUOUS
100
AcDbLine
 10
120.782064
 20
25.387067
 30
0.0
 11
120.782064
 21
15.387067
 31
0.0
  0
LINE
  5
512
100
AcDbEntity
  8
TABELLA
  6
CONTINUOUS
100
AcDbLine
 10
160.782064
 20
15.387067
 30
0.0
 11
160.782064
 21
5.387067
 31
0.0
  0
LINE
  5
513
100
AcDbEntity
  8
TABELLA
  6
CONTINUOUS
100
AcDbLine
 10
134.114064
 20
5.387067
 30
0.0
 11
134.114064
 21
0.387067
 31
0.0
  0
TEXT
  5
514
100
AcDbEntity
  8
TABELLA
  6
CONTINUOUS
100
AcDbText
 10
150.41737
 20
0.138446
 30
0.0
 40
4.0
  1
2
100
AcDbText
  0
LINE
  5
515
100
AcDbEntity
  8
TABELLA
  6
CONTINUOUS
100
AcDbLine
 10
145.782064
 20
35.387067
 30
0.0
 11
145.782064
 21
45.387067
 31
0.0
  0
LINE
  5
516
100
AcDbEntity
  8
TABELLA
  6
CONTINUOUS
100
AcDbLine
 10
160.782064
 20
35.387067
 30
0.0
 11
160.782064
 21
25.387067
 31
0.0
  0
TEXT
  5
517
100
AcDbEntity
  8
TABELLA
  6
CONTINUOUS
100
AcDbText
 10
197.026704
 20
51.259863
 30
0.0
 40
4.0
  1
B
100
AcDbText
  0
TEXT
  5
518
100
AcDbEntity
  8
TABELLA
  6
CONTINUOUS
100
AcDbText
 10
195.001816
 20
46.303578
 30
0.0
 40
2.0
  1
N° rev.
 50
90.0
100
AcDbText
  0
LINE
  5
519
100
AcDbEntity
  8
TABELLA
  6
CONTINUOUS
100
AcDbLine
 10
176.747411
 20
30.474182
 30
0.0
 11
194.673913
 21
30.474182
 31
0.0
  0
LINE
  5
51A
100
AcDbEntity
  8
TABELLA
  6
CONTINUOUS
100
AcDbLine
 10
180.782064
 20
15.387067
 30
0.0
 11
180.782064
 21
5.387067
 31
0.0
  0
LINE
  5
51B
100
AcDbEntity
  8
TABELLA
  6
CONTINUOUS
100
AcDbLine
 10
167.447064
 20
5.387067
 30
0.0
 11
167.447064
 21
0.387067
 31
0.0
  0
TEXT
  5
51C
100
AcDbEntity
  8
TABELLA
  6
CONTINUOUS
100
AcDbText
 10
184.542061
 20
0.138446
 30
0.0
 40
4.0
  1
1
100
AcDbText
  0
LINE
  5
51D
100
AcDbEntity
  8
TABELLA
  6
CONTINUOUS
100
AcDbLine
 10
176.747411
 20
31.974182
 30
0.0
 11
182.656258
 21
33.016071
 31
0.0
  0
LINE
  5
51E
100
AcDbEntity
  8
TABELLA
  6
CONTINUOUS
100
AcDbLine
 10
176.747411
 20
28.974182
 30
0.0
 11
182.656258
 21
27.932293
 31
0.0
  0
LINE
  5
51F
100
AcDbEntity
  8
TABELLA
  6
CONTINUOUS
100
AcDbLine
 10
176.747411
 20
31.974182
 30
0.0
 11
176.747411
 21
28.974182
 31
0.0
  0
LINE
  5
520
100
AcDbEntity
  8
TABELLA
  6
CONTINUOUS
100
AcDbLine
 10
175.782064
 20
35.387067
 30
0.0
 11
175.782064
 21
25.387067
 31
0.0
  0
CIRCLE
  5
521
100
AcDbEntity
  8
TABELLA
  6
CONTINUOUS
100
AcDbCircle
 10
189.932065
 20
30.474182
 30
0.0
 40
1.5
  0
LINE
  5
522
100
AcDbEntity
  8
TABELLA
  6
CONTINUOUS
100
AcDbLine
 10
189.932065
 20
28.369782
 30
0.0
 11
189.932065
 21
32.578582
 31
0.0
  0
CIRCLE
  5
523
100
AcDbEntity
  8
TABELLA
  6
CONTINUOUS
100
AcDbCircle
 10
189.932065
 20
30.474182
 30
0.0
 40
2.54
  0
LINE
  5
524
100
AcDbEntity
  8
TABELLA
  6
CONTINUOUS
100
AcDbLine
 10
182.656258
 20
33.016071
 30
0.0
 11
182.656258
 21
27.932293
 31
0.0
  0
TEXT
  5
525
100
AcDbEntity
  8
TABELLA
  6
CONTINUOUS
100
AcDbText
 10
181.963625
 20
11.992375
 30
0.0
 40
2.0
  1
Formato
100
AcDbText
  0
LINE
  5
526
100
AcDbEntity
  8
TABELLA
  6
CONTINUOUS
100
AcDbLine
 10
187.827665
 20
30.474182
 30
0.0
 11
192.036465
 21
30.474182
 31
0.0
  0
LINE
  5
527
100
AcDbEntity
  8
TABELLA
  6
CONTINUOUS
100
AcDbLine
 10
195.782064
 20
5.387067
 30
0.0
 11
195.782064
 21
35.387067
 31
0.0
  0
TEXT
  5
528
100
AcDbEntity
  8
TABELLA
  6
CONTINUOUS
100
AcDbText
 10
197.026704
 20
14.685191
 30
0.0
 40
4.0
  1
A
100
AcDbText
  0
LINE
  5
529
100
AcDbEntity
  8
TABELLA
  6
CONTINUOUS
100
AcDbLine
 10
195.782064
 20
36.262067
 30
0.0
 11
200.782064
 21
36.262067
 31
0.0
  0
TEXT
  5
52A
100
AcDbEntity
  8
TABELLA
  6
CONTINUOUS
100
AcDbText
 10
195.209894
 20
130.984517
 30
0.0
 40
2.0
  1
Data
 50
90.0
100
AcDbText
  0
TEXT
  5
52B
100
AcDbEntity
  8
TABELLA
  6
CONTINUOUS
100
AcDbText
 10
195.209894
 20
56.278486
 30
0.0
 40
2.0
  1
Nota di revisione
 50
90.0
100
AcDbText
  0
LINE
  5
52C
100
AcDbEntity
  8
TABELLA
  6
CONTINUOUS
100
AcDbLine
 10
191.781227
 20
55.387241
 30
0.0
 11
195.782064
 21
55.387241
 31
0.0
  0
LINE
  5
52D
100
AcDbEntity
  8
TABELLA
  6
CONTINUOUS
100
AcDbLine
 10
191.781227
 20
130.387241
 30
0.0
 11
195.782064
 21
130.387241
 31
0.0
  0
LINE
  5
52E
100
AcDbEntity
  8
TABELLA
  6
CONTINUOUS
100
AcDbLine
 10
195.782064
 20
72.137067
 30
0.0
 11
200.782064
 21
72.137067
 31
0.0
  0
TEXT
  5
52F
100
AcDbEntity
  8
TABELLA
  6
CONTINUOUS
100
AcDbText
 10
197.442859
 20
87.459725
 30
0.0
 40
4.0
  1
C
100
AcDbText
  0
LINE
  5
530
100
AcDbEntity
  8
TABELLA
  6
CONTINUOUS
100
AcDbLine
 10
195.782064
 20
108.012067
 30
0.0
 11
200.782064
 21
108.012067
 31
0.0
  0
TEXT
  5
531
100
AcDbEntity
  8
TABELLA
  6
CONTINUOUS
100
AcDbText
 10
197.442859
 20
123.618776
 30
0.0
 40
4.0
  1
D
100
AcDbText
  0
TEXT
  5
532
100
AcDbEntity
  8
TABELLA
  6
CONTINUOUS
100
AcDbText
 10
116.708835
 20
283.250638
 30
0.0
 40
4.0
  1
3
100
AcDbText
  0
LINE
  5
533
100
AcDbEntity
  8
TABELLA
  6
CONTINUOUS
100
AcDbLine
 10
134.114064
 20
282.387067
 30
0.0
 11
134.114064
 21
287.387067
 31
0.0
  0
TEXT
  5
534
100
AcDbEntity
  8
TABELLA
  6
CONTINUOUS
100
AcDbText
 10
150.417372
 20
283.250638
 30
0.0
 40
4.0
  1
2
100
AcDbText
  0
TEXT
  5
535
100
AcDbEntity
  8
TABELLA
  6
CONTINUOUS
100
AcDbText
 10
197.026704
 20
230.800736
 30
0.0
 40
4.0
  1
G
100
AcDbText
  0
TEXT
  5
536
100
AcDbEntity
  8
TABELLA
  6
CONTINUOUS
100
AcDbText
 10
195.209894
 20
155.7956
 30
0.0
 40
2.0
  1
Control.
 50
90.0
100
AcDbText
  0
TEXT
  5
537
100
AcDbEntity
  8
TABELLA
  6
CONTINUOUS
100
AcDbText
 10
195.209894
 20
146.028502
 30
0.0
 40
2.0
  1
Firma
 50
90.0
100
AcDbText
  0
LINE
  5
538
100
AcDbEntity
  8
TABELLA
  6
CONTINUOUS
100
AcDbLine
 10
191.781227
 20
145.387241
 30
0.0
 11
195.782064
 21
145.387241
 31
0.0
  0
LINE
  5
539
100
AcDbEntity
  8
TABELLA
  6
CONTINUOUS
100
AcDbLine
 10
191.781227
 20
155.387241
 30
0.0
 11
195.782064
 21
155.387241
 31
0.0
  0
LINE
  5
53A
100
AcDbEntity
  8
TABELLA
  6
CONTINUOUS
100
AcDbLine
 10
191.781227
 20
165.387241
 30
0.0
 11
195.782064
 21
165.387241
 31
0.0
  0
LINE
  5
53B
100
AcDbEntity
  8
TABELLA
  6
CONTINUOUS
100
AcDbLine
 10
195.782064
 20
143.887067
 30
0.0
 11
200.782064
 21
146.387067
 31
0.0
  0
LINE
  5
53C
100
AcDbEntity
  8
TABELLA
  6
CONTINUOUS
100
AcDbLine
 10
195.782064
 20
143.887067
 30
0.0
 11
200.782064
 21
143.887067
 31
0.0
  0
LINE
  5
53D
100
AcDbEntity
  8
TABELLA
  6
CONTINUOUS
100
AcDbLine
 10
200.782064
 20
143.887067
 30
0.0
 11
200.782064
 21
146.387067
 31
0.0
  0
TEXT
  5
53E
100
AcDbEntity
  8
TABELLA
  6
CONTINUOUS
100
AcDbText
 10
197.442859
 20
158.319393
 30
0.0
 40
4.0
  1
E
100
AcDbText
  0
LINE
  5
53F
100
AcDbEntity
  8
TABELLA
  6
CONTINUOUS
100
AcDbLine
 10
195.782064
 20
179.762067
 30
0.0
 11
200.782064
 21
179.762067
 31
0.0
  0
TEXT
  5
540
100
AcDbEntity
  8
TABELLA
  6
CONTINUOUS
100
AcDbText
 10
197.859013
 20
195.309687
 30
0.0
 40
4.0
  1
F
100
AcDbText
  0
LINE
  5
541
100
AcDbEntity
  8
TABELLA
  6
CONTINUOUS
100
AcDbLine
 10
195.782064
 20
215.637067
 30
0.0
 11
200.782064
 21
215.637067
 31
0.0
  0
LINE
  5
542
100
AcDbEntity
  8
TABELLA
  6
CONTINUOUS
100
AcDbLine
 10
167.447064
 20
282.387067
 30
0.0
 11
167.447064
 21
287.387067
 31
0.0
  0
TEXT
  5
543
100
AcDbEntity
  8
TABELLA
  6
CONTINUOUS
100
AcDbText
 10
184.958217
 20
283.250638
 30
0.0
 40
4.0
  1
1
100
AcDbText
  0
LINE
  5
544
100
AcDbEntity
  8
TABELLA
  6
CONTINUOUS
100
AcDbLine
 10
195.782064
 20
282.387067
 30
0.0
 11
195.782064
 21
278.387067
 31
0.0
  0
LINE
  5
545
100
AcDbEntity
  8
TABELLA
  6
CONTINUOUS
100
AcDbLine
 10
195.782064
 20
251.512067
 30
0.0
 11
200.782064
 21
251.512067
 31
0.0
  0
TEXT
  5
546
100
AcDbEntity
  8
TABELLA
  6
CONTINUOUS
100
AcDbText
 10
197.026704
 20
268.206651
 30
0.0
 40
4.0
  1
H
100
AcDbText
  0
ENDBLK
  5
548
100
AcDbEntity
  8
QUOTE
100
AcDbBlockEnd
  0
BLOCK
  5
578
100
AcDbEntity
  8
0
100
AcDbBlockBegin
  2
*D2
 70
    65
 10
0.0
 20
0.0
 30
0.0
  3
*D2
  1

  0
LINE
  5
56F
100
AcDbEntity
  8
0
  6
BYBLOCK
 62
     0
100
AcDbLine
 10
87.141708
 20
231.850417
 30
0.0
 11
87.141708
 21
263.482553
 31
0.0
  0
LINE
  5
570
100
AcDbEntity
  8
0
  6
BYBLOCK
 62
     0
100
AcDbLine
 10
113.141708
 20
201.850417
 30
0.0
 11
113.141708
 21
263.482553
 31
0.0
  0
LINE
  5
571
100
AcDbEntity
  8
0
  6
BYBLOCK
 62
     0
100
AcDbLine
 10
89.641708
 20
262.232553
 30
0.0
 11
110.641708
 21
262.232553
 31
0.0
  0
SOLID
  5
572
100
AcDbEntity
  8
0
  6
BYBLOCK
 62
     0
100
AcDbTrace
 10
89.641708
 20
262.64922
 30
0.0
 11
89.641708
 21
261.815886
 31
0.0
 12
87.141708
 22
262.232553
 32
0.0
 13
87.141708
 23
262.232553
 33
0.0
  0
SOLID
  5
573
100
AcDbEntity
  8
0
  6
BYBLOCK
 62
     0
100
AcDbTrace
 10
110.641708
 20
262.64922
 30
0.0
 11
110.641708
 21
261.815886
 31
0.0
 12
113.141708
 22
262.232553
 32
0.0
 13
113.141708
 23
262.232553
 33
0.0
  0
MTEXT
  5
574
100
AcDbEntity
  8
0
  6
BYBLOCK
 62
     0
100
AcDbMText
 10
100.141708
 20
265.598262
 30
0.0
 40
3.0
 41
0.0
 71
     5
 72
     1
  1
\A2;26{\H2.400000;\S+0.02^  0;}
  0
POINT
  5
575
100
AcDbEntity
  8
DEFPOINTS
  6
BYBLOCK
 62
     0
100
AcDbPoint
 10
87.141708
 20
231.225417
 30
0.0
  0
POINT
  5
576
100
AcDbEntity
  8
DEFPOINTS
  6
BYBLOCK
 62
     0
100
AcDbPoint
 10
113.141708
 20
201.225417
 30
0.0
  0
POINT
  5
577
100
AcDbEntity
  8
DEFPOINTS
  6
BYBLOCK
 62
     0
100
AcDbPoint
 10
113.141708
 20
262.232553
 30
0.0
  0
ENDBLK
  5
579
100
AcDbEntity
  8
0
100
AcDbBlockEnd
  0
BLOCK
  5
585
100
AcDbEntity
  8
0
100
AcDbBlockBegin
  2
*D3
 70
    65
 10
0.0
 20
0.0
 30
0.0
  3
*D3
  1

  0
LINE
  5
57B
100
AcDbEntity
  8
0
  6
BYBLOCK
 62
     0
100
AcDbLine
 10
87.141708
 20
231.850417
 30
0.0
 11
87.141708
 21
247.705653
 31
0.0
  0
LINE
  5
57C
100
AcDbEntity
  8
0
  6
BYBLOCK
 62
     0
100
AcDbLine
 10
100.141708
 20
231.850417
 30
0.0
 11
100.141708
 21
247.705653
 31
0.0
  0
LINE
  5
57D
100
AcDbEntity
  8
0
  6
BYBLOCK
 62
     0
100
AcDbLine
 10
84.641708
 20
246.455653
 30
0.0
 11
82.141708
 21
246.455653
 31
0.0
  0
LINE
  5
57E
100
AcDbEntity
  8
0
  6
BYBLOCK
 62
     0
100
AcDbLine
 10
102.641708
 20
246.455653
 30
0.0
 11
105.141708
 21
246.455653
 31
0.0
  0
SOLID
  5
57F
100
AcDbEntity
  8
0
  6
BYBLOCK
 62
     0
100
AcDbTrace
 10
84.641708
 20
246.872319
 30
0.0
 11
84.641708
 21
246.038986
 31
0.0
 12
87.141708
 22
246.455653
 32
0.0
 13
87.141708
 23
246.455653
 33
0.0
  0
SOLID
  5
580
100
AcDbEntity
  8
0
  6
BYBLOCK
 62
     0
100
AcDbTrace
 10
102.641708
 20
246.872319
 30
0.0
 11
102.641708
 21
246.038986
 31
0.0
 12
100.141708
 22
246.455653
 32
0.0
 13
100.141708
 23
246.455653
 33
0.0
  0
MTEXT
  5
581
100
AcDbEntity
  8
0
  6
BYBLOCK
 62
     0
100
AcDbMText
 10
93.641708
 20
248.580653
 30
0.0
 40
3.0
 41
0.0
 71
     5
 72
     1
  1
\A2;13{\H2.400000;±0.01}
  0
POINT
  5
582
100
AcDbEntity
  8
DEFPOINTS
  6
BYBLOCK
 62
     0
100
AcDbPoint
 10
87.141708
 20
231.225417
 30
0.0
  0
POINT
  5
583
100
AcDbEntity
  8
DEFPOINTS
  6
BYBLOCK
 62
     0
100
AcDbPoint
 10
100.141708
 20
231.225417
 30
0.0
  0
POINT
  5
584
100
AcDbEntity
  8
DEFPOINTS
  6
BYBLOCK
 62
     0
100
AcDbPoint
 10
100.141708
 20
246.455653
 30
0.0
  0
ENDBLK
  5
586
100
AcDbEntity
  8
0
100
AcDbBlockEnd
  0
BLOCK
  5
592
100
AcDbEntity
  8
0
100
AcDbBlockBegin
  2
*D4
 70
    65
 10
0.0
 20
0.0
 30
0.0
  3
*D4
  1

  0
LINE
  5
588
100
AcDbEntity
  8
0
  6
BYBLOCK
 62
     0
100
AcDbLine
 10
100.141708
 20
231.850417
 30
0.0
 11
100.141708
 21
247.622928
 31
0.0
  0
LINE
  5
589
100
AcDbEntity
  8
0
  6
BYBLOCK
 62
     0
100
AcDbLine
 10
107.141708
 20
231.781838
 30
0.0
 11
107.141708
 21
247.622928
 31
0.0
  0
LINE
  5
58A
100
AcDbEntity
  8
0
  6
BYBLOCK
 62
     0
100
AcDbLine
 10
102.641708
 20
246.372928
 30
0.0
 11
104.641708
 21
246.372928
 31
0.0
  0
LINE
  5
58B
100
AcDbEntity
  8
0
  6
BYBLOCK
 62
     0
100
AcDbLine
 10
107.141708
 20
246.372928
 30
0.0
 11
126.019952
 21
246.372928
 31
0.0
  0
SOLID
  5
58C
100
AcDbEntity
  8
0
  6
BYBLOCK
 62
     0
100
AcDbTrace
 10
102.641708
 20
246.789595
 30
0.0
 11
102.641708
 21
245.956261
 31
0.0
 12
100.141708
 22
246.372928
 32
0.0
 13
100.141708
 23
246.372928
 33
0.0
  0
SOLID
  5
58D
100
AcDbEntity
  8
0
  6
BYBLOCK
 62
     0
100
AcDbTrace
 10
104.641708
 20
246.789595
 30
0.0
 11
104.641708
 21
245.956261
 31
0.0
 12
107.141708
 22
246.372928
 32
0.0
 13
107.141708
 23
246.372928
 33
0.0
  0
MTEXT
  5
58E
100
AcDbEntity
  8
0
  6
BYBLOCK
 62
     0
100
AcDbMText
 10
120.807952
 20
248.497928
 30
0.0
 40
3.0
 41
0.0
 71
     5
 72
     1
  1
\A2;7{\H2.400000;±0.01}
  0
POINT
  5
58F
100
AcDbEntity
  8
DEFPOINTS
  6
BYBLOCK
 62
     0
100
AcDbPoint
 10
100.141708
 20
231.225417
 30
0.0
  0
POINT
  5
590
100
AcDbEntity
  8
DEFPOINTS
  6
BYBLOCK
 62
     0
100
AcDbPoint
 10
107.141708
 20
231.156838
 30
0.0
  0
POINT
  5
591
100
AcDbEntity
  8
DEFPOINTS
  6
BYBLOCK
 62
     0
100
AcDbPoint
 10
107.141708
 20
246.372928
 30
0.0
  0
ENDBLK
  5
593
100
AcDbEntity
  8
0
100
AcDbBlockEnd
  0
BLOCK
  5
59F
100
AcDbEntity
  8
0
100
AcDbBlockBegin
  2
*D5
 70
    65
 10
0.0
 20
0.0
 30
0.0
  3
*D5
  1

  0
LINE
  5
595
100
AcDbEntity
  8
0
  6
BYBLOCK
 62
     0
100
AcDbLine
 10
87.016708
 20
215.225417
 30
0.0
 11
73.854458
 21
215.225417
 31
0.0
  0
LINE
  5
596
100
AcDbEntity
  8
0
  6
BYBLOCK
 62
     0
100
AcDbLine
 10
87.016708
 20
206.825417
 30
0.0
 11
73.854458
 21
206.825417
 31
0.0
  0
LINE
  5
597
100
AcDbEntity
  8
0
  6
BYBLOCK
 62
     0
100
AcDbLine
 10
75.104458
 20
217.725417
 30
0.0
 11
75.104458
 21
220.225417
 31
0.0
  0
LINE
  5
598
100
AcDbEntity
  8
0
  6
BYBLOCK
 62
     0
100
AcDbLine
 10
75.104458
 20
204.325417
 30
0.0
 11
75.104458
 21
201.825417
 31
0.0
  0
SOLID
  5
599
100
AcDbEntity
  8
0
  6
BYBLOCK
 62
     0
100
AcDbTrace
 10
74.687791
 20
217.725417
 30
0.0
 11
75.521124
 21
217.725417
 31
0.0
 12
75.104458
 22
215.225417
 32
0.0
 13
75.104458
 23
215.225417
 33
0.0
  0
SOLID
  5
59A
100
AcDbEntity
  8
0
  6
BYBLOCK
 62
     0
100
AcDbTrace
 10
74.687791
 20
204.325417
 30
0.0
 11
75.521124
 21
204.325417
 31
0.0
 12
75.104458
 22
206.825417
 32
0.0
 13
75.104458
 23
206.825417
 33
0.0
  0
MTEXT
  5
59B
100
AcDbEntity
  8
0
  6
BYBLOCK
 62
     0
100
AcDbMText
 10
72.979458
 20
211.025417
 30
0.0
 40
3.0
 41
0.0
 71
     5
 72
     1
  1
\A1;8.4
 11
0.0
 21
1.0
 31
0.0
  0
POINT
  5
59C
100
AcDbEntity
  8
DEFPOINTS
  6
BYBLOCK
 62
     0
100
AcDbPoint
 10
87.641708
 20
215.225417
 30
0.0
  0
POINT
  5
59D
100
AcDbEntity
  8
DEFPOINTS
  6
BYBLOCK
 62
     0
100
AcDbPoint
 10
87.641708
 20
206.825417
 30
0.0
  0
POINT
  5
59E
100
AcDbEntity
  8
DEFPOINTS
  6
BYBLOCK
 62
     0
100
AcDbPoint
 10
75.104458
 20
206.825417
 30
0.0
  0
ENDBLK
  5
5A0
100
AcDbEntity
  8
0
100
AcDbBlockEnd
  0
BLOCK
  5
5AB
100
AcDbEntity
  8
0
100
AcDbBlockBegin
  2
*D6
 70
    65
 10
0.0
 20
0.0
 30
0.0
  3
*D6
  1

  0
LINE
  5
5A2
100
AcDbEntity
  8
0
  6
BYBLOCK
 62
     0
100
AcDbLine
 10
87.016708
 20
215.225417
 30
0.0
 11
73.914279
 21
215.225417
 31
0.0
  0
LINE
  5
5A3
100
AcDbEntity
  8
0
  6
BYBLOCK
 62
     0
100
AcDbLine
 10
87.516708
 20
232.225417
 30
0.0
 11
73.914279
 21
232.225417
 31
0.0
  0
LINE
  5
5A4
100
AcDbEntity
  8
0
  6
BYBLOCK
 62
     0
100
AcDbLine
 10
75.164279
 20
217.725417
 30
0.0
 11
75.164279
 21
229.725417
 31
0.0
  0
SOLID
  5
5A5
100
AcDbEntity
  8
0
  6
BYBLOCK
 62
     0
100
AcDbTrace
 10
74.747613
 20
217.725417
 30
0.0
 11
75.580946
 21
217.725417
 31
0.0
 12
75.164279
 22
215.225417
 32
0.0
 13
75.164279
 23
215.225417
 33
0.0
  0
SOLID
  5
5A6
100
AcDbEntity
  8
0
  6
BYBLOCK
 62
     0
100
AcDbTrace
 10
74.747613
 20
229.725417
 30
0.0
 11
75.580946
 21
229.725417
 31
0.0
 12
75.164279
 22
232.225417
 32
0.0
 13
75.164279
 23
232.225417
 33
0.0
  0
MTEXT
  5
5A7
100
AcDbEntity
  8
0
  6
BYBLOCK
 62
     0
100
AcDbMText
 10
73.039279
 20
223.725417
 30
0.0
 40
3.0
 41
0.0
 71
     5
 72
     1
  1
\A1;17
 11
0.0
 21
1.0
 31
0.0
  0
POINT
  5
5A8
100
AcDbEntity
  8
DEFPOINTS
  6
BYBLOCK
 62
     0
100
AcDbPoint
 10
87.641708
 20
215.225417
 30
0.0
  0
POINT
  5
5A9
100
AcDbEntity
  8
DEFPOINTS
  6
BYBLOCK
 62
     0
100
AcDbPoint
 10
88.141708
 20
232.225417
 30
0.0
  0
POINT
  5
5AA
100
AcDbEntity
  8
DEFPOINTS
  6
BYBLOCK
 62
     0
100
AcDbPoint
 10
75.164279
 20
232.225417
 30
0.0
  0
ENDBLK
  5
5AC
100
AcDbEntity
  8
0
100
AcDbBlockEnd
  0
BLOCK
  5
5B8
100
AcDbEntity
  8
0
100
AcDbBlockBegin
  2
*D7
 70
    65
 10
0.0
 20
0.0
 30
0.0
  3
*D7
  1

  0
LINE
  5
5AE
100
AcDbEntity
  8
0
  6
BYBLOCK
 62
     0
100
AcDbLine
 10
87.141708
 20
216.350417
 30
0.0
 11
87.141708
 21
222.516746
 31
0.0
  0
LINE
  5
5AF
100
AcDbEntity
  8
0
  6
BYBLOCK
 62
     0
100
AcDbLine
 10
90.641708
 20
215.850417
 30
0.0
 11
90.641708
 21
222.516746
 31
0.0
  0
LINE
  5
5B0
100
AcDbEntity
  8
0
  6
BYBLOCK
 62
     0
100
AcDbLine
 10
93.141708
 20
221.266746
 30
0.0
 11
95.641708
 21
221.266746
 31
0.0
  0
LINE
  5
5B1
100
AcDbEntity
  8
0
  6
BYBLOCK
 62
     0
100
AcDbLine
 10
84.641708
 20
221.266746
 30
0.0
 11
78.010018
 21
221.266746
 31
0.0
  0
SOLID
  5
5B2
100
AcDbEntity
  8
0
  6
BYBLOCK
 62
     0
100
AcDbTrace
 10
93.141708
 20
221.683413
 30
0.0
 11
93.141708
 21
220.850079
 31
0.0
 12
90.641708
 22
221.266746
 32
0.0
 13
90.641708
 23
221.266746
 33
0.0
  0
SOLID
  5
5B3
100
AcDbEntity
  8
0
  6
BYBLOCK
 62
     0
100
AcDbTrace
 10
84.641708
 20
221.683413
 30
0.0
 11
84.641708
 21
220.850079
 31
0.0
 12
87.141708
 22
221.266746
 32
0.0
 13
87.141708
 23
221.266746
 33
0.0
  0
MTEXT
  5
5B4
100
AcDbEntity
  8
0
  6
BYBLOCK
 62
     0
100
AcDbMText
 10
81.013363
 20
223.391746
 30
0.0
 40
3.0
 41
0.0
 71
     5
 72
     1
  1
\A1;3.5
  0
POINT
  5
5B5
100
AcDbEntity
  8
DEFPOINTS
  6
BYBLOCK
 62
     0
100
AcDbPoint
 10
87.141708
 20
215.725417
 30
0.0
  0
POINT
  5
5B6
100
AcDbEntity
  8
DEFPOINTS
  6
BYBLOCK
 62
     0
100
AcDbPoint
 10
90.641708
 20
215.225417
 30
0.0
  0
POINT
  5
5B7
100
AcDbEntity
  8
DEFPOINTS
  6
BYBLOCK
 62
     0
100
AcDbPoint
 10
90.641708
 20
221.266746
 30
0.0
  0
ENDBLK
  5
5B9
100
AcDbEntity
  8
0
100
AcDbBlockEnd
  0
BLOCK
  5
5C4
100
AcDbEntity
  8
0
100
AcDbBlockBegin
  2
*D8
 70
    65
 10
0.0
 20
0.0
 30
0.0
  3
*D8
  1

  0
LINE
  5
5BB
100
AcDbEntity
  8
0
  6
BYBLOCK
 62
     0
100
AcDbLine
 10
99.766708
 20
232.225417
 30
0.0
 11
136.837087
 21
232.225417
 31
0.0
  0
LINE
  5
5BC
100
AcDbEntity
  8
0
  6
BYBLOCK
 62
     0
100
AcDbLine
 10
112.766708
 20
202.225417
 30
0.0
 11
136.837087
 21
202.225417
 31
0.0
  0
LINE
  5
5BD
100
AcDbEntity
  8
0
  6
BYBLOCK
 62
     0
100
AcDbLine
 10
135.587087
 20
229.725417
 30
0.0
 11
135.587087
 21
204.725417
 31
0.0
  0
SOLID
  5
5BE
100
AcDbEntity
  8
0
  6
BYBLOCK
 62
     0
100
AcDbTrace
 10
135.170421
 20
229.725417
 30
0.0
 11
136.003754
 21
229.725417
 31
0.0
 12
135.587087
 22
232.225417
 32
0.0
 13
135.587087
 23
232.225417
 33
0.0
  0
SOLID
  5
5BF
100
AcDbEntity
  8
0
  6
BYBLOCK
 62
     0
100
AcDbTrace
 10
135.170421
 20
204.725417
 30
0.0
 11
136.003754
 21
204.725417
 31
0.0
 12
135.587087
 22
202.225417
 32
0.0
 13
135.587087
 23
202.225417
 33
0.0
  0
MTEXT
  5
5C0
100
AcDbEntity
  8
0
  6
BYBLOCK
 62
     0
100
AcDbMText
 10
133.462087
 20
217.225417
 30
0.0
 40
3.0
 41
0.0
 71
     5
 72
     1
  1
\A1;30
 11
0.0
 21
1.0
 31
0.0
  0
POINT
  5
5C1
100
AcDbEntity
  8
DEFPOINTS
  6
BYBLOCK
 62
     0
100
AcDbPoint
 10
99.141708
 20
232.225417
 30
0.0
  0
POINT
  5
5C2
100
AcDbEntity
  8
DEFPOINTS
  6
BYBLOCK
 62
     0
100
AcDbPoint
 10
112.141708
 20
202.225417
 30
0.0
  0
POINT
  5
5C3
100
AcDbEntity
  8
DEFPOINTS
  6
BYBLOCK
 62
     0
100
AcDbPoint
 10
135.587087
 20
202.225417
 30
0.0
  0
ENDBLK
  5
5C5
100
AcDbEntity
  8
0
100
AcDbBlockEnd
  0
BLOCK
  5
5D0
100
AcDbEntity
  8
0
100
AcDbBlockBegin
  2
*D9
 70
    65
 10
0.0
 20
0.0
 30
0.0
  3
*D9
  1

  0
LINE
  5
5C7
100
AcDbEntity
  8
0
  6
BYBLOCK
 62
     0
100
AcDbLine
 10
112.766708
 20
202.225417
 30
0.0
 11
136.80008
 21
202.225417
 31
0.0
  0
LINE
  5
5C8
100
AcDbEntity
  8
0
  6
BYBLOCK
 62
     0
100
AcDbLine
 10
107.766708
 20
98.225417
 30
0.0
 11
136.80008
 21
98.225417
 31
0.0
  0
LINE
  5
5C9
100
AcDbEntity
  8
0
  6
BYBLOCK
 62
     0
100
AcDbLine
 10
135.55008
 20
199.725417
 30
0.0
 11
135.55008
 21
100.725417
 31
0.0
  0
SOLID
  5
5CA
100
AcDbEntity
  8
0
  6
BYBLOCK
 62
     0
100
AcDbTrace
 10
135.133413
 20
199.725417
 30
0.0
 11
135.966746
 21
199.725417
 31
0.0
 12
135.55008
 22
202.225417
 32
0.0
 13
135.55008
 23
202.225417
 33
0.0
  0
SOLID
  5
5CB
100
AcDbEntity
  8
0
  6
BYBLOCK
 62
     0
100
AcDbTrace
 10
135.133413
 20
100.725417
 30
0.0
 11
135.966746
 21
100.725417
 31
0.0
 12
135.55008
 22
98.225417
 32
0.0
 13
135.55008
 23
98.225417
 33
0.0
  0
MTEXT
  5
5CC
100
AcDbEntity
  8
0
  6
BYBLOCK
 62
     0
100
AcDbMText
 10
132.184371
 20
150.225417
 30
0.0
 40
3.0
 41
0.0
 71
     5
 72
     1
  1
\A2;104{\H2.400000;\S+0.02^  0;}
 11
0.0
 21
1.0
 31
0.0
  0
POINT
  5
5CD
100
AcDbEntity
  8
DEFPOINTS
  6
BYBLOCK
 62
     0
100
AcDbPoint
 10
112.141708
 20
202.225417
 30
0.0
  0
POINT
  5
5CE
100
AcDbEntity
  8
DEFPOINTS
  6
BYBLOCK
 62
     0
100
AcDbPoint
 10
107.141708
 20
98.225417
 30
0.0
  0
POINT
  5
5CF
100
AcDbEntity
  8
DEFPOINTS
  6
BYBLOCK
 62
     0
100
AcDbPoint
 10
135.55008
 20
98.225417
 30
0.0
  0
ENDBLK
  5
5D1
100
AcDbEntity
  8
0
100
AcDbBlockEnd
  0
BLOCK
  5
5DE
100
AcDbEntity
  8
0
100
AcDbBlockBegin
  2
*D10
 70
    65
 10
0.0
 20
0.0
 30
0.0
  3
*D10
  1

  0
LINE
  5
5D3
100
AcDbEntity
  8
0
  6
BYBLOCK
 62
     0
100
AcDbLine
 10
106.979946
 20
95.330751
 30
0.0
 11
100.541755
 21
71.303093
 31
0.0
  0
LINE
  5
5D4
100
AcDbEntity
  8
0
  6
BYBLOCK
 62
     0
100
AcDbLine
 10
107.30347
 20
95.330751
 30
0.0
 11
113.741662
 21
71.303093
 31
0.0
  0
ARC
  5
5D5
100
AcDbEntity
  8
0
  6
BYBLOCK
 62
     0
100
AcDbCircle
 10
107.141708
 20
95.934455
 30
0.0
 40
24.250262
100
AcDbArc
 50
260.909336
 51
279.090664
  0
SOLID
  5
5D6
100
AcDbEntity
  8
0
  6
BYBLOCK
 62
     0
100
AcDbTrace
 10
103.223283
 20
71.581294
 30
0.0
 11
103.397188
 21
72.39628
 31
0.0
 12
100.865279
 22
72.510501
 32
0.0
 13
100.865279
 23
72.510501
 33
0.0
  0
SOLID
  5
5D7
100
AcDbEntity
  8
0
  6
BYBLOCK
 62
     0
100
AcDbTrace
 10
110.886229
 20
72.39628
 30
0.0
 11
111.060133
 21
71.581294
 31
0.0
 12
113.418138
 22
72.510501
 32
0.0
 13
113.418138
 23
72.510501
 33
0.0
  0
MTEXT
  5
5D8
100
AcDbEntity
  8
0
  6
BYBLOCK
 62
     0
100
AcDbMText
 10
107.141708
 20
73.809193
 30
0.0
 40
3.0
 41
0.0
 71
     5
 72
     1
  1
\A1;30°
  0
POINT
  5
5D9
100
AcDbEntity
  8
DEFPOINTS
  6
BYBLOCK
 62
     0
100
AcDbPoint
 10
105.028159
 20
71.776473
 30
0.0
  0
POINT
  5
5DA
100
AcDbEntity
  8
DEFPOINTS
  6
BYBLOCK
 62
     0
100
AcDbPoint
 10
106.368968
 20
98.818362
 30
0.0
  0
POINT
  5
5DB
100
AcDbEntity
  8
DEFPOINTS
  6
BYBLOCK
 62
     0
100
AcDbPoint
 10
107.914449
 20
98.818362
 30
0.0
  0
POINT
  5
5DC
100
AcDbEntity
  8
DEFPOINTS
  6
BYBLOCK
 62
     0
100
AcDbPoint
 10
113.141708
 20
118.326759
 30
0.0
  0
POINT
  5
5DD
100
AcDbEntity
  8
DEFPOINTS
  6
BYBLOCK
 62
     0
100
AcDbPoint
 10
101.141708
 20
118.326759
 30
0.0
  0
ENDBLK
  5
5DF
100
AcDbEntity
  8
0
100
AcDbBlockEnd
  0
BLOCK
  5
5EB
100
AcDbEntity
  8
0
100
AcDbBlockBegin
  2
*D11
 70
    65
 10
0.0
 20
0.0
 30
0.0
  3
*D11
  1

  0
LINE
  5
5E1
100
AcDbEntity
  8
0
  6
BYBLOCK
 62
     0
100
AcDbLine
 10
99.435175
 20
124.695628
 30
0.0
 11
99.848453
 21
123.153252
 31
0.0
  0
LINE
  5
5E2
100
AcDbEntity
  8
0
  6
BYBLOCK
 62
     0
100
AcDbLine
 10
100.401101
 20
124.954448
 30
0.0
 11
100.814379
 21
123.412071
 31
0.0
  0
LINE
  5
5E3
100
AcDbEntity
  8
0
  6
BYBLOCK
 62
     0
100
AcDbLine
 10
102.90567
 20
125.266526
 30
0.0
 11
105.320485
 21
125.913574
 31
0.0
  0
LINE
  5
5E4
100
AcDbEntity
  8
0
  6
BYBLOCK
 62
     0
100
AcDbLine
 10
97.110115
 20
123.713612
 30
0.0
 11
94.643837
 21
123.052775
 31
0.0
  0
SOLID
  5
5E5
100
AcDbEntity
  8
0
  6
BYBLOCK
 62
     0
100
AcDbTrace
 10
102.797829
 20
125.668995
 30
0.0
 11
103.013511
 21
124.864057
 31
0.0
 12
100.490855
 22
124.619479
 32
0.0
 13
100.490855
 23
124.619479
 33
0.0
  0
SOLID
  5
5E6
100
AcDbEntity
  8
0
  6
BYBLOCK
 62
     0
100
AcDbTrace
 10
97.002274
 20
124.116081
 30
0.0
 11
97.217956
 21
123.311143
 31
0.0
 12
99.52493
 22
124.36066
 32
0.0
 13
99.52493
 23
124.36066
 33
0.0
  0
MTEXT
  5
5E7
100
AcDbEntity
  8
0
  6
BYBLOCK
 62
     0
100
AcDbMText
 10
95.016306
 20
125.352539
 30
0.0
 40
3.0
 41
0.0
 71
     5
 72
     1
  1
\A1;1
 11
0.965926
 21
0.258819
 31
0.0
  0
POINT
  5
5E8
100
AcDbEntity
  8
DEFPOINTS
  6
BYBLOCK
 62
     0
100
AcDbPoint
 10
99.273413
 20
125.299332
 30
0.0
  0
POINT
  5
5E9
100
AcDbEntity
  8
DEFPOINTS
  6
BYBLOCK
 62
     0
100
AcDbPoint
 10
100.239339
 20
125.558151
 30
0.0
  0
POINT
  5
5EA
100
AcDbEntity
  8
DEFPOINTS
  6
BYBLOCK
 62
     0
100
AcDbPoint
 10
100.490855
 20
124.619479
 30
0.0
  0
ENDBLK
  5
5EC
100
AcDbEntity
  8
0
100
AcDbBlockEnd
  0
BLOCK
  5
5F5
100
AcDbEntity
  8
0
100
AcDbBlockBegin
  2
*D12
 70
    65
 10
0.0
 20
0.0
 30
0.0
  3
*D12
  1

  0
LINE
  5
5EE
100
AcDbEntity
  8
0
  6
BYBLOCK
 62
     0
100
AcDbLine
 10
109.325402
 20
96.551254
 30
0.0
 11
116.610996
 21
88.296546
 31
0.0
  0
SOLID
  5
5EF
100
AcDbEntity
  8
0
  6
BYBLOCK
 62
     0
100
AcDbTrace
 10
109.637796
 20
96.826973
 30
0.0
 11
109.013007
 21
96.275535
 31
0.0
 12
107.671089
 22
98.42562
 32
0.0
 13
107.671089
 23
98.42562
 33
0.0
  0
MTEXT
  5
5F0
100
AcDbEntity
  8
0
  6
BYBLOCK
 62
     0
100
AcDbMText
 10
115.388567
 20
92.892883
 30
0.0
 40
3.0
 41
0.0
 71
     5
 72
     1
  1
\A1;R0.8
 11
0.661725
 21
-0.749746
 31
0.0
  0
LINE
  5
5F1
100
AcDbEntity
  8
0
  6
BYBLOCK
 62
     0
100
AcDbLine
 10
104.641708
 20
99.025417
 30
0.0
 11
109.641708
 21
99.025417
 31
0.0
  0
LINE
  5
5F2
100
AcDbEntity
  8
0
  6
BYBLOCK
 62
     0
100
AcDbLine
 10
107.141708
 20
96.525417
 30
0.0
 11
107.141708
 21
101.525417
 31
0.0
  0
POINT
  5
5F3
100
AcDbEntity
  8
DEFPOINTS
  6
BYBLOCK
 62
     0
100
AcDbPoint
 10
107.671089
 20
98.42562
 30
0.0
  0
POINT
  5
5F4
100
AcDbEntity
  8
DEFPOINTS
  6
BYBLOCK
 62
     0
100
AcDbPoint
 10
107.141708
 20
99.025417
 30
0.0
  0
ENDBLK
  5
5F6
100
AcDbEntity
  8
0
100
AcDbBlockEnd
  0
BLOCK
  5
601
100
AcDbEntity
  8
0
100
AcDbBlockBegin
  2
*D13
 70
    65
 10
0.0
 20
0.0
 30
0.0
  3
*D13
  1

  0
LINE
  5
5F8
100
AcDbEntity
  8
0
  6
BYBLOCK
 62
     0
100
AcDbLine
 10
83.250972
 20
232.225417
 30
0.0
 11
134.429757
 21
232.225417
 31
0.0
  0
LINE
  5
5F9
100
AcDbEntity
  8
0
  6
BYBLOCK
 62
     0
100
AcDbLine
 10
91.250972
 20
98.225417
 30
0.0
 11
134.429757
 21
98.225417
 31
0.0
  0
LINE
  5
5FA
100
AcDbEntity
  8
0
  6
BYBLOCK
 62
     0
100
AcDbLine
 10
133.179757
 20
229.725417
 30
0.0
 11
133.179757
 21
100.725417
 31
0.0
  0
SOLID
  5
5FB
100
AcDbEntity
  8
0
  6
BYBLOCK
 62
     0
100
AcDbTrace
 10
132.763091
 20
229.725417
 30
0.0
 11
133.596424
 21
229.725417
 31
0.0
 12
133.179757
 22
232.225417
 32
0.0
 13
133.179757
 23
232.225417
 33
0.0
  0
SOLID
  5
5FC
100
AcDbEntity
  8
0
  6
BYBLOCK
 62
     0
100
AcDbTrace
 10
132.763091
 20
100.725417
 30
0.0
 11
133.596424
 21
100.725417
 31
0.0
 12
133.179757
 22
98.225417
 32
0.0
 13
133.179757
 23
98.225417
 33
0.0
  0
MTEXT
  5
5FD
100
AcDbEntity
  8
0
  6
BYBLOCK
 62
     0
100
AcDbMText
 10
131.054757
 20
165.225417
 30
0.0
 40
3.0
 41
0.0
 71
     5
 72
     1
  1
\A1;134
 11
0.0
 21
1.0
 31
0.0
  0
POINT
  5
5FE
100
AcDbEntity
  8
DEFPOINTS
  6
BYBLOCK
 62
     0
100
AcDbPoint
 10
82.625972
 20
232.225417
 30
0.0
  0
POINT
  5
5FF
100
AcDbEntity
  8
DEFPOINTS
  6
BYBLOCK
 62
     0
100
AcDbPoint
 10
90.625972
 20
98.225417
 30
0.0
  0
POINT
  5
600
100
AcDbEntity
  8
DEFPOINTS
  6
BYBLOCK
 62
     0
100
AcDbPoint
 10
133.179757
 20
98.225417
 30
0.0
  0
ENDBLK
  5
602
100
AcDbEntity
  8
0
100
AcDbBlockEnd
  0
BLOCK
  5
60E
100
AcDbEntity
  8
0
100
AcDbBlockBegin
  2
*D14
 70
    65
 10
0.0
 20
0.0
 30
0.0
  3
*D14
  1

  0
LINE
  5
604
100
AcDbEntity
  8
0
  6
BYBLOCK
 62
     0
100
AcDbLine
 10
100.829208
 20
117.785494
 30
0.0
 11
95.524768
 21
108.597934
 31
0.0
  0
ARC
  5
605
100
AcDbEntity
  8
0
  6
BYBLOCK
 62
     0
100
AcDbCircle
 10
101.848815
 20
119.551504
 30
0.0
 40
11.398093
100
AcDbArc
 50
117.592293
 51
227.407707
  0
SOLID
  5
606
100
AcDbEntity
  8
0
  6
BYBLOCK
 62
     0
100
AcDbTrace
 10
96.418154
 20
130.041461
 30
0.0
 11
96.720811
 21
129.265031
 31
0.0
 12
98.898771
 22
130.561217
 32
0.0
 13
98.898771
 23
130.561217
 33
0.0
  0
SOLID
  5
607
100
AcDbEntity
  8
0
  6
BYBLOCK
 62
     0
100
AcDbTrace
 10
94.381498
 20
111.496183
 30
0.0
 11
93.888199
 21
110.824543
 31
0.0
 12
96.149768
 22
109.680466
 32
0.0
 13
96.149768
 23
109.680466
 33
0.0
  0
MTEXT
  5
608
100
AcDbEntity
  8
0
  6
BYBLOCK
 62
     0
100
AcDbMText
 10
88.623185
 20
122.372277
 30
0.0
 40
3.0
 41
0.0
 71
     5
 72
     1
  1
\A1;135°
 11
0.208589
 21
0.978003
 31
0.0
  0
POINT
  5
609
100
AcDbEntity
  8
DEFPOINTS
  6
BYBLOCK
 62
     0
100
AcDbPoint
 10
90.839102
 20
116.601461
 30
0.0
  0
POINT
  5
60A
100
AcDbEntity
  8
DEFPOINTS
  6
BYBLOCK
 62
     0
100
AcDbPoint
 10
101.848815
 20
119.551504
 30
0.0
  0
POINT
  5
60B
100
AcDbEntity
  8
DEFPOINTS
  6
BYBLOCK
 62
     0
100
AcDbPoint
 10
101.141708
 20
118.326759
 30
0.0
  0
POINT
  5
60C
100
AcDbEntity
  8
DEFPOINTS
  6
BYBLOCK
 62
     0
100
AcDbPoint
 10
101.848815
 20
119.551504
 30
0.0
  0
POINT
  5
60D
100
AcDbEntity
  8
DEFPOINTS
  6
BYBLOCK
 62
     0
100
AcDbPoint
 10
87.141708
 20
174.439174
 30
0.0
  0
ENDBLK
  5
60F
100
AcDbEntity
  8
0
100
AcDbBlockEnd
  0
BLOCK
  5
65E
100
AcDbEntity
  8
0
100
AcDbBlockBegin
  2
*X15
 70
    65
 10
0.0
 20
0.0
 30
0.0
  3
*X15
  1

  0
LINE
  5
611
100
AcDbEntity
  8
0
 62
     0
100
AcDbLine
 10
105.295219
 20
102.825648
 30
0.0
 11
110.339922
 21
107.870352
 31
0.0
  0
LINE
  5
612
100
AcDbEntity
  8
0
 62
     0
100
AcDbLine
 10
105.247775
 20
103.002711
 30
0.0
 11
110.422097
 21
108.177033
 31
0.0
  0
LINE
  5
613
100
AcDbEntity
  8
0
 62
     0
100
AcDbLine
 10
105.200331
 20
103.179773
 30
0.0
 11
110.504272
 21
108.483715
 31
0.0
  0
LINE
  5
614
100
AcDbEntity
  8
0
 62
     0
100
AcDbLine
 10
105.152887
 20
103.356836
 30
0.0
 11
110.586448
 21
108.790396
 31
0.0
  0
LINE
  5
615
100
AcDbEntity
  8
0
 62
     0
100
AcDbLine
 10
105.105443
 20
103.533899
 30
0.0
 11
110.668623
 21
109.097078
 31
0.0
  0
LINE
  5
616
100
AcDbEntity
  8
0
 62
     0
100
AcDbLine
 10
105.058
 20
103.710961
 30
0.0
 11
109.520536
 21
108.173497
 31
0.0
  0
LINE
  5
617
100
AcDbEntity
  8
0
 62
     0
100
AcDbLine
 10
110.357479
 20
109.01044
 30
0.0
 11
110.750798
 21
109.403759
 31
0.0
  0
LINE
  5
618
100
AcDbEntity
  8
0
 62
     0
100
AcDbLine
 10
105.010556
 20
103.888024
 30
0.0
 11
108.937637
 21
107.815105
 31
0.0
  0
LINE
  5
619
100
AcDbEntity
  8
0
 62
     0
100
AcDbLine
 10
110.715871
 20
109.593339
 30
0.0
 11
110.832973
 21
109.710441
 31
0.0
  0
LINE
  5
61A
100
AcDbEntity
  8
0
 62
     0
100
AcDbLine
 10
104.963112
 20
104.065086
 30
0.0
 11
108.539453
 21
107.641427
 31
0.0
  0
LINE
  5
61B
100
AcDbEntity
  8
0
 62
     0
100
AcDbLine
 10
110.889549
 20
109.991524
 30
0.0
 11
110.915148
 21
110.017122
 31
0.0
  0
LINE
  5
61C
100
AcDbEntity
  8
0
 62
     0
100
AcDbLine
 10
104.915668
 20
104.242149
 30
0.0
 11
108.207348
 21
107.533829
 31
0.0
  0
LINE
  5
61D
100
AcDbEntity
  8
0
 62
     0
100
AcDbLine
 10
110.997148
 20
110.323628
 30
0.0
 11
110.997323
 21
110.323804
 31
0.0
  0
LINE
  5
61E
100
AcDbEntity
  8
0
 62
     0
100
AcDbLine
 10
104.868225
 20
104.419212
 30
0.0
 11
107.913431
 21
107.464418
 31
0.0
  0
LINE
  5
61F
100
AcDbEntity
  8
0
 62
     0
100
AcDbLine
 10
104.820781
 20
104.596274
 30
0.0
 11
107.645645
 21
107.421139
 31
0.0
  0
LINE
  5
620
100
AcDbEntity
  8
0
 62
     0
100
AcDbLine
 10
104.773337
 20
104.773337
 30
0.0
 11
107.397452
 21
107.397452
 31
0.0
  0
LINE
  5
621
100
AcDbEntity
  8
0
 62
     0
100
AcDbLine
 10
104.725893
 20
104.9504
 30
0.0
 11
107.164828
 21
107.389335
 31
0.0
  0
LINE
  5
622
100
AcDbEntity
  8
0
 62
     0
100
AcDbLine
 10
104.678449
 20
105.127462
 30
0.0
 11
106.94509
 21
107.394103
 31
0.0
  0
LINE
  5
623
100
AcDbEntity
  8
0
 62
     0
100
AcDbLine
 10
104.631006
 20
105.304525
 30
0.0
 11
106.736342
 21
107.409861
 31
0.0
  0
LINE
  5
624
100
AcDbEntity
  8
0
 62
     0
100
AcDbLine
 10
104.583562
 20
105.481587
 30
0.0
 11
106.537187
 21
107.435213
 31
0.0
  0
LINE
  5
625
100
AcDbEntity
  8
0
 62
     0
100
AcDbLine
 10
104.536118
 20
105.65865
 30
0.0
 11
106.346564
 21
107.469096
 31
0.0
  0
LINE
  5
626
100
AcDbEntity
  8
0
 62
     0
100
AcDbLine
 10
104.488674
 20
105.835713
 30
0.0
 11
106.163648
 21
107.510686
 31
0.0
  0
LINE
  5
627
100
AcDbEntity
  8
0
 62
     0
100
AcDbLine
 10
104.44123
 20
106.012775
 30
0.0
 11
105.987781
 21
107.559326
 31
0.0
  0
LINE
  5
628
100
AcDbEntity
  8
0
 62
     0
100
AcDbLine
 10
104.393787
 20
106.189838
 30
0.0
 11
105.818438
 21
107.614489
 31
0.0
  0
LINE
  5
629
100
AcDbEntity
  8
0
 62
     0
100
AcDbLine
 10
104.346343
 20
106.366901
 30
0.0
 11
105.655187
 21
107.675745
 31
0.0
  0
LINE
  5
62A
100
AcDbEntity
  8
0
 62
     0
100
AcDbLine
 10
104.298899
 20
106.543963
 30
0.0
 11
105.497677
 21
107.742741
 31
0.0
  0
LINE
  5
62B
100
AcDbEntity
  8
0
 62
     0
100
AcDbLine
 10
104.251455
 20
106.721026
 30
0.0
 11
105.345617
 21
107.815187
 31
0.0
  0
LINE
  5
62C
100
AcDbEntity
  8
0
 62
     0
100
AcDbLine
 10
104.204012
 20
106.898088
 30
0.0
 11
105.198767
 21
107.892844
 31
0.0
  0
LINE
  5
62D
100
AcDbEntity
  8
0
 62
     0
100
AcDbLine
 10
104.156568
 20
107.075151
 30
0.0
 11
105.056932
 21
107.975515
 31
0.0
  0
LINE
  5
62E
100
AcDbEntity
  8
0
 62
     0
100
AcDbLine
 10
104.109124
 20
107.252214
 30
0.0
 11
104.91995
 21
108.06304
 31
0.0
  0
LINE
  5
62F
100
AcDbEntity
  8
0
 62
     0
100
AcDbLine
 10
104.06168
 20
107.429276
 30
0.0
 11
104.787694
 21
108.15529
 31
0.0
  0
LINE
  5
630
100
AcDbEntity
  8
0
 62
     0
100
AcDbLine
 10
104.014236
 20
107.606339
 30
0.0
 11
104.660061
 21
108.252163
 31
0.0
  0
LINE
  5
631
100
AcDbEntity
  8
0
 62
     0
100
AcDbLine
 10
103.966793
 20
107.783401
 30
0.0
 11
104.536976
 21
108.353585
 31
0.0
  0
LINE
  5
632
100
AcDbEntity
  8
0
 62
     0
100
AcDbLine
 10
103.919349
 20
107.960464
 30
0.0
 11
104.418387
 21
108.459503
 31
0.0
  0
LINE
  5
633
100
AcDbEntity
  8
0
 62
     0
100
AcDbLine
 10
103.871905
 20
108.137527
 30
0.0
 11
104.304265
 21
108.569886
 31
0.0
  0
LINE
  5
634
100
AcDbEntity
  8
0
 62
     0
100
AcDbLine
 10
103.824461
 20
108.314589
 30
0.0
 11
104.194599
 21
108.684727
 31
0.0
  0
LINE
  5
635
100
AcDbEntity
  8
0
 62
     0
100
AcDbLine
 10
103.777017
 20
108.491652
 30
0.0
 11
104.089402
 21
108.804036
 31
0.0
  0
LINE
  5
636
100
AcDbEntity
  8
0
 62
     0
100
AcDbLine
 10
103.729574
 20
108.668715
 30
0.0
 11
103.988708
 21
108.927848
 31
0.0
  0
LINE
  5
637
100
AcDbEntity
  8
0
 62
     0
100
AcDbLine
 10
103.68213
 20
108.845777
 30
0.0
 11
103.892572
 21
109.05622
 31
0.0
  0
LINE
  5
638
100
AcDbEntity
  8
0
 62
     0
100
AcDbLine
 10
103.634686
 20
109.02284
 30
0.0
 11
103.801075
 21
109.189229
 31
0.0
  0
LINE
  5
639
100
AcDbEntity
  8
0
 62
     0
100
AcDbLine
 10
103.587242
 20
109.199902
 30
0.0
 11
103.714322
 21
109.326982
 31
0.0
  0
LINE
  5
63A
100
AcDbEntity
  8
0
 62
     0
100
AcDbLine
 10
103.539799
 20
109.376965
 30
0.0
 11
103.632446
 21
109.469612
 31
0.0
  0
LINE
  5
63B
100
AcDbEntity
  8
0
 62
     0
100
AcDbLine
 10
103.492355
 20
109.554028
 30
0.0
 11
103.555613
 21
109.617286
 31
0.0
  0
LINE
  5
63C
100
AcDbEntity
  8
0
 62
     0
100
AcDbLine
 10
103.444911
 20
109.73109
 30
0.0
 11
103.484026
 21
109.770206
 31
0.0
  0
LINE
  5
63D
100
AcDbEntity
  8
0
 62
     0
100
AcDbLine
 10
103.397467
 20
109.908153
 30
0.0
 11
103.417933
 21
109.928619
 31
0.0
  0
LINE
  5
63E
100
AcDbEntity
  8
0
 62
     0
100
AcDbLine
 10
103.350023
 20
110.085215
 30
0.0
 11
103.357632
 21
110.092824
 31
0.0
  0
LINE
  5
63F
100
AcDbEntity
  8
0
 62
     0
100
AcDbLine
 10
103.30258
 20
110.262278
 30
0.0
 11
103.303487
 21
110.263186
 31
0.0
  0
LINE
  5
640
100
AcDbEntity
  8
0
 62
     0
100
AcDbLine
 10
105.342662
 20
102.648586
 30
0.0
 11
110.257747
 21
107.56367
 31
0.0
  0
LINE
  5
641
100
AcDbEntity
  8
0
 62
     0
100
AcDbLine
 10
105.390106
 20
102.471523
 30
0.0
 11
110.175572
 21
107.256989
 31
0.0
  0
LINE
  5
642
100
AcDbEntity
  8
0
 62
     0
100
AcDbLine
 10
105.43755
 20
102.29446
 30
0.0
 11
110.093397
 21
106.950308
 31
0.0
  0
LINE
  5
643
100
AcDbEntity
  8
0
 62
     0
100
AcDbLine
 10
105.484994
 20
102.117398
 30
0.0
 11
110.011222
 21
106.643626
 31
0.0
  0
LINE
  5
644
100
AcDbEntity
  8
0
 62
     0
100
AcDbLine
 10
105.532438
 20
101.940335
 30
0.0
 11
109.929047
 21
106.336945
 31
0.0
  0
LINE
  5
645
100
AcDbEntity
  8
0
 62
     0
100
AcDbLine
 10
105.579881
 20
101.763272
 30
0.0
 11
109.846872
 21
106.030263
 31
0.0
  0
LINE
  5
646
100
AcDbEntity
  8
0
 62
     0
100
AcDbLine
 10
105.627325
 20
101.58621
 30
0.0
 11
109.764697
 21
105.723582
 31
0.0
  0
LINE
  5
647
100
AcDbEntity
  8
0
 62
     0
100
AcDbLine
 10
105.674769
 20
101.409147
 30
0.0
 11
109.682522
 21
105.4169
 31
0.0
  0
LINE
  5
648
100
AcDbEntity
  8
0
 62
     0
100
AcDbLine
 10
105.722213
 20
101.232085
 30
0.0
 11
109.600347
 21
105.110219
 31
0.0
  0
LINE
  5
649
100
AcDbEntity
  8
0
 62
     0
100
AcDbLine
 10
105.769656
 20
101.055022
 30
0.0
 11
109.518172
 21
104.803537
 31
0.0
  0
LINE
  5
64A
100
AcDbEntity
  8
0
 62
     0
100
AcDbLine
 10
105.8171
 20
100.877959
 30
0.0
 11
109.435997
 21
104.496856
 31
0.0
  0
LINE
  5
64B
100
AcDbEntity
  8
0
 62
     0
100
AcDbLine
 10
105.864544
 20
100.700897
 30
0.0
 11
109.353822
 21
104.190175
 31
0.0
  0
LINE
  5
64C
100
AcDbEntity
  8
0
 62
     0
100
AcDbLine
 10
105.911988
 20
100.523834
 30
0.0
 11
109.271647
 21
103.883493
 31
0.0
  0
LINE
  5
64D
100
AcDbEntity
  8
0
 62
     0
100
AcDbLine
 10
105.959432
 20
100.346772
 30
0.0
 11
109.189472
 21
103.576812
 31
0.0
  0
LINE
  5
64E
100
AcDbEntity
  8
0
 62
     0
100
AcDbLine
 10
106.006875
 20
100.169709
 30
0.0
 11
109.107297
 21
103.27013
 31
0.0
  0
LINE
  5
64F
100
AcDbEntity
  8
0
 62
     0
100
AcDbLine
 10
106.054319
 20
99.992646
 30
0.0
 11
109.025122
 21
102.963449
 31
0.0
  0
LINE
  5
650
100
AcDbEntity
  8
0
 62
     0
100
AcDbLine
 10
106.101763
 20
99.815584
 30
0.0
 11
108.942947
 21
102.656767
 31
0.0
  0
LINE
  5
651
100
AcDbEntity
  8
0
 62
     0
100
AcDbLine
 10
106.149207
 20
99.638521
 30
0.0
 11
108.860772
 21
102.350086
 31
0.0
  0
LINE
  5
652
100
AcDbEntity
  8
0
 62
     0
100
AcDbLine
 10
106.196651
 20
99.461458
 30
0.0
 11
108.778596
 21
102.043404
 31
0.0
  0
LINE
  5
653
100
AcDbEntity
  8
0
 62
     0
100
AcDbLine
 10
106.244094
 20
99.284396
 30
0.0
 11
108.696421
 21
101.736723
 31
0.0
  0
LINE
  5
654
100
AcDbEntity
  8
0
 62
     0
100
AcDbLine
 10
106.291538
 20
99.107333
 30
0.0
 11
108.614246
 21
101.430041
 31
0.0
  0
LINE
  5
655
100
AcDbEntity
  8
0
 62
     0
100
AcDbLine
 10
106.338982
 20
98.930271
 30
0.0
 11
108.532071
 21
101.12336
 31
0.0
  0
LINE
  5
656
100
AcDbEntity
  8
0
 62
     0
100
AcDbLine
 10
106.388644
 20
98.755427
 30
0.0
 11
108.449896
 21
100.816679
 31
0.0
  0
LINE
  5
657
100
AcDbEntity
  8
0
 62
     0
100
AcDbLine
 10
106.461711
 20
98.603987
 30
0.0
 11
108.367721
 21
100.509997
 31
0.0
  0
LINE
  5
658
100
AcDbEntity
  8
0
 62
     0
100
AcDbLine
 10
106.559249
 20
98.477019
 30
0.0
 11
108.285546
 21
100.203316
 31
0.0
  0
LINE
  5
659
100
AcDbEntity
  8
0
 62
     0
100
AcDbLine
 10
106.679318
 20
98.372581
 30
0.0
 11
108.203371
 21
99.896634
 31
0.0
  0
LINE
  5
65A
100
AcDbEntity
  8
0
 62
     0
100
AcDbLine
 10
106.822921
 20
98.291677
 30
0.0
 11
108.121196
 21
99.589953
 31
0.0
  0
LINE
  5
65B
100
AcDbEntity
  8
0
 62
     0
100
AcDbLine
 10
106.994776
 20
98.239026
 30
0.0
 11
108.039021
 21
99.283271
 31
0.0
  0
LINE
  5
65C
100
AcDbEntity
  8
0
 62
     0
100
AcDbLine
 10
107.208463
 20
98.228207
 30
0.0
 11
107.956846
 21
98.97659
 31
0.0
  0
LINE
  5
65D
100
AcDbEntity
  8
0
 62
     0
100
AcDbLine
 10
107.531647
 20
98.326885
 30
0.0
 11
107.840241
 21
98.635478
 31
0.0
  0
ENDBLK
  5
65F
100
AcDbEntity
  8
0
100
AcDbBlockEnd
  0
BLOCK
  5
66A
100
AcDbEntity
  8
0
100
AcDbBlockBegin
  2
*D16
 70
    65
 10
0.0
 20
0.0
 30
0.0
  3
*D16
  1

  0
LINE
  5
661
100
AcDbEntity
  8
0
  6
BYBLOCK
 62
     0
100
AcDbLine
 10
100.542818
 20
118.147998
 30
0.0
 11
86.554874
 21
113.972771
 31
0.0
  0
LINE
  5
662
100
AcDbEntity
  8
0
  6
BYBLOCK
 62
     0
100
AcDbLine
 10
106.542818
 20
98.046656
 30
0.0
 11
92.554874
 21
93.871429
 31
0.0
  0
LINE
  5
663
100
AcDbEntity
  8
0
  6
BYBLOCK
 62
     0
100
AcDbLine
 10
88.467699
 20
111.934733
 30
0.0
 11
93.037609
 21
96.624512
 31
0.0
  0
SOLID
  5
664
100
AcDbEntity
  8
0
  6
BYBLOCK
 62
     0
100
AcDbTrace
 10
88.866959
 20
112.053907
 30
0.0
 11
88.068439
 21
111.815559
 31
0.0
 12
87.752654
 22
114.330294
 32
0.0
 13
87.752654
 23
114.330294
 33
0.0
  0
SOLID
  5
665
100
AcDbEntity
  8
0
  6
BYBLOCK
 62
     0
100
AcDbTrace
 10
93.436869
 20
96.743686
 30
0.0
 11
92.638349
 21
96.505338
 31
0.0
 12
93.752654
 22
94.228952
 32
0.0
 13
93.752654
 23
94.228952
 33
0.0
  0
MTEXT
  5
666
100
AcDbEntity
  8
0
  6
BYBLOCK
 62
     0
100
AcDbMText
 10
92.788881
 20
104.887411
 30
0.0
 40
3.0
 41
0.0
 71
     5
 72
     1
  1
\A1;{21}
 11
0.286018
 21
-0.958224
 31
0.0
  0
POINT
  5
667
100
AcDbEntity
  8
DEFPOINTS
  6
BYBLOCK
 62
     0
100
AcDbPoint
 10
101.141708
 20
118.326759
 30
0.0
  0
POINT
  5
668
100
AcDbEntity
  8
DEFPOINTS
  6
BYBLOCK
 62
     0
100
AcDbPoint
 10
107.141708
 20
98.225417
 30
0.0
  0
POINT
  5
669
100
AcDbEntity
  8
DEFPOINTS
  6
BYBLOCK
 62
     0
100
AcDbPoint
 10
93.752654
 20
94.228952
 30
0.0
  0
ENDBLK
  5
66B
100
AcDbEntity
  8
0
100
AcDbBlockEnd
  0
BLOCK
  5
677
100
AcDbEntity
  8
0
100
AcDbBlockBegin
  2
*D17
 70
    65
 10
0.0
 20
0.0
 30
0.0
  3
*D17
  1

  0
LINE
  5
66D
100
AcDbEntity
  8
0
  6
BYBLOCK
 62
     0
100
AcDbLine
 10
113.766708
 20
120.000427
 30
0.0
 11
124.774364
 21
120.000427
 31
0.0
  0
LINE
  5
66E
100
AcDbEntity
  8
0
  6
BYBLOCK
 62
     0
100
AcDbLine
 10
113.766708
 20
118.326759
 30
0.0
 11
124.774364
 21
118.326759
 31
0.0
  0
LINE
  5
66F
100
AcDbEntity
  8
0
  6
BYBLOCK
 62
     0
100
AcDbLine
 10
123.524364
 20
122.500427
 30
0.0
 11
123.524364
 21
125.000427
 31
0.0
  0
LINE
  5
670
100
AcDbEntity
  8
0
  6
BYBLOCK
 62
     0
100
AcDbLine
 10
123.524364
 20
115.826759
 30
0.0
 11
123.524364
 21
105.806759
 31
0.0
  0
SOLID
  5
671
100
AcDbEntity
  8
0
  6
BYBLOCK
 62
     0
100
AcDbTrace
 10
123.107697
 20
122.500427
 30
0.0
 11
123.941031
 21
122.500427
 31
0.0
 12
123.524364
 22
120.000427
 32
0.0
 13
123.524364
 23
120.000427
 33
0.0
  0
SOLID
  5
672
100
AcDbEntity
  8
0
  6
BYBLOCK
 62
     0
100
AcDbTrace
 10
123.107697
 20
115.826759
 30
0.0
 11
123.941031
 21
115.826759
 31
0.0
 12
123.524364
 22
118.326759
 32
0.0
 13
123.524364
 23
118.326759
 33
0.0
  0
MTEXT
  5
673
100
AcDbEntity
  8
0
  6
BYBLOCK
 62
     0
100
AcDbMText
 10
121.399364
 20
109.566759
 30
0.0
 40
3.0
 41
0.0
 71
     5
 72
     1
  1
\A1;1.67
 11
0.0
 21
1.0
 31
0.0
  0
POINT
  5
674
100
AcDbEntity
  8
DEFPOINTS
  6
BYBLOCK
 62
     0
100
AcDbPoint
 10
113.141708
 20
120.000427
 30
0.0
  0
POINT
  5
675
100
AcDbEntity
  8
DEFPOINTS
  6
BYBLOCK
 62
     0
100
AcDbPoint
 10
113.141708
 20
118.326759
 30
0.0
  0
POINT
  5
676
100
AcDbEntity
  8
DEFPOINTS
  6
BYBLOCK
 62
     0
100
AcDbPoint
 10
123.524364
 20
118.326759
 30
0.0
  0
ENDBLK
  5
678
100
AcDbEntity
  8
0
100
AcDbBlockEnd
  0
BLOCK
  5
684
100
AcDbEntity
  8
0
100
AcDbBlockBegin
  2
*D18
 70
    65
 10
0.0
 20
0.0
 30
0.0
  3
*D18
  1

  0
LINE
  5
67A
100
AcDbEntity
  8
0
  6
BYBLOCK
 62
     0
100
AcDbLine
 10
108.141708
 20
150.600417
 30
0.0
 11
108.141708
 21
148.809281
 31
0.0
  0
LINE
  5
67B
100
AcDbEntity
  8
0
  6
BYBLOCK
 62
     0
100
AcDbLine
 10
107.141708
 20
153.817278
 30
0.0
 11
107.141708
 21
148.809281
 31
0.0
  0
LINE
  5
67C
100
AcDbEntity
  8
0
  6
BYBLOCK
 62
     0
100
AcDbLine
 10
110.641708
 20
150.059281
 30
0.0
 11
113.141708
 21
150.059281
 31
0.0
  0
LINE
  5
67D
100
AcDbEntity
  8
0
  6
BYBLOCK
 62
     0
100
AcDbLine
 10
104.641708
 20
150.059281
 30
0.0
 11
100.231708
 21
150.059281
 31
0.0
  0
SOLID
  5
67E
100
AcDbEntity
  8
0
  6
BYBLOCK
 62
     0
100
AcDbTrace
 10
110.641708
 20
150.475948
 30
0.0
 11
110.641708
 21
149.642614
 31
0.0
 12
108.141708
 22
150.059281
 32
0.0
 13
108.141708
 23
150.059281
 33
0.0
  0
SOLID
  5
67F
100
AcDbEntity
  8
0
  6
BYBLOCK
 62
     0
100
AcDbTrace
 10
104.641708
 20
150.475948
 30
0.0
 11
104.641708
 21
149.642614
 31
0.0
 12
107.141708
 22
150.059281
 32
0.0
 13
107.141708
 23
150.059281
 33
0.0
  0
MTEXT
  5
680
100
AcDbEntity
  8
0
  6
BYBLOCK
 62
     0
100
AcDbMText
 10
101.186708
 20
152.184281
 30
0.0
 40
3.0
 41
0.0
 71
     5
 72
     1
  1
\A1;1
  0
POINT
  5
681
100
AcDbEntity
  8
DEFPOINTS
  6
BYBLOCK
 62
     0
100
AcDbPoint
 10
108.141708
 20
151.225417
 30
0.0
  0
POINT
  5
682
100
AcDbEntity
  8
DEFPOINTS
  6
BYBLOCK
 62
     0
100
AcDbPoint
 10
107.141708
 20
154.442278
 30
0.0
  0
POINT
  5
683
100
AcDbEntity
  8
DEFPOINTS
  6
BYBLOCK
 62
     0
100
AcDbPoint
 10
107.141708
 20
150.059281
 30
0.0
  0
ENDBLK
  5
685
100
AcDbEntity
  8
0
100
AcDbBlockEnd
  0
BLOCK
  5
68C
100
AcDbEntity
  8
0
100
AcDbBlockBegin
  2
*D19
 70
    65
 10
0.0
 20
0.0
 30
0.0
  3
*D19
  1

  0
LINE
  5
687
100
AcDbEntity
  8
0
  6
BYBLOCK
 62
     0
100
AcDbLine
 10
191.625972
 20
151.225417
 30
0.0
 11
96.166449
 21
131.382797
 31
0.0
  0
SOLID
  5
688
100
AcDbEntity
  8
0
  6
BYBLOCK
 62
     0
100
AcDbTrace
 10
96.081652
 20
131.790744
 30
0.0
 11
96.251247
 21
130.97485
 31
0.0
 12
93.718769
 22
130.874012
 32
0.0
 13
93.718769
 23
130.874012
 33
0.0
  0
MTEXT
  5
689
100
AcDbEntity
  8
0
  6
BYBLOCK
 62
     0
100
AcDbMText
 10
142.239903
 20
143.130243
 30
0.0
 40
3.0
 41
0.0
 71
     5
 72
     1
  1
\A1;R100
 11
0.979072
 21
0.203514
 31
0.0
  0
POINT
  5
68A
100
AcDbEntity
  8
DEFPOINTS
  6
BYBLOCK
 62
     0
100
AcDbPoint
 10
93.718769
 20
130.874012
 30
0.0
  0
POINT
  5
68B
100
AcDbEntity
  8
DEFPOINTS
  6
BYBLOCK
 62
     0
100
AcDbPoint
 10
191.625972
 20
151.225417
 30
0.0
  0
ENDBLK
  5
68D
100
AcDbEntity
  8
0
100
AcDbBlockEnd
  0
BLOCK
  5
698
100
AcDbEntity
  8
0
100
AcDbBlockBegin
  2
*D20
 70
    65
 10
0.0
 20
0.0
 30
0.0
  3
*D20
  1

  0
LINE
  5
68F
100
AcDbEntity
  8
0
  6
BYBLOCK
 62
     0
100
AcDbLine
 10
178.61417
 20
151.225417
 30
0.0
 11
142.443004
 21
151.225417
 31
0.0
  0
LINE
  5
690
100
AcDbEntity
  8
0
  6
BYBLOCK
 62
     0
100
AcDbLine
 10
83.86417
 20
202.225417
 30
0.0
 11
144.943004
 21
202.225417
 31
0.0
  0
LINE
  5
691
100
AcDbEntity
  8
0
  6
BYBLOCK
 62
     0
100
AcDbLine
 10
143.693004
 20
153.725417
 30
0.0
 11
143.693004
 21
199.725417
 31
0.0
  0
SOLID
  5
692
100
AcDbEntity
  8
0
  6
BYBLOCK
 62
     0
100
AcDbTrace
 10
143.276338
 20
153.725417
 30
0.0
 11
144.109671
 21
153.725417
 31
0.0
 12
143.693004
 22
151.225417
 32
0.0
 13
143.693004
 23
151.225417
 33
0.0
  0
SOLID
  5
693
100
AcDbEntity
  8
0
  6
BYBLOCK
 62
     0
100
AcDbTrace
 10
143.276338
 20
199.725417
 30
0.0
 11
144.109671
 21
199.725417
 31
0.0
 12
143.693004
 22
202.225417
 32
0.0
 13
143.693004
 23
202.225417
 33
0.0
  0
MTEXT
  5
694
100
AcDbEntity
  8
0
  6
BYBLOCK
 62
     0
100
AcDbMText
 10
141.568004
 20
176.725417
 30
0.0
 40
3.0
 41
0.0
 71
     5
 72
     1
  1
\A1;51
 11
0.0
 21
1.0
 31
0.0
  0
POINT
  5
695
100
AcDbEntity
  8
DEFPOINTS
  6
BYBLOCK
 62
     0
100
AcDbPoint
 10
179.23917
 20
151.225417
 30
0.0
  0
POINT
  5
696
100
AcDbEntity
  8
DEFPOINTS
  6
BYBLOCK
 62
     0
100
AcDbPoint
 10
83.23917
 20
202.225417
 30
0.0
  0
POINT
  5
697
100
AcDbEntity
  8
DEFPOINTS
  6
BYBLOCK
 62
     0
100
AcDbPoint
 10
143.693004
 20
202.225417
 30
0.0
  0
ENDBLK
  5
699
100
AcDbEntity
  8
0
100
AcDbBlockEnd
  0
BLOCK
  5
6E0
100
AcDbEntity
  8
DISEGNO
100
AcDbBlockBegin
  2
A$CD0E1
 70
     0
 10
0.0
 20
0.0
 30
0.0
  3
A$CD0E1
  1

  0
DIMENSION
  5
69B
100
AcDbEntity
  8
QUOTE
100
AcDbDimension
  2
*D20
 10
137.714233
 20
198.106319
 30
0.0
 11
135.589233
 21
172.606319
 31
0.0
 12
-5.978771
 22
-4.119098
 32
0.0
  3
STANDARD
100
AcDbAlignedDimension
 13
173.260399
 23
147.106319
 33
0.0
 14
77.260399
 24
198.106319
 34
0.0
 50
90.0
100
AcDbRotatedDimension
  0
DIMENSION
  5
69C
100
AcDbEntity
  8
QUOTE
100
AcDbDimension
  2
*D19
 10
173.260399
 20
147.106319
 30
0.0
 11
123.87433
 21
139.011145
 31
0.0
 12
-18.365573
 22
-4.119098
 32
0.0
 70
     4
  3
STANDARD
100
AcDbRadialDimension
 15
75.353196
 25
126.754914
 35
0.0
 40
0.0
  0
LEADER
  5
69D
100
AcDbEntity
  8
QUOTE
100
AcDbLeader
  3
STANDARD
 76
     3
 10
77.622006
 20
197.744713
 30
0.0
 10
88.638849
 20
207.793555
 30
0.0
 10
155.717894
 20
207.793555
 30
0.0
 77
   256
  0
DIMENSION
  5
69E
100
AcDbEntity
  8
QUOTE
100
AcDbDimension
  2
*D13
 10
114.814184
 20
94.106319
 30
0.0
 11
112.689184
 21
161.106319
 31
0.0
 12
-18.365573
 22
-4.119098
 32
0.0
  3
STANDARD
100
AcDbAlignedDimension
 13
64.260399
 23
228.106319
 33
0.0
 14
72.260399
 24
94.106319
 34
0.0
 50
90.0
100
AcDbRotatedDimension
  0
DIMENSION
  5
69F
100
AcDbEntity
  8
QUOTE
100
AcDbDimension
  2
*D9
 10
100.66877
 20
94.106319
 30
0.0
 11
97.303062
 21
146.106319
 31
0.0
 12
-34.881309
 22
-4.119098
 32
0.0
  3
TOLL-01
100
AcDbAlignedDimension
 13
77.260399
 23
198.106319
 33
0.0
 14
72.260399
 24
94.106319
 34
0.0
 50
90.0
100
AcDbRotatedDimension
  0
DIMENSION
  5
6A0
100
AcDbEntity
  8
QUOTE
100
AcDbDimension
  2
*D8
 10
100.705778
 20
198.106319
 30
0.0
 11
98.580778
 21
213.106319
 31
0.0
 12
-34.881309
 22
-4.119098
 32
0.0
  3
STANDARD
100
AcDbAlignedDimension
 13
64.260399
 23
228.106319
 33
0.0
 14
77.260399
 24
198.106319
 34
0.0
 50
90.0
100
AcDbRotatedDimension
  0
ARC
  5
6A1
100
AcDbEntity
  8
DISEGNO
100
AcDbCircle
 10
173.260399
 20
147.106319
 30
0.0
 40
100.0
100
AcDbArc
 50
161.805128
 51
198.194872
  0
LINE
  5
6A2
100
AcDbEntity
  8
ASSI
100
AcDbLine
 10
72.260399
 20
104.64937
 30
0.0
 11
72.260399
 21
243.266145
 31
0.0
1001
ACAD
1000
ASC_BOUNDS
1002
{
1070
    19
1002
}
  0
DIMENSION
  5
6A3
100
AcDbEntity
  8
QUOTE
100
AcDbDimension
  2
*D14
 10
52.260399
 20
170.320076
 30
0.0
 11
55.820133
 21
117.809927
 31
0.0
 12
-34.881309
 22
-4.119098
 32
0.0
 70
   130
  3
STANDARD
100
AcDb2LineAngularDimension
 13
66.260399
 23
114.207661
 33
0.0
 14
66.967506
 24
115.432406
 34
0.0
 15
66.967506
 25
115.432406
 35
0.0
 16
55.957793
 26
112.482363
 36
0.0
  0
LINE
  5
6A4
100
AcDbEntity
  8
DISEGNO
100
AcDbLine
 10
66.967506
 20
115.432406
 30
0.0
 11
52.260399
 21
170.320076
 31
0.0
  0
TEXT
  5
6A5
100
AcDbEntity
  8
QUOTE
100
AcDbText
 10
21.069946
 20
74.841769
 30
0.0
 40
2.8
  1
TEMPRA IND. 54HRC
 41
1.1
100
AcDbText
  0
LEADER
  5
6A6
100
AcDbEntity
  8
QUOTE
100
AcDbLeader
  3
STANDARD
 76
     3
 10
71.822448
 20
94.236843
 30
0.0
 10
56.964689
 20
73.646547
 30
0.0
 10
22.027141
 20
73.646547
 30
0.0
 77
   256
  0
DIMENSION
  5
6A7
100
AcDbEntity
  8
QUOTE
100
AcDbDimension
  2
*D16
 10
58.871345
 20
90.109853
 30
0.0
 11
57.907571
 21
100.768313
 31
0.0
 12
-34.881309
 22
-4.119098
 32
0.0
 70
     1
  1
{21}
  3
STANDARD
100
AcDbAlignedDimension
 13
66.260399
 23
114.207661
 33
0.0
 14
72.260399
 24
94.106319
 34
0.0
  0
DIMENSION
  5
6A8
100
AcDbEntity
  8
QUOTE
100
AcDbDimension
  2
*D11
 10
65.609546
 20
120.500381
 30
0.0
 11
60.684987
 21
119.180849
 31
0.0
 12
-34.881309
 22
-4.119098
 32
0.0
 70
   129
  3
STANDARD
100
AcDbAlignedDimension
 13
64.392104
 23
121.180234
 33
0.0
 14
65.35803
 24
121.439053
 34
0.0
  0
LINE
  5
6A9
100
AcDbEntity
  8
QUOTE
100
AcDbLine
 10
66.260399
 20
114.207661
 30
0.0
 11
63.672208
 21
123.86692
 31
0.0
  0
DIMENSION
  5
6AA
100
AcDbEntity
  8
QUOTE
100
AcDbDimension
  2
*D10
 10
66.260399
 20
114.207661
 30
0.0
 11
72.260399
 21
69.690095
 31
0.0
 12
-34.881309
 22
-4.119098
 32
0.0
 70
     2
  3
STANDARD
100
AcDb2LineAngularDimension
 13
73.03314
 23
94.699264
 33
0.0
 14
78.260399
 24
114.207661
 34
0.0
 15
71.487658
 25
94.699264
 35
0.0
 16
70.146849
 26
67.657375
 36
0.0
  0
INSERT
  5
6AB
100
AcDbEntity
  8
TEMPRA
100
AcDbBlockReference
  2
*X15
 10
-34.881309
 20
-4.119098
 30
0.0
1001
ACAD
1000
HATCH
1002
{
1070
    19
1000
ANSI31
1040
0.05
1040
0.0
1000
ASC_BOUNDS
1070
     1
1070
     1
1070
     4
1005
6B3
1005
6AC
1005
6B1
1005
6AD
1000
ASC_SEEDPOINT
1011
73.039793
1021
99.988012
1031
0.0
1002
}
  0
LINE
  5
6AC
100
AcDbEntity
  8
DISEGNO
100
AcDbLine
 10
71.487658
 20
94.699264
 30
0.0
 11
66.260399
 21
114.207661
 31
0.0
1001
ACAD
1000
ASC_BOUNDS
1002
{
1070
    19
1005
6AB
1002
}
  0
LINE
  5
6AD
100
AcDbEntity
  8
DISEGNO
100
AcDbLine
 10
73.03314
 20
94.699264
 30
0.0
 11
78.260399
 21
114.207661
 31
0.0
1001
ACAD
1000
ASC_BOUNDS
1002
{
1070
    19
1005
6AB
1002
}
  0
DIMENSION
  5
6AE
100
AcDbEntity
  8
QUOTE
100
AcDbDimension
  2
*D12
 10
72.260399
 20
94.906319
 30
0.0
 11
80.507257
 21
88.773785
 31
0.0
 12
-34.881309
 22
-4.119098
 32
0.0
 70
     4
  3
STANDARD
100
AcDbRadialDimension
 15
72.789779
 25
94.306522
 35
0.0
 40
0.0
  0
LINE
  5
6AF
100
AcDbEntity
  8
ASSI
100
AcDbLine
 10
72.260399
 20
72.212284
 30
0.0
 11
72.260399
 21
93.055735
 31
0.0
1001
ACAD
1000
ASC_BOUNDS
1002
{
1070
    19
1002
}
  0
LINE
  5
6B0
100
AcDbEntity
  8
ASSI
100
AcDbLine
 10
72.260399
 20
57.768056
 30
0.0
 11
72.260399
 21
65.280008
 31
0.0
1001
ACAD
1000
ASC_BOUNDS
1002
{
1070
    19
1002
}
  0
ARC
  5
6B1
100
AcDbEntity
  8
DISEGNO
100
AcDbCircle
 10
72.260399
 20
94.906319
 30
0.0
 40
0.8
100
AcDbArc
 50
195.0
 51
345.0
1001
ACAD
1000
ASC_BOUNDS
1002
{
1070
    19
1005
6AB
1002
}
  0
DIMENSION
  5
6B2
100
AcDbEntity
  8
QUOTE
100
AcDbDimension
  2
*D17
 10
88.643054
 20
114.207661
 30
0.0
 11
86.518054
 21
105.447661
 31
0.0
 12
-34.881309
 22
-4.119098
 32
0.0
  3
STANDARD
100
AcDbAlignedDimension
 13
78.260399
 23
115.881329
 33
0.0
 14
78.260399
 24
114.207661
 34
0.0
 50
90.0
100
AcDbRotatedDimension
  0
ARC
  5
6B3
100
AcDbEntity
  8
DISEGNO
100
AcDbCircle
 10
72.260399
 20
107.27017
 30
0.0
 40
4.0
100
AcDbArc
 50
195.0
 51
345.0
1001
ACAD
1000
ASC_BOUNDS
1002
{
1070
    19
1005
6AB
1002
}
  0
LINE
  5
6B4
100
AcDbEntity
  8
DISEGNO
100
AcDbLine
 10
66.260399
 20
114.207661
 30
0.0
 11
66.967506
 21
115.432406
 31
0.0
  0
LINE
  5
6B5
100
AcDbEntity
  8
DISEGNO
100
AcDbLine
 10
78.260399
 20
115.881329
 30
0.0
 11
78.260399
 21
114.207661
 31
0.0
  0
TEXT
  5
6B6
100
AcDbEntity
  8
QUOTE
100
AcDbText
 10
14.396302
 20
185.05838
 30
0.0
 40
2.8
  1
N°2 SM 0.5X45°
 41
1.1
100
AcDbText
  0
LEADER
  5
6B7
100
AcDbEntity
  8
QUOTE
100
AcDbLeader
  3
STANDARD
 76
     3
 10
52.477379
 20
211.389339
 30
0.0
 10
42.256615
 20
184.207383
 30
0.0
 10
13.062223
 20
184.207383
 30
0.0
 77
   256
  0
TEXT
  5
6B8
100
AcDbEntity
  8
QUOTE
100
AcDbText
 10
14.258717
 20
241.338897
 30
0.0
 40
2.8
  1
N° 2 SM 1X45°
 41
1.1
100
AcDbText
  0
LEADER
  5
6B9
100
AcDbEntity
  8
QUOTE
100
AcDbLeader
  3
STANDARD
 76
     3
 10
52.546438
 20
228.106319
 30
0.0
 10
39.145735
 20
240.143676
 30
0.0
 10
12.822926
 20
240.143676
 30
0.0
 77
   256
  0
DIMENSION
  5
6BA
100
AcDbEntity
  8
QUOTE
100
AcDbDimension
  2
*D4
 10
72.260399
 20
242.25383
 30
0.0
 11
85.926643
 21
242.25383
 31
0.0
 12
-34.881309
 22
-4.119098
 32
0.0
 70
   128
  3
TOLL-03
100
AcDbAlignedDimension
 13
65.260399
 23
227.106319
 33
0.0
 14
72.260399
 24
227.03774
 34
0.0
100
AcDbRotatedDimension
  0
DIMENSION
  5
6BB
100
AcDbEntity
  8
QUOTE
100
AcDbDimension
  2
*D3
 10
65.260399
 20
242.336555
 30
0.0
 11
58.760399
 21
244.461555
 31
0.0
 12
-34.881309
 22
-4.119098
 32
0.0
  3
TOLL-03
100
AcDbAlignedDimension
 13
52.260399
 23
227.106319
 33
0.0
 14
65.260399
 24
227.106319
 34
0.0
100
AcDbRotatedDimension
  0
DIMENSION
  5
6BC
100
AcDbEntity
  8
QUOTE
100
AcDbDimension
  2
*D2
 10
78.260399
 20
258.113455
 30
0.0
 11
65.260399
 21
261.479164
 31
0.0
 12
-34.881309
 22
-4.119098
 32
0.0
  3
TOLL-01
100
AcDbAlignedDimension
 13
52.260399
 23
227.106319
 33
0.0
 14
78.260399
 24
197.106319
 34
0.0
100
AcDbRotatedDimension
  0
DIMENSION
  5
6BD
100
AcDbEntity
  8
QUOTE
100
AcDbDimension
  2
*D18
 10
72.260399
 20
145.940183
 30
0.0
 11
66.305399
 21
148.065183
 31
0.0
 12
-34.881309
 22
-4.119098
 32
0.0
  3
STANDARD
100
AcDbAlignedDimension
 13
73.260399
 23
147.106319
 33
0.0
 14
72.260399
 24
150.32318
 34
0.0
100
AcDbRotatedDimension
  0
INSERT
  5
6BE
100
AcDbEntity
  8
QUOTE
100
AcDbBlockReference
 66
     1
  2
RUGOSITA
 10
65.260399
 20
218.725418
 30
0.0
 50
270.0
  0
ATTRIB
  5
6BF
100
AcDbEntity
  8
QUOTE
100
AcDbText
 10
68.474505
 20
219.797304
 30
0.0
 40
1.5
  1
0.8
 50
270.0
100
AcDbAttribute
  2
RUGOSITA
 70
     0
  0
SEQEND
  5
6C0
100
AcDbEntity
  8
QUOTE
  0
LINE
  5
6C1
100
AcDbEntity
  8
DISEGNO
100
AcDbLine
 10
65.260399
 20
198.106319
 30
0.0
 11
77.260399
 21
198.106319
 31
0.0
  0
LINE
  5
6C2
100
AcDbEntity
  8
DISEGNO
100
AcDbLine
 10
52.260399
 20
202.206319
 30
0.0
 11
52.260399
 21
170.320076
 31
0.0
  0
INSERT
  5
6C3
100
AcDbEntity
  8
QUOTE
100
AcDbBlockReference
 66
     1
  2
RUGOSITA
 10
52.260399
 20
176.721836
 30
0.0
 50
90.0
  0
ATTRIB
  5
6C4
100
AcDbEntity
  8
QUOTE
100
AcDbText
 10
49.046293
 20
175.64995
 30
0.0
 40
1.5
  1
0.8
 50
90.0
100
AcDbAttribute
  2
RUGOSITA
 70
     0
  0
SEQEND
  5
6C5
100
AcDbEntity
  8
QUOTE
  0
INSERT
  5
6C6
100
AcDbEntity
  8
QUOTE
100
AcDbBlockReference
 66
     1
  2
RUGOSITA
 10
57.590215
 20
150.428933
 30
0.0
 50
105.0
  0
ATTRIB
  5
6C7
100
AcDbEntity
  8
QUOTE
100
AcDbText
 10
54.763051
 20
148.561699
 30
0.0
 40
1.5
  1
3.2
 50
105.0
100
AcDbAttribute
  2
RUGOSITA
 70
     0
  0
SEQEND
  5
6C8
100
AcDbEntity
  8
QUOTE
  0
DIMENSION
  5
6C9
100
AcDbEntity
  8
QUOTE
100
AcDbDimension
  2
*D7
 10
55.760399
 20
217.147648
 30
0.0
 11
46.132054
 21
217.147648
 31
0.0
 12
-34.881309
 22
-4.119098
 32
0.0
 70
   128
  3
STANDARD
100
AcDbAlignedDimension
 13
52.260399
 23
211.606319
 33
0.0
 14
55.760399
 24
211.106319
 34
0.0
100
AcDbRotatedDimension
  0
DIMENSION
  5
6CA
100
AcDbEntity
  8
QUOTE
100
AcDbDimension
  2
*D6
 10
40.28297
 20
228.106319
 30
0.0
 11
40.28297
 21
219.606319
 31
0.0
 12
-34.881309
 22
-4.119098
 32
0.0
 70
   128
  3
STANDARD
100
AcDbAlignedDimension
 13
52.760399
 23
211.106319
 33
0.0
 14
53.260399
 24
228.106319
 34
0.0
 50
90.0
100
AcDbRotatedDimension
  0
DIMENSION
  5
6CB
100
AcDbEntity
  8
QUOTE
100
AcDbDimension
  2
*D5
 10
40.223148
 20
202.706319
 30
0.0
 11
38.098148
 21
206.906319
 31
0.0
 12
-34.881309
 22
-4.119098
 32
0.0
  3
STANDARD
100
AcDbAlignedDimension
 13
52.760399
 23
211.106319
 33
0.0
 14
52.760399
 24
202.706319
 34
0.0
 50
90.0
100
AcDbRotatedDimension
  0
LINE
  5
6CC
100
AcDbEntity
  8
DISEGNO
100
AcDbLine
 10
52.260399
 20
227.106319
 30
0.0
 11
52.260399
 21
211.606319
 31
0.0
  0
LINE
  5
6CD
100
AcDbEntity
  8
DISEGNO
100
AcDbLine
 10
65.260399
 20
227.106319
 30
0.0
 11
65.260399
 21
198.106319
 31
0.0
  0
LINE
  5
6CE
100
AcDbEntity
  8
DISEGNO
100
AcDbLine
 10
52.260399
 20
202.206319
 30
0.0
 11
52.760399
 21
202.706319
 31
0.0
  0
LINE
  5
6CF
100
AcDbEntity
  8
DISEGNO
100
AcDbLine
 10
55.760399
 20
202.706319
 30
0.0
 11
52.760399
 21
202.706319
 31
0.0
  0
LINE
  5
6D0
100
AcDbEntity
  8
DISEGNO
100
AcDbLine
 10
52.760399
 20
211.106319
 30
0.0
 11
55.760399
 21
211.106319
 31
0.0
  0
LEADER
  5
6D1
100
AcDbEntity
  8
QUOTE
100
AcDbLeader
  3
STANDARD
 76
     2
 10
52.509921
 20
202.455841
 30
0.0
 10
51.245434
 20
208.113001
 30
0.0
 77
   256
  0
LINE
  5
6D2
100
AcDbEntity
  8
DISEGNO
100
AcDbLine
 10
52.260399
 20
211.606319
 30
0.0
 11
52.760399
 21
211.106319
 31
0.0
  0
LINE
  5
6D3
100
AcDbEntity
  8
DISEGNO
100
AcDbLine
 10
55.760399
 20
211.106319
 30
0.0
 11
55.760399
 21
202.706319
 31
0.0
  0
LINE
  5
6D4
100
AcDbEntity
  8
DISEGNO
100
AcDbLine
 10
53.260399
 20
228.106319
 30
0.0
 11
64.260399
 21
228.106319
 31
0.0
  0
LINE
  5
6D5
100
AcDbEntity
  8
DISEGNO
100
AcDbLine
 10
53.260399
 20
228.106319
 30
0.0
 11
52.260399
 21
227.106319
 31
0.0
  0
LINE
  5
6D6
100
AcDbEntity
  8
DISEGNO
100
AcDbLine
 10
64.260399
 20
228.106319
 30
0.0
 11
65.260399
 21
227.106319
 31
0.0
  0
INSERT
  5
6D7
100
AcDbEntity
  8
QUOTE
100
AcDbBlockReference
 66
     1
  2
RUGOSITA
 10
78.260399
 20
190.067725
 30
0.0
 50
270.0
  0
ATTRIB
  5
6D8
100
AcDbEntity
  8
QUOTE
100
AcDbText
 10
81.474505
 20
191.139611
 30
0.0
 40
1.5
  1
3.2 
 50
270.0
100
AcDbAttribute
  2
RUGOSITA
 70
     0
  0
SEQEND
  5
6D9
100
AcDbEntity
  8
QUOTE
  0
LINE
  5
6DA
100
AcDbEntity
  8
DISEGNO
100
AcDbLine
 10
78.260399
 20
197.106319
 30
0.0
 11
78.260399
 21
178.331309
 31
0.0
  0
INSERT
  5
6DB
100
AcDbEntity
  8
QUOTE
100
AcDbBlockReference
 66
     1
  2
RUGOSITA
 10
69.300367
 20
198.106319
 30
0.0
  0
ATTRIB
  5
6DC
100
AcDbEntity
  8
QUOTE
100
AcDbText
 10
68.228481
 20
201.320425
 30
0.0
 40
1.5
  1
0.8
100
AcDbAttribute
  2
RUGOSITA
 70
     0
  0
SEQEND
  5
6DD
100
AcDbEntity
  8
QUOTE
  0
LINE
  5
6DE
100
AcDbEntity
  8
DISEGNO
100
AcDbLine
 10
77.260399
 20
198.106319
 30
0.0
 11
78.260399
 21
197.106319
 31
0.0
  0
TEXT
  5
6DF
100
AcDbEntity
  8
QUOTE
100
AcDbText
 10
126.882451
 20
208.39206
 30
0.0
 40
2.8
  1
    SM 1X45°
 41
1.1
100
AcDbText
  0
ENDBLK
  5
6E1
100
AcDbEntity
  8
DISEGNO
100
AcDbBlockEnd
  0
BLOCK
  5
804
100
AcDbEntity
  8
0
100
AcDbBlockBegin
  2
*D22
 70
    65
 10
0.0
 20
0.0
 30
0.0
  3
*D22
  1

  0
LINE
  5
805
100
AcDbEntity
  8
0
  6
BYBLOCK
 62
     0
100
AcDbLine
 10
-1767.234649
 20
-1507.662137
 30
0.0
 11
-1803.405815
 21
-1507.662137
 31
0.0
  0
LINE
  5
806
100
AcDbEntity
  8
0
  6
BYBLOCK
 62
     0
100
AcDbLine
 10
-1861.984649
 20
-1456.662137
 30
0.0
 11
-1800.905815
 21
-1456.662137
 31
0.0
  0
LINE
  5
807
100
AcDbEntity
  8
0
  6
BYBLOCK
 62
     0
100
AcDbLine
 10
-1802.155815
 20
-1505.162137
 30
0.0
 11
-1802.155815
 21
-1459.162137
 31
0.0
  0
SOLID
  5
808
100
AcDbEntity
  8
0
  6
BYBLOCK
 62
     0
100
AcDbTrace
 10
-1802.572481
 20
-1505.162137
 30
0.0
 11
-1801.739148
 21
-1505.162137
 31
0.0
 12
-1802.155815
 22
-1507.662137
 32
0.0
 13
-1802.155815
 23
-1507.662137
 33
0.0
  0
SOLID
  5
809
100
AcDbEntity
  8
0
  6
BYBLOCK
 62
     0
100
AcDbTrace
 10
-1802.572481
 20
-1459.162137
 30
0.0
 11
-1801.739148
 21
-1459.162137
 31
0.0
 12
-1802.155815
 22
-1456.662137
 32
0.0
 13
-1802.155815
 23
-1456.662137
 33
0.0
  0
MTEXT
  5
80A
100
AcDbEntity
  8
0
  6
BYBLOCK
 62
     0
100
AcDbMText
 10
-1804.280815
 20
-1482.162137
 30
0.0
 40
3.0
 41
0.0
 71
     5
 72
     1
  1
\A1;51
 11
0.0
 21
1.0
 31
0.0
  0
POINT
  5
80B
100
AcDbEntity
  8
DEFPOINTS
  6
BYBLOCK
 62
     0
100
AcDbPoint
 10
-1766.609649
 20
-1507.662137
 30
0.0
  0
POINT
  5
80C
100
AcDbEntity
  8
DEFPOINTS
  6
BYBLOCK
 62
     0
100
AcDbPoint
 10
-1862.609649
 20
-1456.662137
 30
0.0
  0
POINT
  5
80D
100
AcDbEntity
  8
DEFPOINTS
  6
BYBLOCK
 62
     0
100
AcDbPoint
 10
-1802.155815
 20
-1456.662137
 30
0.0
  0
ENDBLK
  5
80E
100
AcDbEntity
  8
0
100
AcDbBlockEnd
  0
BLOCK
  5
80F
100
AcDbEntity
  8
0
100
AcDbBlockBegin
  2
*D23
 70
    65
 10
0.0
 20
0.0
 30
0.0
  3
*D23
  1

  0
LINE
  5
810
100
AcDbEntity
  8
0
  6
BYBLOCK
 62
     0
100
AcDbLine
 10
-1766.609649
 20
-1507.662137
 30
0.0
 11
-1862.069172
 21
-1527.504757
 31
0.0
  0
SOLID
  5
811
100
AcDbEntity
  8
0
  6
BYBLOCK
 62
     0
100
AcDbTrace
 10
-1862.153969
 20
-1527.09681
 30
0.0
 11
-1861.984374
 21
-1527.912703
 31
0.0
 12
-1864.516852
 22
-1528.013542
 32
0.0
 13
-1864.516852
 23
-1528.013542
 33
0.0
  0
MTEXT
  5
812
100
AcDbEntity
  8
0
  6
BYBLOCK
 62
     0
100
AcDbMText
 10
-1815.995718
 20
-1515.757311
 30
0.0
 40
3.0
 41
0.0
 71
     5
 72
     1
  1
\A1;R100
 11
0.979072
 21
0.203514
 31
0.0
  0
POINT
  5
813
100
AcDbEntity
  8
DEFPOINTS
  6
BYBLOCK
 62
     0
100
AcDbPoint
 10
-1864.516852
 20
-1528.013542
 30
0.0
  0
POINT
  5
814
100
AcDbEntity
  8
DEFPOINTS
  6
BYBLOCK
 62
     0
100
AcDbPoint
 10
-1766.609649
 20
-1507.662137
 30
0.0
  0
ENDBLK
  5
815
100
AcDbEntity
  8
0
100
AcDbBlockEnd
  0
BLOCK
  5
816
100
AcDbEntity
  8
0
100
AcDbBlockBegin
  2
*D24
 70
    65
 10
0.0
 20
0.0
 30
0.0
  3
*D24
  1

  0
LINE
  5
817
100
AcDbEntity
  8
0
  6
BYBLOCK
 62
     0
100
AcDbLine
 10
-1874.984649
 20
-1426.662137
 30
0.0
 11
-1823.805864
 21
-1426.662137
 31
0.0
  0
LINE
  5
818
100
AcDbEntity
  8
0
  6
BYBLOCK
 62
     0
100
AcDbLine
 10
-1866.984649
 20
-1560.662137
 30
0.0
 11
-1823.805864
 21
-1560.662137
 31
0.0
  0
LINE
  5
819
100
AcDbEntity
  8
0
  6
BYBLOCK
 62
     0
100
AcDbLine
 10
-1825.055864
 20
-1429.162137
 30
0.0
 11
-1825.055864
 21
-1558.162137
 31
0.0
  0
SOLID
  5
81A
100
AcDbEntity
  8
0
  6
BYBLOCK
 62
     0
100
AcDbTrace
 10
-1825.472531
 20
-1429.162137
 30
0.0
 11
-1824.639197
 21
-1429.162137
 31
0.0
 12
-1825.055864
 22
-1426.662137
 32
0.0
 13
-1825.055864
 23
-1426.662137
 33
0.0
  0
SOLID
  5
81B
100
AcDbEntity
  8
0
  6
BYBLOCK
 62
     0
100
AcDbTrace
 10
-1825.472531
 20
-1558.162137
 30
0.0
 11
-1824.639197
 21
-1558.162137
 31
0.0
 12
-1825.055864
 22
-1560.662137
 32
0.0
 13
-1825.055864
 23
-1560.662137
 33
0.0
  0
MTEXT
  5
81C
100
AcDbEntity
  8
0
  6
BYBLOCK
 62
     0
100
AcDbMText
 10
-1827.180864
 20
-1493.662137
 30
0.0
 40
3.0
 41
0.0
 71
     5
 72
     1
  1
\A1;134
 11
0.0
 21
1.0
 31
0.0
  0
POINT
  5
81D
100
AcDbEntity
  8
DEFPOINTS
  6
BYBLOCK
 62
     0
100
AcDbPoint
 10
-1875.609649
 20
-1426.662137
 30
0.0
  0
POINT
  5
81E
100
AcDbEntity
  8
DEFPOINTS
  6
BYBLOCK
 62
     0
100
AcDbPoint
 10
-1867.609649
 20
-1560.662137
 30
0.0
  0
POINT
  5
81F
100
AcDbEntity
  8
DEFPOINTS
  6
BYBLOCK
 62
     0
100
AcDbPoint
 10
-1825.055864
 20
-1560.662137
 30
0.0
  0
ENDBLK
  5
820
100
AcDbEntity
  8
0
100
AcDbBlockEnd
  0
BLOCK
  5
821
100
AcDbEntity
  8
0
100
AcDbBlockBegin
  2
*D25
 70
    65
 10
0.0
 20
0.0
 30
0.0
  3
*D25
  1

  0
LINE
  5
822
100
AcDbEntity
  8
0
  6
BYBLOCK
 62
     0
100
AcDbLine
 10
-1861.984649
 20
-1456.662137
 30
0.0
 11
-1837.951278
 21
-1456.662137
 31
0.0
  0
LINE
  5
823
100
AcDbEntity
  8
0
  6
BYBLOCK
 62
     0
100
AcDbLine
 10
-1866.984649
 20
-1560.662137
 30
0.0
 11
-1837.951278
 21
-1560.662137
 31
0.0
  0
LINE
  5
824
100
AcDbEntity
  8
0
  6
BYBLOCK
 62
     0
100
AcDbLine
 10
-1839.201278
 20
-1459.162137
 30
0.0
 11
-1839.201278
 21
-1558.162137
 31
0.0
  0
SOLID
  5
825
100
AcDbEntity
  8
0
  6
BYBLOCK
 62
     0
100
AcDbTrace
 10
-1839.617944
 20
-1459.162137
 30
0.0
 11
-1838.784611
 21
-1459.162137
 31
0.0
 12
-1839.201278
 22
-1456.662137
 32
0.0
 13
-1839.201278
 23
-1456.662137
 33
0.0
  0
SOLID
  5
826
100
AcDbEntity
  8
0
  6
BYBLOCK
 62
     0
100
AcDbTrace
 10
-1839.617944
 20
-1558.162137
 30
0.0
 11
-1838.784611
 21
-1558.162137
 31
0.0
 12
-1839.201278
 22
-1560.662137
 32
0.0
 13
-1839.201278
 23
-1560.662137
 33
0.0
  0
MTEXT
  5
827
100
AcDbEntity
  8
0
  6
BYBLOCK
 62
     0
100
AcDbMText
 10
-1842.566986
 20
-1508.662137
 30
0.0
 40
3.0
 41
0.0
 71
     5
 72
     1
  1
\A2;104{\H2.400000;\S+0.02^  0;}
 11
0.0
 21
1.0
 31
0.0
  0
POINT
  5
828
100
AcDbEntity
  8
DEFPOINTS
  6
BYBLOCK
 62
     0
100
AcDbPoint
 10
-1862.609649
 20
-1456.662137
 30
0.0
  0
POINT
  5
829
100
AcDbEntity
  8
DEFPOINTS
  6
BYBLOCK
 62
     0
100
AcDbPoint
 10
-1867.609649
 20
-1560.662137
 30
0.0
  0
POINT
  5
82A
100
AcDbEntity
  8
DEFPOINTS
  6
BYBLOCK
 62
     0
100
AcDbPoint
 10
-1839.201278
 20
-1560.662137
 30
0.0
  0
ENDBLK
  5
82B
100
AcDbEntity
  8
0
100
AcDbBlockEnd
  0
BLOCK
  5
82C
100
AcDbEntity
  8
0
100
AcDbBlockBegin
  2
*D26
 70
    65
 10
0.0
 20
0.0
 30
0.0
  3
*D26
  1

  0
LINE
  5
82D
100
AcDbEntity
  8
0
  6
BYBLOCK
 62
     0
100
AcDbLine
 10
-1874.984649
 20
-1426.662137
 30
0.0
 11
-1837.91427
 21
-1426.662137
 31
0.0
  0
LINE
  5
82E
100
AcDbEntity
  8
0
  6
BYBLOCK
 62
     0
100
AcDbLine
 10
-1861.984649
 20
-1456.662137
 30
0.0
 11
-1837.91427
 21
-1456.662137
 31
0.0
  0
LINE
  5
82F
100
AcDbEntity
  8
0
  6
BYBLOCK
 62
     0
100
AcDbLine
 10
-1839.16427
 20
-1429.162137
 30
0.0
 11
-1839.16427
 21
-1454.162137
 31
0.0
  0
SOLID
  5
830
100
AcDbEntity
  8
0
  6
BYBLOCK
 62
     0
100
AcDbTrace
 10
-1839.580937
 20
-1429.162137
 30
0.0
 11
-1838.747604
 21
-1429.162137
 31
0.0
 12
-1839.16427
 22
-1426.662137
 32
0.0
 13
-1839.16427
 23
-1426.662137
 33
0.0
  0
SOLID
  5
831
100
AcDbEntity
  8
0
  6
BYBLOCK
 62
     0
100
AcDbTrace
 10
-1839.580937
 20
-1454.162137
 30
0.0
 11
-1838.747604
 21
-1454.162137
 31
0.0
 12
-1839.16427
 22
-1456.662137
 32
0.0
 13
-1839.16427
 23
-1456.662137
 33
0.0
  0
MTEXT
  5
832
100
AcDbEntity
  8
0
  6
BYBLOCK
 62
     0
100
AcDbMText
 10
-1841.28927
 20
-1441.662137
 30
0.0
 40
3.0
 41
0.0
 71
     5
 72
     1
  1
\A1;30
 11
0.0
 21
1.0
 31
0.0
  0
POINT
  5
833
100
AcDbEntity
  8
DEFPOINTS
  6
BYBLOCK
 62
     0
100
AcDbPoint
 10
-1875.609649
 20
-1426.662137
 30
0.0
  0
POINT
  5
834
100
AcDbEntity
  8
DEFPOINTS
  6
BYBLOCK
 62
     0
100
AcDbPoint
 10
-1862.609649
 20
-1456.662137
 30
0.0
  0
POINT
  5
835
100
AcDbEntity
  8
DEFPOINTS
  6
BYBLOCK
 62
     0
100
AcDbPoint
 10
-1839.16427
 20
-1456.662137
 30
0.0
  0
ENDBLK
  5
836
100
AcDbEntity
  8
0
100
AcDbBlockEnd
  0
BLOCK
  5
837
100
AcDbEntity
  8
0
100
AcDbBlockBegin
  2
*D27
 70
    65
 10
0.0
 20
0.0
 30
0.0
  3
*D27
  1

  0
LINE
  5
838
100
AcDbEntity
  8
0
  6
BYBLOCK
 62
     0
100
AcDbLine
 10
-1873.922149
 20
-1541.10206
 30
0.0
 11
-1879.226589
 21
-1550.28962
 31
0.0
  0
ARC
  5
839
100
AcDbEntity
  8
0
  6
BYBLOCK
 62
     0
100
AcDbCircle
 10
-1872.902542
 20
-1539.336049
 30
0.0
 40
11.398093
100
AcDbArc
 50
117.592293
 51
227.407707
  0
SOLID
  5
83A
100
AcDbEntity
  8
0
  6
BYBLOCK
 62
     0
100
AcDbTrace
 10
-1878.333204
 20
-1528.846093
 30
0.0
 11
-1878.030547
 21
-1529.622523
 31
0.0
 12
-1875.852586
 22
-1528.326337
 32
0.0
 13
-1875.852586
 23
-1528.326337
 33
0.0
  0
SOLID
  5
83B
100
AcDbEntity
  8
0
  6
BYBLOCK
 62
     0
100
AcDbTrace
 10
-1880.36986
 20
-1547.39137
 30
0.0
 11
-1880.863159
 21
-1548.06301
 31
0.0
 12
-1878.601589
 22
-1549.207088
 32
0.0
 13
-1878.601589
 23
-1549.207088
 33
0.0
  0
MTEXT
  5
83C
100
AcDbEntity
  8
0
  6
BYBLOCK
 62
     0
100
AcDbMText
 10
-1886.128173
 20
-1536.515277
 30
0.0
 40
3.0
 41
0.0
 71
     5
 72
     1
  1
\A1;135°
 11
0.208589
 21
0.978003
 31
0.0
  0
POINT
  5
83D
100
AcDbEntity
  8
DEFPOINTS
  6
BYBLOCK
 62
     0
100
AcDbPoint
 10
-1883.912255
 20
-1542.286093
 30
0.0
  0
POINT
  5
83E
100
AcDbEntity
  8
DEFPOINTS
  6
BYBLOCK
 62
     0
100
AcDbPoint
 10
-1872.902542
 20
-1539.336049
 30
0.0
  0
POINT
  5
83F
100
AcDbEntity
  8
DEFPOINTS
  6
BYBLOCK
 62
     0
100
AcDbPoint
 10
-1873.609649
 20
-1540.560794
 30
0.0
  0
POINT
  5
840
100
AcDbEntity
  8
DEFPOINTS
  6
BYBLOCK
 62
     0
100
AcDbPoint
 10
-1872.902542
 20
-1539.336049
 30
0.0
  0
POINT
  5
841
100
AcDbEntity
  8
DEFPOINTS
  6
BYBLOCK
 62
     0
100
AcDbPoint
 10
-1887.609649
 20
-1484.44838
 30
0.0
  0
ENDBLK
  5
842
100
AcDbEntity
  8
0
100
AcDbBlockEnd
  0
BLOCK
  5
843
100
AcDbEntity
  8
0
100
AcDbBlockBegin
  2
*D28
 70
    65
 10
0.0
 20
0.0
 30
0.0
  3
*D28
  1

  0
LINE
  5
844
100
AcDbEntity
  8
0
  6
BYBLOCK
 62
     0
100
AcDbLine
 10
-1874.208539
 20
-1540.739556
 30
0.0
 11
-1888.196484
 21
-1544.914783
 31
0.0
  0
LINE
  5
845
100
AcDbEntity
  8
0
  6
BYBLOCK
 62
     0
100
AcDbLine
 10
-1868.208539
 20
-1560.840898
 30
0.0
 11
-1882.196484
 21
-1565.016125
 31
0.0
  0
LINE
  5
846
100
AcDbEntity
  8
0
  6
BYBLOCK
 62
     0
100
AcDbLine
 10
-1886.283659
 20
-1546.952821
 30
0.0
 11
-1881.713749
 21
-1562.263042
 31
0.0
  0
SOLID
  5
847
100
AcDbEntity
  8
0
  6
BYBLOCK
 62
     0
100
AcDbTrace
 10
-1885.884398
 20
-1546.833647
 30
0.0
 11
-1886.682919
 21
-1547.071995
 31
0.0
 12
-1886.998704
 22
-1544.55726
 32
0.0
 13
-1886.998704
 23
-1544.55726
 33
0.0
  0
SOLID
  5
848
100
AcDbEntity
  8
0
  6
BYBLOCK
 62
     0
100
AcDbTrace
 10
-1881.314488
 20
-1562.143868
 30
0.0
 11
-1882.113009
 21
-1562.382216
 31
0.0
 12
-1880.998704
 22
-1564.658602
 32
0.0
 13
-1880.998704
 23
-1564.658602
 33
0.0
  0
MTEXT
  5
849
100
AcDbEntity
  8
0
  6
BYBLOCK
 62
     0
100
AcDbMText
 10
-1881.962477
 20
-1554.000143
 30
0.0
 40
3.0
 41
0.0
 71
     5
 72
     1
  1
\A1;{21}
 11
0.286018
 21
-0.958224
 31
0.0
  0
POINT
  5
84A
100
AcDbEntity
  8
DEFPOINTS
  6
BYBLOCK
 62
     0
100
AcDbPoint
 10
-1873.609649
 20
-1540.560794
 30
0.0
  0
POINT
  5
84B
100
AcDbEntity
  8
DEFPOINTS
  6
BYBLOCK
 62
     0
100
AcDbPoint
 10
-1867.609649
 20
-1560.662137
 30
0.0
  0
POINT
  5
84C
100
AcDbEntity
  8
DEFPOINTS
  6
BYBLOCK
 62
     0
100
AcDbPoint
 10
-1880.998704
 20
-1564.658602
 30
0.0
  0
ENDBLK
  5
84D
100
AcDbEntity
  8
0
100
AcDbBlockEnd
  0
BLOCK
  5
84E
100
AcDbEntity
  8
0
100
AcDbBlockBegin
  2
*D29
 70
    65
 10
0.0
 20
0.0
 30
0.0
  3
*D29
  1

  0
LINE
  5
84F
100
AcDbEntity
  8
0
  6
BYBLOCK
 62
     0
100
AcDbLine
 10
-1875.316183
 20
-1534.191925
 30
0.0
 11
-1874.902904
 21
-1535.734301
 31
0.0
  0
LINE
  5
850
100
AcDbEntity
  8
0
  6
BYBLOCK
 62
     0
100
AcDbLine
 10
-1874.350257
 20
-1533.933106
 30
0.0
 11
-1873.936978
 21
-1535.475482
 31
0.0
  0
LINE
  5
851
100
AcDbEntity
  8
0
  6
BYBLOCK
 62
     0
100
AcDbLine
 10
-1871.845688
 20
-1533.621027
 30
0.0
 11
-1869.430873
 21
-1532.97398
 31
0.0
  0
LINE
  5
852
100
AcDbEntity
  8
0
  6
BYBLOCK
 62
     0
100
AcDbLine
 10
-1877.641243
 20
-1535.173942
 30
0.0
 11
-1880.107521
 21
-1535.834779
 31
0.0
  0
SOLID
  5
853
100
AcDbEntity
  8
0
  6
BYBLOCK
 62
     0
100
AcDbTrace
 10
-1871.953529
 20
-1533.218558
 30
0.0
 11
-1871.737846
 21
-1534.023497
 31
0.0
 12
-1874.260502
 22
-1534.268075
 32
0.0
 13
-1874.260502
 23
-1534.268075
 33
0.0
  0
SOLID
  5
854
100
AcDbEntity
  8
0
  6
BYBLOCK
 62
     0
100
AcDbTrace
 10
-1877.749084
 20
-1534.771473
 30
0.0
 11
-1877.533401
 21
-1535.576411
 31
0.0
 12
-1875.226428
 22
-1534.526894
 32
0.0
 13
-1875.226428
 23
-1534.526894
 33
0.0
  0
MTEXT
  5
855
100
AcDbEntity
  8
0
  6
BYBLOCK
 62
     0
100
AcDbMText
 10
-1879.735052
 20
-1533.535014
 30
0.0
 40
3.0
 41
0.0
 71
     5
 72
     1
  1
\A1;1
 11
0.965926
 21
0.258819
 31
0.0
  0
POINT
  5
856
100
AcDbEntity
  8
DEFPOINTS
  6
BYBLOCK
 62
     0
100
AcDbPoint
 10
-1875.477944
 20
-1533.588222
 30
0.0
  0
POINT
  5
857
100
AcDbEntity
  8
DEFPOINTS
  6
BYBLOCK
 62
     0
100
AcDbPoint
 10
-1874.512019
 20
-1533.329403
 30
0.0
  0
POINT
  5
858
100
AcDbEntity
  8
DEFPOINTS
  6
BYBLOCK
 62
     0
100
AcDbPoint
 10
-1874.260502
 20
-1534.268075
 30
0.0
  0
ENDBLK
  5
859
100
AcDbEntity
  8
0
100
AcDbBlockEnd
  0
BLOCK
  5
85A
100
AcDbEntity
  8
0
100
AcDbBlockBegin
  2
*D30
 70
    65
 10
0.0
 20
0.0
 30
0.0
  3
*D30
  1

  0
LINE
  5
85B
100
AcDbEntity
  8
0
  6
BYBLOCK
 62
     0
100
AcDbLine
 10
-1867.771411
 20
-1563.556803
 30
0.0
 11
-1874.209603
 21
-1587.58446
 31
0.0
  0
LINE
  5
85C
100
AcDbEntity
  8
0
  6
BYBLOCK
 62
     0
100
AcDbLine
 10
-1867.447887
 20
-1563.556803
 30
0.0
 11
-1861.009696
 21
-1587.58446
 31
0.0
  0
ARC
  5
85D
100
AcDbEntity
  8
0
  6
BYBLOCK
 62
     0
100
AcDbCircle
 10
-1867.609649
 20
-1562.953099
 30
0.0
 40
24.250262
100
AcDbArc
 50
260.909336
 51
279.090664
  0
SOLID
  5
85E
100
AcDbEntity
  8
0
  6
BYBLOCK
 62
     0
100
AcDbTrace
 10
-1871.528074
 20
-1587.30626
 30
0.0
 11
-1871.35417
 21
-1586.491274
 31
0.0
 12
-1873.886079
 22
-1586.377053
 32
0.0
 13
-1873.886079
 23
-1586.377053
 33
0.0
  0
SOLID
  5
85F
100
AcDbEntity
  8
0
  6
BYBLOCK
 62
     0
100
AcDbTrace
 10
-1863.865129
 20
-1586.491274
 30
0.0
 11
-1863.691224
 21
-1587.30626
 31
0.0
 12
-1861.33322
 22
-1586.377053
 32
0.0
 13
-1861.33322
 23
-1586.377053
 33
0.0
  0
MTEXT
  5
860
100
AcDbEntity
  8
0
  6
BYBLOCK
 62
     0
100
AcDbMText
 10
-1867.609649
 20
-1585.078361
 30
0.0
 40
3.0
 41
0.0
 71
     5
 72
     1
  1
\A1;30°
  0
POINT
  5
861
100
AcDbEntity
  8
DEFPOINTS
  6
BYBLOCK
 62
     0
100
AcDbPoint
 10
-1869.723199
 20
-1587.111081
 30
0.0
  0
POINT
  5
862
100
AcDbEntity
  8
DEFPOINTS
  6
BYBLOCK
 62
     0
100
AcDbPoint
 10
-1868.38239
 20
-1560.069192
 30
0.0
  0
POINT
  5
863
100
AcDbEntity
  8
DEFPOINTS
  6
BYBLOCK
 62
     0
100
AcDbPoint
 10
-1866.836909
 20
-1560.069192
 30
0.0
  0
POINT
  5
864
100
AcDbEntity
  8
DEFPOINTS
  6
BYBLOCK
 62
     0
100
AcDbPoint
 10
-1861.609649
 20
-1540.560794
 30
0.0
  0
POINT
  5
865
100
AcDbEntity
  8
DEFPOINTS
  6
BYBLOCK
 62
     0
100
AcDbPoint
 10
-1873.609649
 20
-1540.560794
 30
0.0
  0
ENDBLK
  5
866
100
AcDbEntity
  8
0
100
AcDbBlockEnd
  0
BLOCK
  5
867
100
AcDbEntity
  8
0
100
AcDbBlockBegin
  2
*D31
 70
    65
 10
0.0
 20
0.0
 30
0.0
  3
*D31
  1

  0
LINE
  5
868
100
AcDbEntity
  8
0
  6
BYBLOCK
 62
     0
100
AcDbLine
 10
-1865.425956
 20
-1562.3363
 30
0.0
 11
-1858.140361
 21
-1570.591008
 31
0.0
  0
SOLID
  5
869
100
AcDbEntity
  8
0
  6
BYBLOCK
 62
     0
100
AcDbTrace
 10
-1865.113562
 20
-1562.060581
 30
0.0
 11
-1865.73835
 21
-1562.612019
 31
0.0
 12
-1867.080269
 22
-1560.461934
 32
0.0
 13
-1867.080269
 23
-1560.461934
 33
0.0
  0
MTEXT
  5
86A
100
AcDbEntity
  8
0
  6
BYBLOCK
 62
     0
100
AcDbMText
 10
-1859.362791
 20
-1565.994671
 30
0.0
 40
3.0
 41
0.0
 71
     5
 72
     1
  1
\A1;R0.8
 11
0.661725
 21
-0.749746
 31
0.0
  0
LINE
  5
86B
100
AcDbEntity
  8
0
  6
BYBLOCK
 62
     0
100
AcDbLine
 10
-1870.109649
 20
-1559.862137
 30
0.0
 11
-1865.109649
 21
-1559.862137
 31
0.0
  0
LINE
  5
86C
100
AcDbEntity
  8
0
  6
BYBLOCK
 62
     0
100
AcDbLine
 10
-1867.609649
 20
-1562.362137
 30
0.0
 11
-1867.609649
 21
-1557.362137
 31
0.0
  0
POINT
  5
86D
100
AcDbEntity
  8
DEFPOINTS
  6
BYBLOCK
 62
     0
100
AcDbPoint
 10
-1867.080269
 20
-1560.461934
 30
0.0
  0
POINT
  5
86E
100
AcDbEntity
  8
DEFPOINTS
  6
BYBLOCK
 62
     0
100
AcDbPoint
 10
-1867.609649
 20
-1559.862137
 30
0.0
  0
ENDBLK
  5
86F
100
AcDbEntity
  8
0
100
AcDbBlockEnd
  0
BLOCK
  5
870
100
AcDbEntity
  8
0
100
AcDbBlockBegin
  2
*D32
 70
    65
 10
0.0
 20
0.0
 30
0.0
  3
*D32
  1

  0
LINE
  5
871
100
AcDbEntity
  8
0
  6
BYBLOCK
 62
     0
100
AcDbLine
 10
-1860.984649
 20
-1538.887127
 30
0.0
 11
-1849.976994
 21
-1538.887127
 31
0.0
  0
LINE
  5
872
100
AcDbEntity
  8
0
  6
BYBLOCK
 62
     0
100
AcDbLine
 10
-1860.984649
 20
-1540.560794
 30
0.0
 11
-1849.976994
 21
-1540.560794
 31
0.0
  0
LINE
  5
873
100
AcDbEntity
  8
0
  6
BYBLOCK
 62
     0
100
AcDbLine
 10
-1851.226994
 20
-1536.387127
 30
0.0
 11
-1851.226994
 21
-1533.887127
 31
0.0
  0
LINE
  5
874
100
AcDbEntity
  8
0
  6
BYBLOCK
 62
     0
100
AcDbLine
 10
-1851.226994
 20
-1543.060794
 30
0.0
 11
-1851.226994
 21
-1553.080794
 31
0.0
  0
SOLID
  5
875
100
AcDbEntity
  8
0
  6
BYBLOCK
 62
     0
100
AcDbTrace
 10
-1851.64366
 20
-1536.387127
 30
0.0
 11
-1850.810327
 21
-1536.387127
 31
0.0
 12
-1851.226994
 22
-1538.887127
 32
0.0
 13
-1851.226994
 23
-1538.887127
 33
0.0
  0
SOLID
  5
876
100
AcDbEntity
  8
0
  6
BYBLOCK
 62
     0
100
AcDbTrace
 10
-1851.64366
 20
-1543.060794
 30
0.0
 11
-1850.810327
 21
-1543.060794
 31
0.0
 12
-1851.226994
 22
-1540.560794
 32
0.0
 13
-1851.226994
 23
-1540.560794
 33
0.0
  0
MTEXT
  5
877
100
AcDbEntity
  8
0
  6
BYBLOCK
 62
     0
100
AcDbMText
 10
-1853.351994
 20
-1549.320794
 30
0.0
 40
3.0
 41
0.0
 71
     5
 72
     1
  1
\A1;1.67
 11
0.0
 21
1.0
 31
0.0
  0
POINT
  5
878
100
AcDbEntity
  8
DEFPOINTS
  6
BYBLOCK
 62
     0
100
AcDbPoint
 10
-1861.609649
 20
-1538.887127
 30
0.0
  0
POINT
  5
879
100
AcDbEntity
  8
DEFPOINTS
  6
BYBLOCK
 62
     0
100
AcDbPoint
 10
-1861.609649
 20
-1540.560794
 30
0.0
  0
POINT
  5
87A
100
AcDbEntity
  8
DEFPOINTS
  6
BYBLOCK
 62
     0
100
AcDbPoint
 10
-1851.226994
 20
-1540.560794
 30
0.0
  0
ENDBLK
  5
87B
100
AcDbEntity
  8
0
100
AcDbBlockEnd
  0
BLOCK
  5
87C
100
AcDbEntity
  8
0
100
AcDbBlockBegin
  2
*D33
 70
    65
 10
0.0
 20
0.0
 30
0.0
  3
*D33
  1

  0
LINE
  5
87D
100
AcDbEntity
  8
0
  6
BYBLOCK
 62
     0
100
AcDbLine
 10
-1874.609649
 20
-1427.037137
 30
0.0
 11
-1874.609649
 21
-1411.264626
 31
0.0
  0
LINE
  5
87E
100
AcDbEntity
  8
0
  6
BYBLOCK
 62
     0
100
AcDbLine
 10
-1867.609649
 20
-1427.105715
 30
0.0
 11
-1867.609649
 21
-1411.264626
 31
0.0
  0
LINE
  5
87F
100
AcDbEntity
  8
0
  6
BYBLOCK
 62
     0
100
AcDbLine
 10
-1872.109649
 20
-1412.514626
 30
0.0
 11
-1870.109649
 21
-1412.514626
 31
0.0
  0
LINE
  5
880
100
AcDbEntity
  8
0
  6
BYBLOCK
 62
     0
100
AcDbLine
 10
-1867.609649
 20
-1412.514626
 30
0.0
 11
-1848.731405
 21
-1412.514626
 31
0.0
  0
SOLID
  5
881
100
AcDbEntity
  8
0
  6
BYBLOCK
 62
     0
100
AcDbTrace
 10
-1872.109649
 20
-1412.097959
 30
0.0
 11
-1872.109649
 21
-1412.931292
 31
0.0
 12
-1874.609649
 22
-1412.514626
 32
0.0
 13
-1874.609649
 23
-1412.514626
 33
0.0
  0
SOLID
  5
882
100
AcDbEntity
  8
0
  6
BYBLOCK
 62
     0
100
AcDbTrace
 10
-1870.109649
 20
-1412.097959
 30
0.0
 11
-1870.109649
 21
-1412.931292
 31
0.0
 12
-1867.609649
 22
-1412.514626
 32
0.0
 13
-1867.609649
 23
-1412.514626
 33
0.0
  0
MTEXT
  5
883
100
AcDbEntity
  8
0
  6
BYBLOCK
 62
     0
100
AcDbMText
 10
-1853.943405
 20
-1410.389626
 30
0.0
 40
3.0
 41
0.0
 71
     5
 72
     1
  1
\A2;7{\H2.400000;±0.01}
  0
POINT
  5
884
100
AcDbEntity
  8
DEFPOINTS
  6
BYBLOCK
 62
     0
100
AcDbPoint
 10
-1874.609649
 20
-1427.662137
 30
0.0
  0
POINT
  5
885
100
AcDbEntity
  8
DEFPOINTS
  6
BYBLOCK
 62
     0
100
AcDbPoint
 10
-1867.609649
 20
-1427.730715
 30
0.0
  0
POINT
  5
886
100
AcDbEntity
  8
DEFPOINTS
  6
BYBLOCK
 62
     0
100
AcDbPoint
 10
-1867.609649
 20
-1412.514626
 30
0.0
  0
ENDBLK
  5
887
100
AcDbEntity
  8
0
100
AcDbBlockEnd
  0
BLOCK
  5
888
100
AcDbEntity
  8
0
100
AcDbBlockBegin
  2
*D34
 70
    65
 10
0.0
 20
0.0
 30
0.0
  3
*D34
  1

  0
LINE
  5
889
100
AcDbEntity
  8
0
  6
BYBLOCK
 62
     0
100
AcDbLine
 10
-1887.609649
 20
-1427.037137
 30
0.0
 11
-1887.609649
 21
-1411.181901
 31
0.0
  0
LINE
  5
88A
100
AcDbEntity
  8
0
  6
BYBLOCK
 62
     0
100
AcDbLine
 10
-1874.609649
 20
-1427.037137
 30
0.0
 11
-1874.609649
 21
-1411.181901
 31
0.0
  0
LINE
  5
88B
100
AcDbEntity
  8
0
  6
BYBLOCK
 62
     0
100
AcDbLine
 10
-1890.109649
 20
-1412.431901
 30
0.0
 11
-1892.609649
 21
-1412.431901
 31
0.0
  0
LINE
  5
88C
100
AcDbEntity
  8
0
  6
BYBLOCK
 62
     0
100
AcDbLine
 10
-1872.109649
 20
-1412.431901
 30
0.0
 11
-1869.609649
 21
-1412.431901
 31
0.0
  0
SOLID
  5
88D
100
AcDbEntity
  8
0
  6
BYBLOCK
 62
     0
100
AcDbTrace
 10
-1890.109649
 20
-1412.015234
 30
0.0
 11
-1890.109649
 21
-1412.848568
 31
0.0
 12
-1887.609649
 22
-1412.431901
 32
0.0
 13
-1887.609649
 23
-1412.431901
 33
0.0
  0
SOLID
  5
88E
100
AcDbEntity
  8
0
  6
BYBLOCK
 62
     0
100
AcDbTrace
 10
-1872.109649
 20
-1412.015234
 30
0.0
 11
-1872.109649
 21
-1412.848568
 31
0.0
 12
-1874.609649
 22
-1412.431901
 32
0.0
 13
-1874.609649
 23
-1412.431901
 33
0.0
  0
MTEXT
  5
88F
100
AcDbEntity
  8
0
  6
BYBLOCK
 62
     0
100
AcDbMText
 10
-1881.109649
 20
-1410.306901
 30
0.0
 40
3.0
 41
0.0
 71
     5
 72
     1
  1
\A2;13{\H2.400000;±0.01}
  0
POINT
  5
890
100
AcDbEntity
  8
DEFPOINTS
  6
BYBLOCK
 62
     0
100
AcDbPoint
 10
-1887.609649
 20
-1427.662137
 30
0.0
  0
POINT
  5
891
100
AcDbEntity
  8
DEFPOINTS
  6
BYBLOCK
 62
     0
100
AcDbPoint
 10
-1874.609649
 20
-1427.662137
 30
0.0
  0
POINT
  5
892
100
AcDbEntity
  8
DEFPOINTS
  6
BYBLOCK
 62
     0
100
AcDbPoint
 10
-1874.609649
 20
-1412.431901
 30
0.0
  0
ENDBLK
  5
893
100
AcDbEntity
  8
0
100
AcDbBlockEnd
  0
BLOCK
  5
894
100
AcDbEntity
  8
0
100
AcDbBlockBegin
  2
*D35
 70
    65
 10
0.0
 20
0.0
 30
0.0
  3
*D35
  1

  0
LINE
  5
895
100
AcDbEntity
  8
0
  6
BYBLOCK
 62
     0
100
AcDbLine
 10
-1887.609649
 20
-1427.037137
 30
0.0
 11
-1887.609649
 21
-1395.405001
 31
0.0
  0
LINE
  5
896
100
AcDbEntity
  8
0
  6
BYBLOCK
 62
     0
100
AcDbLine
 10
-1861.609649
 20
-1457.037137
 30
0.0
 11
-1861.609649
 21
-1395.405001
 31
0.0
  0
LINE
  5
897
100
AcDbEntity
  8
0
  6
BYBLOCK
 62
     0
100
AcDbLine
 10
-1885.109649
 20
-1396.655001
 30
0.0
 11
-1864.109649
 21
-1396.655001
 31
0.0
  0
SOLID
  5
898
100
AcDbEntity
  8
0
  6
BYBLOCK
 62
     0
100
AcDbTrace
 10
-1885.109649
 20
-1396.238334
 30
0.0
 11
-1885.109649
 21
-1397.071667
 31
0.0
 12
-1887.609649
 22
-1396.655001
 32
0.0
 13
-1887.609649
 23
-1396.655001
 33
0.0
  0
SOLID
  5
899
100
AcDbEntity
  8
0
  6
BYBLOCK
 62
     0
100
AcDbTrace
 10
-1864.109649
 20
-1396.238334
 30
0.0
 11
-1864.109649
 21
-1397.071667
 31
0.0
 12
-1861.609649
 22
-1396.655001
 32
0.0
 13
-1861.609649
 23
-1396.655001
 33
0.0
  0
MTEXT
  5
89A
100
AcDbEntity
  8
0
  6
BYBLOCK
 62
     0
100
AcDbMText
 10
-1874.609649
 20
-1393.289292
 30
0.0
 40
3.0
 41
0.0
 71
     5
 72
     1
  1
\A2;26{\H2.400000;\S+0.02^  0;}
  0
POINT
  5
89B
100
AcDbEntity
  8
DEFPOINTS
  6
BYBLOCK
 62
     0
100
AcDbPoint
 10
-1887.609649
 20
-1427.662137
 30
0.0
  0
POINT
  5
89C
100
AcDbEntity
  8
DEFPOINTS
  6
BYBLOCK
 62
     0
100
AcDbPoint
 10
-1861.609649
 20
-1457.662137
 30
0.0
  0
POINT
  5
89D
100
AcDbEntity
  8
DEFPOINTS
  6
BYBLOCK
 62
     0
100
AcDbPoint
 10
-1861.609649
 20
-1396.655001
 30
0.0
  0
ENDBLK
  5
89E
100
AcDbEntity
  8
0
100
AcDbBlockEnd
  0
BLOCK
  5
89F
100
AcDbEntity
  8
0
100
AcDbBlockBegin
  2
*D36
 70
    65
 10
0.0
 20
0.0
 30
0.0
  3
*D36
  1

  0
LINE
  5
8A0
100
AcDbEntity
  8
0
  6
BYBLOCK
 62
     0
100
AcDbLine
 10
-1866.609649
 20
-1508.287137
 30
0.0
 11
-1866.609649
 21
-1510.078273
 31
0.0
  0
LINE
  5
8A1
100
AcDbEntity
  8
0
  6
BYBLOCK
 62
     0
100
AcDbLine
 10
-1867.609649
 20
-1505.070276
 30
0.0
 11
-1867.609649
 21
-1510.078273
 31
0.0
  0
LINE
  5
8A2
100
AcDbEntity
  8
0
  6
BYBLOCK
 62
     0
100
AcDbLine
 10
-1864.109649
 20
-1508.828273
 30
0.0
 11
-1861.609649
 21
-1508.828273
 31
0.0
  0
LINE
  5
8A3
100
AcDbEntity
  8
0
  6
BYBLOCK
 62
     0
100
AcDbLine
 10
-1870.109649
 20
-1508.828273
 30
0.0
 11
-1874.519649
 21
-1508.828273
 31
0.0
  0
SOLID
  5
8A4
100
AcDbEntity
  8
0
  6
BYBLOCK
 62
     0
100
AcDbTrace
 10
-1864.109649
 20
-1508.411606
 30
0.0
 11
-1864.109649
 21
-1509.244939
 31
0.0
 12
-1866.609649
 22
-1508.828273
 32
0.0
 13
-1866.609649
 23
-1508.828273
 33
0.0
  0
SOLID
  5
8A5
100
AcDbEntity
  8
0
  6
BYBLOCK
 62
     0
100
AcDbTrace
 10
-1870.109649
 20
-1508.411606
 30
0.0
 11
-1870.109649
 21
-1509.244939
 31
0.0
 12
-1867.609649
 22
-1508.828273
 32
0.0
 13
-1867.609649
 23
-1508.828273
 33
0.0
  0
MTEXT
  5
8A6
100
AcDbEntity
  8
0
  6
BYBLOCK
 62
     0
100
AcDbMText
 10
-1873.564649
 20
-1506.703273
 30
0.0
 40
3.0
 41
0.0
 71
     5
 72
     1
  1
\A1;1
  0
POINT
  5
8A7
100
AcDbEntity
  8
DEFPOINTS
  6
BYBLOCK
 62
     0
100
AcDbPoint
 10
-1866.609649
 20
-1507.662137
 30
0.0
  0
POINT
  5
8A8
100
AcDbEntity
  8
DEFPOINTS
  6
BYBLOCK
 62
     0
100
AcDbPoint
 10
-1867.609649
 20
-1504.445276
 30
0.0
  0
POINT
  5
8A9
100
AcDbEntity
  8
DEFPOINTS
  6
BYBLOCK
 62
     0
100
AcDbPoint
 10
-1867.609649
 20
-1508.828273
 30
0.0
  0
ENDBLK
  5
8AA
100
AcDbEntity
  8
0
100
AcDbBlockEnd
  0
BLOCK
  5
8AB
100
AcDbEntity
  8
0
100
AcDbBlockBegin
  2
*D37
 70
    65
 10
0.0
 20
0.0
 30
0.0
  3
*D37
  1

  0
LINE
  5
8AC
100
AcDbEntity
  8
0
  6
BYBLOCK
 62
     0
100
AcDbLine
 10
-1887.609649
 20
-1442.537137
 30
0.0
 11
-1887.609649
 21
-1436.370808
 31
0.0
  0
LINE
  5
8AD
100
AcDbEntity
  8
0
  6
BYBLOCK
 62
     0
100
AcDbLine
 10
-1884.109649
 20
-1443.037137
 30
0.0
 11
-1884.109649
 21
-1436.370808
 31
0.0
  0
LINE
  5
8AE
100
AcDbEntity
  8
0
  6
BYBLOCK
 62
     0
100
AcDbLine
 10
-1881.609649
 20
-1437.620808
 30
0.0
 11
-1879.109649
 21
-1437.620808
 31
0.0
  0
LINE
  5
8AF
100
AcDbEntity
  8
0
  6
BYBLOCK
 62
     0
100
AcDbLine
 10
-1890.109649
 20
-1437.620808
 30
0.0
 11
-1896.74134
 21
-1437.620808
 31
0.0
  0
SOLID
  5
8B0
100
AcDbEntity
  8
0
  6
BYBLOCK
 62
     0
100
AcDbTrace
 10
-1881.609649
 20
-1437.204141
 30
0.0
 11
-1881.609649
 21
-1438.037475
 31
0.0
 12
-1884.109649
 22
-1437.620808
 32
0.0
 13
-1884.109649
 23
-1437.620808
 33
0.0
  0
SOLID
  5
8B1
100
AcDbEntity
  8
0
  6
BYBLOCK
 62
     0
100
AcDbTrace
 10
-1890.109649
 20
-1437.204141
 30
0.0
 11
-1890.109649
 21
-1438.037475
 31
0.0
 12
-1887.609649
 22
-1437.620808
 32
0.0
 13
-1887.609649
 23
-1437.620808
 33
0.0
  0
MTEXT
  5
8B2
100
AcDbEntity
  8
0
  6
BYBLOCK
 62
     0
100
AcDbMText
 10
-1893.737995
 20
-1435.495808
 30
0.0
 40
3.0
 41
0.0
 71
     5
 72
     1
  1
\A1;3.5
  0
POINT
  5
8B3
100
AcDbEntity
  8
DEFPOINTS
  6
BYBLOCK
 62
     0
100
AcDbPoint
 10
-1887.609649
 20
-1443.162137
 30
0.0
  0
POINT
  5
8B4
100
AcDbEntity
  8
DEFPOINTS
  6
BYBLOCK
 62
     0
100
AcDbPoint
 10
-1884.109649
 20
-1443.662137
 30
0.0
  0
POINT
  5
8B5
100
AcDbEntity
  8
DEFPOINTS
  6
BYBLOCK
 62
     0
100
AcDbPoint
 10
-1884.109649
 20
-1437.620808
 30
0.0
  0
ENDBLK
  5
8B6
100
AcDbEntity
  8
0
100
AcDbBlockEnd
  0
BLOCK
  5
8B7
100
AcDbEntity
  8
0
100
AcDbBlockBegin
  2
*D38
 70
    65
 10
0.0
 20
0.0
 30
0.0
  3
*D38
  1

  0
LINE
  5
8B8
100
AcDbEntity
  8
0
  6
BYBLOCK
 62
     0
100
AcDbLine
 10
-1887.734649
 20
-1443.662137
 30
0.0
 11
-1900.837078
 21
-1443.662137
 31
0.0
  0
LINE
  5
8B9
100
AcDbEntity
  8
0
  6
BYBLOCK
 62
     0
100
AcDbLine
 10
-1887.234649
 20
-1426.662137
 30
0.0
 11
-1900.837078
 21
-1426.662137
 31
0.0
  0
LINE
  5
8BA
100
AcDbEntity
  8
0
  6
BYBLOCK
 62
     0
100
AcDbLine
 10
-1899.587078
 20
-1441.162137
 30
0.0
 11
-1899.587078
 21
-1429.162137
 31
0.0
  0
SOLID
  5
8BB
100
AcDbEntity
  8
0
  6
BYBLOCK
 62
     0
100
AcDbTrace
 10
-1900.003745
 20
-1441.162137
 30
0.0
 11
-1899.170412
 21
-1441.162137
 31
0.0
 12
-1899.587078
 22
-1443.662137
 32
0.0
 13
-1899.587078
 23
-1443.662137
 33
0.0
  0
SOLID
  5
8BC
100
AcDbEntity
  8
0
  6
BYBLOCK
 62
     0
100
AcDbTrace
 10
-1900.003745
 20
-1429.162137
 30
0.0
 11
-1899.170412
 21
-1429.162137
 31
0.0
 12
-1899.587078
 22
-1426.662137
 32
0.0
 13
-1899.587078
 23
-1426.662137
 33
0.0
  0
MTEXT
  5
8BD
100
AcDbEntity
  8
0
  6
BYBLOCK
 62
     0
100
AcDbMText
 10
-1901.712078
 20
-1435.162137
 30
0.0
 40
3.0
 41
0.0
 71
     5
 72
     1
  1
\A1;17
 11
0.0
 21
1.0
 31
0.0
  0
POINT
  5
8BE
100
AcDbEntity
  8
DEFPOINTS
  6
BYBLOCK
 62
     0
100
AcDbPoint
 10
-1887.109649
 20
-1443.662137
 30
0.0
  0
POINT
  5
8BF
100
AcDbEntity
  8
DEFPOINTS
  6
BYBLOCK
 62
     0
100
AcDbPoint
 10
-1886.609649
 20
-1426.662137
 30
0.0
  0
POINT
  5
8C0
100
AcDbEntity
  8
DEFPOINTS
  6
BYBLOCK
 62
     0
100
AcDbPoint
 10
-1899.587078
 20
-1426.662137
 30
0.0
  0
ENDBLK
  5
8C1
100
AcDbEntity
  8
0
100
AcDbBlockEnd
  0
BLOCK
  5
8C2
100
AcDbEntity
  8
0
100
AcDbBlockBegin
  2
*D39
 70
    65
 10
0.0
 20
0.0
 30
0.0
  3
*D39
  1

  0
LINE
  5
8C3
100
AcDbEntity
  8
0
  6
BYBLOCK
 62
     0
100
AcDbLine
 10
-1887.734649
 20
-1443.662137
 30
0.0
 11
-1900.8969
 21
-1443.662137
 31
0.0
  0
LINE
  5
8C4
100
AcDbEntity
  8
0
  6
BYBLOCK
 62
     0
100
AcDbLine
 10
-1887.734649
 20
-1452.062137
 30
0.0
 11
-1900.8969
 21
-1452.062137
 31
0.0
  0
LINE
  5
8C5
100
AcDbEntity
  8
0
  6
BYBLOCK
 62
     0
100
AcDbLine
 10
-1899.6469
 20
-1441.162137
 30
0.0
 11
-1899.6469
 21
-1438.662137
 31
0.0
  0
LINE
  5
8C6
100
AcDbEntity
  8
0
  6
BYBLOCK
 62
     0
100
AcDbLine
 10
-1899.6469
 20
-1454.562137
 30
0.0
 11
-1899.6469
 21
-1457.062137
 31
0.0
  0
SOLID
  5
8C7
100
AcDbEntity
  8
0
  6
BYBLOCK
 62
     0
100
AcDbTrace
 10
-1900.063567
 20
-1441.162137
 30
0.0
 11
-1899.230233
 21
-1441.162137
 31
0.0
 12
-1899.6469
 22
-1443.662137
 32
0.0
 13
-1899.6469
 23
-1443.662137
 33
0.0
  0
SOLID
  5
8C8
100
AcDbEntity
  8
0
  6
BYBLOCK
 62
     0
100
AcDbTrace
 10
-1900.063567
 20
-1454.562137
 30
0.0
 11
-1899.230233
 21
-1454.562137
 31
0.0
 12
-1899.6469
 22
-1452.062137
 32
0.0
 13
-1899.6469
 23
-1452.062137
 33
0.0
  0
MTEXT
  5
8C9
100
AcDbEntity
  8
0
  6
BYBLOCK
 62
     0
100
AcDbMText
 10
-1901.7719
 20
-1447.862137
 30
0.0
 40
3.0
 41
0.0
 71
     5
 72
     1
  1
\A1;8.4
 11
0.0
 21
1.0
 31
0.0
  0
POINT
  5
8CA
100
AcDbEntity
  8
DEFPOINTS
  6
BYBLOCK
 62
     0
100
AcDbPoint
 10
-1887.109649
 20
-1443.662137
 30
0.0
  0
POINT
  5
8CB
100
AcDbEntity
  8
DEFPOINTS
  6
BYBLOCK
 62
     0
100
AcDbPoint
 10
-1887.109649
 20
-1452.062137
 30
0.0
  0
POINT
  5
8CC
100
AcDbEntity
  8
DEFPOINTS
  6
BYBLOCK
 62
     0
100
AcDbPoint
 10
-1899.6469
 20
-1452.062137
 30
0.0
  0
ENDBLK
  5
8CD
100
AcDbEntity
  8
0
100
AcDbBlockEnd
  0
BLOCK
  5
910
100
AcDbEntity
  8
0
100
AcDbBlockBegin
  2
*D40
 70
    65
 10
0.0
 20
0.0
 30
0.0
  3
*D40
  1

  0
LINE
  5
911
100
AcDbEntity
  8
0
  6
BYBLOCK
 62
     0
100
AcDbLine
 10
-1823.751644
 20
-1573.598732
 30
0.0
 11
-1823.751644
 21
-1568.304223
 31
0.0
  0
LINE
  5
912
100
AcDbEntity
  8
0
  6
BYBLOCK
 62
     0
100
AcDbLine
 10
-1815.751644
 20
-1584.598732
 30
0.0
 11
-1815.751644
 21
-1568.304223
 31
0.0
  0
LINE
  5
913
100
AcDbEntity
  8
0
  6
BYBLOCK
 62
     0
100
AcDbLine
 10
-1826.251644
 20
-1569.554223
 30
0.0
 11
-1828.751644
 21
-1569.554223
 31
0.0
  0
LINE
  5
914
100
AcDbEntity
  8
0
  6
BYBLOCK
 62
     0
100
AcDbLine
 10
-1813.251644
 20
-1569.554223
 30
0.0
 11
-1810.751644
 21
-1569.554223
 31
0.0
  0
SOLID
  5
915
100
AcDbEntity
  8
0
  6
BYBLOCK
 62
     0
100
AcDbTrace
 10
-1826.251644
 20
-1569.137557
 30
0.0
 11
-1826.251644
 21
-1569.97089
 31
0.0
 12
-1823.751644
 22
-1569.554223
 32
0.0
 13
-1823.751644
 23
-1569.554223
 33
0.0
  0
SOLID
  5
916
100
AcDbEntity
  8
0
  6
BYBLOCK
 62
     0
100
AcDbTrace
 10
-1813.251644
 20
-1569.137557
 30
0.0
 11
-1813.251644
 21
-1569.97089
 31
0.0
 12
-1815.751644
 22
-1569.554223
 32
0.0
 13
-1815.751644
 23
-1569.554223
 33
0.0
  0
MTEXT
  5
917
100
AcDbEntity
  8
0
  6
BYBLOCK
 62
     0
100
AcDbMText
 10
-1819.751644
 20
-1567.429223
 30
0.0
 40
3.0
 41
0.0
 71
     5
 72
     1
  1
\A1;{50}
  0
POINT
  5
918
100
AcDbEntity
  8
DEFPOINTS
  6
BYBLOCK
 62
     0
100
AcDbPoint
 10
-1823.751644
 20
-1574.223732
 30
0.0
  0
POINT
  5
919
100
AcDbEntity
  8
DEFPOINTS
  6
BYBLOCK
 62
     0
100
AcDbPoint
 10
-1815.751644
 20
-1585.223732
 30
0.0
  0
POINT
  5
91A
100
AcDbEntity
  8
DEFPOINTS
  6
BYBLOCK
 62
     0
100
AcDbPoint
 10
-1815.751644
 20
-1569.554223
 30
0.0
  0
ENDBLK
  5
91B
100
AcDbEntity
  8
0
100
AcDbBlockEnd
  0
BLOCK
  5
951
100
AcDbEntity
  8
0
100
AcDbBlockBegin
  2
*D41
 70
    65
 10
0.0
 20
0.0
 30
0.0
  3
*D41
  1

  0
LINE
  5
952
100
AcDbEntity
  8
0
  6
BYBLOCK
 62
     0
100
AcDbLine
 10
-1824.376644
 20
-1582.223732
 30
0.0
 11
-1828.667375
 21
-1582.223732
 31
0.0
  0
LINE
  5
953
100
AcDbEntity
  8
0
  6
BYBLOCK
 62
     0
100
AcDbLine
 10
-1816.376644
 20
-1585.223732
 30
0.0
 11
-1828.667375
 21
-1585.223732
 31
0.0
  0
LINE
  5
954
100
AcDbEntity
  8
0
  6
BYBLOCK
 62
     0
100
AcDbLine
 10
-1827.417375
 20
-1579.723732
 30
0.0
 11
-1827.417375
 21
-1577.223732
 31
0.0
  0
LINE
  5
955
100
AcDbEntity
  8
0
  6
BYBLOCK
 62
     0
100
AcDbLine
 10
-1827.417375
 20
-1587.723732
 30
0.0
 11
-1827.417375
 21
-1590.223732
 31
0.0
  0
SOLID
  5
956
100
AcDbEntity
  8
0
  6
BYBLOCK
 62
     0
100
AcDbTrace
 10
-1827.834041
 20
-1579.723732
 30
0.0
 11
-1827.000708
 21
-1579.723732
 31
0.0
 12
-1827.417375
 22
-1582.223732
 32
0.0
 13
-1827.417375
 23
-1582.223732
 33
0.0
  0
SOLID
  5
957
100
AcDbEntity
  8
0
  6
BYBLOCK
 62
     0
100
AcDbTrace
 10
-1827.834041
 20
-1587.723732
 30
0.0
 11
-1827.000708
 21
-1587.723732
 31
0.0
 12
-1827.417375
 22
-1585.223732
 32
0.0
 13
-1827.417375
 23
-1585.223732
 33
0.0
  0
MTEXT
  5
958
100
AcDbEntity
  8
0
  6
BYBLOCK
 62
     0
100
AcDbMText
 10
-1829.542375
 20
-1583.723732
 30
0.0
 40
3.0
 41
0.0
 71
     5
 72
     1
  1
\A1;{=}
 11
0.0
 21
1.0
 31
0.0
  0
POINT
  5
959
100
AcDbEntity
  8
DEFPOINTS
  6
BYBLOCK
 62
     0
100
AcDbPoint
 10
-1823.751644
 20
-1582.223732
 30
0.0
  0
POINT
  5
95A
100
AcDbEntity
  8
DEFPOINTS
  6
BYBLOCK
 62
     0
100
AcDbPoint
 10
-1815.751644
 20
-1585.223732
 30
0.0
  0
POINT
  5
95B
100
AcDbEntity
  8
DEFPOINTS
  6
BYBLOCK
 62
     0
100
AcDbPoint
 10
-1827.417375
 20
-1585.223732
 30
0.0
  0
ENDBLK
  5
95C
100
AcDbEntity
  8
0
100
AcDbBlockEnd
  0
BLOCK
  5
975
100
AcDbEntity
  8
0
100
AcDbBlockBegin
  2
*D42
 70
    65
 10
0.0
 20
0.0
 30
0.0
  3
*D42
  1

  0
LINE
  5
976
100
AcDbEntity
  8
0
  6
BYBLOCK
 62
     0
100
AcDbLine
 10
-1816.376644
 20
-1589.223732
 30
0.0
 11
-1828.667375
 21
-1589.223732
 31
0.0
  0
LINE
  5
977
100
AcDbEntity
  8
0
  6
BYBLOCK
 62
     0
100
AcDbLine
 10
-1824.376644
 20
-1592.223732
 30
0.0
 11
-1828.667375
 21
-1592.223732
 31
0.0
  0
LINE
  5
978
100
AcDbEntity
  8
0
  6
BYBLOCK
 62
     0
100
AcDbLine
 10
-1827.417375
 20
-1586.723732
 30
0.0
 11
-1827.417375
 21
-1584.223732
 31
0.0
  0
LINE
  5
979
100
AcDbEntity
  8
0
  6
BYBLOCK
 62
     0
100
AcDbLine
 10
-1827.417375
 20
-1594.723732
 30
0.0
 11
-1827.417375
 21
-1597.223732
 31
0.0
  0
SOLID
  5
97A
100
AcDbEntity
  8
0
  6
BYBLOCK
 62
     0
100
AcDbTrace
 10
-1827.834041
 20
-1586.723732
 30
0.0
 11
-1827.000708
 21
-1586.723732
 31
0.0
 12
-1827.417375
 22
-1589.223732
 32
0.0
 13
-1827.417375
 23
-1589.223732
 33
0.0
  0
SOLID
  5
97B
100
AcDbEntity
  8
0
  6
BYBLOCK
 62
     0
100
AcDbTrace
 10
-1827.834041
 20
-1594.723732
 30
0.0
 11
-1827.000708
 21
-1594.723732
 31
0.0
 12
-1827.417375
 22
-1592.223732
 32
0.0
 13
-1827.417375
 23
-1592.223732
 33
0.0
  0
MTEXT
  5
97C
100
AcDbEntity
  8
0
  6
BYBLOCK
 62
     0
100
AcDbMText
 10
-1829.542375
 20
-1590.723732
 30
0.0
 40
3.0
 41
0.0
 71
     5
 72
     1
  1
\A1;{=}
 11
0.0
 21
1.0
 31
0.0
  0
POINT
  5
97D
100
AcDbEntity
  8
DEFPOINTS
  6
BYBLOCK
 62
     0
100
AcDbPoint
 10
-1815.751644
 20
-1589.223732
 30
0.0
  0
POINT
  5
97E
100
AcDbEntity
  8
DEFPOINTS
  6
BYBLOCK
 62
     0
100
AcDbPoint
 10
-1823.751644
 20
-1592.223732
 30
0.0
  0
POINT
  5
97F
100
AcDbEntity
  8
DEFPOINTS
  6
BYBLOCK
 62
     0
100
AcDbPoint
 10
-1827.417375
 20
-1592.223732
 30
0.0
  0
ENDBLK
  5
980
100
AcDbEntity
  8
0
100
AcDbBlockEnd
  0
BLOCK
  5
CA6
100
AcDbEntity
  8
0
100
AcDbBlockBegin
  2
*D43
 70
    65
 10
0.0
 20
0.0
 30
0.0
  3
*D43
  1

  0
LINE
  5
CA7
100
AcDbEntity
  8
0
  6
BYBLOCK
 62
     0
100
AcDbLine
 10
-1528.418135
 20
-1507.662137
 30
0.0
 11
-1623.806984
 21
-1527.841766
 31
0.0
  0
SOLID
  5
CA8
100
AcDbEntity
  8
0
  6
BYBLOCK
 62
     0
100
AcDbTrace
 10
-1623.893222
 20
-1527.434122
 30
0.0
 11
-1623.720746
 21
-1528.249411
 31
0.0
 12
-1626.252852
 22
-1528.359193
 32
0.0
 13
-1626.252852
 23
-1528.359193
 33
0.0
  0
MTEXT
  5
CA9
100
AcDbEntity
  8
0
  6
BYBLOCK
 62
     0
100
AcDbMText
 10
-1567.168291
 20
-1513.68775
 30
0.0
 40
3.0
 41
0.0
 71
     5
 72
     1
  1
\A1;R100
 11
0.978347
 21
0.206971
 31
0.0
  0
POINT
  5
CAA
100
AcDbEntity
  8
DEFPOINTS
  6
BYBLOCK
 62
     0
100
AcDbPoint
 10
-1626.252852
 20
-1528.359193
 30
0.0
  0
POINT
  5
CAB
100
AcDbEntity
  8
DEFPOINTS
  6
BYBLOCK
 62
     0
100
AcDbPoint
 10
-1528.418135
 20
-1507.662137
 30
0.0
  0
ENDBLK
  5
CAC
100
AcDbEntity
  8
0
100
AcDbBlockEnd
  0
BLOCK
  5
AA8
100
AcDbEntity
  8
0
100
AcDbBlockBegin
  2
*D44
 70
    65
 10
0.0
 20
0.0
 30
0.0
  3
*D44
  1

  0
LINE
  5
AA9
100
AcDbEntity
  8
0
  6
BYBLOCK
 62
     0
100
AcDbLine
 10
-1866.609649
 20
-1508.287137
 30
0.0
 11
-1866.609649
 21
-1510.078273
 31
0.0
  0
LINE
  5
AAA
100
AcDbEntity
  8
0
  6
BYBLOCK
 62
     0
100
AcDbLine
 10
-1867.609649
 20
-1505.070276
 30
0.0
 11
-1867.609649
 21
-1510.078273
 31
0.0
  0
LINE
  5
AAB
100
AcDbEntity
  8
0
  6
BYBLOCK
 62
     0
100
AcDbLine
 10
-1864.109649
 20
-1508.828273
 30
0.0
 11
-1861.609649
 21
-1508.828273
 31
0.0
  0
LINE
  5
AAC
100
AcDbEntity
  8
0
  6
BYBLOCK
 62
     0
100
AcDbLine
 10
-1870.109649
 20
-1508.828273
 30
0.0
 11
-1874.519649
 21
-1508.828273
 31
0.0
  0
SOLID
  5
AAD
100
AcDbEntity
  8
0
  6
BYBLOCK
 62
     0
100
AcDbTrace
 10
-1864.109649
 20
-1508.411606
 30
0.0
 11
-1864.109649
 21
-1509.244939
 31
0.0
 12
-1866.609649
 22
-1508.828273
 32
0.0
 13
-1866.609649
 23
-1508.828273
 33
0.0
  0
SOLID
  5
AAE
100
AcDbEntity
  8
0
  6
BYBLOCK
 62
     0
100
AcDbTrace
 10
-1870.109649
 20
-1508.411606
 30
0.0
 11
-1870.109649
 21
-1509.244939
 31
0.0
 12
-1867.609649
 22
-1508.828273
 32
0.0
 13
-1867.609649
 23
-1508.828273
 33
0.0
  0
MTEXT
  5
AAF
100
AcDbEntity
  8
0
  6
BYBLOCK
 62
     0
100
AcDbMText
 10
-1873.564649
 20
-1506.703273
 30
0.0
 40
3.0
 41
0.0
 71
     5
 72
     1
  1
\A1;1
  0
POINT
  5
AB0
100
AcDbEntity
  8
DEFPOINTS
  6
BYBLOCK
 62
     0
100
AcDbPoint
 10
-1866.609649
 20
-1507.662137
 30
0.0
  0
POINT
  5
AB1
100
AcDbEntity
  8
DEFPOINTS
  6
BYBLOCK
 62
     0
100
AcDbPoint
 10
-1867.609649
 20
-1504.445276
 30
0.0
  0
POINT
  5
AB2
100
AcDbEntity
  8
DEFPOINTS
  6
BYBLOCK
 62
     0
100
AcDbPoint
 10
-1867.609649
 20
-1508.828273
 30
0.0
  0
ENDBLK
  5
AB3
100
AcDbEntity
  8
0
100
AcDbBlockEnd
  0
BLOCK
  5
BE7
100
AcDbEntity
  8
0
100
AcDbBlockBegin
  2
*D45
 70
    65
 10
0.0
 20
0.0
 30
0.0
  3
*D45
  1

  0
LINE
  5
BE8
100
AcDbEntity
  8
0
  6
BYBLOCK
 62
     0
100
AcDbLine
 10
-1649.668135
 20
-1427.287137
 30
0.0
 11
-1649.668135
 21
-1402.31125
 31
0.0
  0
LINE
  5
BE9
100
AcDbEntity
  8
0
  6
BYBLOCK
 62
     0
100
AcDbLine
 10
-1636.168135
 20
-1427.287137
 30
0.0
 11
-1636.168135
 21
-1402.31125
 31
0.0
  0
LINE
  5
BEA
100
AcDbEntity
  8
0
  6
BYBLOCK
 62
     0
100
AcDbLine
 10
-1638.668135
 20
-1403.56125
 30
0.0
 11
-1647.168135
 21
-1403.56125
 31
0.0
  0
LINE
  5
BEB
100
AcDbEntity
  8
0
  6
BYBLOCK
 62
     0
100
AcDbLine
 10
-1649.668135
 20
-1403.56125
 30
0.0
 11
-1665.105307
 21
-1403.56125
 31
0.0
  0
SOLID
  5
BEC
100
AcDbEntity
  8
0
  6
BYBLOCK
 62
     0
100
AcDbTrace
 10
-1638.668135
 20
-1403.144584
 30
0.0
 11
-1638.668135
 21
-1403.977917
 31
0.0
 12
-1636.168135
 22
-1403.56125
 32
0.0
 13
-1636.168135
 23
-1403.56125
 33
0.0
  0
SOLID
  5
BED
100
AcDbEntity
  8
0
  6
BYBLOCK
 62
     0
100
AcDbTrace
 10
-1647.168135
 20
-1403.144584
 30
0.0
 11
-1647.168135
 21
-1403.977917
 31
0.0
 12
-1649.668135
 22
-1403.56125
 32
0.0
 13
-1649.668135
 23
-1403.56125
 33
0.0
  0
MTEXT
  5
BEE
100
AcDbEntity
  8
0
  6
BYBLOCK
 62
     0
100
AcDbMText
 10
-1657.715307
 20
-1401.43625
 30
0.0
 40
3.0
 41
0.0
 71
     5
 72
     1
  1
\A1;13.5±0.1
  0
POINT
  5
BEF
100
AcDbEntity
  8
DEFPOINTS
  6
BYBLOCK
 62
     0
100
AcDbPoint
 10
-1649.668135
 20
-1427.912137
 30
0.0
  0
POINT
  5
BF0
100
AcDbEntity
  8
DEFPOINTS
  6
BYBLOCK
 62
     0
100
AcDbPoint
 10
-1636.168135
 20
-1427.912137
 30
0.0
  0
POINT
  5
BF1
100
AcDbEntity
  8
DEFPOINTS
  6
BYBLOCK
 62
     0
100
AcDbPoint
 10
-1636.168135
 20
-1403.56125
 30
0.0
  0
ENDBLK
  5
BF2
100
AcDbEntity
  8
0
100
AcDbBlockEnd
  0
BLOCK
  5
C0B
100
AcDbEntity
  8
0
100
AcDbBlockBegin
  2
*D46
 70
    65
 10
0.0
 20
0.0
 30
0.0
  3
*D46
  1

  0
LINE
  5
C0C
100
AcDbEntity
  8
0
  6
BYBLOCK
 62
     0
100
AcDbLine
 10
-1636.168135
 20
-1427.287137
 30
0.0
 11
-1636.168135
 21
-1402.31125
 31
0.0
  0
LINE
  5
C0D
100
AcDbEntity
  8
0
  6
BYBLOCK
 62
     0
100
AcDbLine
 10
-1629.418135
 20
-1410.877311
 30
0.0
 11
-1629.418135
 21
-1402.31125
 31
0.0
  0
LINE
  5
C0E
100
AcDbEntity
  8
0
  6
BYBLOCK
 62
     0
100
AcDbLine
 10
-1633.668135
 20
-1403.56125
 30
0.0
 11
-1631.918135
 21
-1403.56125
 31
0.0
  0
LINE
  5
C0F
100
AcDbEntity
  8
0
  6
BYBLOCK
 62
     0
100
AcDbLine
 10
-1629.418135
 20
-1403.56125
 30
0.0
 11
-1600.673344
 21
-1403.56125
 31
0.0
  0
SOLID
  5
C10
100
AcDbEntity
  8
0
  6
BYBLOCK
 62
     0
100
AcDbTrace
 10
-1633.668135
 20
-1403.144584
 30
0.0
 11
-1633.668135
 21
-1403.977917
 31
0.0
 12
-1636.168135
 22
-1403.56125
 32
0.0
 13
-1636.168135
 23
-1403.56125
 33
0.0
  0
SOLID
  5
C11
100
AcDbEntity
  8
0
  6
BYBLOCK
 62
     0
100
AcDbTrace
 10
-1631.918135
 20
-1403.144584
 30
0.0
 11
-1631.918135
 21
-1403.977917
 31
0.0
 12
-1629.418135
 22
-1403.56125
 32
0.0
 13
-1629.418135
 23
-1403.56125
 33
0.0
  0
MTEXT
  5
C12
100
AcDbEntity
  8
0
  6
BYBLOCK
 62
     0
100
AcDbMText
 10
-1609.009021
 20
-1401.43625
 30
0.0
 40
3.0
 41
0.0
 71
     5
 72
     1
  1
\A2;6.75{\H2.400000;±0.05}
  0
POINT
  5
C13
100
AcDbEntity
  8
DEFPOINTS
  6
BYBLOCK
 62
     0
100
AcDbPoint
 10
-1636.168135
 20
-1427.912137
 30
0.0
  0
POINT
  5
C14
100
AcDbEntity
  8
DEFPOINTS
  6
BYBLOCK
 62
     0
100
AcDbPoint
 10
-1629.418135
 20
-1411.502311
 30
0.0
  0
POINT
  5
C15
100
AcDbEntity
  8
DEFPOINTS
  6
BYBLOCK
 62
     0
100
AcDbPoint
 10
-1629.418135
 20
-1403.56125
 30
0.0
  0
ENDBLK
  5
C16
100
AcDbEntity
  8
0
100
AcDbBlockEnd
  0
BLOCK
  5
D73
100
AcDbEntity
  8
0
100
AcDbBlockBegin
  2
*D48
 70
    65
 10
0.0
 20
0.0
 30
0.0
  3
*D48
  1

  0
LINE
  5
D74
100
AcDbEntity
  8
0
  6
BYBLOCK
 62
     0
100
AcDbLine
 10
-1630.260368
 20
-1561.787137
 30
0.0
 11
-1630.260368
 21
-1580.719703
 31
0.0
  0
LINE
  5
D75
100
AcDbEntity
  8
0
  6
BYBLOCK
 62
     0
100
AcDbLine
 10
-1628.575901
 20
-1561.787137
 30
0.0
 11
-1628.575901
 21
-1580.719703
 31
0.0
  0
LINE
  5
D76
100
AcDbEntity
  8
0
  6
BYBLOCK
 62
     0
100
AcDbLine
 10
-1632.760368
 20
-1579.469703
 30
0.0
 11
-1635.260368
 21
-1579.469703
 31
0.0
  0
LINE
  5
D77
100
AcDbEntity
  8
0
  6
BYBLOCK
 62
     0
100
AcDbLine
 10
-1626.075901
 20
-1579.469703
 30
0.0
 11
-1607.805901
 21
-1579.469703
 31
0.0
  0
SOLID
  5
D78
100
AcDbEntity
  8
0
  6
BYBLOCK
 62
     0
100
AcDbTrace
 10
-1632.760368
 20
-1579.053036
 30
0.0
 11
-1632.760368
 21
-1579.886369
 31
0.0
 12
-1630.260368
 22
-1579.469703
 32
0.0
 13
-1630.260368
 23
-1579.469703
 33
0.0
  0
SOLID
  5
D79
100
AcDbEntity
  8
0
  6
BYBLOCK
 62
     0
100
AcDbTrace
 10
-1626.075901
 20
-1579.053036
 30
0.0
 11
-1626.075901
 21
-1579.886369
 31
0.0
 12
-1628.575901
 22
-1579.469703
 32
0.0
 13
-1628.575901
 23
-1579.469703
 33
0.0
  0
MTEXT
  5
D7A
100
AcDbEntity
  8
0
  6
BYBLOCK
 62
     0
100
AcDbMText
 10
-1615.690901
 20
-1575.493522
 30
0.0
 40
3.0
 41
0.0
 71
     5
 72
     1
  1
\A1;1.68\S+0.1^  0;
  0
POINT
  5
D7B
100
AcDbEntity
  8
DEFPOINTS
  6
BYBLOCK
 62
     0
100
AcDbPoint
 10
-1630.260368
 20
-1561.162137
 30
0.0
  0
POINT
  5
D7C
100
AcDbEntity
  8
DEFPOINTS
  6
BYBLOCK
 62
     0
100
AcDbPoint
 10
-1628.575901
 20
-1561.162137
 30
0.0
  0
POINT
  5
D7D
100
AcDbEntity
  8
DEFPOINTS
  6
BYBLOCK
 62
     0
100
AcDbPoint
 10
-1628.575901
 20
-1579.469703
 30
0.0
  0
ENDBLK
  5
D7E
100
AcDbEntity
  8
0
100
AcDbBlockEnd
  0
BLOCK
  5
C3C
100
AcDbEntity
  8
0
100
AcDbBlockBegin
  2
*D49
 70
    65
 10
0.0
 20
0.0
 30
0.0
  3
*D49
  1

  0
LINE
  5
C3D
100
AcDbEntity
  8
0
  6
BYBLOCK
 62
     0
100
AcDbLine
 10
-1629.579897
 20
-1564.909099
 30
0.0
 11
-1636.167919
 21
-1589.495934
 31
0.0
  0
LINE
  5
C3E
100
AcDbEntity
  8
0
  6
BYBLOCK
 62
     0
100
AcDbLine
 10
-1629.256373
 20
-1564.909099
 30
0.0
 11
-1622.66835
 21
-1589.495934
 31
0.0
  0
ARC
  5
C3F
100
AcDbEntity
  8
0
  6
BYBLOCK
 62
     0
100
AcDbCircle
 10
-1629.418135
 20
-1564.305395
 30
0.0
 40
24.829165
100
AcDbArc
 50
260.77144
 51
279.22856
  0
SOLID
  5
C40
100
AcDbEntity
  8
0
  6
BYBLOCK
 62
     0
100
AcDbTrace
 10
-1633.487511
 20
-1589.22057
 30
0.0
 11
-1633.312625
 21
-1588.405794
 31
0.0
 12
-1635.844395
 22
-1588.288527
 32
0.0
 13
-1635.844395
 23
-1588.288527
 33
0.0
  0
SOLID
  5
C41
100
AcDbEntity
  8
0
  6
BYBLOCK
 62
     0
100
AcDbTrace
 10
-1625.523644
 20
-1588.405794
 30
0.0
 11
-1625.348759
 21
-1589.22057
 31
0.0
 12
-1622.991874
 22
-1588.288527
 32
0.0
 13
-1622.991874
 23
-1588.288527
 33
0.0
  0
MTEXT
  5
C42
100
AcDbEntity
  8
0
  6
BYBLOCK
 62
     0
100
AcDbMText
 10
-1629.418135
 20
-1587.00956
 30
0.0
 40
3.0
 41
0.0
 71
     5
 72
     1
  1
\A1;30°
  0
POINT
  5
C43
100
AcDbEntity
  8
DEFPOINTS
  6
BYBLOCK
 62
     0
100
AcDbPoint
 10
-1631.582139
 20
-1589.040078
 30
0.0
  0
POINT
  5
C44
100
AcDbEntity
  8
DEFPOINTS
  6
BYBLOCK
 62
     0
100
AcDbPoint
 10
-1630.260368
 20
-1561.162137
 30
0.0
  0
POINT
  5
C45
100
AcDbEntity
  8
DEFPOINTS
  6
BYBLOCK
 62
     0
100
AcDbPoint
 10
-1628.575901
 20
-1561.162137
 30
0.0
  0
POINT
  5
C46
100
AcDbEntity
  8
DEFPOINTS
  6
BYBLOCK
 62
     0
100
AcDbPoint
 10
-1623.168135
 20
-1540.980078
 30
0.0
  0
POINT
  5
C47
100
AcDbEntity
  8
DEFPOINTS
  6
BYBLOCK
 62
     0
100
AcDbPoint
 10
-1635.665622
 20
-1540.989455
 30
0.0
  0
ENDBLK
  5
C48
100
AcDbEntity
  8
0
100
AcDbBlockEnd
  0
BLOCK
  5
C4B
100
AcDbEntity
  8
0
100
AcDbBlockBegin
  2
*D50
 70
    65
 10
0.0
 20
0.0
 30
0.0
  3
*D50
  1

  0
LINE
  5
C4C
100
AcDbEntity
  8
0
  6
BYBLOCK
 62
     0
100
AcDbLine
 10
-1630.885368
 20
-1561.162137
 30
0.0
 11
-1654.976379
 21
-1561.162137
 31
0.0
  0
LINE
  5
C4D
100
AcDbEntity
  8
0
  6
BYBLOCK
 62
     0
100
AcDbLine
 10
-1636.290622
 20
-1540.989455
 30
0.0
 11
-1654.976379
 21
-1540.989455
 31
0.0
  0
LINE
  5
C4E
100
AcDbEntity
  8
0
  6
BYBLOCK
 62
     0
100
AcDbLine
 10
-1653.726379
 20
-1558.662137
 30
0.0
 11
-1653.726379
 21
-1543.489455
 31
0.0
  0
SOLID
  5
C4F
100
AcDbEntity
  8
0
  6
BYBLOCK
 62
     0
100
AcDbTrace
 10
-1654.143046
 20
-1558.662137
 30
0.0
 11
-1653.309712
 21
-1558.662137
 31
0.0
 12
-1653.726379
 22
-1561.162137
 32
0.0
 13
-1653.726379
 23
-1561.162137
 33
0.0
  0
SOLID
  5
C50
100
AcDbEntity
  8
0
  6
BYBLOCK
 62
     0
100
AcDbTrace
 10
-1654.143046
 20
-1543.489455
 30
0.0
 11
-1653.309712
 21
-1543.489455
 31
0.0
 12
-1653.726379
 22
-1540.989455
 32
0.0
 13
-1653.726379
 23
-1540.989455
 33
0.0
  0
MTEXT
  5
C51
100
AcDbEntity
  8
0
  6
BYBLOCK
 62
     0
100
AcDbMText
 10
-1655.851379
 20
-1551.075796
 30
0.0
 40
3.0
 41
0.0
 71
     5
 72
     1
  1
\A1;20.17
 11
0.0
 21
1.0
 31
0.0
  0
POINT
  5
C52
100
AcDbEntity
  8
DEFPOINTS
  6
BYBLOCK
 62
     0
100
AcDbPoint
 10
-1630.260368
 20
-1561.162137
 30
0.0
  0
POINT
  5
C53
100
AcDbEntity
  8
DEFPOINTS
  6
BYBLOCK
 62
     0
100
AcDbPoint
 10
-1635.665622
 20
-1540.989455
 30
0.0
  0
POINT
  5
C54
100
AcDbEntity
  8
DEFPOINTS
  6
BYBLOCK
 62
     0
100
AcDbPoint
 10
-1653.726379
 20
-1540.989455
 30
0.0
  0
ENDBLK
  5
C55
100
AcDbEntity
  8
0
100
AcDbBlockEnd
  0
BLOCK
  5
C58
100
AcDbEntity
  8
0
100
AcDbBlockBegin
  2
*D51
 70
    65
 10
0.0
 20
0.0
 30
0.0
  3
*D51
  1

  0
LINE
  5
C59
100
AcDbEntity
  8
0
  6
BYBLOCK
 62
     0
100
AcDbLine
 10
-1635.978122
 20
-1541.530721
 30
0.0
 11
-1641.387248
 21
-1550.899602
 31
0.0
  0
ARC
  5
C5A
100
AcDbEntity
  8
0
  6
BYBLOCK
 62
     0
100
AcDbCircle
 10
-1634.711028
 20
-1539.336049
 30
0.0
 40
12.10244
100
AcDbArc
 50
116.856729
 51
228.143271
  0
SOLID
  5
C5B
100
AcDbEntity
  8
0
  6
BYBLOCK
 62
     0
100
AcDbTrace
 10
-1640.327273
 20
-1528.149813
 30
0.0
 11
-1640.029606
 21
-1528.928169
 31
0.0
 12
-1637.84337
 22
-1527.64599
 32
0.0
 13
-1637.84337
 23
-1527.64599
 33
0.0
  0
SOLID
  5
C5C
100
AcDbEntity
  8
0
  6
BYBLOCK
 62
     0
100
AcDbTrace
 10
-1642.542137
 20
-1548.012741
 30
0.0
 11
-1643.031115
 21
-1548.687533
 31
0.0
 12
-1640.762248
 22
-1549.81707
 32
0.0
 13
-1640.762248
 23
-1549.81707
 33
0.0
  0
MTEXT
  5
C5D
100
AcDbEntity
  8
0
  6
BYBLOCK
 62
     0
100
AcDbMText
 10
-1648.81675
 20
-1537.478996
 30
0.0
 40
3.0
 41
0.0
 71
     5
 72
     1
  1
\A1;135°
 11
0.130526
 21
0.991445
 31
0.0
  0
POINT
  5
C5E
100
AcDbEntity
  8
DEFPOINTS
  6
BYBLOCK
 62
     0
100
AcDbPoint
 10
-1645.192049
 20
-1533.284829
 30
0.0
  0
POINT
  5
C5F
100
AcDbEntity
  8
DEFPOINTS
  6
BYBLOCK
 62
     0
100
AcDbPoint
 10
-1635.665622
 20
-1540.989455
 30
0.0
  0
POINT
  5
C60
100
AcDbEntity
  8
DEFPOINTS
  6
BYBLOCK
 62
     0
100
AcDbPoint
 10
-1634.711028
 20
-1539.336049
 30
0.0
  0
POINT
  5
C61
100
AcDbEntity
  8
DEFPOINTS
  6
BYBLOCK
 62
     0
100
AcDbPoint
 10
-1649.668135
 20
-1483.515367
 30
0.0
  0
POINT
  5
C62
100
AcDbEntity
  8
DEFPOINTS
  6
BYBLOCK
 62
     0
100
AcDbPoint
 10
-1634.711028
 20
-1539.336049
 30
0.0
  0
ENDBLK
  5
C63
100
AcDbEntity
  8
0
100
AcDbBlockEnd
  0
BLOCK
  5
C73
100
AcDbEntity
  8
0
100
AcDbBlockBegin
  2
*D52
 70
    65
 10
0.0
 20
0.0
 30
0.0
  3
*D52
  1

  0
LINE
  5
C74
100
AcDbEntity
  8
0
  6
BYBLOCK
 62
     0
100
AcDbLine
 10
-1635.827384
 20
-1540.385751
 30
0.0
 11
-1640.962627
 21
-1521.220764
 31
0.0
  0
LINE
  5
C75
100
AcDbEntity
  8
0
  6
BYBLOCK
 62
     0
100
AcDbLine
 10
-1634.523384
 20
-1540.036346
 30
0.0
 11
-1639.658627
 21
-1520.871358
 31
0.0
  0
LINE
  5
C76
100
AcDbEntity
  8
0
  6
BYBLOCK
 62
     0
100
AcDbLine
 10
-1636.920289
 20
-1521.431718
 30
0.0
 11
-1634.505474
 21
-1520.78467
 31
0.0
  0
LINE
  5
C77
100
AcDbEntity
  8
0
  6
BYBLOCK
 62
     0
100
AcDbLine
 10
-1643.053918
 20
-1523.075219
 30
0.0
 11
-1653.787955
 21
-1525.951395
 31
0.0
  0
SOLID
  5
C78
100
AcDbEntity
  8
0
  6
BYBLOCK
 62
     0
100
AcDbTrace
 10
-1637.02813
 20
-1521.029249
 30
0.0
 11
-1636.812447
 21
-1521.834187
 31
0.0
 12
-1639.335103
 22
-1522.078766
 32
0.0
 13
-1639.335103
 23
-1522.078766
 33
0.0
  0
SOLID
  5
C79
100
AcDbEntity
  8
0
  6
BYBLOCK
 62
     0
100
AcDbTrace
 10
-1643.161759
 20
-1522.67275
 30
0.0
 11
-1642.946076
 21
-1523.477688
 31
0.0
 12
-1640.639103
 22
-1522.428171
 32
0.0
 13
-1640.639103
 23
-1522.428171
 33
0.0
  0
MTEXT
  5
C7A
100
AcDbEntity
  8
0
  6
BYBLOCK
 62
     0
100
AcDbMText
 10
-1650.640048
 20
-1522.907954
 30
0.0
 40
3.0
 41
0.0
 71
     5
 72
     1
  1
\A1;1.35
 11
0.965926
 21
0.258819
 31
0.0
  0
POINT
  5
C7B
100
AcDbEntity
  8
DEFPOINTS
  6
BYBLOCK
 62
     0
100
AcDbPoint
 10
-1635.665622
 20
-1540.989455
 30
0.0
  0
POINT
  5
C7C
100
AcDbEntity
  8
DEFPOINTS
  6
BYBLOCK
 62
     0
100
AcDbPoint
 10
-1634.361622
 20
-1540.640049
 30
0.0
  0
POINT
  5
C7D
100
AcDbEntity
  8
DEFPOINTS
  6
BYBLOCK
 62
     0
100
AcDbPoint
 10
-1639.335103
 20
-1522.078766
 30
0.0
  0
ENDBLK
  5
C7E
100
AcDbEntity
  8
0
100
AcDbBlockEnd
  0
BLOCK
  5
CD9
100
AcDbEntity
  8
0
100
AcDbBlockBegin
  2
*D53
 70
    65
 10
0.0
 20
0.0
 30
0.0
  3
*D53
  1

  0
LINE
  5
CDA
100
AcDbEntity
  8
0
  6
BYBLOCK
 62
     0
100
AcDbLine
 10
-1624.043135
 20
-1456.362137
 30
0.0
 11
-1589.832353
 21
-1456.362137
 31
0.0
  0
LINE
  5
CDB
100
AcDbEntity
  8
0
  6
BYBLOCK
 62
     0
100
AcDbLine
 10
-1627.950901
 20
-1561.162137
 30
0.0
 11
-1589.832353
 21
-1561.162137
 31
0.0
  0
LINE
  5
CDC
100
AcDbEntity
  8
0
  6
BYBLOCK
 62
     0
100
AcDbLine
 10
-1591.082353
 20
-1458.862137
 30
0.0
 11
-1591.082353
 21
-1558.662137
 31
0.0
  0
SOLID
  5
CDD
100
AcDbEntity
  8
0
  6
BYBLOCK
 62
     0
100
AcDbTrace
 10
-1591.49902
 20
-1458.862137
 30
0.0
 11
-1590.665686
 21
-1458.862137
 31
0.0
 12
-1591.082353
 22
-1456.362137
 32
0.0
 13
-1591.082353
 23
-1456.362137
 33
0.0
  0
SOLID
  5
CDE
100
AcDbEntity
  8
0
  6
BYBLOCK
 62
     0
100
AcDbTrace
 10
-1591.49902
 20
-1558.662137
 30
0.0
 11
-1590.665686
 21
-1558.662137
 31
0.0
 12
-1591.082353
 22
-1561.162137
 32
0.0
 13
-1591.082353
 23
-1561.162137
 33
0.0
  0
MTEXT
  5
CDF
100
AcDbEntity
  8
0
  6
BYBLOCK
 62
     0
100
AcDbMText
 10
-1595.058534
 20
-1508.762137
 30
0.0
 40
3.0
 41
0.0
 71
     5
 72
     1
  1
\A1;104.8\S+0.1^  0;
 11
0.0
 21
1.0
 31
0.0
  0
POINT
  5
CE0
100
AcDbEntity
  8
DEFPOINTS
  6
BYBLOCK
 62
     0
100
AcDbPoint
 10
-1624.668135
 20
-1456.362137
 30
0.0
  0
POINT
  5
CE1
100
AcDbEntity
  8
DEFPOINTS
  6
BYBLOCK
 62
     0
100
AcDbPoint
 10
-1628.575901
 20
-1561.162137
 30
0.0
  0
POINT
  5
CE2
100
AcDbEntity
  8
DEFPOINTS
  6
BYBLOCK
 62
     0
100
AcDbPoint
 10
-1591.082353
 20
-1561.162137
 30
0.0
  0
ENDBLK
  5
CE3
100
AcDbEntity
  8
0
100
AcDbBlockEnd
  0
BLOCK
  5
CFA
100
AcDbEntity
  8
0
100
AcDbBlockBegin
  2
*D54
 70
    65
 10
0.0
 20
0.0
 30
0.0
  3
*D54
  1

  0
LINE
  5
CFB
100
AcDbEntity
  8
0
  6
BYBLOCK
 62
     0
100
AcDbLine
 10
-1636.793135
 20
-1426.662137
 30
0.0
 11
-1590.234695
 21
-1426.662137
 31
0.0
  0
LINE
  5
CFC
100
AcDbEntity
  8
0
  6
BYBLOCK
 62
     0
100
AcDbLine
 10
-1624.043135
 20
-1456.362137
 30
0.0
 11
-1590.234695
 21
-1456.362137
 31
0.0
  0
LINE
  5
CFD
100
AcDbEntity
  8
0
  6
BYBLOCK
 62
     0
100
AcDbLine
 10
-1591.484695
 20
-1429.162137
 30
0.0
 11
-1591.484695
 21
-1453.862137
 31
0.0
  0
SOLID
  5
CFE
100
AcDbEntity
  8
0
  6
BYBLOCK
 62
     0
100
AcDbTrace
 10
-1591.901361
 20
-1429.162137
 30
0.0
 11
-1591.068028
 21
-1429.162137
 31
0.0
 12
-1591.484695
 22
-1426.662137
 32
0.0
 13
-1591.484695
 23
-1426.662137
 33
0.0
  0
SOLID
  5
CFF
100
AcDbEntity
  8
0
  6
BYBLOCK
 62
     0
100
AcDbTrace
 10
-1591.901361
 20
-1453.862137
 30
0.0
 11
-1591.068028
 21
-1453.862137
 31
0.0
 12
-1591.484695
 22
-1456.362137
 32
0.0
 13
-1591.484695
 23
-1456.362137
 33
0.0
  0
MTEXT
  5
D00
100
AcDbEntity
  8
0
  6
BYBLOCK
 62
     0
100
AcDbMText
 10
-1595.460876
 20
-1438.358531
 30
0.0
 40
3.0
 41
0.0
 71
     5
 72
     1
  1
\A1;29.7\S-0.1^  0;
 11
0.0
 21
1.0
 31
0.0
  0
POINT
  5
D01
100
AcDbEntity
  8
DEFPOINTS
  6
BYBLOCK
 62
     0
100
AcDbPoint
 10
-1637.418135
 20
-1426.662137
 30
0.0
  0
POINT
  5
D02
100
AcDbEntity
  8
DEFPOINTS
  6
BYBLOCK
 62
     0
100
AcDbPoint
 10
-1624.668135
 20
-1456.362137
 30
0.0
  0
POINT
  5
D03
100
AcDbEntity
  8
DEFPOINTS
  6
BYBLOCK
 62
     0
100
AcDbPoint
 10
-1591.484695
 20
-1456.362137
 30
0.0
  0
ENDBLK
  5
D04
100
AcDbEntity
  8
0
100
AcDbBlockEnd
  0
BLOCK
  5
CC3
100
AcDbEntity
  8
0
100
AcDbBlockBegin
  2
*D55
 70
    65
 10
0.0
 20
0.0
 30
0.0
  3
*D55
  1

  0
LINE
  5
CC4
100
AcDbEntity
  8
0
  6
BYBLOCK
 62
     0
100
AcDbLine
 10
-1636.793135
 20
-1426.662137
 30
0.0
 11
-1579.5554
 21
-1426.662137
 31
0.0
  0
LINE
  5
CC5
100
AcDbEntity
  8
0
  6
BYBLOCK
 62
     0
100
AcDbLine
 10
-1627.950901
 20
-1561.162137
 30
0.0
 11
-1579.5554
 21
-1561.162137
 31
0.0
  0
LINE
  5
CC6
100
AcDbEntity
  8
0
  6
BYBLOCK
 62
     0
100
AcDbLine
 10
-1580.8054
 20
-1429.162137
 30
0.0
 11
-1580.8054
 21
-1558.662137
 31
0.0
  0
SOLID
  5
CC7
100
AcDbEntity
  8
0
  6
BYBLOCK
 62
     0
100
AcDbTrace
 10
-1581.222066
 20
-1429.162137
 30
0.0
 11
-1580.388733
 21
-1429.162137
 31
0.0
 12
-1580.8054
 22
-1426.662137
 32
0.0
 13
-1580.8054
 23
-1426.662137
 33
0.0
  0
SOLID
  5
CC8
100
AcDbEntity
  8
0
  6
BYBLOCK
 62
     0
100
AcDbTrace
 10
-1581.222066
 20
-1558.662137
 30
0.0
 11
-1580.388733
 21
-1558.662137
 31
0.0
 12
-1580.8054
 22
-1561.162137
 32
0.0
 13
-1580.8054
 23
-1561.162137
 33
0.0
  0
MTEXT
  5
CC9
100
AcDbEntity
  8
0
  6
BYBLOCK
 62
     0
100
AcDbMText
 10
-1584.781581
 20
-1493.912137
 30
0.0
 40
3.0
 41
0.0
 71
     5
 72
     1
  1
\A1;134.5\S+0.1^  0;
 11
0.0
 21
1.0
 31
0.0
  0
POINT
  5
CCA
100
AcDbEntity
  8
DEFPOINTS
  6
BYBLOCK
 62
     0
100
AcDbPoint
 10
-1637.418135
 20
-1426.662137
 30
0.0
  0
POINT
  5
CCB
100
AcDbEntity
  8
DEFPOINTS
  6
BYBLOCK
 62
     0
100
AcDbPoint
 10
-1628.575901
 20
-1561.162137
 30
0.0
  0
POINT
  5
CCC
100
AcDbEntity
  8
DEFPOINTS
  6
BYBLOCK
 62
     0
100
AcDbPoint
 10
-1580.8054
 20
-1561.162137
 30
0.0
  0
ENDBLK
  5
CCD
100
AcDbEntity
  8
0
100
AcDbBlockEnd
  0
BLOCK
  5
D31
100
AcDbEntity
  8
0
100
AcDbBlockBegin
  2
*D56
 70
    65
 10
0.0
 20
0.0
 30
0.0
  3
*D56
  1

  0
LINE
  5
D32
100
AcDbEntity
  8
0
  6
BYBLOCK
 62
     0
100
AcDbLine
 10
-1624.043135
 20
-1456.362137
 30
0.0
 11
-1526.884161
 21
-1456.362137
 31
0.0
  0
LINE
  5
D33
100
AcDbEntity
  8
0
  6
BYBLOCK
 62
     0
100
AcDbLine
 10
-1527.793135
 20
-1507.662137
 30
0.0
 11
-1526.884161
 21
-1507.662137
 31
0.0
  0
LINE
  5
D34
100
AcDbEntity
  8
0
  6
BYBLOCK
 62
     0
100
AcDbLine
 10
-1528.134161
 20
-1458.862137
 30
0.0
 11
-1528.134161
 21
-1505.162137
 31
0.0
  0
SOLID
  5
D35
100
AcDbEntity
  8
0
  6
BYBLOCK
 62
     0
100
AcDbTrace
 10
-1528.550827
 20
-1458.862137
 30
0.0
 11
-1527.717494
 21
-1458.862137
 31
0.0
 12
-1528.134161
 22
-1456.362137
 32
0.0
 13
-1528.134161
 23
-1456.362137
 33
0.0
  0
SOLID
  5
D36
100
AcDbEntity
  8
0
  6
BYBLOCK
 62
     0
100
AcDbTrace
 10
-1528.550827
 20
-1505.162137
 30
0.0
 11
-1527.717494
 21
-1505.162137
 31
0.0
 12
-1528.134161
 22
-1507.662137
 32
0.0
 13
-1528.134161
 23
-1507.662137
 33
0.0
  0
MTEXT
  5
D37
100
AcDbEntity
  8
0
  6
BYBLOCK
 62
     0
100
AcDbMText
 10
-1530.259161
 20
-1482.012137
 30
0.0
 40
3.0
 41
0.0
 71
     5
 72
     1
  1
\A1;51.3±0.1
 11
0.0
 21
1.0
 31
0.0
  0
POINT
  5
D38
100
AcDbEntity
  8
DEFPOINTS
  6
BYBLOCK
 62
     0
100
AcDbPoint
 10
-1624.668135
 20
-1456.362137
 30
0.0
  0
POINT
  5
D39
100
AcDbEntity
  8
DEFPOINTS
  6
BYBLOCK
 62
     0
100
AcDbPoint
 10
-1528.418135
 20
-1507.662137
 30
0.0
  0
POINT
  5
D3A
100
AcDbEntity
  8
DEFPOINTS
  6
BYBLOCK
 62
     0
100
AcDbPoint
 10
-1528.134161
 20
-1507.662137
 30
0.0
  0
ENDBLK
  5
D3B
100
AcDbEntity
  8
0
100
AcDbBlockEnd
  0
BLOCK
  5
D3E
100
AcDbEntity
  8
0
100
AcDbBlockBegin
  2
*D57
 70
    65
 10
0.0
 20
0.0
 30
0.0
  3
*D57
  1

  0
LINE
  5
D3F
100
AcDbEntity
  8
0
  6
BYBLOCK
 62
     0
100
AcDbLine
 10
-1649.043135
 20
-1426.662137
 30
0.0
 11
-1675.532182
 21
-1426.662137
 31
0.0
  0
LINE
  5
D40
100
AcDbEntity
  8
0
  6
BYBLOCK
 62
     0
100
AcDbLine
 10
-1649.543135
 20
-1443.662137
 30
0.0
 11
-1675.532182
 21
-1443.662137
 31
0.0
  0
LINE
  5
D41
100
AcDbEntity
  8
0
  6
BYBLOCK
 62
     0
100
AcDbLine
 10
-1674.282182
 20
-1429.162137
 30
0.0
 11
-1674.282182
 21
-1441.162137
 31
0.0
  0
SOLID
  5
D42
100
AcDbEntity
  8
0
  6
BYBLOCK
 62
     0
100
AcDbTrace
 10
-1674.698849
 20
-1429.162137
 30
0.0
 11
-1673.865515
 21
-1429.162137
 31
0.0
 12
-1674.282182
 22
-1426.662137
 32
0.0
 13
-1674.282182
 23
-1426.662137
 33
0.0
  0
SOLID
  5
D43
100
AcDbEntity
  8
0
  6
BYBLOCK
 62
     0
100
AcDbTrace
 10
-1674.698849
 20
-1441.162137
 30
0.0
 11
-1673.865515
 21
-1441.162137
 31
0.0
 12
-1674.282182
 22
-1443.662137
 32
0.0
 13
-1674.282182
 23
-1443.662137
 33
0.0
  0
MTEXT
  5
D44
100
AcDbEntity
  8
0
  6
BYBLOCK
 62
     0
100
AcDbMText
 10
-1676.407182
 20
-1435.162137
 30
0.0
 40
3.0
 41
0.0
 71
     5
 72
     1
  1
\A1;17
 11
0.0
 21
1.0
 31
0.0
  0
POINT
  5
D45
100
AcDbEntity
  8
DEFPOINTS
  6
BYBLOCK
 62
     0
100
AcDbPoint
 10
-1648.418135
 20
-1426.662137
 30
0.0
  0
POINT
  5
D46
100
AcDbEntity
  8
DEFPOINTS
  6
BYBLOCK
 62
     0
100
AcDbPoint
 10
-1648.918135
 20
-1443.662137
 30
0.0
  0
POINT
  5
D47
100
AcDbEntity
  8
DEFPOINTS
  6
BYBLOCK
 62
     0
100
AcDbPoint
 10
-1674.282182
 20
-1443.662137
 30
0.0
  0
ENDBLK
  5
D48
100
AcDbEntity
  8
0
100
AcDbBlockEnd
  0
BLOCK
  5
D4B
100
AcDbEntity
  8
0
100
AcDbBlockBegin
  2
*D58
 70
    65
 10
0.0
 20
0.0
 30
0.0
  3
*D58
  1

  0
LINE
  5
D4C
100
AcDbEntity
  8
0
  6
BYBLOCK
 62
     0
100
AcDbLine
 10
-1649.543135
 20
-1443.662137
 30
0.0
 11
-1675.491727
 21
-1443.662137
 31
0.0
  0
LINE
  5
D4D
100
AcDbEntity
  8
0
  6
BYBLOCK
 62
     0
100
AcDbLine
 10
-1649.543135
 20
-1452.062137
 30
0.0
 11
-1675.491727
 21
-1452.062137
 31
0.0
  0
LINE
  5
D4E
100
AcDbEntity
  8
0
  6
BYBLOCK
 62
     0
100
AcDbLine
 10
-1674.241727
 20
-1441.162137
 30
0.0
 11
-1674.241727
 21
-1438.662137
 31
0.0
  0
LINE
  5
D4F
100
AcDbEntity
  8
0
  6
BYBLOCK
 62
     0
100
AcDbLine
 10
-1674.241727
 20
-1454.562137
 30
0.0
 11
-1674.241727
 21
-1457.062137
 31
0.0
  0
SOLID
  5
D50
100
AcDbEntity
  8
0
  6
BYBLOCK
 62
     0
100
AcDbTrace
 10
-1674.658394
 20
-1441.162137
 30
0.0
 11
-1673.825061
 21
-1441.162137
 31
0.0
 12
-1674.241727
 22
-1443.662137
 32
0.0
 13
-1674.241727
 23
-1443.662137
 33
0.0
  0
SOLID
  5
D51
100
AcDbEntity
  8
0
  6
BYBLOCK
 62
     0
100
AcDbTrace
 10
-1674.658394
 20
-1454.562137
 30
0.0
 11
-1673.825061
 21
-1454.562137
 31
0.0
 12
-1674.241727
 22
-1452.062137
 32
0.0
 13
-1674.241727
 23
-1452.062137
 33
0.0
  0
MTEXT
  5
D52
100
AcDbEntity
  8
0
  6
BYBLOCK
 62
     0
100
AcDbMText
 10
-1676.366727
 20
-1447.862137
 30
0.0
 40
3.0
 41
0.0
 71
     5
 72
     1
  1
\A1;8.4
 11
0.0
 21
1.0
 31
0.0
  0
POINT
  5
D53
100
AcDbEntity
  8
DEFPOINTS
  6
BYBLOCK
 62
     0
100
AcDbPoint
 10
-1648.918135
 20
-1443.662137
 30
0.0
  0
POINT
  5
D54
100
AcDbEntity
  8
DEFPOINTS
  6
BYBLOCK
 62
     0
100
AcDbPoint
 10
-1648.918135
 20
-1452.062137
 30
0.0
  0
POINT
  5
D55
100
AcDbEntity
  8
DEFPOINTS
  6
BYBLOCK
 62
     0
100
AcDbPoint
 10
-1674.241727
 20
-1452.062137
 30
0.0
  0
ENDBLK
  5
D56
100
AcDbEntity
  8
0
100
AcDbBlockEnd
  0
BLOCK
  5
D59
100
AcDbEntity
  8
0
100
AcDbBlockBegin
  2
*D59
 70
    65
 10
0.0
 20
0.0
 30
0.0
  3
*D59
  1

  0
LINE
  5
D5A
100
AcDbEntity
  8
0
  6
BYBLOCK
 62
     0
100
AcDbLine
 10
-1645.918135
 20
-1443.037137
 30
0.0
 11
-1645.918135
 21
-1435.486865
 31
0.0
  0
LINE
  5
D5B
100
AcDbEntity
  8
0
  6
BYBLOCK
 62
     0
100
AcDbLine
 10
-1649.668135
 20
-1436.435201
 30
0.0
 11
-1649.668135
 21
-1435.486865
 31
0.0
  0
LINE
  5
D5C
100
AcDbEntity
  8
0
  6
BYBLOCK
 62
     0
100
AcDbLine
 10
-1643.418135
 20
-1436.736865
 30
0.0
 11
-1640.918135
 21
-1436.736865
 31
0.0
  0
LINE
  5
D5D
100
AcDbEntity
  8
0
  6
BYBLOCK
 62
     0
100
AcDbLine
 10
-1652.168135
 20
-1436.736865
 30
0.0
 11
-1662.984825
 21
-1436.736865
 31
0.0
  0
SOLID
  5
D5E
100
AcDbEntity
  8
0
  6
BYBLOCK
 62
     0
100
AcDbTrace
 10
-1643.418135
 20
-1436.320199
 30
0.0
 11
-1643.418135
 21
-1437.153532
 31
0.0
 12
-1645.918135
 22
-1436.736865
 32
0.0
 13
-1645.918135
 23
-1436.736865
 33
0.0
  0
SOLID
  5
D5F
100
AcDbEntity
  8
0
  6
BYBLOCK
 62
     0
100
AcDbTrace
 10
-1652.168135
 20
-1436.320199
 30
0.0
 11
-1652.168135
 21
-1437.153532
 31
0.0
 12
-1649.668135
 22
-1436.736865
 32
0.0
 13
-1649.668135
 23
-1436.736865
 33
0.0
  0
MTEXT
  5
D60
100
AcDbEntity
  8
0
  6
BYBLOCK
 62
     0
100
AcDbMText
 10
-1658.82648
 20
-1434.611865
 30
0.0
 40
3.0
 41
0.0
 71
     5
 72
     1
  1
\A1;3.75
  0
POINT
  5
D61
100
AcDbEntity
  8
DEFPOINTS
  6
BYBLOCK
 62
     0
100
AcDbPoint
 10
-1645.918135
 20
-1443.662137
 30
0.0
  0
POINT
  5
D62
100
AcDbEntity
  8
DEFPOINTS
  6
BYBLOCK
 62
     0
100
AcDbPoint
 10
-1649.668135
 20
-1437.060201
 30
0.0
  0
POINT
  5
D63
100
AcDbEntity
  8
DEFPOINTS
  6
BYBLOCK
 62
     0
100
AcDbPoint
 10
-1649.668135
 20
-1436.736865
 30
0.0
  0
ENDBLK
  5
D64
100
AcDbEntity
  8
0
100
AcDbBlockEnd
  0
BLOCK
  5
DDF
100
AcDbEntity
  8
0
100
AcDbBlockBegin
  2
*D62
 70
    65
 10
0.0
 20
0.0
 30
0.0
  3
*D62
  1

  0
LINE
  5
DE0
100
AcDbEntity
  8
0
  6
BYBLOCK
 62
     0
100
AcDbLine
 10
-1649.668135
 20
-1484.140367
 30
0.0
 11
-1649.668135
 21
-1506.784336
 31
0.0
  0
ARC
  5
DE1
100
AcDbEntity
  8
0
  6
BYBLOCK
 62
     0
100
AcDbCircle
 10
-1649.668135
 20
-1483.515367
 30
0.0
 40
22.018969
100
AcDbArc
 50
256.982452
 51
263.491226
  0
ARC
  5
DE2
100
AcDbEntity
  8
0
  6
BYBLOCK
 62
     0
100
AcDbCircle
 10
-1649.668135
 20
-1483.515367
 30
0.0
 40
22.018969
100
AcDbArc
 50
291.508774
 51
298.017548
  0
SOLID
  5
DE3
100
AcDbEntity
  8
0
  6
BYBLOCK
 62
     0
100
AcDbTrace
 10
-1652.140449
 20
-1504.976419
 30
0.0
 11
-1652.187757
 21
-1505.808408
 31
0.0
 12
-1649.668135
 22
-1505.534336
 32
0.0
 13
-1649.668135
 23
-1505.534336
 33
0.0
  0
SOLID
  5
DE4
100
AcDbEntity
  8
0
  6
BYBLOCK
 62
     0
100
AcDbTrace
 10
-1641.464503
 20
-1504.396665
 30
0.0
 11
-1641.725534
 21
-1503.605269
 31
0.0
 12
-1643.969206
 22
-1504.784058
 32
0.0
 13
-1643.969206
 23
-1504.784058
 33
0.0
  0
MTEXT
  5
DE5
100
AcDbEntity
  8
0
  6
BYBLOCK
 62
     0
100
AcDbMText
 10
-1655.774366
 20
-1502.449039
 30
0.0
 40
3.0
 41
0.0
 71
     5
 72
     1
  1
\A1;15°
 11
0.951729
 21
-0.306939
 31
0.0
  0
POINT
  5
DE6
100
AcDbEntity
  8
DEFPOINTS
  6
BYBLOCK
 62
     0
100
AcDbPoint
 10
-1645.844581
 20
-1505.199819
 30
0.0
  0
POINT
  5
DE7
100
AcDbEntity
  8
DEFPOINTS
  6
BYBLOCK
 62
     0
100
AcDbPoint
 10
-1649.668135
 20
-1452.812137
 30
0.0
  0
POINT
  5
DE8
100
AcDbEntity
  8
DEFPOINTS
  6
BYBLOCK
 62
     0
100
AcDbPoint
 10
-1634.711028
 20
-1539.336049
 30
0.0
  0
POINT
  5
DE9
100
AcDbEntity
  8
DEFPOINTS
  6
BYBLOCK
 62
     0
100
AcDbPoint
 10
-1649.668135
 20
-1483.515367
 30
0.0
  0
POINT
  5
DEA
100
AcDbEntity
  8
DEFPOINTS
  6
BYBLOCK
 62
     0
100
AcDbPoint
 10
-1649.668135
 20
-1483.515367
 30
0.0
  0
ENDBLK
  5
DEB
100
AcDbEntity
  8
0
100
AcDbBlockEnd
  0
BLOCK
  5
E02
100
AcDbEntity
  8
0
100
AcDbBlockBegin
  2
*X63
 70
    65
 10
0.0
 20
0.0
 30
0.0
  3
*X63
  1

  0
LINE
  5
E04
100
AcDbEntity
  8
0
 62
     0
100
AcDbLine
 10
-1631.067935
 20
-1558.148256
 30
0.0
 11
-1626.560596
 21
-1553.640917
 31
0.0
  0
LINE
  5
E05
100
AcDbEntity
  8
0
 62
     0
100
AcDbLine
 10
-1631.134357
 20
-1557.900368
 30
0.0
 11
-1626.445551
 21
-1553.211563
 31
0.0
  0
LINE
  5
E06
100
AcDbEntity
  8
0
 62
     0
100
AcDbLine
 10
-1631.200778
 20
-1557.65248
 30
0.0
 11
-1626.330506
 21
-1552.782209
 31
0.0
  0
LINE
  5
E07
100
AcDbEntity
  8
0
 62
     0
100
AcDbLine
 10
-1631.267199
 20
-1557.404593
 30
0.0
 11
-1627.686868
 21
-1553.824261
 31
0.0
  0
LINE
  5
E08
100
AcDbEntity
  8
0
 62
     0
100
AcDbLine
 10
-1626.376307
 20
-1552.513701
 30
0.0
 11
-1626.215461
 21
-1552.352855
 31
0.0
  0
LINE
  5
E09
100
AcDbEntity
  8
0
 62
     0
100
AcDbLine
 10
-1631.333621
 20
-1557.156705
 30
0.0
 11
-1628.263362
 21
-1554.086446
 31
0.0
  0
LINE
  5
E0A
100
AcDbEntity
  8
0
 62
     0
100
AcDbLine
 10
-1626.114122
 20
-1551.937207
 30
0.0
 11
-1626.100416
 21
-1551.9235
 31
0.0
  0
LINE
  5
E0B
100
AcDbEntity
  8
0
 62
     0
100
AcDbLine
 10
-1631.400042
 20
-1556.908817
 30
0.0
 11
-1628.698978
 21
-1554.207753
 31
0.0
  0
LINE
  5
E0C
100
AcDbEntity
  8
0
 62
     0
100
AcDbLine
 10
-1631.466463
 20
-1556.66093
 30
0.0
 11
-1629.070678
 21
-1554.265144
 31
0.0
  0
LINE
  5
E0D
100
AcDbEntity
  8
0
 62
     0
100
AcDbLine
 10
-1631.532884
 20
-1556.413042
 30
0.0
 11
-1629.40224
 21
-1554.282398
 31
0.0
  0
LINE
  5
E0E
100
AcDbEntity
  8
0
 62
     0
100
AcDbLine
 10
-1631.599306
 20
-1556.165154
 30
0.0
 11
-1629.704824
 21
-1554.270672
 31
0.0
  0
LINE
  5
E0F
100
AcDbEntity
  8
0
 62
     0
100
AcDbLine
 10
-1631.665727
 20
-1555.917267
 30
0.0
 11
-1629.984728
 21
-1554.236268
 31
0.0
  0
LINE
  5
E10
100
AcDbEntity
  8
0
 62
     0
100
AcDbLine
 10
-1631.732148
 20
-1555.669379
 30
0.0
 11
-1630.245908
 21
-1554.183138
 31
0.0
  0
LINE
  5
E11
100
AcDbEntity
  8
0
 62
     0
100
AcDbLine
 10
-1631.79857
 20
-1555.421491
 30
0.0
 11
-1630.491017
 21
-1554.113939
 31
0.0
  0
LINE
  5
E12
100
AcDbEntity
  8
0
 62
     0
100
AcDbLine
 10
-1631.864991
 20
-1555.173604
 30
0.0
 11
-1630.72192
 21
-1554.030532
 31
0.0
  0
LINE
  5
E13
100
AcDbEntity
  8
0
 62
     0
100
AcDbLine
 10
-1631.931412
 20
-1554.925716
 30
0.0
 11
-1630.939962
 21
-1553.934265
 31
0.0
  0
LINE
  5
E14
100
AcDbEntity
  8
0
 62
     0
100
AcDbLine
 10
-1631.997834
 20
-1554.677828
 30
0.0
 11
-1631.146128
 21
-1553.826122
 31
0.0
  0
LINE
  5
E15
100
AcDbEntity
  8
0
 62
     0
100
AcDbLine
 10
-1632.064255
 20
-1554.429941
 30
0.0
 11
-1631.341138
 21
-1553.706824
 31
0.0
  0
LINE
  5
E16
100
AcDbEntity
  8
0
 62
     0
100
AcDbLine
 10
-1632.130676
 20
-1554.182053
 30
0.0
 11
-1631.52551
 21
-1553.576887
 31
0.0
  0
LINE
  5
E17
100
AcDbEntity
  8
0
 62
     0
100
AcDbLine
 10
-1632.197097
 20
-1553.934165
 30
0.0
 11
-1631.699596
 21
-1553.436664
 31
0.0
  0
LINE
  5
E18
100
AcDbEntity
  8
0
 62
     0
100
AcDbLine
 10
-1632.263519
 20
-1553.686278
 30
0.0
 11
-1631.863606
 21
-1553.286365
 31
0.0
  0
LINE
  5
E19
100
AcDbEntity
  8
0
 62
     0
100
AcDbLine
 10
-1632.32994
 20
-1553.43839
 30
0.0
 11
-1632.017625
 21
-1553.126075
 31
0.0
  0
LINE
  5
E1A
100
AcDbEntity
  8
0
 62
     0
100
AcDbLine
 10
-1632.396361
 20
-1553.190502
 30
0.0
 11
-1632.161614
 21
-1552.955755
 31
0.0
  0
LINE
  5
E1B
100
AcDbEntity
  8
0
 62
     0
100
AcDbLine
 10
-1632.462783
 20
-1552.942615
 30
0.0
 11
-1632.29541
 21
-1552.775242
 31
0.0
  0
LINE
  5
E1C
100
AcDbEntity
  8
0
 62
     0
100
AcDbLine
 10
-1632.529204
 20
-1552.694727
 30
0.0
 11
-1632.418717
 21
-1552.58424
 31
0.0
  0
LINE
  5
E1D
100
AcDbEntity
  8
0
 62
     0
100
AcDbLine
 10
-1632.595625
 20
-1552.446839
 30
0.0
 11
-1632.531082
 21
-1552.382296
 31
0.0
  0
LINE
  5
E1E
100
AcDbEntity
  8
0
 62
     0
100
AcDbLine
 10
-1632.662047
 20
-1552.198952
 30
0.0
 11
-1632.631866
 21
-1552.168771
 31
0.0
  0
LINE
  5
E1F
100
AcDbEntity
  8
0
 62
     0
100
AcDbLine
 10
-1632.728468
 20
-1551.951064
 30
0.0
 11
-1632.720192
 21
-1551.942788
 31
0.0
  0
LINE
  5
E20
100
AcDbEntity
  8
0
 62
     0
100
AcDbLine
 10
-1632.794889
 20
-1551.703176
 30
0.0
 11
-1632.794862
 21
-1551.703149
 31
0.0
  0
LINE
  5
E21
100
AcDbEntity
  8
0
 62
     0
100
AcDbLine
 10
-1631.001514
 20
-1558.396143
 30
0.0
 11
-1626.675641
 21
-1554.070271
 31
0.0
  0
LINE
  5
E22
100
AcDbEntity
  8
0
 62
     0
100
AcDbLine
 10
-1630.935093
 20
-1558.644031
 30
0.0
 11
-1626.790686
 21
-1554.499625
 31
0.0
  0
LINE
  5
E23
100
AcDbEntity
  8
0
 62
     0
100
AcDbLine
 10
-1630.868671
 20
-1558.891919
 30
0.0
 11
-1626.905732
 21
-1554.928979
 31
0.0
  0
LINE
  5
E24
100
AcDbEntity
  8
0
 62
     0
100
AcDbLine
 10
-1630.80225
 20
-1559.139806
 30
0.0
 11
-1627.020777
 21
-1555.358333
 31
0.0
  0
LINE
  5
E25
100
AcDbEntity
  8
0
 62
     0
100
AcDbLine
 10
-1630.735829
 20
-1559.387694
 30
0.0
 11
-1627.135822
 21
-1555.787687
 31
0.0
  0
LINE
  5
E26
100
AcDbEntity
  8
0
 62
     0
100
AcDbLine
 10
-1630.669408
 20
-1559.635582
 30
0.0
 11
-1627.250867
 21
-1556.217041
 31
0.0
  0
LINE
  5
E27
100
AcDbEntity
  8
0
 62
     0
100
AcDbLine
 10
-1630.602986
 20
-1559.883469
 30
0.0
 11
-1627.365912
 21
-1556.646395
 31
0.0
  0
LINE
  5
E28
100
AcDbEntity
  8
0
 62
     0
100
AcDbLine
 10
-1630.536565
 20
-1560.131357
 30
0.0
 11
-1627.480957
 21
-1557.075749
 31
0.0
  0
LINE
  5
E29
100
AcDbEntity
  8
0
 62
     0
100
AcDbLine
 10
-1630.470144
 20
-1560.379245
 30
0.0
 11
-1627.596002
 21
-1557.505103
 31
0.0
  0
LINE
  5
E2A
100
AcDbEntity
  8
0
 62
     0
100
AcDbLine
 10
-1630.403722
 20
-1560.627132
 30
0.0
 11
-1627.711047
 21
-1557.934457
 31
0.0
  0
LINE
  5
E2B
100
AcDbEntity
  8
0
 62
     0
100
AcDbLine
 10
-1630.337301
 20
-1560.87502
 30
0.0
 11
-1627.826092
 21
-1558.363811
 31
0.0
  0
LINE
  5
E2C
100
AcDbEntity
  8
0
 62
     0
100
AcDbLine
 10
-1630.27088
 20
-1561.122908
 30
0.0
 11
-1627.941137
 21
-1558.793165
 31
0.0
  0
LINE
  5
E2D
100
AcDbEntity
  8
0
 62
     0
100
AcDbLine
 10
-1629.9958
 20
-1561.162137
 30
0.0
 11
-1628.056182
 21
-1559.222519
 31
0.0
  0
LINE
  5
E2E
100
AcDbEntity
  8
0
 62
     0
100
AcDbLine
 10
-1629.681491
 20
-1561.162137
 30
0.0
 11
-1628.171227
 21
-1559.651873
 31
0.0
  0
LINE
  5
E2F
100
AcDbEntity
  8
0
 62
     0
100
AcDbLine
 10
-1629.367182
 20
-1561.162137
 30
0.0
 11
-1628.286272
 21
-1560.081227
 31
0.0
  0
LINE
  5
E30
100
AcDbEntity
  8
0
 62
     0
100
AcDbLine
 10
-1629.052873
 20
-1561.162137
 30
0.0
 11
-1628.401317
 21
-1560.510581
 31
0.0
  0
LINE
  5
E31
100
AcDbEntity
  8
0
 62
     0
100
AcDbLine
 10
-1628.738564
 20
-1561.162137
 30
0.0
 11
-1628.516362
 21
-1560.939935
 31
0.0
  0
ENDBLK
  5
E32
100
AcDbEntity
  8
0
100
AcDbBlockEnd
  0
BLOCK
  5
E4B
100
AcDbEntity
  8
0
100
AcDbBlockBegin
  2
*D64
 70
    65
 10
0.0
 20
0.0
 30
0.0
  3
*D64
  1

  0
LINE
  5
E4C
100
AcDbEntity
  8
0
  6
BYBLOCK
 62
     0
100
AcDbLine
 10
-1649.668135
 20
-1427.287137
 30
0.0
 11
-1649.668135
 21
-1394.350411
 31
0.0
  0
LINE
  5
E4D
100
AcDbEntity
  8
0
  6
BYBLOCK
 62
     0
100
AcDbLine
 10
-1623.418135
 20
-1456.987137
 30
0.0
 11
-1623.418135
 21
-1394.350411
 31
0.0
  0
LINE
  5
E4E
100
AcDbEntity
  8
0
  6
BYBLOCK
 62
     0
100
AcDbLine
 10
-1647.168135
 20
-1395.600411
 30
0.0
 11
-1625.918135
 21
-1395.600411
 31
0.0
  0
SOLID
  5
E4F
100
AcDbEntity
  8
0
  6
BYBLOCK
 62
     0
100
AcDbTrace
 10
-1647.168135
 20
-1395.183745
 30
0.0
 11
-1647.168135
 21
-1396.017078
 31
0.0
 12
-1649.668135
 22
-1395.600411
 32
0.0
 13
-1649.668135
 23
-1395.600411
 33
0.0
  0
SOLID
  5
E50
100
AcDbEntity
  8
0
  6
BYBLOCK
 62
     0
100
AcDbTrace
 10
-1625.918135
 20
-1395.183745
 30
0.0
 11
-1625.918135
 21
-1396.017078
 31
0.0
 12
-1623.418135
 22
-1395.600411
 32
0.0
 13
-1623.418135
 23
-1395.600411
 33
0.0
  0
MTEXT
  5
E51
100
AcDbEntity
  8
0
  6
BYBLOCK
 62
     0
100
AcDbMText
 10
-1636.543135
 20
-1391.62423
 30
0.0
 40
3.0
 41
0.0
 71
     5
 72
     1
  1
\A1;26.25\S+0.1^  0;
  0
POINT
  5
E52
100
AcDbEntity
  8
DEFPOINTS
  6
BYBLOCK
 62
     0
100
AcDbPoint
 10
-1649.668135
 20
-1427.912137
 30
0.0
  0
POINT
  5
E53
100
AcDbEntity
  8
DEFPOINTS
  6
BYBLOCK
 62
     0
100
AcDbPoint
 10
-1623.418135
 20
-1457.612137
 30
0.0
  0
POINT
  5
E54
100
AcDbEntity
  8
DEFPOINTS
  6
BYBLOCK
 62
     0
100
AcDbPoint
 10
-1623.418135
 20
-1395.600411
 30
0.0
  0
ENDBLK
  5
E55
100
AcDbEntity
  8
0
100
AcDbBlockEnd
  0
BLOCK
  5
E57
100
AcDbEntity
  8
0
100
AcDbBlockBegin
  2
*D65
 70
    65
 10
0.0
 20
0.0
 30
0.0
  3
*D65
  1

  0
LINE
  5
E58
100
AcDbEntity
  8
0
  6
BYBLOCK
 62
     0
100
AcDbLine
 10
-1622.793135
 20
-1538.887127
 30
0.0
 11
-1610.984336
 21
-1538.887127
 31
0.0
  0
LINE
  5
E59
100
AcDbEntity
  8
0
  6
BYBLOCK
 62
     0
100
AcDbLine
 10
-1622.793135
 20
-1541.91309
 30
0.0
 11
-1610.984336
 21
-1541.91309
 31
0.0
  0
LINE
  5
E5A
100
AcDbEntity
  8
0
  6
BYBLOCK
 62
     0
100
AcDbLine
 10
-1612.234336
 20
-1536.387127
 30
0.0
 11
-1612.234336
 21
-1533.887127
 31
0.0
  0
LINE
  5
E5B
100
AcDbEntity
  8
0
  6
BYBLOCK
 62
     0
100
AcDbLine
 10
-1612.234336
 20
-1544.41309
 30
0.0
 11
-1612.234336
 21
-1555.229781
 31
0.0
  0
SOLID
  5
E5C
100
AcDbEntity
  8
0
  6
BYBLOCK
 62
     0
100
AcDbTrace
 10
-1612.651003
 20
-1536.387127
 30
0.0
 11
-1611.817669
 21
-1536.387127
 31
0.0
 12
-1612.234336
 22
-1538.887127
 32
0.0
 13
-1612.234336
 23
-1538.887127
 33
0.0
  0
SOLID
  5
E5D
100
AcDbEntity
  8
0
  6
BYBLOCK
 62
     0
100
AcDbTrace
 10
-1612.651003
 20
-1544.41309
 30
0.0
 11
-1611.817669
 21
-1544.41309
 31
0.0
 12
-1612.234336
 22
-1541.91309
 32
0.0
 13
-1612.234336
 23
-1541.91309
 33
0.0
  0
MTEXT
  5
E5E
100
AcDbEntity
  8
0
  6
BYBLOCK
 62
     0
100
AcDbMText
 10
-1614.359336
 20
-1551.071436
 30
0.0
 40
3.0
 41
0.0
 71
     5
 72
     1
  1
\A1;3.03
 11
0.0
 21
1.0
 31
0.0
  0
POINT
  5
E5F
100
AcDbEntity
  8
DEFPOINTS
  6
BYBLOCK
 62
     0
100
AcDbPoint
 10
-1623.418135
 20
-1538.887127
 30
0.0
  0
POINT
  5
E60
100
AcDbEntity
  8
DEFPOINTS
  6
BYBLOCK
 62
     0
100
AcDbPoint
 10
-1623.418135
 20
-1541.91309
 30
0.0
  0
POINT
  5
E61
100
AcDbEntity
  8
DEFPOINTS
  6
BYBLOCK
 62
     0
100
AcDbPoint
 10
-1612.234336
 20
-1541.91309
 30
0.0
  0
ENDBLK
  5
E62
100
AcDbEntity
  8
0
100
AcDbBlockEnd
  0
ENDSEC
  0
SECTION
  2
ENTITIES
  0
ARC
  5
6E9
100
AcDbEntity
  8
DISEGNO
100
AcDbCircle
 10
-1766.609649
 20
-1507.662137
 30
0.0
 40
100.0
100
AcDbArc
 50
161.805128
 51
198.194872
  0
LINE
  5
6EC
100
AcDbEntity
  8
DISEGNO
100
AcDbLine
 10
-1872.902542
 20
-1539.336049
 30
0.0
 11
-1887.609649
 21
-1484.44838
 31
0.0
  0
LINE
  5
6F4
100
AcDbEntity
  8
DISEGNO
100
AcDbLine
 10
-1868.38239
 20
-1560.069192
 30
0.0
 11
-1873.609649
 21
-1540.560794
 31
0.0
1001
ACAD
1000
ASC_BOUNDS
1002
{
1070
    19
1002
}
  0
LINE
  5
6F5
100
AcDbEntity
  8
DISEGNO
100
AcDbLine
 10
-1866.836909
 20
-1560.069192
 30
0.0
 11
-1861.609649
 21
-1540.560794
 31
0.0
1001
ACAD
1000
ASC_BOUNDS
1002
{
1070
    19
1002
}
  0
ARC
  5
6F9
100
AcDbEntity
  8
DISEGNO
100
AcDbCircle
 10
-1867.609649
 20
-1559.862137
 30
0.0
 40
0.8
100
AcDbArc
 50
195.0
 51
345.0
1001
ACAD
1000
ASC_BOUNDS
1002
{
1070
    19
1002
}
  0
LINE
  5
6FC
100
AcDbEntity
  8
DISEGNO
100
AcDbLine
 10
-1873.609649
 20
-1540.560794
 30
0.0
 11
-1872.902542
 21
-1539.336049
 31
0.0
  0
LINE
  5
6FD
100
AcDbEntity
  8
DISEGNO
100
AcDbLine
 10
-1861.609649
 20
-1538.887127
 30
0.0
 11
-1861.609649
 21
-1540.560794
 31
0.0
  0
LINE
  5
709
100
AcDbEntity
  8
DISEGNO
100
AcDbLine
 10
-1874.609649
 20
-1456.662137
 30
0.0
 11
-1862.609649
 21
-1456.662137
 31
0.0
  0
LINE
  5
70A
100
AcDbEntity
  8
DISEGNO
100
AcDbLine
 10
-1887.609649
 20
-1452.562137
 30
0.0
 11
-1887.609649
 21
-1484.44838
 31
0.0
  0
LINE
  5
714
100
AcDbEntity
  8
DISEGNO
100
AcDbLine
 10
-1887.609649
 20
-1427.662137
 30
0.0
 11
-1887.609649
 21
-1443.162137
 31
0.0
  0
LINE
  5
715
100
AcDbEntity
  8
DISEGNO
100
AcDbLine
 10
-1874.609649
 20
-1427.662137
 30
0.0
 11
-1874.609649
 21
-1456.662137
 31
0.0
  0
LINE
  5
716
100
AcDbEntity
  8
DISEGNO
100
AcDbLine
 10
-1887.609649
 20
-1452.562137
 30
0.0
 11
-1887.109649
 21
-1452.062137
 31
0.0
  0
LINE
  5
717
100
AcDbEntity
  8
DISEGNO
100
AcDbLine
 10
-1884.109649
 20
-1452.062137
 30
0.0
 11
-1887.109649
 21
-1452.062137
 31
0.0
  0
LINE
  5
718
100
AcDbEntity
  8
DISEGNO
100
AcDbLine
 10
-1887.109649
 20
-1443.662137
 30
0.0
 11
-1884.109649
 21
-1443.662137
 31
0.0
  0
LINE
  5
71A
100
AcDbEntity
  8
DISEGNO
100
AcDbLine
 10
-1887.609649
 20
-1443.162137
 30
0.0
 11
-1887.109649
 21
-1443.662137
 31
0.0
  0
LINE
  5
71B
100
AcDbEntity
  8
DISEGNO
100
AcDbLine
 10
-1884.109649
 20
-1443.662137
 30
0.0
 11
-1884.109649
 21
-1452.062137
 31
0.0
  0
LINE
  5
71C
100
AcDbEntity
  8
DISEGNO
100
AcDbLine
 10
-1886.609649
 20
-1426.662137
 30
0.0
 11
-1875.609649
 21
-1426.662137
 31
0.0
  0
LINE
  5
71D
100
AcDbEntity
  8
DISEGNO
100
AcDbLine
 10
-1886.609649
 20
-1426.662137
 30
0.0
 11
-1887.609649
 21
-1427.662137
 31
0.0
  0
LINE
  5
71E
100
AcDbEntity
  8
DISEGNO
100
AcDbLine
 10
-1875.609649
 20
-1426.662137
 30
0.0
 11
-1874.609649
 21
-1427.662137
 31
0.0
  0
LINE
  5
722
100
AcDbEntity
  8
DISEGNO
100
AcDbLine
 10
-1861.609649
 20
-1457.662137
 30
0.0
 11
-1861.609649
 21
-1476.437147
 31
0.0
  0
LINE
  5
726
100
AcDbEntity
  8
DISEGNO
100
AcDbLine
 10
-1862.609649
 20
-1456.662137
 30
0.0
 11
-1861.609649
 21
-1457.662137
 31
0.0
  0
ENDSEC
  0
SECTION
  2
OBJECTS
  0
DICTIONARY
  5
C
100
AcDbDictionary
  3
ACAD_GROUP
350
D
  3
ACAD_MLINESTYLE
350
E
  0
DICTIONARY
  5
D
102
{ACAD_REACTORS
330
C
102
}
100
AcDbDictionary
  0
DICTIONARY
  5
E
102
{ACAD_REACTORS
330
C
102
}
100
AcDbDictionary
  3
STANDARD
350
1C
  0
MLINESTYLE
  5
1C
102
{ACAD_REACTORS
330
E
102
}
100
AcDbMlineStyle
  2
STANDARD
 70
     0
  3

 62
     0
 51
90.0
 52
90.0
 71
     2
 49
0.5
 62
   256
  6
BYLAYER
 49
-0.5
 62
   256
  6
BYLAYER
  0
ENDSEC
  0
EOF
