  0
SECTION
  2
HEADER
  9
$ACADVER
  1
AC1012
  9
$DWGCODEPAGE
  3
iso8859-1
  9
$INSBASE
 10
0.0
 20
0.0
 30
0.0
  9
$EXTMIN
 10
-1940.234365
 20
-1659.086013
 30
0.0
  9
$EXTMAX
 10
-1740.234365
 20
-1372.037392
 30
0.0
  9
$LIMMIN
 10
0.0
 20
0.0
  9
$LIMMAX
 10
210.0
 20
297.0
  9
$ORTHOMODE
 70
     0
  9
$REGENMODE
 70
     1
  9
$FILLMODE
 70
     1
  9
$QTEXTMODE
 70
     0
  9
$MIRRTEXT
 70
     1
  9
$DRAGMODE
 70
     2
  9
$LTSCALE
 40
1.0
  9
$OSMODE
 70
     0
  9
$ATTMODE
 70
     1
  9
$TEXTSIZE
 40
4.0
  9
$TRACEWID
 40
0.05
  9
$TEXTSTYLE
  7
STYLE3
  9
$CLAYER
  8
QUOTE
  9
$CELTYPE
  6
BYLAYER
  9
$CECOLOR
 62
   256
  9
$CELTSCALE
 40
1.0
  9
$DELOBJ
 70
     1
  9
$DISPSILH
 70
     0
  9
$DIMSCALE
 40
1.0
  9
$DIMASZ
 40
2.5
  9
$DIMEXO
 40
0.625
  9
$DIMDLI
 40
3.75
  9
$DIMRND
 40
0.0
  9
$DIMDLE
 40
0.0
  9
$DIMEXE
 40
1.25
  9
$DIMTP
 40
0.0
  9
$DIMTM
 40
0.0
  9
$DIMTXT
 40
3.0
  9
$DIMCEN
 40
0.0
  9
$DIMTSZ
 40
0.0
  9
$DIMTOL
 70
     0
  9
$DIMLIM
 70
     0
  9
$DIMTIH
 70
     0
  9
$DIMTOH
 70
     0
  9
$DIMSE1
 70
     0
  9
$DIMSE2
 70
     0
  9
$DIMTAD
 70
     1
  9
$DIMZIN
 70
     8
  9
$DIMBLK
  1

  9
$DIMASO
 70
     1
  9
$DIMSHO
 70
     1
  9
$DIMPOST
  1

  9
$DIMAPOST
  1

  9
$DIMALT
 70
     0
  9
$DIMALTD
 70
     2
  9
$DIMALTF
 40
0.03937
  9
$DIMLFAC
 40
1.0
  9
$DIMTOFL
 70
     0
  9
$DIMTVP
 40
0.0
  9
$DIMTIX
 70
     0
  9
$DIMSOXD
 70
     0
  9
$DIMSAH
 70
     0
  9
$DIMBLK1
  1

  9
$DIMBLK2
  1

  9
$DIMSTYLE
  2
STANDARD
  9
$DIMCLRD
 70
     0
  9
$DIMCLRE
 70
     0
  9
$DIMCLRT
 70
     0
  9
$DIMTFAC
 40
1.0
  9
$DIMGAP
 40
0.625
  9
$DIMJUST
 70
     0
  9
$DIMSD1
 70
     0
  9
$DIMSD2
 70
     0
  9
$DIMTOLJ
 70
     1
  9
$DIMTZIN
 70
     8
  9
$DIMALTZ
 70
     0
  9
$DIMALTTZ
 70
     0
  9
$DIMFIT
 70
     3
  9
$DIMUPT
 70
     0
  9
$DIMUNIT
 70
     2
  9
$DIMDEC
 70
     2
  9
$DIMTDEC
 70
     2
  9
$DIMALTU
 70
     2
  9
$DIMALTTD
 70
     2
  9
$DIMTXSTY
  7
STANDARD
  9
$DIMAUNIT
 70
     0
  9
$LUNITS
 70
     2
  9
$LUPREC
 70
     4
  9
$SKETCHINC
 40
0.1
  9
$FILLETRAD
 40
6.0
  9
$AUNITS
 70
     0
  9
$AUPREC
 70
     0
  9
$MENU
  1
acad
  9
$ELEVATION
 40
0.0
  9
$PELEVATION
 40
0.0
  9
$THICKNESS
 40
0.0
  9
$LIMCHECK
 70
     0
  9
$BLIPMODE
 70
     1
  9
$CHAMFERA
 40
0.0
  9
$CHAMFERB
 40
0.0
  9
$CHAMFERC
 40
20.0
  9
$CHAMFERD
 40
0.0
  9
$SKPOLY
 70
     0
  9
$TDCREATE
 40
2451943.676852430
  9
$TDUPDATE
 40
2452629.730298611
  9
$TDINDWG
 40
0.7696020833
  9
$TDUSRTIMER
 40
0.7696020833
  9
$USRTIMER
 70
     1
  9
$ANGBASE
 50
0.0
  9
$ANGDIR
 70
     0
  9
$PDMODE
 70
     0
  9
$PDSIZE
 40
0.0
  9
$PLINEWID
 40
0.0
  9
$COORDS
 70
     1
  9
$SPLFRAME
 70
     0
  9
$SPLINETYPE
 70
     6
  9
$SPLINESEGS
 70
     8
  9
$ATTDIA
 70
     0
  9
$ATTREQ
 70
     1
  9
$HANDLING
 70
     1
  9
$HANDSEED
  5
1671
  9
$SURFTAB1
 70
     6
  9
$SURFTAB2
 70
     6
  9
$SURFTYPE
 70
     6
  9
$SURFU
 70
     6
  9
$SURFV
 70
     6
  9
$UCSNAME
  2

  9
$UCSORG
 10
0.0
 20
0.0
 30
0.0
  9
$UCSXDIR
 10
1.0
 20
0.0
 30
0.0
  9
$UCSYDIR
 10
0.0
 20
1.0
 30
0.0
  9
$PUCSNAME
  2

  9
$PUCSORG
 10
0.0
 20
0.0
 30
0.0
  9
$PUCSXDIR
 10
1.0
 20
0.0
 30
0.0
  9
$PUCSYDIR
 10
0.0
 20
1.0
 30
0.0
  9
$USERI1
 70
     0
  9
$USERI2
 70
     0
  9
$USERI3
 70
     0
  9
$USERI4
 70
     0
  9
$USERI5
 70
     0
  9
$USERR1
 40
0.0
  9
$USERR2
 40
0.0
  9
$USERR3
 40
0.0
  9
$USERR4
 40
0.0
  9
$USERR5
 40
0.0
  9
$WORLDVIEW
 70
     1
  9
$SHADEDGE
 70
     3
  9
$SHADEDIF
 70
    70
  9
$TILEMODE
 70
     1
  9
$MAXACTVP
 70
    16
  9
$PINSBASE
 10
0.0
 20
0.0
 30
0.0
  9
$PLIMCHECK
 70
     0
  9
$PEXTMIN
 10
1.000000E+20
 20
1.000000E+20
 30
1.000000E+20
  9
$PEXTMAX
 10
-1.000000E+20
 20
-1.000000E+20
 30
-1.000000E+20
  9
$PLIMMIN
 10
0.0
 20
0.0
  9
$PLIMMAX
 10
12.0
 20
9.0
  9
$UNITMODE
 70
     0
  9
$VISRETAIN
 70
     0
  9
$PLINEGEN
 70
     0
  9
$PSLTSCALE
 70
     1
  9
$TREEDEPTH
 70
  3020
  9
$PICKSTYLE
 70
     1
  9
$CMLSTYLE
  2
STANDARD
  9
$CMLJUST
 70
     0
  9
$CMLSCALE
 40
20.0
  9
$SAVEIMAGES
 70
     0
  0
ENDSEC
  0
SECTION
  2
CLASSES
  0
ENDSEC
  0
SECTION
  2
TABLES
  0
TABLE
  2
VPORT
  5
8
100
AcDbSymbolTable
 70
     2
  0
VPORT
  5
1670
100
AcDbSymbolTableRecord
100
AcDbViewportTableRecord
  2
*ACTIVE
 70
     0
 10
0.0
 20
0.0
 11
1.0
 21
1.0
 12
-1819.185203
 22
-1497.447296
 13
0.0
 23
0.0
 14
10.0
 24
10.0
 15
10.0
 25
10.0
 16
0.0
 26
0.0
 36
1.0
 17
0.0
 27
0.0
 37
0.0
 40
244.531462
 41
1.873134
 42
50.0
 43
0.0
 44
0.0
 50
0.0
 51
0.0
 71
     0
 72
   100
 73
     1
 74
     0
 75
     0
 76
     0
 77
     0
 78
     0
  0
ENDTAB
  0
TABLE
  2
LTYPE
  5
5
100
AcDbSymbolTable
 70
     4
  0
LTYPE
  5
13
100
AcDbSymbolTableRecord
100
AcDbLinetypeTableRecord
  2
BYBLOCK
 70
     0
  3

 72
    65
 73
     0
 40
0.0
  0
LTYPE
  5
14
100
AcDbSymbolTableRecord
100
AcDbLinetypeTableRecord
  2
BYLAYER
 70
     0
  3

 72
    65
 73
     0
 40
0.0
  0
LTYPE
  5
15
100
AcDbSymbolTableRecord
100
AcDbLinetypeTableRecord
  2
CONTINUOUS
 70
    64
  3
Solid line
 72
    65
 73
     0
 40
0.0
  0
LTYPE
  5
94
100
AcDbSymbolTableRecord
100
AcDbLinetypeTableRecord
  2
ACAD_ISO04W100
 70
    64
  3
____ . ____ . ____ . ____ . ____ . ____ . ____ 
 72
    65
 73
     4
 40
30.5
 49
24.0
 74
     0
 49
-3.0
 74
     0
 49
0.5
 74
     0
 49
-3.0
 74
     0
  0
LTYPE
  5
225
100
AcDbSymbolTableRecord
100
AcDbLinetypeTableRecord
  2
TRATTEGGIATAX2
 70
    64
  3
____  ____  ____  ____  ____  ____  ____  ____ 
 72
    65
 73
     2
 40
1.5
 49
1.0
 74
     0
 49
-0.5
 74
     0
  0
LTYPE
  5
226
100
AcDbSymbolTableRecord
100
AcDbLinetypeTableRecord
  2
NASCOSTA
 70
    64
  3
__ __ __ __ __ __ __ __ __ __ __ __ __ __ __ __
 72
    65
 73
     2
 40
0.375
 49
0.25
 74
     0
 49
-0.125
 74
     0
  0
ENDTAB
  0
TABLE
  2
LAYER
  5
2
100
AcDbSymbolTable
 70
    10
  0
LAYER
  5
F
100
AcDbSymbolTableRecord
100
AcDbLayerTableRecord
  2
0
 70
    64
 62
     7
  6
CONTINUOUS
  0
LAYER
  5
95
100
AcDbSymbolTableRecord
100
AcDbLayerTableRecord
  2
DISEGNO
 70
    64
 62
     7
  6
CONTINUOUS
  0
LAYER
  5
96
100
AcDbSymbolTableRecord
100
AcDbLayerTableRecord
  2
ASSI
 70
    64
 62
     1
  6
ACAD_ISO04W100
  0
LAYER
  5
97
100
AcDbSymbolTableRecord
100
AcDbLayerTableRecord
  2
SEZIONE
 70
    64
 62
     3
  6
CONTINUOUS
  0
LAYER
  5
98
100
AcDbSymbolTableRecord
100
AcDbLayerTableRecord
  2
TEMPRA
 70
    64
 62
     2
  6
CONTINUOUS
  0
LAYER
  5
99
100
AcDbSymbolTableRecord
100
AcDbLayerTableRecord
  2
QUOTE
 70
    64
 62
     5
  6
CONTINUOUS
  0
LAYER
  5
9A
100
AcDbSymbolTableRecord
100
AcDbLayerTableRecord
  2
FOGLIO
 70
    64
 62
     8
  6
CONTINUOUS
  0
LAYER
  5
1A3
100
AcDbSymbolTableRecord
100
AcDbLayerTableRecord
  2
TRATTO
 70
    64
 62
     6
  6
NASCOSTA
  0
LAYER
  5
28A
100
AcDbSymbolTableRecord
100
AcDbLayerTableRecord
  2
DEFPOINTS
 70
    64
 62
     7
  6
CONTINUOUS
  0
LAYER
  5
4A6
100
AcDbSymbolTableRecord
100
AcDbLayerTableRecord
  2
TABELLA
 70
    64
 62
     8
  6
CONTINUOUS
  0
ENDTAB
  0
TABLE
  2
STYLE
  5
3
100
AcDbSymbolTable
 70
     2
  0
STYLE
  5
10
100
AcDbSymbolTableRecord
100
AcDbTextStyleTableRecord
  2
STANDARD
 70
    64
 40
0.0
 41
1.1
 50
0.0
 71
     0
 42
3.0
  3
C:\Programmi\AutoCAD LT\isocp.shx
  4

  0
STYLE
  5
B0
100
AcDbSymbolTableRecord
100
AcDbTextStyleTableRecord
  2
STYLE3
 70
    64
 40
0.0
 41
1.5
 50
0.0
 71
     0
 42
4.0
  3
C:\Programmi\AutoCAD LT\isocp.shx
  4

  0
ENDTAB
  0
TABLE
  2
VIEW
  5
6
100
AcDbSymbolTable
 70
     0
  0
ENDTAB
  0
TABLE
  2
UCS
  5
7
100
AcDbSymbolTable
 70
     0
  0
ENDTAB
  0
TABLE
  2
APPID
  5
9
100
AcDbSymbolTable
 70
     1
  0
APPID
  5
11
100
AcDbSymbolTableRecord
100
AcDbRegAppTableRecord
  2
ACAD
 70
     0
  0
ENDTAB
  0
TABLE
  2
DIMSTYLE
  5
A
100
AcDbSymbolTable
 70
    13
  0
DIMSTYLE
105
1D
100
AcDbSymbolTableRecord
100
AcDbDimStyleTableRecord
  2
STANDARD
 70
     0
  3

  4

  5

  6

  7

 40
1.0
 41
2.5
 42
0.625
 43
3.75
 44
1.25
 45
0.0
 46
0.0
 47
0.0
 48
0.0
140
3.0
141
2.5
142
0.0
143
0.03937
144
1.0
145
0.0
146
1.0
147
0.625
 71
     0
 72
     0
 73
     0
 74
     0
 75
     0
 76
     0
 77
     1
 78
     8
170
     0
171
     2
172
     0
173
     0
174
     0
175
     0
176
     0
177
     0
178
     0
270
     2
271
     2
272
     2
273
     2
274
     2
340
10
275
     0
280
     0
281
     0
282
     0
283
     1
284
     8
285
     0
286
     0
287
     3
288
     0
  0
DIMSTYLE
105
198
100
AcDbSymbolTableRecord
100
AcDbDimStyleTableRecord
  2
TOLL-06
 70
     0
  3

  4

  5

  6

  7

 40
1.0
 41
2.5
 42
0.625
 43
3.75
 44
1.25
 45
0.0
 46
0.0
 47
-0.05
 48
0.0
140
3.0
141
2.5
142
0.0
143
0.03937
144
1.0
145
0.0
146
0.8
147
0.625
 71
     1
 72
     0
 73
     0
 74
     0
 75
     0
 76
     0
 77
     1
 78
     8
170
     0
171
     2
172
     0
173
     0
174
     0
175
     0
176
     0
177
     0
178
     0
270
     2
271
     2
272
     2
273
     2
274
     2
340
10
275
     0
280
     0
281
     0
282
     0
283
     2
284
     8
285
     0
286
     0
287
     3
288
     0
  0
DIMSTYLE
105
20B
100
AcDbSymbolTableRecord
100
AcDbDimStyleTableRecord
  2
TOLL-01
 70
     0
  3

  4

  5

  6

  7

 40
1.0
 41
2.5
 42
0.625
 43
3.75
 44
1.25
 45
0.0
 46
0.0
 47
0.02
 48
0.0
140
3.0
141
2.5
142
0.0
143
0.03937
144
1.0
145
0.0
146
0.8
147
0.625
 71
     1
 72
     0
 73
     0
 74
     0
 75
     0
 76
     0
 77
     1
 78
     8
170
     0
171
     2
172
     0
173
     0
174
     0
175
     0
176
     0
177
     0
178
     0
270
     2
271
     2
272
     2
273
     2
274
     2
340
10
275
     0
280
     0
281
     0
282
     0
283
     2
284
     8
285
     0
286
     0
287
     3
288
     0
  0
DIMSTYLE
105
232
100
AcDbSymbolTableRecord
100
AcDbDimStyleTableRecord
  2
TOLL-02
 70
     0
  3

  4

  5

  6

  7

 40
1.0
 41
2.5
 42
0.625
 43
3.75
 44
1.25
 45
0.0
 46
0.0
 47
-0.02
 48
0.0
140
3.0
141
2.5
142
0.0
143
0.03937
144
1.0
145
0.0
146
0.8
147
0.625
 71
     1
 72
     0
 73
     0
 74
     0
 75
     0
 76
     0
 77
     1
 78
     8
170
     0
171
     2
172
     0
173
     0
174
     0
175
     0
176
     0
177
     0
178
     0
270
     2
271
     2
272
     2
273
     2
274
     2
340
10
275
     0
280
     0
281
     0
282
     0
283
     2
284
     8
285
     0
286
     0
287
     3
288
     0
  0
DIMSTYLE
105
233
100
AcDbSymbolTableRecord
100
AcDbDimStyleTableRecord
  2
TOLL-03
 70
     0
  3

  4

  5

  6

  7

 40
1.0
 41
2.5
 42
0.625
 43
3.75
 44
1.25
 45
0.0
 46
0.0
 47
0.01
 48
0.01
140
3.0
141
2.5
142
0.0
143
0.03937
144
1.0
145
0.0
146
0.8
147
0.625
 71
     1
 72
     0
 73
     0
 74
     0
 75
     0
 76
     0
 77
     1
 78
     8
170
     0
171
     2
172
     0
173
     0
174
     0
175
     0
176
     0
177
     0
178
     0
270
     2
271
     2
272
     2
273
     2
274
     2
340
10
275
     0
280
     0
281
     0
282
     0
283
     2
284
     8
285
     0
286
     0
287
     3
288
     0
  0
DIMSTYLE
105
234
100
AcDbSymbolTableRecord
100
AcDbDimStyleTableRecord
  2
TOLL-04
 70
     0
  3

  4

  5

  6

  7

 40
1.0
 41
2.5
 42
0.625
 43
3.75
 44
1.25
 45
0.0
 46
0.0
 47
0.05
 48
0.05
140
3.0
141
2.5
142
0.0
143
0.03937
144
1.0
145
0.0
146
0.8
147
0.625
 71
     1
 72
     0
 73
     0
 74
     0
 75
     0
 76
     0
 77
     1
 78
     8
170
     0
171
     2
172
     0
173
     0
174
     0
175
     0
176
     0
177
     0
178
     0
270
     2
271
     2
272
     2
273
     2
274
     2
340
10
275
     0
280
     0
281
     0
282
     0
283
     2
284
     8
285
     0
286
     0
287
     3
288
     0
  0
DIMSTYLE
105
235
100
AcDbSymbolTableRecord
100
AcDbDimStyleTableRecord
  2
TOLL-05
 70
     0
  3

  4

  5

  6

  7

 40
1.0
 41
2.5
 42
0.625
 43
3.75
 44
1.25
 45
0.0
 46
0.0
 47
0.05
 48
0.0
140
3.0
141
2.5
142
0.0
143
0.03937
144
1.0
145
0.0
146
0.8
147
0.625
 71
     1
 72
     0
 73
     0
 74
     0
 75
     0
 76
     0
 77
     1
 78
     8
170
     0
171
     2
172
     0
173
     0
174
     0
175
     0
176
     0
177
     0
178
     0
270
     2
271
     2
272
     2
273
     2
274
     2
340
10
275
     0
280
     0
281
     0
282
     0
283
     2
284
     8
285
     0
286
     0
287
     3
288
     0
  0
DIMSTYLE
105
247
100
AcDbSymbolTableRecord
100
AcDbDimStyleTableRecord
  2
TOLL-07
 70
     0
  3

  4

  5

  6

  7

 40
1.0
 41
2.5
 42
0.625
 43
3.75
 44
1.25
 45
0.0
 46
0.0
 47
0.1
 48
0.1
140
3.0
141
2.5
142
0.0
143
0.03937
144
1.0
145
0.0
146
1.0
147
0.625
 71
     1
 72
     0
 73
     0
 74
     0
 75
     0
 76
     0
 77
     1
 78
     8
170
     0
171
     2
172
     0
173
     0
174
     0
175
     0
176
     0
177
     0
178
     0
270
     2
271
     2
272
     2
273
     2
274
     2
340
10
275
     0
280
     0
281
     0
282
     0
283
     1
284
     8
285
     0
286
     0
287
     3
288
     0
  0
DIMSTYLE
105
251
100
AcDbSymbolTableRecord
100
AcDbDimStyleTableRecord
  2
TOLL-08
 70
     0
  3

  4

  5

  6

  7

 40
1.0
 41
2.5
 42
0.625
 43
3.75
 44
1.25
 45
0.0
 46
0.0
 47
0.1
 48
0.0
140
3.0
141
2.5
142
0.0
143
0.03937
144
1.0
145
0.0
146
1.0
147
0.625
 71
     1
 72
     0
 73
     0
 74
     0
 75
     0
 76
     0
 77
     1
 78
     8
170
     0
171
     2
172
     0
173
     0
174
     0
175
     0
176
     0
177
     0
178
     0
270
     2
271
     2
272
     2
273
     2
274
     2
340
10
275
     0
280
     0
281
     0
282
     0
283
     1
284
     8
285
     0
286
     0
287
     3
288
     0
  0
DIMSTYLE
105
257
100
AcDbSymbolTableRecord
100
AcDbDimStyleTableRecord
  2
TOLL-09
 70
     0
  3

  4

  5

  6

  7

 40
1.0
 41
2.5
 42
0.625
 43
3.75
 44
1.25
 45
0.0
 46
0.0
 47
-0.1
 48
0.0
140
3.0
141
2.5
142
0.0
143
0.03937
144
1.0
145
0.0
146
1.0
147
0.625
 71
     1
 72
     0
 73
     0
 74
     0
 75
     0
 76
     0
 77
     1
 78
     8
170
     0
171
     2
172
     0
173
     0
174
     0
175
     0
176
     0
177
     0
178
     0
270
     2
271
     2
272
     2
273
     2
274
     2
340
10
275
     0
280
     0
281
     0
282
     0
283
     1
284
     8
285
     0
286
     0
287
     3
288
     0
  0
DIMSTYLE
105
258
100
AcDbSymbolTableRecord
100
AcDbDimStyleTableRecord
  2
TOLL-10
 70
     0
  3

  4

  5

  6

  7

 40
1.0
 41
2.5
 42
0.625
 43
3.75
 44
1.25
 45
0.0
 46
0.0
 47
0.2
 48
0.2
140
3.0
141
2.5
142
0.0
143
0.03937
144
1.0
145
0.0
146
1.0
147
0.625
 71
     1
 72
     0
 73
     0
 74
     0
 75
     0
 76
     0
 77
     1
 78
     8
170
     0
171
     2
172
     0
173
     0
174
     0
175
     0
176
     0
177
     0
178
     0
270
     2
271
     2
272
     2
273
     2
274
     2
340
10
275
     0
280
     0
281
     0
282
     0
283
     1
284
     8
285
     0
286
     0
287
     3
288
     0
  0
DIMSTYLE
105
259
100
AcDbSymbolTableRecord
100
AcDbDimStyleTableRecord
  2
TOLL-11
 70
     0
  3

  4

  5

  6

  7

 40
1.0
 41
2.5
 42
0.625
 43
3.75
 44
1.25
 45
0.0
 46
0.0
 47
0.2
 48
0.0
140
3.0
141
2.5
142
0.0
143
0.03937
144
1.0
145
0.0
146
1.0
147
0.625
 71
     1
 72
     0
 73
     0
 74
     0
 75
     0
 76
     0
 77
     1
 78
     8
170
     0
171
     2
172
     0
173
     0
174
     0
175
     0
176
     0
177
     0
178
     0
270
     2
271
     2
272
     2
273
     2
274
     2
340
10
275
     0
280
     0
281
     0
282
     0
283
     1
284
     8
285
     0
286
     0
287
     3
288
     0
  0
DIMSTYLE
105
4A7
100
AcDbSymbolTableRecord
100
AcDbDimStyleTableRecord
  2
ISO-25
 70
     0
  3

  4

  5

  6

  7

 40
1.0
 41
2.5
 42
0.625
 43
3.75
 44
1.25
 45
0.0
 46
0.0
 47
0.0
 48
0.0
140
2.5
141
2.5
142
0.0
143
0.0394
144
1.0
145
1.0
146
1.0
147
0.625
 71
     0
 72
     0
 73
     1
 74
     0
 75
     0
 76
     0
 77
     1
 78
     8
170
     0
171
     2
172
     1
173
     0
174
     0
175
     0
176
     0
177
     0
178
     0
270
     2
271
     4
272
     4
273
     2
274
     2
340
10
275
     0
280
     0
281
     0
282
     0
283
     1
284
     0
285
     0
286
     0
287
     3
288
     0
  0
ENDTAB
  0
TABLE
  2
BLOCK_RECORD
  5
1
100
AcDbSymbolTable
 70
    37
  0
BLOCK_RECORD
  5
19
100
AcDbSymbolTableRecord
100
AcDbBlockTableRecord
  2
*MODEL_SPACE
  0
BLOCK_RECORD
  5
16
100
AcDbSymbolTableRecord
100
AcDbBlockTableRecord
  2
*PAPER_SPACE
  0
BLOCK_RECORD
  5
3A2
100
AcDbSymbolTableRecord
100
AcDbBlockTableRecord
  2
RUGOSITA
  0
BLOCK_RECORD
  5
4A8
100
AcDbSymbolTableRecord
100
AcDbBlockTableRecord
  2
A$C52B2
  0
BLOCK_RECORD
  5
97D
100
AcDbSymbolTableRecord
100
AcDbBlockTableRecord
  2
*D2
  0
BLOCK_RECORD
  5
98A
100
AcDbSymbolTableRecord
100
AcDbBlockTableRecord
  2
*D3
  0
BLOCK_RECORD
  5
997
100
AcDbSymbolTableRecord
100
AcDbBlockTableRecord
  2
*D4
  0
BLOCK_RECORD
  5
9A3
100
AcDbSymbolTableRecord
100
AcDbBlockTableRecord
  2
*D5
  0
BLOCK_RECORD
  5
9AF
100
AcDbSymbolTableRecord
100
AcDbBlockTableRecord
  2
*D6
  0
BLOCK_RECORD
  5
9BC
100
AcDbSymbolTableRecord
100
AcDbBlockTableRecord
  2
*D7
  0
BLOCK_RECORD
  5
9C9
100
AcDbSymbolTableRecord
100
AcDbBlockTableRecord
  2
*D8
  0
BLOCK_RECORD
  5
9D6
100
AcDbSymbolTableRecord
100
AcDbBlockTableRecord
  2
*D9
  0
BLOCK_RECORD
  5
9E2
100
AcDbSymbolTableRecord
100
AcDbBlockTableRecord
  2
*D10
  0
BLOCK_RECORD
  5
9EE
100
AcDbSymbolTableRecord
100
AcDbBlockTableRecord
  2
*D11
  0
BLOCK_RECORD
  5
9FA
100
AcDbSymbolTableRecord
100
AcDbBlockTableRecord
  2
*D12
  0
BLOCK_RECORD
  5
A08
100
AcDbSymbolTableRecord
100
AcDbBlockTableRecord
  2
*D13
  0
BLOCK_RECORD
  5
A15
100
AcDbSymbolTableRecord
100
AcDbBlockTableRecord
  2
*D14
  0
BLOCK_RECORD
  5
A21
100
AcDbSymbolTableRecord
100
AcDbBlockTableRecord
  2
*D15
  0
BLOCK_RECORD
  5
A2D
100
AcDbSymbolTableRecord
100
AcDbBlockTableRecord
  2
*D16
  0
BLOCK_RECORD
  5
A3A
100
AcDbSymbolTableRecord
100
AcDbBlockTableRecord
  2
*D17
  0
BLOCK_RECORD
  5
A47
100
AcDbSymbolTableRecord
100
AcDbBlockTableRecord
  2
*D18
  0
BLOCK_RECORD
  5
A55
100
AcDbSymbolTableRecord
100
AcDbBlockTableRecord
  2
*D19
  0
BLOCK_RECORD
  5
A61
100
AcDbSymbolTableRecord
100
AcDbBlockTableRecord
  2
*D20
  0
BLOCK_RECORD
  5
A6E
100
AcDbSymbolTableRecord
100
AcDbBlockTableRecord
  2
*D21
  0
BLOCK_RECORD
  5
A7A
100
AcDbSymbolTableRecord
100
AcDbBlockTableRecord
  2
*X22
  0
BLOCK_RECORD
  5
AA4
100
AcDbSymbolTableRecord
100
AcDbBlockTableRecord
  2
A$CE200
  0
BLOCK_RECORD
  5
C00
100
AcDbSymbolTableRecord
100
AcDbBlockTableRecord
  2
*D24
  0
BLOCK_RECORD
  5
D5A
100
AcDbSymbolTableRecord
100
AcDbBlockTableRecord
  2
*D25
  0
BLOCK_RECORD
  5
1157
100
AcDbSymbolTableRecord
100
AcDbBlockTableRecord
  2
*D26
  0
BLOCK_RECORD
  5
11F3
100
AcDbSymbolTableRecord
100
AcDbBlockTableRecord
  2
*D27
  0
BLOCK_RECORD
  5
1201
100
AcDbSymbolTableRecord
100
AcDbBlockTableRecord
  2
*D28
  0
BLOCK_RECORD
  5
120F
100
AcDbSymbolTableRecord
100
AcDbBlockTableRecord
  2
*D29
  0
BLOCK_RECORD
  5
121C
100
AcDbSymbolTableRecord
100
AcDbBlockTableRecord
  2
*D30
  0
BLOCK_RECORD
  5
12A1
100
AcDbSymbolTableRecord
100
AcDbBlockTableRecord
  2
*D31
  0
BLOCK_RECORD
  5
13A9
100
AcDbSymbolTableRecord
100
AcDbBlockTableRecord
  2
*D32
  0
BLOCK_RECORD
  5
13B7
100
AcDbSymbolTableRecord
100
AcDbBlockTableRecord
  2
*D33
  0
BLOCK_RECORD
  5
154A
100
AcDbSymbolTableRecord
100
AcDbBlockTableRecord
  2
*X34
  0
BLOCK_RECORD
  5
161E
100
AcDbSymbolTableRecord
100
AcDbBlockTableRecord
  2
*D35
  0
BLOCK_RECORD
  5
164C
100
AcDbSymbolTableRecord
100
AcDbBlockTableRecord
  2
*D36
  0
ENDTAB
  0
ENDSEC
  0
SECTION
  2
BLOCKS
  0
BLOCK
  5
1A
100
AcDbEntity
  8
0
100
AcDbBlockBegin
  2
*MODEL_SPACE
 70
     0
 10
0.0
 20
0.0
 30
0.0
  3
*MODEL_SPACE
  1

  0
ENDBLK
  5
1B
100
AcDbEntity
  8
0
100
AcDbBlockEnd
  0
BLOCK
  5
17
100
AcDbEntity
 67
     1
  8
0
100
AcDbBlockBegin
  2
*PAPER_SPACE
 70
     0
 10
0.0
 20
0.0
 30
0.0
  3
*PAPER_SPACE
  1

  0
ENDBLK
  5
18
100
AcDbEntity
 67
     1
  8
0
100
AcDbBlockEnd
  0
BLOCK
  5
3A7
100
AcDbEntity
  8
DISEGNO
100
AcDbBlockBegin
  2
RUGOSITA
 70
     2
 10
0.0
 20
0.0
 30
0.0
  3
RUGOSITA
  1

  0
ATTDEF
  5
3A3
100
AcDbEntity
  8
QUOTE
100
AcDbText
 10
-1.071886
 20
3.214106
 30
0.0
 40
1.5
  1
0.8
100
AcDbAttributeDefinition
  3
CHE RUGOSITA ?
  2
RUGOSITA
 70
     0
  0
LINE
  5
3A4
100
AcDbEntity
  8
QUOTE
100
AcDbLine
 10
0.0
 20
0.0
 30
0.0
 11
4.0
 21
6.928203
 31
0.0
  0
LINE
  5
3A5
100
AcDbEntity
  8
QUOTE
100
AcDbLine
 10
0.0
 20
0.0
 30
0.0
 11
-1.75
 21
3.031089
 31
0.0
  0
LINE
  5
3A6
100
AcDbEntity
  8
QUOTE
100
AcDbLine
 10
-1.75
 20
3.031089
 30
0.0
 11
1.75
 21
3.031089
 31
0.0
  0
ENDBLK
  5
3A8
100
AcDbEntity
  8
DISEGNO
100
AcDbBlockEnd
  0
BLOCK
  5
547
100
AcDbEntity
  8
QUOTE
100
AcDbBlockBegin
  2
A$C52B2
 70
     0
 10
0.0
 20
0.0
 30
0.0
  3
A$C52B2
  1

  0
LINE
  5
4A9
100
AcDbEntity
  8
TABELLA
  6
CONTINUOUS
100
AcDbLine
 10
100.781064
 20
5.387067
 30
0.0
 11
103.281064
 21
0.387067
 31
0.0
  0
LINE
  5
4AA
100
AcDbEntity
  8
TABELLA
  6
CONTINUOUS
100
AcDbLine
 10
100.781064
 20
0.387067
 30
0.0
 11
103.281064
 21
0.387067
 31
0.0
  0
LINE
  5
4AB
100
AcDbEntity
  8
TABELLA
  6
CONTINUOUS
100
AcDbLine
 10
103.281064
 20
287.387067
 30
0.0
 11
100.781064
 21
282.387067
 31
0.0
  0
LINE
  5
4AC
100
AcDbEntity
  8
TABELLA
  6
CONTINUOUS
100
AcDbLine
 10
100.781064
 20
287.387067
 30
0.0
 11
103.281064
 21
287.387067
 31
0.0
  0
TEXT
  5
4AD
100
AcDbEntity
  8
TABELLA
  6
CONTINUOUS
100
AcDbText
 10
83.891226
 20
14.123583
 30
0.0
 40
6.0
  1
ROLLERI
100
AcDbText
  0
LINE
  5
4AE
100
AcDbEntity
  8
TABELLA
  6
CONTINUOUS
100
AcDbLine
 10
115.706968
 20
22.612261
 30
0.0
 11
84.107383
 21
22.612261
 31
0.0
1001
ACAD
1000
ASC_BOUNDS
1002
{
1070
    19
1002
}
  0
LINE
  5
4AF
100
AcDbEntity
  8
TABELLA
  6
CONTINUOUS
100
AcDbLine
 10
82.055262
 20
11.456564
 30
0.0
 11
113.654847
 21
11.456564
 31
0.0
1001
ACAD
1000
ASC_BOUNDS
1002
{
1070
    19
1002
}
  0
LINE
  5
4B0
100
AcDbEntity
  8
TABELLA
  6
CONTINUOUS
100
AcDbLine
 10
116.407176
 20
23.612261
 30
0.0
 11
83.407176
 21
23.612261
 31
0.0
1001
ACAD
1000
ASC_BOUNDS
1002
{
1070
    19
1002
}
  0
LINE
  5
4B1
100
AcDbEntity
  8
TABELLA
  6
CONTINUOUS
100
AcDbLine
 10
81.355055
 20
10.456564
 30
0.0
 11
114.355055
 21
10.456564
 31
0.0
1001
ACAD
1000
ASC_BOUNDS
1002
{
1070
    19
1002
}
  0
TEXT
  5
4B2
100
AcDbEntity
  8
TABELLA
  6
CONTINUOUS
100
AcDbText
 10
79.770815
 20
6.679292
 30
0.0
 40
2.0
  1
Vigolzone ( Piacenza ) - ITALIA
100
AcDbText
  0
LINE
  5
4B3
100
AcDbEntity
  8
TABELLA
  6
CONTINUOUS
100
AcDbLine
 10
125.782064
 20
35.387067
 30
0.0
 11
75.782064
 21
35.387067
 31
0.0
  0
LINE
  5
4B4
100
AcDbEntity
  8
TABELLA
  6
CONTINUOUS
100
AcDbLine
 10
195.782064
 20
45.387067
 30
0.0
 11
5.697058
 21
45.395351
 31
0.0
  0
LINE
  5
4B5
100
AcDbEntity
  8
TABELLA
  6
CONTINUOUS
100
AcDbLine
 10
125.782064
 20
25.387067
 30
0.0
 11
75.782064
 21
25.387067
 31
0.0
  0
LINE
  5
4B6
100
AcDbEntity
  8
TABELLA
  6
CONTINUOUS
100
AcDbLine
 10
195.782064
 20
5.387067
 30
0.0
 11
5.782064
 21
5.387067
 31
0.0
  0
LINE
  5
4B7
100
AcDbEntity
  8
TABELLA
  6
CONTINUOUS
100
AcDbLine
 10
5.782064
 20
282.387067
 30
0.0
 11
195.782064
 21
282.387067
 31
0.0
  0
LINE
  5
4B8
100
AcDbEntity
  8
TABELLA
  6
CONTINUOUS
100
AcDbLine
 10
5.782064
 20
143.887067
 30
0.0
 11
0.782064
 21
141.387067
 31
0.0
  0
LINE
  5
4B9
100
AcDbEntity
  8
TABELLA
  6
CONTINUOUS
100
AcDbLine
 10
0.782064
 20
143.887067
 30
0.0
 11
0.782064
 21
141.387067
 31
0.0
  0
LINE
  5
4BA
100
AcDbEntity
  8
TABELLA
  6
CONTINUOUS
100
AcDbLine
 10
5.782064
 20
5.387067
 30
0.0
 11
5.782064
 21
282.387067
 31
0.0
  0
POLYLINE
  5
4BB
100
AcDbEntity
  8
QUOTE
100
AcDb2dPolyline
 66
     1
 10
0.0
 20
0.0
 30
0.0
 70
     1
  0
VERTEX
  5
4BC
100
AcDbEntity
  8
QUOTE
100
AcDbVertex
100
AcDb2dVertex
 10
11.507487
 20
62.582414
 30
0.0
  0
VERTEX
  5
4BD
100
AcDbEntity
  8
QUOTE
100
AcDbVertex
100
AcDb2dVertex
 10
11.507487
 20
49.867806
 30
0.0
  0
VERTEX
  5
4BE
100
AcDbEntity
  8
QUOTE
100
AcDbVertex
100
AcDb2dVertex
 10
52.626527
 20
49.867806
 30
0.0
  0
VERTEX
  5
4BF
100
AcDbEntity
  8
QUOTE
100
AcDbVertex
100
AcDb2dVertex
 10
52.626527
 20
62.582414
 30
0.0
  0
SEQEND
  5
4C0
100
AcDbEntity
  8
QUOTE
  0
TOLERANCE
  5
4C1
100
AcDbEntity
  8
QUOTE
  6
CONTINUOUS
100
AcDbFcf
  3
ISO-25
 10
30.863585
 20
54.182522
 30
0.0
  1
{\Fgdt;u}%%v0.02%%v%%v%%v%%v
1001
ACAD
1000
DSTYLE
1002
{
1070
   140
1040
2.6
1070
    47
1040
0.02
1070
    73
1070
     0
1070
   272
1070
     2
1070
   147
1040
0.53
1070
    42
1040
0.5261
1070
    44
1040
1.0522
1070
    43
1040
3.1566
1070
   271
1070
     2
1070
   141
1040
2.1044
1070
    41
1040
2.6
1002
}
  0
TEXT
  5
4C2
100
AcDbEntity
  8
QUOTE
100
AcDbText
 10
12.101072
 20
58.118453
 30
0.0
 40
2.5
  1
TOLLERANZE AL METRO
 41
1.1
100
AcDbText
  0
TEXT
  5
4C3
100
AcDbEntity
  8
TABELLA
  6
CONTINUOUS
100
AcDbText
 10
7.271803
 20
15.7314
 30
0.0
 40
2.0
  1
- Angoli su superfici lavorate = +/- 30'
100
AcDbText
  0
TEXT
  5
4C4
100
AcDbEntity
  8
TABELLA
  6
CONTINUOUS
100
AcDbText
 10
7.271803
 20
23.3314
 30
0.0
 40
2.0
  1
   da mm 151 a mm 500 = +/- 0.4
100
AcDbText
  0
TEXT
  5
4C5
100
AcDbEntity
  8
TABELLA
  6
CONTINUOUS
100
AcDbText
 10
7.271803
 20
27.1314
 30
0.0
 40
2.0
  1
   da mm 51 a mm 150 = +/- 0.3
100
AcDbText
  0
TEXT
  5
4C6
100
AcDbEntity
  8
TABELLA
  6
CONTINUOUS
100
AcDbText
 10
7.271803
 20
30.9314
 30
0.0
 40
2.0
  1
- Superfici lavorate da mm 1 a mm 50 = +/- 0.2
100
AcDbText
  0
TEXT
  5
4C7
100
AcDbEntity
  8
TABELLA
  6
CONTINUOUS
100
AcDbText
 10
7.271803
 20
34.7314
 30
0.0
 40
2.0
  1
- Parti fuse con spessori >10 mm = +/- 10%
100
AcDbText
  0
TEXT
  5
4C8
100
AcDbEntity
  8
TABELLA
  6
CONTINUOUS
100
AcDbText
 10
7.271803
 20
38.5314
 30
0.0
 40
2.0
  1
- Parti fuse con spessori <10 mm = +/- 1 mm
100
AcDbText
  0
TOLERANCE
  5
4C9
100
AcDbEntity
  8
QUOTE
  6
CONTINUOUS
100
AcDbFcf
  3
ISO-25
 10
15.305627
 20
54.182522
 30
0.0
  1
{\Fgdt;b}%%v0.02%%v%%v%%v%%v
1001
ACAD
1000
DSTYLE
1002
{
1070
   140
1040
2.6
1070
    47
1040
0.02
1070
    73
1070
     0
1070
   272
1070
     2
1070
   147
1040
0.53
1070
    42
1040
0.5261
1070
    44
1040
1.0522
1070
    43
1040
3.1566
1070
   271
1070
     2
1070
   141
1040
2.1044
1070
    41
1040
2.6
1002
}
  0
TEXT
  5
4CA
100
AcDbEntity
  8
TABELLA
  6
CONTINUOUS
100
AcDbText
 10
0.769342
 20
51.259863
 30
0.0
 40
4.0
  1
B
100
AcDbText
  0
TEXT
  5
4CB
100
AcDbEntity
  8
TABELLA
  6
CONTINUOUS
100
AcDbText
 10
0.353187
 20
15.100813
 30
0.0
 40
4.0
  1
A
100
AcDbText
  0
LINE
  5
4CC
100
AcDbEntity
  8
TABELLA
  6
CONTINUOUS
100
AcDbLine
 10
5.782064
 20
36.262067
 30
0.0
 11
0.782064
 21
36.262067
 31
0.0
  0
TEXT
  5
4CD
100
AcDbEntity
  8
TABELLA
  6
CONTINUOUS
100
AcDbText
 10
15.583223
 20
0.138446
 30
0.0
 40
4.0
  1
6
100
AcDbText
  0
LINE
  5
4CE
100
AcDbEntity
  8
TABELLA
  6
CONTINUOUS
100
AcDbLine
 10
34.115064
 20
5.387067
 30
0.0
 11
34.115064
 21
0.387067
 31
0.0
  0
TEXT
  5
4CF
100
AcDbEntity
  8
TABELLA
  6
CONTINUOUS
100
AcDbText
 10
7.271803
 20
11.9314
 30
0.0
 40
2.0
  1
- Interassi fori = +/- 0.25
100
AcDbText
  0
TEXT
  5
4D0
100
AcDbEntity
  8
TABELLA
  6
CONTINUOUS
100
AcDbText
 10
7.271803
 20
19.5314
 30
0.0
 40
2.0
  1
   oltre 500 mm = +/- 0.5
100
AcDbText
  0
TEXT
  5
4D1
100
AcDbEntity
  8
TABELLA
  6
CONTINUOUS
100
AcDbText
 10
7.271803
 20
42.3314
 30
0.0
 40
2.0
  1
TOLLERANZE GENERALI :
100
AcDbText
  0
LINE
  5
4D2
100
AcDbEntity
  8
TABELLA
  6
CONTINUOUS
100
AcDbLine
 10
5.782064
 20
72.137067
 30
0.0
 11
0.782064
 21
72.137067
 31
0.0
  0
TEXT
  5
4D3
100
AcDbEntity
  8
TABELLA
  6
CONTINUOUS
100
AcDbText
 10
0.769342
 20
87.459725
 30
0.0
 40
4.0
  1
C
100
AcDbText
  0
LINE
  5
4D4
100
AcDbEntity
  8
TABELLA
  6
CONTINUOUS
100
AcDbLine
 10
5.782064
 20
108.012067
 30
0.0
 11
0.782064
 21
108.012067
 31
0.0
  0
TEXT
  5
4D5
100
AcDbEntity
  8
TABELLA
  6
CONTINUOUS
100
AcDbText
 10
0.769342
 20
124.034397
 30
0.0
 40
4.0
  1
D
100
AcDbText
  0
LINE
  5
4D6
100
AcDbEntity
  8
TABELLA
  6
CONTINUOUS
100
AcDbLine
 10
65.792444
 20
45.394891
 30
0.0
 11
65.782064
 21
5.389662
 31
0.0
  0
TEXT
  5
4D7
100
AcDbEntity
  8
TABELLA
  6
CONTINUOUS
100
AcDbText
 10
68.438556
 20
7.454028
 30
0.0
 40
1.5
  1
A termine di legge la Rolleri si riserva la
 50
90.0
100
AcDbText
  0
TEXT
  5
4D8
100
AcDbEntity
  8
TABELLA
  6
CONTINUOUS
100
AcDbText
 10
49.29176
 20
0.138446
 30
0.0
 40
4.0
  1
5
100
AcDbText
  0
LINE
  5
4D9
100
AcDbEntity
  8
TABELLA
  6
CONTINUOUS
100
AcDbLine
 10
67.448064
 20
5.387067
 30
0.0
 11
67.448064
 21
0.387067
 31
0.0
  0
LINE
  5
4DA
100
AcDbEntity
  8
TABELLA
  6
CONTINUOUS
100
AcDbLine
 10
75.792442
 20
45.387067
 30
0.0
 11
75.792442
 21
5.387067
 31
0.0
  0
TEXT
  5
4DB
100
AcDbEntity
  8
TABELLA
  6
CONTINUOUS
100
AcDbText
 10
74.138556
 20
7.454028
 30
0.0
 40
1.5
  1
di riprodurlo e di comunicarlo a terzi.
 50
90.0
100
AcDbText
  0
TEXT
  5
4DC
100
AcDbEntity
  8
TABELLA
  6
CONTINUOUS
100
AcDbText
 10
71.288556
 20
7.454028
 30
0.0
 40
1.5
  1
proprietà di questo disegno, con divieto
 50
90.0
100
AcDbText
  0
TEXT
  5
4DD
100
AcDbEntity
  8
TABELLA
  6
CONTINUOUS
100
AcDbText
 10
83.416451
 20
0.554068
 30
0.0
 40
4.0
  1
4
100
AcDbText
  0
LINE
  5
4DE
100
AcDbEntity
  8
TABELLA
  6
CONTINUOUS
100
AcDbLine
 10
98.281064
 20
0.387067
 30
0.0
 11
100.781064
 21
5.387067
 31
0.0
  0
LINE
  5
4DF
100
AcDbEntity
  8
TABELLA
  6
CONTINUOUS
100
AcDbLine
 10
100.781064
 20
5.387067
 30
0.0
 11
100.781064
 21
0.387067
 31
0.0
  0
LINE
  5
4E0
100
AcDbEntity
  8
TABELLA
  6
CONTINUOUS
100
AcDbLine
 10
100.781064
 20
0.387067
 30
0.0
 11
98.281064
 21
0.387067
 31
0.0
  0
TEXT
  5
4E1
100
AcDbEntity
  8
TABELLA
  6
CONTINUOUS
100
AcDbText
 10
77.180326
 20
42.484843
 30
0.0
 40
2.0
  1
Materiale
100
AcDbText
  0
TEXT
  5
4E2
100
AcDbEntity
  8
TABELLA
  6
CONTINUOUS
100
AcDbText
 10
76.949018
 20
32.320687
 30
0.0
 40
2.0
  1
Disegnato da
100
AcDbText
  0
LINE
  5
4E3
100
AcDbEntity
  8
TABELLA
  6
CONTINUOUS
100
AcDbLine
 10
84.107383
 20
22.612261
 30
0.0
 11
81.051152
 21
14.215335
 31
0.0
1001
ACAD
1000
ASC_BOUNDS
1002
{
1070
    19
1002
}
  0
LINE
  5
4E4
100
AcDbEntity
  8
TABELLA
  6
CONTINUOUS
100
AcDbLine
 10
83.407176
 20
23.612261
 30
0.0
 11
79.986974
 21
14.215335
 31
0.0
1001
ACAD
1000
ASC_BOUNDS
1002
{
1070
    19
1002
}
  0
LINE
  5
4E5
100
AcDbEntity
  8
TABELLA
  6
CONTINUOUS
100
AcDbLine
 10
81.051152
 20
14.215335
 30
0.0
 11
82.055262
 21
11.456564
 31
0.0
1001
ACAD
1000
ASC_BOUNDS
1002
{
1070
    19
1002
}
  0
LINE
  5
4E6
100
AcDbEntity
  8
TABELLA
  6
CONTINUOUS
100
AcDbLine
 10
79.986974
 20
14.215335
 30
0.0
 11
81.355055
 21
10.456564
 31
0.0
1001
ACAD
1000
ASC_BOUNDS
1002
{
1070
    19
1002
}
  0
LINE
  5
4E7
100
AcDbEntity
  8
TABELLA
  6
CONTINUOUS
100
AcDbLine
 10
100.782064
 20
35.387067
 30
0.0
 11
100.782064
 21
25.387067
 31
0.0
  0
TEXT
  5
4E8
100
AcDbEntity
  8
TABELLA
  6
CONTINUOUS
100
AcDbText
 10
1.185497
 20
230.800736
 30
0.0
 40
4.0
  1
G
100
AcDbText
  0
LINE
  5
4E9
100
AcDbEntity
  8
TABELLA
  6
CONTINUOUS
100
AcDbLine
 10
0.782064
 20
146.387067
 30
0.0
 11
5.782064
 21
143.887067
 31
0.0
  0
LINE
  5
4EA
100
AcDbEntity
  8
TABELLA
  6
CONTINUOUS
100
AcDbLine
 10
5.782064
 20
143.887067
 30
0.0
 11
0.782064
 21
143.887067
 31
0.0
  0
LINE
  5
4EB
100
AcDbEntity
  8
TABELLA
  6
CONTINUOUS
100
AcDbLine
 10
0.782064
 20
143.887067
 30
0.0
 11
0.782064
 21
146.387067
 31
0.0
  0
TEXT
  5
4EC
100
AcDbEntity
  8
TABELLA
  6
CONTINUOUS
100
AcDbText
 10
1.601651
 20
158.319393
 30
0.0
 40
4.0
  1
E
100
AcDbText
  0
LINE
  5
4ED
100
AcDbEntity
  8
TABELLA
  6
CONTINUOUS
100
AcDbLine
 10
5.782064
 20
179.762067
 30
0.0
 11
0.782064
 21
179.762067
 31
0.0
  0
TEXT
  5
4EE
100
AcDbEntity
  8
TABELLA
  6
CONTINUOUS
100
AcDbText
 10
1.185497
 20
195.309687
 30
0.0
 40
4.0
  1
F
100
AcDbText
  0
LINE
  5
4EF
100
AcDbEntity
  8
TABELLA
  6
CONTINUOUS
100
AcDbLine
 10
5.782064
 20
215.637067
 30
0.0
 11
0.782064
 21
215.637067
 31
0.0
  0
LINE
  5
4F0
100
AcDbEntity
  8
TABELLA
  6
CONTINUOUS
100
AcDbLine
 10
5.782064
 20
251.512067
 30
0.0
 11
0.782064
 21
251.512067
 31
0.0
  0
TEXT
  5
4F1
100
AcDbEntity
  8
TABELLA
  6
CONTINUOUS
100
AcDbText
 10
1.185497
 20
268.206651
 30
0.0
 40
4.0
  1
H
100
AcDbText
  0
TEXT
  5
4F2
100
AcDbEntity
  8
TABELLA
  6
CONTINUOUS
100
AcDbText
 10
15.583224
 20
283.209827
 30
0.0
 40
4.0
  1
6
100
AcDbText
  0
LINE
  5
4F3
100
AcDbEntity
  8
TABELLA
  6
CONTINUOUS
100
AcDbLine
 10
34.115064
 20
282.387067
 30
0.0
 11
34.115064
 21
287.387067
 31
0.0
  0
TEXT
  5
4F4
100
AcDbEntity
  8
TABELLA
  6
CONTINUOUS
100
AcDbText
 10
50.12407
 20
283.250638
 30
0.0
 40
4.0
  1
5
100
AcDbText
  0
LINE
  5
4F5
100
AcDbEntity
  8
TABELLA
  6
CONTINUOUS
100
AcDbLine
 10
67.448064
 20
282.387067
 30
0.0
 11
67.448064
 21
287.387067
 31
0.0
  0
TEXT
  5
4F6
100
AcDbEntity
  8
TABELLA
  6
CONTINUOUS
100
AcDbText
 10
83.832607
 20
283.250638
 30
0.0
 40
4.0
  1
4
100
AcDbText
  0
LINE
  5
4F7
100
AcDbEntity
  8
TABELLA
  6
CONTINUOUS
100
AcDbLine
 10
100.781064
 20
282.387067
 30
0.0
 11
98.281064
 21
287.387067
 31
0.0
  0
LINE
  5
4F8
100
AcDbEntity
  8
TABELLA
  6
CONTINUOUS
100
AcDbLine
 10
100.781064
 20
282.387067
 30
0.0
 11
100.781064
 21
287.387067
 31
0.0
  0
LINE
  5
4F9
100
AcDbEntity
  8
TABELLA
  6
CONTINUOUS
100
AcDbLine
 10
100.781064
 20
287.387067
 30
0.0
 11
98.281064
 21
287.387067
 31
0.0
  0
LINE
  5
4FA
100
AcDbEntity
  8
TABELLA
  6
CONTINUOUS
100
AcDbLine
 10
200.782064
 20
141.387067
 30
0.0
 11
195.782064
 21
143.887067
 31
0.0
  0
LINE
  5
4FB
100
AcDbEntity
  8
TABELLA
  6
CONTINUOUS
100
AcDbLine
 10
200.782064
 20
143.887067
 30
0.0
 11
200.782064
 21
141.387067
 31
0.0
  0
LINE
  5
4FC
100
AcDbEntity
  8
TABELLA
  6
CONTINUOUS
100
AcDbLine
 10
191.781227
 20
165.387241
 30
0.0
 11
191.781227
 21
45.387241
 31
0.0
  0
LINE
  5
4FD
100
AcDbEntity
  8
TABELLA
  6
CONTINUOUS
100
AcDbLine
 10
195.782064
 20
5.387067
 30
0.0
 11
195.782064
 21
282.387067
 31
0.0
  0
TEXT
  5
4FE
100
AcDbEntity
  8
TABELLA
  6
CONTINUOUS
100
AcDbText
 10
147.267168
 20
42.484843
 30
0.0
 40
2.0
  1
Trattamento Termico
100
AcDbText
  0
TEXT
  5
4FF
100
AcDbEntity
  8
TABELLA
  6
CONTINUOUS
100
AcDbText
 10
161.83968
 20
32.089683
 30
0.0
 40
2.0
  1
Scala
100
AcDbText
  0
TEXT
  5
500
100
AcDbEntity
  8
TABELLA
  6
CONTINUOUS
100
AcDbText
 10
162.070991
 20
12.223377
 30
0.0
 40
2.0
  1
Data
100
AcDbText
  0
LINE
  5
501
100
AcDbEntity
  8
TABELLA
  6
CONTINUOUS
100
AcDbLine
 10
125.782064
 20
35.387067
 30
0.0
 11
195.782064
 21
35.387067
 31
0.0
  0
LINE
  5
502
100
AcDbEntity
  8
TABELLA
  6
CONTINUOUS
100
AcDbLine
 10
125.782064
 20
25.387067
 30
0.0
 11
195.782064
 21
25.387067
 31
0.0
  0
LINE
  5
503
100
AcDbEntity
  8
TABELLA
  6
CONTINUOUS
100
AcDbLine
 10
120.666552
 20
15.457427
 30
0.0
 11
195.782064
 21
15.387067
 31
0.0
  0
TEXT
  5
504
100
AcDbEntity
  8
TABELLA
  6
CONTINUOUS
100
AcDbText
 10
116.965597
 20
42.484843
 30
0.0
 40
2.0
  1
Dimensioni di prelievo
100
AcDbText
  0
TEXT
  5
505
100
AcDbEntity
  8
TABELLA
  6
CONTINUOUS
100
AcDbText
 10
126.911915
 20
32.089683
 30
0.0
 40
2.0
  1
Approvato da - data
100
AcDbText
  0
TEXT
  5
506
100
AcDbEntity
  8
TABELLA
  6
CONTINUOUS
100
AcDbText
 10
121.823101
 20
22.387534
 30
0.0
 40
2.0
  1
Particolare
100
AcDbText
  0
LINE
  5
507
100
AcDbEntity
  8
TABELLA
  6
CONTINUOUS
100
AcDbLine
 10
120.782064
 20
15.387067
 30
0.0
 11
120.782064
 21
5.387067
 31
0.0
  0
TEXT
  5
508
100
AcDbEntity
  8
TABELLA
  6
CONTINUOUS
100
AcDbText
 10
116.708833
 20
0.138446
 30
0.0
 40
4.0
  1
3
100
AcDbText
  0
LINE
  5
509
100
AcDbEntity
  8
TABELLA
  6
CONTINUOUS
100
AcDbLine
 10
116.711078
 20
19.853491
 30
0.0
 11
115.706968
 21
22.612261
 31
0.0
1001
ACAD
1000
ASC_BOUNDS
1002
{
1070
    19
1002
}
  0
LINE
  5
50A
100
AcDbEntity
  8
TABELLA
  6
CONTINUOUS
100
AcDbLine
 10
113.654847
 20
11.456564
 30
0.0
 11
116.711078
 21
19.853491
 31
0.0
1001
ACAD
1000
ASC_BOUNDS
1002
{
1070
    19
1002
}
  0
LINE
  5
50B
100
AcDbEntity
  8
TABELLA
  6
CONTINUOUS
100
AcDbLine
 10
114.355055
 20
10.456564
 30
0.0
 11
117.775256
 21
19.853491
 31
0.0
1001
ACAD
1000
ASC_BOUNDS
1002
{
1070
    19
1002
}
  0
TEXT
  5
50C
100
AcDbEntity
  8
TABELLA
  6
CONTINUOUS
100
AcDbText
 10
101.930465
 20
32.089683
 30
0.0
 40
2.0
  1
Controllato da
100
AcDbText
  0
LINE
  5
50D
100
AcDbEntity
  8
TABELLA
  6
CONTINUOUS
100
AcDbLine
 10
115.782064
 20
35.387067
 30
0.0
 11
115.782064
 21
45.387067
 31
0.0
  0
LINE
  5
50E
100
AcDbEntity
  8
TABELLA
  6
CONTINUOUS
100
AcDbLine
 10
125.782064
 20
35.387067
 30
0.0
 11
125.782064
 21
25.387067
 31
0.0
  0
TEXT
  5
50F
100
AcDbEntity
  8
TABELLA
  6
CONTINUOUS
100
AcDbText
 10
121.591791
 20
12.223377
 30
0.0
 40
2.0
  1
Disegno
100
AcDbText
  0
LINE
  5
510
100
AcDbEntity
  8
TABELLA
  6
CONTINUOUS
100
AcDbLine
 10
117.775256
 20
19.853491
 30
0.0
 11
116.407176
 21
23.612261
 31
0.0
1001
ACAD
1000
ASC_BOUNDS
1002
{
1070
    19
1002
}
  0
LINE
  5
511
100
AcDbEntity
  8
TABELLA
  6
CONTINUOUS
100
AcDbLine
 10
120.782064
 20
25.387067
 30
0.0
 11
120.782064
 21
15.387067
 31
0.0
  0
LINE
  5
512
100
AcDbEntity
  8
TABELLA
  6
CONTINUOUS
100
AcDbLine
 10
160.782064
 20
15.387067
 30
0.0
 11
160.782064
 21
5.387067
 31
0.0
  0
LINE
  5
513
100
AcDbEntity
  8
TABELLA
  6
CONTINUOUS
100
AcDbLine
 10
134.114064
 20
5.387067
 30
0.0
 11
134.114064
 21
0.387067
 31
0.0
  0
TEXT
  5
514
100
AcDbEntity
  8
TABELLA
  6
CONTINUOUS
100
AcDbText
 10
150.41737
 20
0.138446
 30
0.0
 40
4.0
  1
2
100
AcDbText
  0
LINE
  5
515
100
AcDbEntity
  8
TABELLA
  6
CONTINUOUS
100
AcDbLine
 10
145.782064
 20
35.387067
 30
0.0
 11
145.782064
 21
45.387067
 31
0.0
  0
LINE
  5
516
100
AcDbEntity
  8
TABELLA
  6
CONTINUOUS
100
AcDbLine
 10
160.782064
 20
35.387067
 30
0.0
 11
160.782064
 21
25.387067
 31
0.0
  0
TEXT
  5
517
100
AcDbEntity
  8
TABELLA
  6
CONTINUOUS
100
AcDbText
 10
197.026704
 20
51.259863
 30
0.0
 40
4.0
  1
B
100
AcDbText
  0
TEXT
  5
518
100
AcDbEntity
  8
TABELLA
  6
CONTINUOUS
100
AcDbText
 10
195.001816
 20
46.303578
 30
0.0
 40
2.0
  1
N° rev.
 50
90.0
100
AcDbText
  0
LINE
  5
519
100
AcDbEntity
  8
TABELLA
  6
CONTINUOUS
100
AcDbLine
 10
176.747411
 20
30.474182
 30
0.0
 11
194.673913
 21
30.474182
 31
0.0
  0
LINE
  5
51A
100
AcDbEntity
  8
TABELLA
  6
CONTINUOUS
100
AcDbLine
 10
180.782064
 20
15.387067
 30
0.0
 11
180.782064
 21
5.387067
 31
0.0
  0
LINE
  5
51B
100
AcDbEntity
  8
TABELLA
  6
CONTINUOUS
100
AcDbLine
 10
167.447064
 20
5.387067
 30
0.0
 11
167.447064
 21
0.387067
 31
0.0
  0
TEXT
  5
51C
100
AcDbEntity
  8
TABELLA
  6
CONTINUOUS
100
AcDbText
 10
184.542061
 20
0.138446
 30
0.0
 40
4.0
  1
1
100
AcDbText
  0
LINE
  5
51D
100
AcDbEntity
  8
TABELLA
  6
CONTINUOUS
100
AcDbLine
 10
176.747411
 20
31.974182
 30
0.0
 11
182.656258
 21
33.016071
 31
0.0
  0
LINE
  5
51E
100
AcDbEntity
  8
TABELLA
  6
CONTINUOUS
100
AcDbLine
 10
176.747411
 20
28.974182
 30
0.0
 11
182.656258
 21
27.932293
 31
0.0
  0
LINE
  5
51F
100
AcDbEntity
  8
TABELLA
  6
CONTINUOUS
100
AcDbLine
 10
176.747411
 20
31.974182
 30
0.0
 11
176.747411
 21
28.974182
 31
0.0
  0
LINE
  5
520
100
AcDbEntity
  8
TABELLA
  6
CONTINUOUS
100
AcDbLine
 10
175.782064
 20
35.387067
 30
0.0
 11
175.782064
 21
25.387067
 31
0.0
  0
CIRCLE
  5
521
100
AcDbEntity
  8
TABELLA
  6
CONTINUOUS
100
AcDbCircle
 10
189.932065
 20
30.474182
 30
0.0
 40
1.5
  0
LINE
  5
522
100
AcDbEntity
  8
TABELLA
  6
CONTINUOUS
100
AcDbLine
 10
189.932065
 20
28.369782
 30
0.0
 11
189.932065
 21
32.578582
 31
0.0
  0
CIRCLE
  5
523
100
AcDbEntity
  8
TABELLA
  6
CONTINUOUS
100
AcDbCircle
 10
189.932065
 20
30.474182
 30
0.0
 40
2.54
  0
LINE
  5
524
100
AcDbEntity
  8
TABELLA
  6
CONTINUOUS
100
AcDbLine
 10
182.656258
 20
33.016071
 30
0.0
 11
182.656258
 21
27.932293
 31
0.0
  0
TEXT
  5
525
100
AcDbEntity
  8
TABELLA
  6
CONTINUOUS
100
AcDbText
 10
181.963625
 20
11.992375
 30
0.0
 40
2.0
  1
Formato
100
AcDbText
  0
LINE
  5
526
100
AcDbEntity
  8
TABELLA
  6
CONTINUOUS
100
AcDbLine
 10
187.827665
 20
30.474182
 30
0.0
 11
192.036465
 21
30.474182
 31
0.0
  0
LINE
  5
527
100
AcDbEntity
  8
TABELLA
  6
CONTINUOUS
100
AcDbLine
 10
195.782064
 20
5.387067
 30
0.0
 11
195.782064
 21
35.387067
 31
0.0
  0
TEXT
  5
528
100
AcDbEntity
  8
TABELLA
  6
CONTINUOUS
100
AcDbText
 10
197.026704
 20
14.685191
 30
0.0
 40
4.0
  1
A
100
AcDbText
  0
LINE
  5
529
100
AcDbEntity
  8
TABELLA
  6
CONTINUOUS
100
AcDbLine
 10
195.782064
 20
36.262067
 30
0.0
 11
200.782064
 21
36.262067
 31
0.0
  0
TEXT
  5
52A
100
AcDbEntity
  8
TABELLA
  6
CONTINUOUS
100
AcDbText
 10
195.209894
 20
130.984517
 30
0.0
 40
2.0
  1
Data
 50
90.0
100
AcDbText
  0
TEXT
  5
52B
100
AcDbEntity
  8
TABELLA
  6
CONTINUOUS
100
AcDbText
 10
195.209894
 20
56.278486
 30
0.0
 40
2.0
  1
Nota di revisione
 50
90.0
100
AcDbText
  0
LINE
  5
52C
100
AcDbEntity
  8
TABELLA
  6
CONTINUOUS
100
AcDbLine
 10
191.781227
 20
55.387241
 30
0.0
 11
195.782064
 21
55.387241
 31
0.0
  0
LINE
  5
52D
100
AcDbEntity
  8
TABELLA
  6
CONTINUOUS
100
AcDbLine
 10
191.781227
 20
130.387241
 30
0.0
 11
195.782064
 21
130.387241
 31
0.0
  0
LINE
  5
52E
100
AcDbEntity
  8
TABELLA
  6
CONTINUOUS
100
AcDbLine
 10
195.782064
 20
72.137067
 30
0.0
 11
200.782064
 21
72.137067
 31
0.0
  0
TEXT
  5
52F
100
AcDbEntity
  8
TABELLA
  6
CONTINUOUS
100
AcDbText
 10
197.442859
 20
87.459725
 30
0.0
 40
4.0
  1
C
100
AcDbText
  0
LINE
  5
530
100
AcDbEntity
  8
TABELLA
  6
CONTINUOUS
100
AcDbLine
 10
195.782064
 20
108.012067
 30
0.0
 11
200.782064
 21
108.012067
 31
0.0
  0
TEXT
  5
531
100
AcDbEntity
  8
TABELLA
  6
CONTINUOUS
100
AcDbText
 10
197.442859
 20
123.618776
 30
0.0
 40
4.0
  1
D
100
AcDbText
  0
TEXT
  5
532
100
AcDbEntity
  8
TABELLA
  6
CONTINUOUS
100
AcDbText
 10
116.708835
 20
283.250638
 30
0.0
 40
4.0
  1
3
100
AcDbText
  0
LINE
  5
533
100
AcDbEntity
  8
TABELLA
  6
CONTINUOUS
100
AcDbLine
 10
134.114064
 20
282.387067
 30
0.0
 11
134.114064
 21
287.387067
 31
0.0
  0
TEXT
  5
534
100
AcDbEntity
  8
TABELLA
  6
CONTINUOUS
100
AcDbText
 10
150.417372
 20
283.250638
 30
0.0
 40
4.0
  1
2
100
AcDbText
  0
TEXT
  5
535
100
AcDbEntity
  8
TABELLA
  6
CONTINUOUS
100
AcDbText
 10
197.026704
 20
230.800736
 30
0.0
 40
4.0
  1
G
100
AcDbText
  0
TEXT
  5
536
100
AcDbEntity
  8
TABELLA
  6
CONTINUOUS
100
AcDbText
 10
195.209894
 20
155.7956
 30
0.0
 40
2.0
  1
Control.
 50
90.0
100
AcDbText
  0
TEXT
  5
537
100
AcDbEntity
  8
TABELLA
  6
CONTINUOUS
100
AcDbText
 10
195.209894
 20
146.028502
 30
0.0
 40
2.0
  1
Firma
 50
90.0
100
AcDbText
  0
LINE
  5
538
100
AcDbEntity
  8
TABELLA
  6
CONTINUOUS
100
AcDbLine
 10
191.781227
 20
145.387241
 30
0.0
 11
195.782064
 21
145.387241
 31
0.0
  0
LINE
  5
539
100
AcDbEntity
  8
TABELLA
  6
CONTINUOUS
100
AcDbLine
 10
191.781227
 20
155.387241
 30
0.0
 11
195.782064
 21
155.387241
 31
0.0
  0
LINE
  5
53A
100
AcDbEntity
  8
TABELLA
  6
CONTINUOUS
100
AcDbLine
 10
191.781227
 20
165.387241
 30
0.0
 11
195.782064
 21
165.387241
 31
0.0
  0
LINE
  5
53B
100
AcDbEntity
  8
TABELLA
  6
CONTINUOUS
100
AcDbLine
 10
195.782064
 20
143.887067
 30
0.0
 11
200.782064
 21
146.387067
 31
0.0
  0
LINE
  5
53C
100
AcDbEntity
  8
TABELLA
  6
CONTINUOUS
100
AcDbLine
 10
195.782064
 20
143.887067
 30
0.0
 11
200.782064
 21
143.887067
 31
0.0
  0
LINE
  5
53D
100
AcDbEntity
  8
TABELLA
  6
CONTINUOUS
100
AcDbLine
 10
200.782064
 20
143.887067
 30
0.0
 11
200.782064
 21
146.387067
 31
0.0
  0
TEXT
  5
53E
100
AcDbEntity
  8
TABELLA
  6
CONTINUOUS
100
AcDbText
 10
197.442859
 20
158.319393
 30
0.0
 40
4.0
  1
E
100
AcDbText
  0
LINE
  5
53F
100
AcDbEntity
  8
TABELLA
  6
CONTINUOUS
100
AcDbLine
 10
195.782064
 20
179.762067
 30
0.0
 11
200.782064
 21
179.762067
 31
0.0
  0
TEXT
  5
540
100
AcDbEntity
  8
TABELLA
  6
CONTINUOUS
100
AcDbText
 10
197.859013
 20
195.309687
 30
0.0
 40
4.0
  1
F
100
AcDbText
  0
LINE
  5
541
100
AcDbEntity
  8
TABELLA
  6
CONTINUOUS
100
AcDbLine
 10
195.782064
 20
215.637067
 30
0.0
 11
200.782064
 21
215.637067
 31
0.0
  0
LINE
  5
542
100
AcDbEntity
  8
TABELLA
  6
CONTINUOUS
100
AcDbLine
 10
167.447064
 20
282.387067
 30
0.0
 11
167.447064
 21
287.387067
 31
0.0
  0
TEXT
  5
543
100
AcDbEntity
  8
TABELLA
  6
CONTINUOUS
100
AcDbText
 10
184.958217
 20
283.250638
 30
0.0
 40
4.0
  1
1
100
AcDbText
  0
LINE
  5
544
100
AcDbEntity
  8
TABELLA
  6
CONTINUOUS
100
AcDbLine
 10
195.782064
 20
282.387067
 30
0.0
 11
195.782064
 21
278.387067
 31
0.0
  0
LINE
  5
545
100
AcDbEntity
  8
TABELLA
  6
CONTINUOUS
100
AcDbLine
 10
195.782064
 20
251.512067
 30
0.0
 11
200.782064
 21
251.512067
 31
0.0
  0
TEXT
  5
546
100
AcDbEntity
  8
TABELLA
  6
CONTINUOUS
100
AcDbText
 10
197.026704
 20
268.206651
 30
0.0
 40
4.0
  1
H
100
AcDbText
  0
ENDBLK
  5
548
100
AcDbEntity
  8
QUOTE
100
AcDbBlockEnd
  0
BLOCK
  5
988
100
AcDbEntity
  8
0
100
AcDbBlockBegin
  2
*D2
 70
    65
 10
0.0
 20
0.0
 30
0.0
  3
*D2
  1

  0
LINE
  5
97E
100
AcDbEntity
  8
0
  6
BYBLOCK
 62
     0
100
AcDbLine
 10
83.139392
 20
229.953348
 30
0.0
 11
83.139392
 21
251.156295
 31
0.0
  0
LINE
  5
97F
100
AcDbEntity
  8
0
  6
BYBLOCK
 62
     0
100
AcDbLine
 10
96.739392
 20
229.953348
 30
0.0
 11
96.739392
 21
251.156295
 31
0.0
  0
LINE
  5
980
100
AcDbEntity
  8
0
  6
BYBLOCK
 62
     0
100
AcDbLine
 10
94.239392
 20
249.906295
 30
0.0
 11
85.639392
 21
249.906295
 31
0.0
  0
LINE
  5
981
100
AcDbEntity
  8
0
  6
BYBLOCK
 62
     0
100
AcDbLine
 10
83.139392
 20
249.906295
 30
0.0
 11
65.548831
 21
249.906295
 31
0.0
  0
SOLID
  5
982
100
AcDbEntity
  8
0
  6
BYBLOCK
 62
     0
100
AcDbTrace
 10
94.239392
 20
250.322961
 30
0.0
 11
94.239392
 21
249.489628
 31
0.0
 12
96.739392
 22
249.906295
 32
0.0
 13
96.739392
 23
249.906295
 33
0.0
  0
SOLID
  5
983
100
AcDbEntity
  8
0
  6
BYBLOCK
 62
     0
100
AcDbTrace
 10
85.639392
 20
250.322961
 30
0.0
 11
85.639392
 21
249.489628
 31
0.0
 12
83.139392
 22
249.906295
 32
0.0
 13
83.139392
 23
249.906295
 33
0.0
  0
MTEXT
  5
984
100
AcDbEntity
  8
0
  6
BYBLOCK
 62
     0
100
AcDbMText
 10
73.554507
 20
252.031295
 30
0.0
 40
3.0
 41
0.0
 71
     5
 72
     1
  1
\A2;13.6{\H2.400000;±0.05}
  0
POINT
  5
985
100
AcDbEntity
  8
DEFPOINTS
  6
BYBLOCK
 62
     0
100
AcDbPoint
 10
83.139392
 20
229.328348
 30
0.0
  0
POINT
  5
986
100
AcDbEntity
  8
DEFPOINTS
  6
BYBLOCK
 62
     0
100
AcDbPoint
 10
96.739392
 20
229.328348
 30
0.0
  0
POINT
  5
987
100
AcDbEntity
  8
DEFPOINTS
  6
BYBLOCK
 62
     0
100
AcDbPoint
 10
96.739392
 20
249.906295
 30
0.0
  0
ENDBLK
  5
989
100
AcDbEntity
  8
0
100
AcDbBlockEnd
  0
BLOCK
  5
995
100
AcDbEntity
  8
0
100
AcDbBlockBegin
  2
*D3
 70
    65
 10
0.0
 20
0.0
 30
0.0
  3
*D3
  1

  0
LINE
  5
98B
100
AcDbEntity
  8
0
  6
BYBLOCK
 62
     0
100
AcDbLine
 10
96.739392
 20
229.953348
 30
0.0
 11
96.739392
 21
251.156295
 31
0.0
  0
LINE
  5
98C
100
AcDbEntity
  8
0
  6
BYBLOCK
 62
     0
100
AcDbLine
 10
103.439392
 20
249.361622
 30
0.0
 11
103.439392
 21
251.156295
 31
0.0
  0
LINE
  5
98D
100
AcDbEntity
  8
0
  6
BYBLOCK
 62
     0
100
AcDbLine
 10
99.239392
 20
249.906295
 30
0.0
 11
100.939392
 21
249.906295
 31
0.0
  0
LINE
  5
98E
100
AcDbEntity
  8
0
  6
BYBLOCK
 62
     0
100
AcDbLine
 10
103.439392
 20
249.906295
 30
0.0
 11
130.160498
 21
249.906295
 31
0.0
  0
SOLID
  5
98F
100
AcDbEntity
  8
0
  6
BYBLOCK
 62
     0
100
AcDbTrace
 10
99.239392
 20
250.322961
 30
0.0
 11
99.239392
 21
249.489628
 31
0.0
 12
96.739392
 22
249.906295
 32
0.0
 13
96.739392
 23
249.906295
 33
0.0
  0
SOLID
  5
990
100
AcDbEntity
  8
0
  6
BYBLOCK
 62
     0
100
AcDbTrace
 10
100.939392
 20
250.322961
 30
0.0
 11
100.939392
 21
249.489628
 31
0.0
 12
103.439392
 22
249.906295
 32
0.0
 13
103.439392
 23
249.906295
 33
0.0
  0
MTEXT
  5
991
100
AcDbEntity
  8
0
  6
BYBLOCK
 62
     0
100
AcDbMText
 10
122.979822
 20
252.031295
 30
0.0
 40
3.0
 41
0.0
 71
     5
 72
     1
  1
\A2;6.7{\H2.400000;±0.05}
  0
POINT
  5
992
100
AcDbEntity
  8
DEFPOINTS
  6
BYBLOCK
 62
     0
100
AcDbPoint
 10
96.739392
 20
229.328348
 30
0.0
  0
POINT
  5
993
100
AcDbEntity
  8
DEFPOINTS
  6
BYBLOCK
 62
     0
100
AcDbPoint
 10
103.439392
 20
248.736622
 30
0.0
  0
POINT
  5
994
100
AcDbEntity
  8
DEFPOINTS
  6
BYBLOCK
 62
     0
100
AcDbPoint
 10
103.439392
 20
249.906295
 30
0.0
  0
ENDBLK
  5
996
100
AcDbEntity
  8
0
100
AcDbBlockEnd
  0
BLOCK
  5
9A1
100
AcDbEntity
  8
0
100
AcDbBlockBegin
  2
*D4
 70
    65
 10
0.0
 20
0.0
 30
0.0
  3
*D4
  1

  0
LINE
  5
998
100
AcDbEntity
  8
0
  6
BYBLOCK
 62
     0
100
AcDbLine
 10
83.139392
 20
229.953348
 30
0.0
 11
83.139392
 21
273.164196
 31
0.0
  0
LINE
  5
999
100
AcDbEntity
  8
0
  6
BYBLOCK
 62
     0
100
AcDbLine
 10
109.739392
 20
200.453348
 30
0.0
 11
109.739392
 21
273.164196
 31
0.0
  0
LINE
  5
99A
100
AcDbEntity
  8
0
  6
BYBLOCK
 62
     0
100
AcDbLine
 10
85.639392
 20
271.914196
 30
0.0
 11
107.239392
 21
271.914196
 31
0.0
  0
SOLID
  5
99B
100
AcDbEntity
  8
0
  6
BYBLOCK
 62
     0
100
AcDbTrace
 10
85.639392
 20
272.330863
 30
0.0
 11
85.639392
 21
271.497529
 31
0.0
 12
83.139392
 22
271.914196
 32
0.0
 13
83.139392
 23
271.914196
 33
0.0
  0
SOLID
  5
99C
100
AcDbEntity
  8
0
  6
BYBLOCK
 62
     0
100
AcDbTrace
 10
107.239392
 20
272.330863
 30
0.0
 11
107.239392
 21
271.497529
 31
0.0
 12
109.739392
 22
271.914196
 32
0.0
 13
109.739392
 23
271.914196
 33
0.0
  0
MTEXT
  5
99D
100
AcDbEntity
  8
0
  6
BYBLOCK
 62
     0
100
AcDbMText
 10
96.439392
 20
274.039196
 30
0.0
 40
3.0
 41
0.0
 71
     5
 72
     1
  1
\A2;26.6{\H2.400000;±0.05}
  0
POINT
  5
99E
100
AcDbEntity
  8
DEFPOINTS
  6
BYBLOCK
 62
     0
100
AcDbPoint
 10
83.139392
 20
229.328348
 30
0.0
  0
POINT
  5
99F
100
AcDbEntity
  8
DEFPOINTS
  6
BYBLOCK
 62
     0
100
AcDbPoint
 10
109.739392
 20
199.828348
 30
0.0
  0
POINT
  5
9A0
100
AcDbEntity
  8
DEFPOINTS
  6
BYBLOCK
 62
     0
100
AcDbPoint
 10
109.739392
 20
271.914196
 30
0.0
  0
ENDBLK
  5
9A2
100
AcDbEntity
  8
0
100
AcDbBlockEnd
  0
BLOCK
  5
9AD
100
AcDbEntity
  8
0
100
AcDbBlockBegin
  2
*D5
 70
    65
 10
0.0
 20
0.0
 30
0.0
  3
*D5
  1

  0
LINE
  5
9A4
100
AcDbEntity
  8
0
  6
BYBLOCK
 62
     0
100
AcDbLine
 10
82.514392
 20
229.328348
 30
0.0
 11
62.357411
 21
229.328348
 31
0.0
  0
LINE
  5
9A5
100
AcDbEntity
  8
0
  6
BYBLOCK
 62
     0
100
AcDbLine
 10
82.514392
 20
212.328348
 30
0.0
 11
62.357411
 21
212.328348
 31
0.0
  0
LINE
  5
9A6
100
AcDbEntity
  8
0
  6
BYBLOCK
 62
     0
100
AcDbLine
 10
63.607411
 20
226.828348
 30
0.0
 11
63.607411
 21
214.828348
 31
0.0
  0
SOLID
  5
9A7
100
AcDbEntity
  8
0
  6
BYBLOCK
 62
     0
100
AcDbTrace
 10
63.190745
 20
226.828348
 30
0.0
 11
64.024078
 21
226.828348
 31
0.0
 12
63.607411
 22
229.328348
 32
0.0
 13
63.607411
 23
229.328348
 33
0.0
  0
SOLID
  5
9A8
100
AcDbEntity
  8
0
  6
BYBLOCK
 62
     0
100
AcDbTrace
 10
63.190745
 20
214.828348
 30
0.0
 11
64.024078
 21
214.828348
 31
0.0
 12
63.607411
 22
212.328348
 32
0.0
 13
63.607411
 23
212.328348
 33
0.0
  0
MTEXT
  5
9A9
100
AcDbEntity
  8
0
  6
BYBLOCK
 62
     0
100
AcDbMText
 10
61.482411
 20
220.828348
 30
0.0
 40
3.0
 41
0.0
 71
     5
 72
     1
  1
\A1;17
 11
0.0
 21
1.0
 31
0.0
  0
POINT
  5
9AA
100
AcDbEntity
  8
DEFPOINTS
  6
BYBLOCK
 62
     0
100
AcDbPoint
 10
83.139392
 20
229.328348
 30
0.0
  0
POINT
  5
9AB
100
AcDbEntity
  8
DEFPOINTS
  6
BYBLOCK
 62
     0
100
AcDbPoint
 10
83.139392
 20
212.328348
 30
0.0
  0
POINT
  5
9AC
100
AcDbEntity
  8
DEFPOINTS
  6
BYBLOCK
 62
     0
100
AcDbPoint
 10
63.607411
 20
212.328348
 30
0.0
  0
ENDBLK
  5
9AE
100
AcDbEntity
  8
0
100
AcDbBlockEnd
  0
BLOCK
  5
9BA
100
AcDbEntity
  8
0
100
AcDbBlockBegin
  2
*D6
 70
    65
 10
0.0
 20
0.0
 30
0.0
  3
*D6
  1

  0
LINE
  5
9B0
100
AcDbEntity
  8
0
  6
BYBLOCK
 62
     0
100
AcDbLine
 10
82.514392
 20
212.328348
 30
0.0
 11
62.357411
 21
212.328348
 31
0.0
  0
LINE
  5
9B1
100
AcDbEntity
  8
0
  6
BYBLOCK
 62
     0
100
AcDbLine
 10
82.514392
 20
204.128348
 30
0.0
 11
62.357411
 21
204.128348
 31
0.0
  0
LINE
  5
9B2
100
AcDbEntity
  8
0
  6
BYBLOCK
 62
     0
100
AcDbLine
 10
63.607411
 20
214.828348
 30
0.0
 11
63.607411
 21
217.328348
 31
0.0
  0
LINE
  5
9B3
100
AcDbEntity
  8
0
  6
BYBLOCK
 62
     0
100
AcDbLine
 10
63.607411
 20
201.628348
 30
0.0
 11
63.607411
 21
199.128348
 31
0.0
  0
SOLID
  5
9B4
100
AcDbEntity
  8
0
  6
BYBLOCK
 62
     0
100
AcDbTrace
 10
63.190745
 20
214.828348
 30
0.0
 11
64.024078
 21
214.828348
 31
0.0
 12
63.607411
 22
212.328348
 32
0.0
 13
63.607411
 23
212.328348
 33
0.0
  0
SOLID
  5
9B5
100
AcDbEntity
  8
0
  6
BYBLOCK
 62
     0
100
AcDbTrace
 10
63.190745
 20
201.628348
 30
0.0
 11
64.024078
 21
201.628348
 31
0.0
 12
63.607411
 22
204.128348
 32
0.0
 13
63.607411
 23
204.128348
 33
0.0
  0
MTEXT
  5
9B6
100
AcDbEntity
  8
0
  6
BYBLOCK
 62
     0
100
AcDbMText
 10
61.482116
 20
208.228348
 30
0.0
 40
3.0
 41
0.0
 71
     5
 72
     1
  1
\A1;8.2
 11
0.0
 21
1.0
 31
0.0
  0
POINT
  5
9B7
100
AcDbEntity
  8
DEFPOINTS
  6
BYBLOCK
 62
     0
100
AcDbPoint
 10
83.139392
 20
212.328348
 30
0.0
  0
POINT
  5
9B8
100
AcDbEntity
  8
DEFPOINTS
  6
BYBLOCK
 62
     0
100
AcDbPoint
 10
83.139392
 20
204.128348
 30
0.0
  0
POINT
  5
9B9
100
AcDbEntity
  8
DEFPOINTS
  6
BYBLOCK
 62
     0
100
AcDbPoint
 10
63.607411
 20
204.128348
 30
0.0
  0
ENDBLK
  5
9BB
100
AcDbEntity
  8
0
100
AcDbBlockEnd
  0
BLOCK
  5
9C7
100
AcDbEntity
  8
0
100
AcDbBlockBegin
  2
*D7
 70
    65
 10
0.0
 20
0.0
 30
0.0
  3
*D7
  1

  0
LINE
  5
9BD
100
AcDbEntity
  8
0
  6
BYBLOCK
 62
     0
100
AcDbLine
 10
83.139392
 20
212.953348
 30
0.0
 11
83.139392
 21
221.313002
 31
0.0
  0
LINE
  5
9BE
100
AcDbEntity
  8
0
  6
BYBLOCK
 62
     0
100
AcDbLine
 10
86.939392
 20
212.953348
 30
0.0
 11
86.939392
 21
221.313002
 31
0.0
  0
LINE
  5
9BF
100
AcDbEntity
  8
0
  6
BYBLOCK
 62
     0
100
AcDbLine
 10
80.639392
 20
220.063002
 30
0.0
 11
78.139392
 21
220.063002
 31
0.0
  0
LINE
  5
9C0
100
AcDbEntity
  8
0
  6
BYBLOCK
 62
     0
100
AcDbLine
 10
89.439392
 20
220.063002
 30
0.0
 11
95.934392
 21
220.063002
 31
0.0
  0
SOLID
  5
9C1
100
AcDbEntity
  8
0
  6
BYBLOCK
 62
     0
100
AcDbTrace
 10
80.639392
 20
220.479668
 30
0.0
 11
80.639392
 21
219.646335
 31
0.0
 12
83.139392
 22
220.063002
 32
0.0
 13
83.139392
 23
220.063002
 33
0.0
  0
SOLID
  5
9C2
100
AcDbEntity
  8
0
  6
BYBLOCK
 62
     0
100
AcDbTrace
 10
89.439392
 20
220.479668
 30
0.0
 11
89.439392
 21
219.646335
 31
0.0
 12
86.939392
 22
220.063002
 32
0.0
 13
86.939392
 23
220.063002
 33
0.0
  0
MTEXT
  5
9C3
100
AcDbEntity
  8
0
  6
BYBLOCK
 62
     0
100
AcDbMText
 10
92.999392
 20
222.188002
 30
0.0
 40
3.0
 41
0.0
 71
     5
 72
     1
  1
\A1;3.8
  0
POINT
  5
9C4
100
AcDbEntity
  8
DEFPOINTS
  6
BYBLOCK
 62
     0
100
AcDbPoint
 10
83.139392
 20
212.328348
 30
0.0
  0
POINT
  5
9C5
100
AcDbEntity
  8
DEFPOINTS
  6
BYBLOCK
 62
     0
100
AcDbPoint
 10
86.939392
 20
212.328348
 30
0.0
  0
POINT
  5
9C6
100
AcDbEntity
  8
DEFPOINTS
  6
BYBLOCK
 62
     0
100
AcDbPoint
 10
86.939392
 20
220.063002
 30
0.0
  0
ENDBLK
  5
9C8
100
AcDbEntity
  8
0
100
AcDbBlockEnd
  0
BLOCK
  5
9D4
100
AcDbEntity
  8
0
100
AcDbBlockBegin
  2
*D8
 70
    65
 10
0.0
 20
0.0
 30
0.0
  3
*D8
  1

  0
LINE
  5
9CA
100
AcDbEntity
  8
0
  6
BYBLOCK
 62
     0
100
AcDbLine
 10
103.042336
 20
112.203348
 30
0.0
 11
103.042336
 21
84.040582
 31
0.0
  0
LINE
  5
9CB
100
AcDbEntity
  8
0
  6
BYBLOCK
 62
     0
100
AcDbLine
 10
103.836448
 20
112.203348
 30
0.0
 11
103.836448
 21
84.040582
 31
0.0
  0
LINE
  5
9CC
100
AcDbEntity
  8
0
  6
BYBLOCK
 62
     0
100
AcDbLine
 10
100.542336
 20
85.290582
 30
0.0
 11
98.042336
 21
85.290582
 31
0.0
  0
LINE
  5
9CD
100
AcDbEntity
  8
0
  6
BYBLOCK
 62
     0
100
AcDbLine
 10
106.336448
 20
85.290582
 30
0.0
 11
123.825979
 21
85.290582
 31
0.0
  0
SOLID
  5
9CE
100
AcDbEntity
  8
0
  6
BYBLOCK
 62
     0
100
AcDbTrace
 10
100.542336
 20
85.707249
 30
0.0
 11
100.542336
 21
84.873916
 31
0.0
 12
103.042336
 22
85.290582
 32
0.0
 13
103.042336
 23
85.290582
 33
0.0
  0
SOLID
  5
9CF
100
AcDbEntity
  8
0
  6
BYBLOCK
 62
     0
100
AcDbTrace
 10
106.336448
 20
85.707249
 30
0.0
 11
106.336448
 21
84.873916
 31
0.0
 12
103.836448
 22
85.290582
 32
0.0
 13
103.836448
 23
85.290582
 33
0.0
  0
MTEXT
  5
9D0
100
AcDbEntity
  8
0
  6
BYBLOCK
 62
     0
100
AcDbMText
 10
116.331214
 20
88.596527
 30
0.0
 40
3.0
 41
0.0
 71
     5
 72
     1
  1
\A2;0.79{\H2.400000;\S+0.1^  0;}
  0
POINT
  5
9D1
100
AcDbEntity
  8
DEFPOINTS
  6
BYBLOCK
 62
     0
100
AcDbPoint
 10
103.042336
 20
112.828348
 30
0.0
  0
POINT
  5
9D2
100
AcDbEntity
  8
DEFPOINTS
  6
BYBLOCK
 62
     0
100
AcDbPoint
 10
103.836448
 20
112.828348
 30
0.0
  0
POINT
  5
9D3
100
AcDbEntity
  8
DEFPOINTS
  6
BYBLOCK
 62
     0
100
AcDbPoint
 10
103.836448
 20
85.290582
 30
0.0
  0
ENDBLK
  5
9D5
100
AcDbEntity
  8
0
100
AcDbBlockEnd
  0
BLOCK
  5
9E0
100
AcDbEntity
  8
0
100
AcDbBlockBegin
  2
*D9
 70
    65
 10
0.0
 20
0.0
 30
0.0
  3
*D9
  1

  0
LINE
  5
9D7
100
AcDbEntity
  8
0
  6
BYBLOCK
 62
     0
100
AcDbLine
 10
97.364392
 20
229.328348
 30
0.0
 11
146.400966
 21
229.328348
 31
0.0
  0
LINE
  5
9D8
100
AcDbEntity
  8
0
  6
BYBLOCK
 62
     0
100
AcDbLine
 10
110.364392
 20
199.628348
 30
0.0
 11
146.400966
 21
199.628348
 31
0.0
  0
LINE
  5
9D9
100
AcDbEntity
  8
0
  6
BYBLOCK
 62
     0
100
AcDbLine
 10
145.150966
 20
226.828348
 30
0.0
 11
145.150966
 21
202.128348
 31
0.0
  0
SOLID
  5
9DA
100
AcDbEntity
  8
0
  6
BYBLOCK
 62
     0
100
AcDbTrace
 10
144.734299
 20
226.828348
 30
0.0
 11
145.567632
 21
226.828348
 31
0.0
 12
145.150966
 22
229.328348
 32
0.0
 13
145.150966
 23
229.328348
 33
0.0
  0
SOLID
  5
9DB
100
AcDbEntity
  8
0
  6
BYBLOCK
 62
     0
100
AcDbTrace
 10
144.734299
 20
202.128348
 30
0.0
 11
145.567632
 21
202.128348
 31
0.0
 12
145.150966
 22
199.628348
 32
0.0
 13
145.150966
 23
199.628348
 33
0.0
  0
MTEXT
  5
9DC
100
AcDbEntity
  8
0
  6
BYBLOCK
 62
     0
100
AcDbMText
 10
141.174785
 20
214.478348
 30
0.0
 40
3.0
 41
0.0
 71
     5
 72
     1
  1
\A1;29.7\S-0.1^  0;
 11
0.0
 21
1.0
 31
0.0
  0
POINT
  5
9DD
100
AcDbEntity
  8
DEFPOINTS
  6
BYBLOCK
 62
     0
100
AcDbPoint
 10
96.739392
 20
229.328348
 30
0.0
  0
POINT
  5
9DE
100
AcDbEntity
  8
DEFPOINTS
  6
BYBLOCK
 62
     0
100
AcDbPoint
 10
109.739392
 20
199.628348
 30
0.0
  0
POINT
  5
9DF
100
AcDbEntity
  8
DEFPOINTS
  6
BYBLOCK
 62
     0
100
AcDbPoint
 10
145.150966
 20
199.628348
 30
0.0
  0
ENDBLK
  5
9E1
100
AcDbEntity
  8
0
100
AcDbBlockEnd
  0
BLOCK
  5
9EC
100
AcDbEntity
  8
0
100
AcDbBlockBegin
  2
*D10
 70
    65
 10
0.0
 20
0.0
 30
0.0
  3
*D10
  1

  0
LINE
  5
9E3
100
AcDbEntity
  8
0
  6
BYBLOCK
 62
     0
100
AcDbLine
 10
110.364392
 20
199.628348
 30
0.0
 11
146.358027
 21
199.628348
 31
0.0
  0
LINE
  5
9E4
100
AcDbEntity
  8
0
  6
BYBLOCK
 62
     0
100
AcDbLine
 10
104.461448
 20
112.828348
 30
0.0
 11
146.358027
 21
112.828348
 31
0.0
  0
LINE
  5
9E5
100
AcDbEntity
  8
0
  6
BYBLOCK
 62
     0
100
AcDbLine
 10
145.108027
 20
197.128348
 30
0.0
 11
145.108027
 21
115.328348
 31
0.0
  0
SOLID
  5
9E6
100
AcDbEntity
  8
0
  6
BYBLOCK
 62
     0
100
AcDbTrace
 10
144.69136
 20
197.128348
 30
0.0
 11
145.524693
 21
197.128348
 31
0.0
 12
145.108027
 22
199.628348
 32
0.0
 13
145.108027
 23
199.628348
 33
0.0
  0
SOLID
  5
9E7
100
AcDbEntity
  8
0
  6
BYBLOCK
 62
     0
100
AcDbTrace
 10
144.69136
 20
115.328348
 30
0.0
 11
145.524693
 21
115.328348
 31
0.0
 12
145.108027
 22
112.828348
 32
0.0
 13
145.108027
 23
112.828348
 33
0.0
  0
MTEXT
  5
9E8
100
AcDbEntity
  8
0
  6
BYBLOCK
 62
     0
100
AcDbMText
 10
141.802082
 20
156.228348
 30
0.0
 40
3.0
 41
0.0
 71
     5
 72
     1
  1
\A2;86.8{\H2.400000;\S+0.1^  0;}
 11
0.0
 21
1.0
 31
0.0
  0
POINT
  5
9E9
100
AcDbEntity
  8
DEFPOINTS
  6
BYBLOCK
 62
     0
100
AcDbPoint
 10
109.739392
 20
199.628348
 30
0.0
  0
POINT
  5
9EA
100
AcDbEntity
  8
DEFPOINTS
  6
BYBLOCK
 62
     0
100
AcDbPoint
 10
103.836448
 20
112.828348
 30
0.0
  0
POINT
  5
9EB
100
AcDbEntity
  8
DEFPOINTS
  6
BYBLOCK
 62
     0
100
AcDbPoint
 10
145.108027
 20
112.828348
 30
0.0
  0
ENDBLK
  5
9ED
100
AcDbEntity
  8
0
100
AcDbBlockEnd
  0
BLOCK
  5
9F8
100
AcDbEntity
  8
0
100
AcDbBlockBegin
  2
*D11
 70
    65
 10
0.0
 20
0.0
 30
0.0
  3
*D11
  1

  0
LINE
  5
9EF
100
AcDbEntity
  8
0
  6
BYBLOCK
 62
     0
100
AcDbLine
 10
104.461448
 20
112.828348
 30
0.0
 11
162.220297
 21
112.828348
 31
0.0
  0
LINE
  5
9F0
100
AcDbEntity
  8
0
  6
BYBLOCK
 62
     0
100
AcDbLine
 10
97.364392
 20
229.328348
 30
0.0
 11
162.220297
 21
229.328348
 31
0.0
  0
LINE
  5
9F1
100
AcDbEntity
  8
0
  6
BYBLOCK
 62
     0
100
AcDbLine
 10
160.970297
 20
115.328348
 30
0.0
 11
160.970297
 21
226.828348
 31
0.0
  0
SOLID
  5
9F2
100
AcDbEntity
  8
0
  6
BYBLOCK
 62
     0
100
AcDbTrace
 10
160.55363
 20
115.328348
 30
0.0
 11
161.386964
 21
115.328348
 31
0.0
 12
160.970297
 22
112.828348
 32
0.0
 13
160.970297
 23
112.828348
 33
0.0
  0
SOLID
  5
9F3
100
AcDbEntity
  8
0
  6
BYBLOCK
 62
     0
100
AcDbTrace
 10
160.55363
 20
226.828348
 30
0.0
 11
161.386964
 21
226.828348
 31
0.0
 12
160.970297
 22
229.328348
 32
0.0
 13
160.970297
 23
229.328348
 33
0.0
  0
MTEXT
  5
9F4
100
AcDbEntity
  8
0
  6
BYBLOCK
 62
     0
100
AcDbMText
 10
157.664352
 20
171.078348
 30
0.0
 40
3.0
 41
0.0
 71
     5
 72
     1
  1
\A2;116.5{\H2.400000;\S+0.1^  0;}
 11
0.0
 21
1.0
 31
0.0
  0
POINT
  5
9F5
100
AcDbEntity
  8
DEFPOINTS
  6
BYBLOCK
 62
     0
100
AcDbPoint
 10
103.836448
 20
112.828348
 30
0.0
  0
POINT
  5
9F6
100
AcDbEntity
  8
DEFPOINTS
  6
BYBLOCK
 62
     0
100
AcDbPoint
 10
96.739392
 20
229.328348
 30
0.0
  0
POINT
  5
9F7
100
AcDbEntity
  8
DEFPOINTS
  6
BYBLOCK
 62
     0
100
AcDbPoint
 10
160.970297
 20
229.328348
 30
0.0
  0
ENDBLK
  5
9F9
100
AcDbEntity
  8
0
100
AcDbBlockEnd
  0
BLOCK
  5
A06
100
AcDbEntity
  8
0
100
AcDbBlockBegin
  2
*D12
 70
    65
 10
0.0
 20
0.0
 30
0.0
  3
*D12
  1

  0
LINE
  5
9FB
100
AcDbEntity
  8
0
  6
BYBLOCK
 62
     0
100
AcDbLine
 10
102.99745
 20
111.98935
 30
0.0
 11
72.923745
 21
81.915644
 31
0.0
  0
LINE
  5
9FC
100
AcDbEntity
  8
0
  6
BYBLOCK
 62
     0
100
AcDbLine
 10
103.881334
 20
111.98935
 30
0.0
 11
133.955039
 21
81.915644
 31
0.0
  0
ARC
  5
9FD
100
AcDbEntity
  8
0
  6
BYBLOCK
 62
     0
100
AcDbCircle
 10
103.439392
 20
112.431291
 30
0.0
 40
41.905642
100
AcDbArc
 50
228.418649
 51
311.581351
  0
SOLID
  5
9FE
100
AcDbEntity
  8
0
  6
BYBLOCK
 62
     0
100
AcDbTrace
 10
75.341631
 20
80.781993
 30
0.0
 11
75.913047
 21
81.388563
 31
0.0
 12
73.807628
 22
82.799528
 32
0.0
 13
73.807628
 23
82.799528
 33
0.0
  0
SOLID
  5
9FF
100
AcDbEntity
  8
0
  6
BYBLOCK
 62
     0
100
AcDbTrace
 10
130.965736
 20
81.388563
 30
0.0
 11
131.537153
 21
80.781993
 31
0.0
 12
133.071155
 22
82.799528
 32
0.0
 13
133.071155
 23
82.799528
 33
0.0
  0
MTEXT
  5
A00
100
AcDbEntity
  8
0
  6
BYBLOCK
 62
     0
100
AcDbMText
 10
103.439392
 20
72.650649
 30
0.0
 40
3.0
 41
0.0
 71
     5
 72
     1
  1
\A1;90°
  0
POINT
  5
A01
100
AcDbEntity
  8
DEFPOINTS
  6
BYBLOCK
 62
     0
100
AcDbPoint
 10
92.593414
 20
71.953549
 30
0.0
  0
POINT
  5
A02
100
AcDbEntity
  8
DEFPOINTS
  6
BYBLOCK
 62
     0
100
AcDbPoint
 10
103.042336
 20
112.828348
 30
0.0
  0
POINT
  5
A03
100
AcDbEntity
  8
DEFPOINTS
  6
BYBLOCK
 62
     0
100
AcDbPoint
 10
103.836448
 20
112.828348
 30
0.0
  0
POINT
  5
A04
100
AcDbEntity
  8
DEFPOINTS
  6
BYBLOCK
 62
     0
100
AcDbPoint
 10
109.88792
 20
118.879819
 30
0.0
  0
POINT
  5
A05
100
AcDbEntity
  8
DEFPOINTS
  6
BYBLOCK
 62
     0
100
AcDbPoint
 10
97.075431
 20
118.795252
 30
0.0
  0
ENDBLK
  5
A07
100
AcDbEntity
  8
0
100
AcDbBlockEnd
  0
BLOCK
  5
A13
100
AcDbEntity
  8
0
100
AcDbBlockBegin
  2
*D13
 70
    65
 10
0.0
 20
0.0
 30
0.0
  3
*D13
  1

  0
LINE
  5
A09
100
AcDbEntity
  8
0
  6
BYBLOCK
 62
     0
100
AcDbLine
 10
103.484277
 20
112.386406
 30
0.0
 11
128.208525
 21
87.662158
 31
0.0
  0
LINE
  5
A0A
100
AcDbEntity
  8
0
  6
BYBLOCK
 62
     0
100
AcDbLine
 10
109.932805
 20
118.834934
 30
0.0
 11
134.657053
 21
94.110686
 31
0.0
  0
LINE
  5
A0B
100
AcDbEntity
  8
0
  6
BYBLOCK
 62
     0
100
AcDbLine
 10
125.556875
 20
86.778274
 30
0.0
 11
123.789108
 21
85.010507
 31
0.0
  0
LINE
  5
A0C
100
AcDbEntity
  8
0
  6
BYBLOCK
 62
     0
100
AcDbLine
 10
135.540937
 20
96.762336
 30
0.0
 11
137.308704
 21
98.530103
 31
0.0
  0
SOLID
  5
A0D
100
AcDbEntity
  8
0
  6
BYBLOCK
 62
     0
100
AcDbTrace
 10
125.262247
 20
87.072902
 30
0.0
 11
125.851503
 21
86.483646
 31
0.0
 12
127.324642
 22
88.546041
 32
0.0
 13
127.324642
 23
88.546041
 33
0.0
  0
SOLID
  5
A0E
100
AcDbEntity
  8
0
  6
BYBLOCK
 62
     0
100
AcDbTrace
 10
135.246309
 20
97.056964
 30
0.0
 11
135.835565
 21
96.467708
 31
0.0
 12
133.77317
 22
94.994569
 32
0.0
 13
133.77317
 23
94.994569
 33
0.0
  0
MTEXT
  5
A0F
100
AcDbEntity
  8
0
  6
BYBLOCK
 62
     0
100
AcDbMText
 10
129.046095
 20
93.273116
 30
0.0
 40
3.0
 41
0.0
 71
     5
 72
     1
  1
\A1;9.12
 11
0.707107
 21
0.707107
 31
0.0
  0
POINT
  5
A10
100
AcDbEntity
  8
DEFPOINTS
  6
BYBLOCK
 62
     0
100
AcDbPoint
 10
103.042336
 20
112.828348
 30
0.0
  0
POINT
  5
A11
100
AcDbEntity
  8
DEFPOINTS
  6
BYBLOCK
 62
     0
100
AcDbPoint
 10
109.490864
 20
119.276876
 30
0.0
  0
POINT
  5
A12
100
AcDbEntity
  8
DEFPOINTS
  6
BYBLOCK
 62
     0
100
AcDbPoint
 10
133.77317
 20
94.994569
 30
0.0
  0
ENDBLK
  5
A14
100
AcDbEntity
  8
0
100
AcDbBlockEnd
  0
BLOCK
  5
A1F
100
AcDbEntity
  8
0
100
AcDbBlockBegin
  2
*D14
 70
    65
 10
0.0
 20
0.0
 30
0.0
  3
*D14
  1

  0
LINE
  5
A16
100
AcDbEntity
  8
0
  6
BYBLOCK
 62
     0
100
AcDbLine
 10
110.364392
 20
199.628348
 30
0.0
 11
128.345676
 21
199.628348
 31
0.0
  0
LINE
  5
A17
100
AcDbEntity
  8
0
  6
BYBLOCK
 62
     0
100
AcDbLine
 10
101.064392
 20
178.328348
 30
0.0
 11
128.345676
 21
178.328348
 31
0.0
  0
LINE
  5
A18
100
AcDbEntity
  8
0
  6
BYBLOCK
 62
     0
100
AcDbLine
 10
127.095676
 20
197.128348
 30
0.0
 11
127.095676
 21
180.828348
 31
0.0
  0
SOLID
  5
A19
100
AcDbEntity
  8
0
  6
BYBLOCK
 62
     0
100
AcDbTrace
 10
126.679009
 20
197.128348
 30
0.0
 11
127.512342
 21
197.128348
 31
0.0
 12
127.095676
 22
199.628348
 32
0.0
 13
127.095676
 23
199.628348
 33
0.0
  0
SOLID
  5
A1A
100
AcDbEntity
  8
0
  6
BYBLOCK
 62
     0
100
AcDbTrace
 10
126.679009
 20
180.828348
 30
0.0
 11
127.512342
 21
180.828348
 31
0.0
 12
127.095676
 22
178.328348
 32
0.0
 13
127.095676
 23
178.328348
 33
0.0
  0
MTEXT
  5
A1B
100
AcDbEntity
  8
0
  6
BYBLOCK
 62
     0
100
AcDbMText
 10
124.970676
 20
188.978348
 30
0.0
 40
3.0
 41
0.0
 71
     5
 72
     1
  1
\A1;21.3
 11
0.0
 21
1.0
 31
0.0
  0
POINT
  5
A1C
100
AcDbEntity
  8
DEFPOINTS
  6
BYBLOCK
 62
     0
100
AcDbPoint
 10
109.739392
 20
199.628348
 30
0.0
  0
POINT
  5
A1D
100
AcDbEntity
  8
DEFPOINTS
  6
BYBLOCK
 62
     0
100
AcDbPoint
 10
100.439392
 20
178.328348
 30
0.0
  0
POINT
  5
A1E
100
AcDbEntity
  8
DEFPOINTS
  6
BYBLOCK
 62
     0
100
AcDbPoint
 10
127.095676
 20
178.328348
 30
0.0
  0
ENDBLK
  5
A20
100
AcDbEntity
  8
0
100
AcDbBlockEnd
  0
BLOCK
  5
A2B
100
AcDbEntity
  8
0
100
AcDbBlockBegin
  2
*D15
 70
    65
 10
0.0
 20
0.0
 30
0.0
  3
*D15
  1

  0
LINE
  5
A22
100
AcDbEntity
  8
0
  6
BYBLOCK
 62
     0
100
AcDbLine
 10
101.064392
 20
178.328348
 30
0.0
 11
128.345676
 21
178.328348
 31
0.0
  0
LINE
  5
A23
100
AcDbEntity
  8
0
  6
BYBLOCK
 62
     0
100
AcDbLine
 10
101.064392
 20
128.328348
 30
0.0
 11
128.345676
 21
128.328348
 31
0.0
  0
LINE
  5
A24
100
AcDbEntity
  8
0
  6
BYBLOCK
 62
     0
100
AcDbLine
 10
127.095676
 20
175.828348
 30
0.0
 11
127.095676
 21
130.828348
 31
0.0
  0
SOLID
  5
A25
100
AcDbEntity
  8
0
  6
BYBLOCK
 62
     0
100
AcDbTrace
 10
126.679009
 20
175.828348
 30
0.0
 11
127.512342
 21
175.828348
 31
0.0
 12
127.095676
 22
178.328348
 32
0.0
 13
127.095676
 23
178.328348
 33
0.0
  0
SOLID
  5
A26
100
AcDbEntity
  8
0
  6
BYBLOCK
 62
     0
100
AcDbTrace
 10
126.679009
 20
130.828348
 30
0.0
 11
127.512342
 21
130.828348
 31
0.0
 12
127.095676
 22
128.328348
 32
0.0
 13
127.095676
 23
128.328348
 33
0.0
  0
MTEXT
  5
A27
100
AcDbEntity
  8
0
  6
BYBLOCK
 62
     0
100
AcDbMText
 10
124.970676
 20
153.328348
 30
0.0
 40
3.0
 41
0.0
 71
     5
 72
     1
  1
\A1;50
 11
0.0
 21
1.0
 31
0.0
  0
POINT
  5
A28
100
AcDbEntity
  8
DEFPOINTS
  6
BYBLOCK
 62
     0
100
AcDbPoint
 10
100.439392
 20
178.328348
 30
0.0
  0
POINT
  5
A29
100
AcDbEntity
  8
DEFPOINTS
  6
BYBLOCK
 62
     0
100
AcDbPoint
 10
100.439392
 20
128.328348
 30
0.0
  0
POINT
  5
A2A
100
AcDbEntity
  8
DEFPOINTS
  6
BYBLOCK
 62
     0
100
AcDbPoint
 10
127.095676
 20
128.328348
 30
0.0
  0
ENDBLK
  5
A2C
100
AcDbEntity
  8
0
100
AcDbBlockEnd
  0
BLOCK
  5
A38
100
AcDbEntity
  8
0
100
AcDbBlockBegin
  2
*D16
 70
    65
 10
0.0
 20
0.0
 30
0.0
  3
*D16
  1

  0
LINE
  5
A2E
100
AcDbEntity
  8
0
  6
BYBLOCK
 62
     0
100
AcDbLine
 10
83.139392
 20
163.013804
 30
0.0
 11
83.139392
 21
161.05358
 31
0.0
  0
LINE
  5
A2F
100
AcDbEntity
  8
0
  6
BYBLOCK
 62
     0
100
AcDbLine
 10
100.439392
 20
162.03843
 30
0.0
 11
100.439392
 21
163.55358
 31
0.0
  0
LINE
  5
A30
100
AcDbEntity
  8
0
  6
BYBLOCK
 62
     0
100
AcDbLine
 10
80.639392
 20
162.30358
 30
0.0
 11
78.139392
 21
162.30358
 31
0.0
  0
LINE
  5
A31
100
AcDbEntity
  8
0
  6
BYBLOCK
 62
     0
100
AcDbLine
 10
102.939392
 20
162.30358
 30
0.0
 11
105.439392
 21
162.30358
 31
0.0
  0
SOLID
  5
A32
100
AcDbEntity
  8
0
  6
BYBLOCK
 62
     0
100
AcDbTrace
 10
80.639392
 20
162.720247
 30
0.0
 11
80.639392
 21
161.886914
 31
0.0
 12
83.139392
 22
162.30358
 32
0.0
 13
83.139392
 23
162.30358
 33
0.0
  0
SOLID
  5
A33
100
AcDbEntity
  8
0
  6
BYBLOCK
 62
     0
100
AcDbTrace
 10
102.939392
 20
162.720247
 30
0.0
 11
102.939392
 21
161.886914
 31
0.0
 12
100.439392
 22
162.30358
 32
0.0
 13
100.439392
 23
162.30358
 33
0.0
  0
MTEXT
  5
A34
100
AcDbEntity
  8
0
  6
BYBLOCK
 62
     0
100
AcDbMText
 10
91.789392
 20
165.609525
 30
0.0
 40
3.0
 41
0.0
 71
     5
 72
     1
  1
\A2;17.3{\H2.400000;\S+0.1^  0;}
  0
POINT
  5
A35
100
AcDbEntity
  8
DEFPOINTS
  6
BYBLOCK
 62
     0
100
AcDbPoint
 10
83.139392
 20
163.638804
 30
0.0
  0
POINT
  5
A36
100
AcDbEntity
  8
DEFPOINTS
  6
BYBLOCK
 62
     0
100
AcDbPoint
 10
100.439392
 20
161.41343
 30
0.0
  0
POINT
  5
A37
100
AcDbEntity
  8
DEFPOINTS
  6
BYBLOCK
 62
     0
100
AcDbPoint
 10
100.439392
 20
162.30358
 30
0.0
  0
ENDBLK
  5
A39
100
AcDbEntity
  8
0
100
AcDbBlockEnd
  0
BLOCK
  5
A45
100
AcDbEntity
  8
0
100
AcDbBlockBegin
  2
*D17
 70
    65
 10
0.0
 20
0.0
 30
0.0
  3
*D17
  1

  0
LINE
  5
A3B
100
AcDbEntity
  8
0
  6
BYBLOCK
 62
     0
100
AcDbLine
 10
100.439392
 20
160.703206
 30
0.0
 11
100.439392
 21
163.55358
 31
0.0
  0
LINE
  5
A3C
100
AcDbEntity
  8
0
  6
BYBLOCK
 62
     0
100
AcDbLine
 10
103.439392
 20
162.483505
 30
0.0
 11
103.439392
 21
163.55358
 31
0.0
  0
LINE
  5
A3D
100
AcDbEntity
  8
0
  6
BYBLOCK
 62
     0
100
AcDbLine
 10
97.939392
 20
162.30358
 30
0.0
 11
95.439392
 21
162.30358
 31
0.0
  0
LINE
  5
A3E
100
AcDbEntity
  8
0
  6
BYBLOCK
 62
     0
100
AcDbLine
 10
105.939392
 20
162.30358
 30
0.0
 11
119.500744
 21
162.30358
 31
0.0
  0
SOLID
  5
A3F
100
AcDbEntity
  8
0
  6
BYBLOCK
 62
     0
100
AcDbTrace
 10
97.939392
 20
162.720247
 30
0.0
 11
97.939392
 21
161.886914
 31
0.0
 12
100.439392
 22
162.30358
 32
0.0
 13
100.439392
 23
162.30358
 33
0.0
  0
SOLID
  5
A40
100
AcDbEntity
  8
0
  6
BYBLOCK
 62
     0
100
AcDbTrace
 10
105.939392
 20
162.720247
 30
0.0
 11
105.939392
 21
161.886914
 31
0.0
 12
103.439392
 22
162.30358
 32
0.0
 13
103.439392
 23
162.30358
 33
0.0
  0
MTEXT
  5
A41
100
AcDbEntity
  8
0
  6
BYBLOCK
 62
     0
100
AcDbMText
 10
113.970068
 20
164.42858
 30
0.0
 40
3.0
 41
0.0
 71
     5
 72
     1
  1
\A2;3{\H2.400000;±0.05}
  0
POINT
  5
A42
100
AcDbEntity
  8
DEFPOINTS
  6
BYBLOCK
 62
     0
100
AcDbPoint
 10
100.439392
 20
160.078206
 30
0.0
  0
POINT
  5
A43
100
AcDbEntity
  8
DEFPOINTS
  6
BYBLOCK
 62
     0
100
AcDbPoint
 10
103.439392
 20
161.858505
 30
0.0
  0
POINT
  5
A44
100
AcDbEntity
  8
DEFPOINTS
  6
BYBLOCK
 62
     0
100
AcDbPoint
 10
103.439392
 20
162.30358
 30
0.0
  0
ENDBLK
  5
A46
100
AcDbEntity
  8
0
100
AcDbBlockEnd
  0
BLOCK
  5
A53
100
AcDbEntity
  8
0
100
AcDbBlockBegin
  2
*D18
 70
    65
 10
0.0
 20
0.0
 30
0.0
  3
*D18
  1

  0
LINE
  5
A48
100
AcDbEntity
  8
0
  6
BYBLOCK
 62
     0
100
AcDbLine
 10
109.739392
 20
187.003348
 30
0.0
 11
109.739392
 21
178.252711
 31
0.0
  0
ARC
  5
A49
100
AcDbEntity
  8
0
  6
BYBLOCK
 62
     0
100
AcDbCircle
 10
109.739392
 20
187.628348
 30
0.0
 40
8.125637
100
AcDbArc
 50
202.893522
 51
225.0
  0
ARC
  5
A4A
100
AcDbEntity
  8
0
  6
BYBLOCK
 62
     0
100
AcDbCircle
 10
109.739392
 20
187.628348
 30
0.0
 40
8.125637
100
AcDbArc
 50
242.698368
 51
252.301632
  0
SOLID
  5
A4B
100
AcDbEntity
  8
0
  6
BYBLOCK
 62
     0
100
AcDbTrace
 10
105.76657
 20
180.071428
 30
0.0
 11
106.258163
 21
180.744318
 31
0.0
 12
103.993699
 22
181.882655
 32
0.0
 13
103.993699
 23
181.882655
 33
0.0
  0
SOLID
  5
A4C
100
AcDbEntity
  8
0
  6
BYBLOCK
 62
     0
100
AcDbTrace
 10
107.333248
 20
180.299003
 30
0.0
 11
107.205053
 21
179.475589
 31
0.0
 12
109.739392
 22
179.502711
 32
0.0
 13
109.739392
 23
179.502711
 33
0.0
  0
MTEXT
  5
A4D
100
AcDbEntity
  8
0
  6
BYBLOCK
 62
     0
100
AcDbMText
 10
102.812903
 20
188.605801
 30
0.0
 40
3.0
 41
0.0
 71
     5
 72
     1
  1
\A1;45°
 11
0.38902
 21
-0.921229
 31
0.0
  0
POINT
  5
A4E
100
AcDbEntity
  8
DEFPOINTS
  6
BYBLOCK
 62
     0
100
AcDbPoint
 10
107.636322
 20
179.779585
 30
0.0
  0
POINT
  5
A4F
100
AcDbEntity
  8
DEFPOINTS
  6
BYBLOCK
 62
     0
100
AcDbPoint
 10
100.439392
 20
178.328348
 30
0.0
  0
POINT
  5
A50
100
AcDbEntity
  8
DEFPOINTS
  6
BYBLOCK
 62
     0
100
AcDbPoint
 10
109.739392
 20
199.628348
 30
0.0
  0
POINT
  5
A51
100
AcDbEntity
  8
DEFPOINTS
  6
BYBLOCK
 62
     0
100
AcDbPoint
 10
109.739392
 20
187.628348
 30
0.0
  0
POINT
  5
A52
100
AcDbEntity
  8
DEFPOINTS
  6
BYBLOCK
 62
     0
100
AcDbPoint
 10
109.739392
 20
187.628348
 30
0.0
  0
ENDBLK
  5
A54
100
AcDbEntity
  8
0
100
AcDbBlockEnd
  0
BLOCK
  5
A5F
100
AcDbEntity
  8
0
100
AcDbBlockBegin
  2
*D19
 70
    65
 10
0.0
 20
0.0
 30
0.0
  3
*D19
  1

  0
ARC
  5
A56
100
AcDbEntity
  8
0
  6
BYBLOCK
 62
     0
100
AcDbCircle
 10
100.439392
 20
128.328348
 30
0.0
 40
9.814211
100
AcDbArc
 50
329.634857
 51
75.365143
  0
SOLID
  5
A57
100
AcDbEntity
  8
0
  6
BYBLOCK
 62
     0
100
AcDbTrace
 10
109.237057
 20
123.112474
 30
0.0
 11
108.577549
 21
123.621879
 31
0.0
 12
107.379087
 22
121.388652
 32
0.0
 13
107.379087
 23
121.388652
 33
0.0
  0
SOLID
  5
A58
100
AcDbEntity
  8
0
  6
BYBLOCK
 62
     0
100
AcDbTrace
 10
102.865962
 20
137.41087
 30
0.0
 11
102.9721
 21
138.237416
 31
0.0
 12
100.439392
 22
138.142559
 32
0.0
 13
100.439392
 23
138.142559
 33
0.0
  0
MTEXT
  5
A59
100
AcDbEntity
  8
0
  6
BYBLOCK
 62
     0
100
AcDbMText
 10
111.469785
 20
132.897286
 30
0.0
 40
3.0
 41
0.0
 71
     5
 72
     1
  1
\A1;135°
 11
0.382683
 21
-0.92388
 31
0.0
  0
POINT
  5
A5A
100
AcDbEntity
  8
DEFPOINTS
  6
BYBLOCK
 62
     0
100
AcDbPoint
 10
110.253603
 20
128.328348
 30
0.0
  0
POINT
  5
A5B
100
AcDbEntity
  8
DEFPOINTS
  6
BYBLOCK
 62
     0
100
AcDbPoint
 10
100.439392
 20
178.328348
 30
0.0
  0
POINT
  5
A5C
100
AcDbEntity
  8
DEFPOINTS
  6
BYBLOCK
 62
     0
100
AcDbPoint
 10
100.439392
 20
128.328348
 30
0.0
  0
POINT
  5
A5D
100
AcDbEntity
  8
DEFPOINTS
  6
BYBLOCK
 62
     0
100
AcDbPoint
 10
109.88792
 20
118.879819
 30
0.0
  0
POINT
  5
A5E
100
AcDbEntity
  8
DEFPOINTS
  6
BYBLOCK
 62
     0
100
AcDbPoint
 10
100.439392
 20
128.328348
 30
0.0
  0
ENDBLK
  5
A60
100
AcDbEntity
  8
0
100
AcDbBlockEnd
  0
BLOCK
  5
A6C
100
AcDbEntity
  8
0
100
AcDbBlockBegin
  2
*D20
 70
    65
 10
0.0
 20
0.0
 30
0.0
  3
*D20
  1

  0
LINE
  5
A62
100
AcDbEntity
  8
0
  6
BYBLOCK
 62
     0
100
AcDbLine
 10
96.633489
 20
121.217093
 30
0.0
 11
89.249439
 21
128.601143
 31
0.0
  0
LINE
  5
A63
100
AcDbEntity
  8
0
  6
BYBLOCK
 62
     0
100
AcDbLine
 10
95.64354
 20
120.227144
 30
0.0
 11
88.25949
 21
127.611193
 31
0.0
  0
LINE
  5
A64
100
AcDbEntity
  8
0
  6
BYBLOCK
 62
     0
100
AcDbLine
 10
91.90109
 20
129.485026
 30
0.0
 11
93.668857
 21
131.252793
 31
0.0
  0
LINE
  5
A65
100
AcDbEntity
  8
0
  6
BYBLOCK
 62
     0
100
AcDbLine
 10
87.375607
 20
124.959543
 30
0.0
 11
81.690468
 21
119.274404
 31
0.0
  0
SOLID
  5
A66
100
AcDbEntity
  8
0
  6
BYBLOCK
 62
     0
100
AcDbTrace
 10
91.606462
 20
129.779654
 30
0.0
 11
92.195718
 21
129.190398
 31
0.0
 12
90.133323
 22
127.717259
 32
0.0
 13
90.133323
 23
127.717259
 33
0.0
  0
SOLID
  5
A67
100
AcDbEntity
  8
0
  6
BYBLOCK
 62
     0
100
AcDbTrace
 10
87.080979
 20
125.25417
 30
0.0
 11
87.670234
 21
124.664915
 31
0.0
 12
89.143373
 22
126.72731
 32
0.0
 13
89.143373
 23
126.72731
 33
0.0
  0
MTEXT
  5
A68
100
AcDbEntity
  8
0
  6
BYBLOCK
 62
     0
100
AcDbMText
 10
82.146552
 20
122.735692
 30
0.0
 40
3.0
 41
0.0
 71
     5
 72
     1
  1
\A1;1.4
 11
0.707107
 21
0.707107
 31
0.0
  0
POINT
  5
A69
100
AcDbEntity
  8
DEFPOINTS
  6
BYBLOCK
 62
     0
100
AcDbPoint
 10
97.075431
 20
120.775151
 30
0.0
  0
POINT
  5
A6A
100
AcDbEntity
  8
DEFPOINTS
  6
BYBLOCK
 62
     0
100
AcDbPoint
 10
96.085481
 20
119.785202
 30
0.0
  0
POINT
  5
A6B
100
AcDbEntity
  8
DEFPOINTS
  6
BYBLOCK
 62
     0
100
AcDbPoint
 10
89.143373
 20
126.72731
 30
0.0
  0
ENDBLK
  5
A6D
100
AcDbEntity
  8
0
100
AcDbBlockEnd
  0
BLOCK
  5
A78
100
AcDbEntity
  8
0
100
AcDbBlockBegin
  2
*D21
 70
    65
 10
0.0
 20
0.0
 30
0.0
  3
*D21
  1

  0
LINE
  5
A6F
100
AcDbEntity
  8
0
  6
BYBLOCK
 62
     0
100
AcDbLine
 10
96.633489
 20
118.353311
 30
0.0
 11
82.489569
 21
104.20939
 31
0.0
  0
LINE
  5
A70
100
AcDbEntity
  8
0
  6
BYBLOCK
 62
     0
100
AcDbLine
 10
102.99745
 20
111.98935
 30
0.0
 11
88.85353
 21
97.845429
 31
0.0
  0
LINE
  5
A71
100
AcDbEntity
  8
0
  6
BYBLOCK
 62
     0
100
AcDbLine
 10
85.141219
 20
103.325507
 30
0.0
 11
87.969646
 21
100.49708
 31
0.0
  0
SOLID
  5
A72
100
AcDbEntity
  8
0
  6
BYBLOCK
 62
     0
100
AcDbTrace
 10
85.435847
 20
103.620135
 30
0.0
 11
84.846591
 21
103.030879
 31
0.0
 12
83.373452
 22
105.093274
 32
0.0
 13
83.373452
 23
105.093274
 33
0.0
  0
SOLID
  5
A73
100
AcDbEntity
  8
0
  6
BYBLOCK
 62
     0
100
AcDbTrace
 10
88.264274
 20
100.791708
 30
0.0
 11
87.675019
 21
100.202452
 31
0.0
 12
89.737413
 22
98.729313
 32
0.0
 13
89.737413
 23
98.729313
 33
0.0
  0
MTEXT
  5
A74
100
AcDbEntity
  8
0
  6
BYBLOCK
 62
     0
100
AcDbMText
 10
88.435836
 20
103.036094
 30
0.0
 40
3.0
 41
0.0
 71
     5
 72
     1
  1
\A1;9
 11
0.707107
 21
-0.707107
 31
0.0
  0
POINT
  5
A75
100
AcDbEntity
  8
DEFPOINTS
  6
BYBLOCK
 62
     0
100
AcDbPoint
 10
97.075431
 20
118.795252
 30
0.0
  0
POINT
  5
A76
100
AcDbEntity
  8
DEFPOINTS
  6
BYBLOCK
 62
     0
100
AcDbPoint
 10
103.439392
 20
112.431291
 30
0.0
  0
POINT
  5
A77
100
AcDbEntity
  8
DEFPOINTS
  6
BYBLOCK
 62
     0
100
AcDbPoint
 10
89.737413
 20
98.729313
 30
0.0
  0
ENDBLK
  5
A79
100
AcDbEntity
  8
0
100
AcDbBlockEnd
  0
BLOCK
  5
AA2
100
AcDbEntity
  8
0
100
AcDbBlockBegin
  2
*X22
 70
    65
 10
0.0
 20
0.0
 30
0.0
  3
*X22
  1

  0
LINE
  5
A7B
100
AcDbEntity
  8
0
 62
     0
100
AcDbLine
 10
102.547188
 20
113.323495
 30
0.0
 11
103.439392
 21
114.215699
 31
0.0
  0
LINE
  5
A7C
100
AcDbEntity
  8
0
 62
     0
100
AcDbLine
 10
103.439392
 20
114.215699
 30
0.0
 11
103.734785
 21
114.511092
 31
0.0
  0
LINE
  5
A7D
100
AcDbEntity
  8
0
 62
     0
100
AcDbLine
 10
102.434935
 20
113.435748
 30
0.0
 11
103.439392
 21
114.440206
 31
0.0
  0
LINE
  5
A7E
100
AcDbEntity
  8
0
 62
     0
100
AcDbLine
 10
103.439392
 20
114.440206
 30
0.0
 11
103.501937
 21
114.50275
 31
0.0
  0
LINE
  5
A7F
100
AcDbEntity
  8
0
 62
     0
100
AcDbLine
 10
102.322681
 20
113.548002
 30
0.0
 11
103.279593
 21
114.504913
 31
0.0
  0
LINE
  5
A80
100
AcDbEntity
  8
0
 62
     0
100
AcDbLine
 10
102.210428
 20
113.660255
 30
0.0
 11
103.06646
 21
114.516286
 31
0.0
  0
LINE
  5
A81
100
AcDbEntity
  8
0
 62
     0
100
AcDbLine
 10
102.098175
 20
113.772508
 30
0.0
 11
102.861531
 21
114.535864
 31
0.0
  0
LINE
  5
A82
100
AcDbEntity
  8
0
 62
     0
100
AcDbLine
 10
101.985922
 20
113.884761
 30
0.0
 11
102.664008
 21
114.562847
 31
0.0
  0
LINE
  5
A83
100
AcDbEntity
  8
0
 62
     0
100
AcDbLine
 10
101.873669
 20
113.997014
 30
0.0
 11
102.473245
 21
114.596591
 31
0.0
  0
LINE
  5
A84
100
AcDbEntity
  8
0
 62
     0
100
AcDbLine
 10
101.761415
 20
114.109268
 30
0.0
 11
102.288714
 21
114.636566
 31
0.0
  0
LINE
  5
A85
100
AcDbEntity
  8
0
 62
     0
100
AcDbLine
 10
101.649162
 20
114.221521
 30
0.0
 11
102.109975
 21
114.682333
 31
0.0
  0
LINE
  5
A86
100
AcDbEntity
  8
0
 62
     0
100
AcDbLine
 10
101.536909
 20
114.333774
 30
0.0
 11
101.936659
 21
114.733524
 31
0.0
  0
LINE
  5
A87
100
AcDbEntity
  8
0
 62
     0
100
AcDbLine
 10
101.424656
 20
114.446027
 30
0.0
 11
101.768455
 21
114.789826
 31
0.0
  0
LINE
  5
A88
100
AcDbEntity
  8
0
 62
     0
100
AcDbLine
 10
101.312403
 20
114.55828
 30
0.0
 11
101.605098
 21
114.850976
 31
0.0
  0
LINE
  5
A89
100
AcDbEntity
  8
0
 62
     0
100
AcDbLine
 10
101.200149
 20
114.670534
 30
0.0
 11
101.446363
 21
114.916747
 31
0.0
  0
LINE
  5
A8A
100
AcDbEntity
  8
0
 62
     0
100
AcDbLine
 10
101.087896
 20
114.782787
 30
0.0
 11
101.292056
 21
114.986947
 31
0.0
  0
LINE
  5
A8B
100
AcDbEntity
  8
0
 62
     0
100
AcDbLine
 10
100.975643
 20
114.89504
 30
0.0
 11
101.142011
 21
115.061408
 31
0.0
  0
LINE
  5
A8C
100
AcDbEntity
  8
0
 62
     0
100
AcDbLine
 10
100.86339
 20
115.007293
 30
0.0
 11
100.996087
 21
115.13999
 31
0.0
  0
LINE
  5
A8D
100
AcDbEntity
  8
0
 62
     0
100
AcDbLine
 10
100.751137
 20
115.119546
 30
0.0
 11
100.854161
 21
115.222571
 31
0.0
  0
LINE
  5
A8E
100
AcDbEntity
  8
0
 62
     0
100
AcDbLine
 10
100.638883
 20
115.2318
 30
0.0
 11
100.716132
 21
115.309048
 31
0.0
  0
LINE
  5
A8F
100
AcDbEntity
  8
0
 62
     0
100
AcDbLine
 10
100.52663
 20
115.344053
 30
0.0
 11
100.581912
 21
115.399335
 31
0.0
  0
LINE
  5
A90
100
AcDbEntity
  8
0
 62
     0
100
AcDbLine
 10
100.414377
 20
115.456306
 30
0.0
 11
100.45143
 21
115.493359
 31
0.0
  0
LINE
  5
A91
100
AcDbEntity
  8
0
 62
     0
100
AcDbLine
 10
100.302124
 20
115.568559
 30
0.0
 11
100.324627
 21
115.591063
 31
0.0
  0
LINE
  5
A92
100
AcDbEntity
  8
0
 62
     0
100
AcDbLine
 10
100.189871
 20
115.680812
 30
0.0
 11
100.201458
 21
115.6924
 31
0.0
  0
LINE
  5
A93
100
AcDbEntity
  8
0
 62
     0
100
AcDbLine
 10
100.077617
 20
115.793066
 30
0.0
 11
100.08189
 21
115.797338
 31
0.0
  0
LINE
  5
A94
100
AcDbEntity
  8
0
 62
     0
100
AcDbLine
 10
99.965364
 20
115.905319
 30
0.0
 11
99.965899
 21
115.905854
 31
0.0
  0
LINE
  5
A95
100
AcDbEntity
  8
0
 62
     0
100
AcDbLine
 10
102.659441
 20
113.211242
 30
0.0
 11
103.439392
 21
113.991193
 31
0.0
  0
LINE
  5
A96
100
AcDbEntity
  8
0
 62
     0
100
AcDbLine
 10
103.439392
 20
113.991193
 30
0.0
 11
103.979854
 21
114.531655
 31
0.0
  0
LINE
  5
A97
100
AcDbEntity
  8
0
 62
     0
100
AcDbLine
 10
102.771694
 20
113.098989
 30
0.0
 11
103.439392
 21
113.766686
 31
0.0
  0
LINE
  5
A98
100
AcDbEntity
  8
0
 62
     0
100
AcDbLine
 10
103.439392
 20
113.766686
 30
0.0
 11
104.239496
 21
114.566791
 31
0.0
  0
LINE
  5
A99
100
AcDbEntity
  8
0
 62
     0
100
AcDbLine
 10
102.883947
 20
112.986736
 30
0.0
 11
103.439392
 21
113.54218
 31
0.0
  0
LINE
  5
A9A
100
AcDbEntity
  8
0
 62
     0
100
AcDbLine
 10
103.439392
 20
113.54218
 30
0.0
 11
104.517097
 21
114.619885
 31
0.0
  0
LINE
  5
A9B
100
AcDbEntity
  8
0
 62
     0
100
AcDbLine
 10
102.996201
 20
112.874482
 30
0.0
 11
103.439392
 21
113.317674
 31
0.0
  0
LINE
  5
A9C
100
AcDbEntity
  8
0
 62
     0
100
AcDbLine
 10
103.439392
 20
113.317674
 30
0.0
 11
104.817845
 21
114.696127
 31
0.0
  0
LINE
  5
A9D
100
AcDbEntity
  8
0
 62
     0
100
AcDbLine
 10
103.174572
 20
112.828348
 30
0.0
 11
103.439392
 21
113.093167
 31
0.0
  0
LINE
  5
A9E
100
AcDbEntity
  8
0
 62
     0
100
AcDbLine
 10
103.439392
 20
113.093167
 30
0.0
 11
105.15048
 21
114.804256
 31
0.0
  0
LINE
  5
A9F
100
AcDbEntity
  8
0
 62
     0
100
AcDbLine
 10
103.399079
 20
112.828348
 30
0.0
 11
103.439392
 21
112.868661
 31
0.0
  0
LINE
  5
AA0
100
AcDbEntity
  8
0
 62
     0
100
AcDbLine
 10
103.439392
 20
112.868661
 30
0.0
 11
105.532104
 21
114.961373
 31
0.0
  0
LINE
  5
AA1
100
AcDbEntity
  8
0
 62
     0
100
AcDbLine
 10
103.623585
 20
112.828348
 30
0.0
 11
106.007532
 21
115.212294
 31
0.0
  0
ENDBLK
  5
AA3
100
AcDbEntity
  8
0
100
AcDbBlockEnd
  0
BLOCK
  5
ADF
100
AcDbEntity
  8
DISEGNO
100
AcDbBlockBegin
  2
A$CE200
 70
     0
 10
0.0
 20
0.0
 30
0.0
  3
A$CE200
  1

  0
INSERT
  5
AA5
100
AcDbEntity
  8
TEMPRA
100
AcDbBlockReference
  2
*X22
 10
-17.866426
 20
-57.690006
 30
0.0
1001
ACAD
1000
HATCH
1002
{
1070
    19
1000
ANSI31
1040
0.05
1040
0.0
1000
ASC_BOUNDS
1070
     2
1070
     1
1070
     4
1005
AA6
1005
ABB
1005
AC3
1005
AB6
1070
     1
1070
     4
1005
AA6
1005
AC2
1005
AC3
1005
ABB
1000
ASC_SEEDPOINT
1011
84.915708
1021
56.580769
1031
0.0
1002
}
  0
ARC
  5
AA6
100
AcDbEntity
  8
TEMPRA
100
AcDbCircle
 10
85.572965
 20
61.812354
 30
0.0
 40
5.0
100
AcDbArc
 50
225.0
 51
315.0
1001
ACAD
1000
ASC_BOUNDS
1002
{
1070
    19
1005
AA5
1005
AA5
1002
}
  0
DIMENSION
  5
AA7
100
AcDbEntity
  8
QUOTE
100
AcDbDimension
  2
*D19
 10
82.572965
 20
70.638342
 30
0.0
 11
93.603358
 21
75.20728
 31
0.0
 12
-17.866426
 22
-57.690006
 32
0.0
 70
     2
  3
STANDARD
100
AcDb2LineAngularDimension
 13
82.572965
 23
70.638342
 33
0.0
 14
92.021494
 24
61.189814
 34
0.0
 15
82.572965
 25
120.638342
 35
0.0
 16
92.387176
 26
70.638342
 36
0.0
  0
DIMENSION
  5
AA8
100
AcDbEntity
  8
QUOTE
100
AcDbDimension
  2
*D18
 10
91.872965
 20
129.938342
 30
0.0
 11
84.946476
 21
130.915795
 31
0.0
 12
-17.866426
 22
-57.690006
 32
0.0
 70
     2
  3
STANDARD
100
AcDb2LineAngularDimension
 13
91.872965
 23
141.938342
 33
0.0
 14
91.872965
 24
129.938342
 34
0.0
 15
82.572965
 25
120.638342
 35
0.0
 16
89.769896
 26
122.08958
 36
0.0
  0
DIMENSION
  5
AA9
100
AcDbEntity
  8
QUOTE
100
AcDbDimension
  2
*D17
 10
85.572965
 20
104.613575
 30
0.0
 11
96.103642
 21
106.738575
 31
0.0
 12
-17.866426
 22
-57.690006
 32
0.0
  3
TOLL-04
100
AcDbAlignedDimension
 13
82.572965
 23
102.388201
 33
0.0
 14
85.572965
 24
104.1685
 34
0.0
100
AcDbRotatedDimension
  0
DIMENSION
  5
AAA
100
AcDbEntity
  8
QUOTE
100
AcDbDimension
  2
*D16
 10
82.572965
 20
104.613575
 30
0.0
 11
73.922965
 21
107.91952
 31
0.0
 12
-17.866426
 22
-57.690006
 32
0.0
  3
TOLL-05
100
AcDbAlignedDimension
 13
65.272965
 23
105.948799
 33
0.0
 14
82.572965
 24
103.723425
 34
0.0
100
AcDbRotatedDimension
  0
DIMENSION
  5
AAB
100
AcDbEntity
  8
QUOTE
100
AcDbDimension
  2
*D15
 10
109.229249
 20
70.638342
 30
0.0
 11
107.104249
 21
95.638342
 31
0.0
 12
-17.866426
 22
-57.690006
 32
0.0
  3
STANDARD
100
AcDbAlignedDimension
 13
82.572965
 23
120.638342
 33
0.0
 14
82.572965
 24
70.638342
 34
0.0
 50
90.0
100
AcDbRotatedDimension
  0
DIMENSION
  5
AAC
100
AcDbEntity
  8
QUOTE
100
AcDbDimension
  2
*D14
 10
109.229249
 20
120.638342
 30
0.0
 11
107.104249
 21
131.288342
 31
0.0
 12
-17.866426
 22
-57.690006
 32
0.0
  3
STANDARD
100
AcDbAlignedDimension
 13
91.872965
 23
141.938342
 33
0.0
 14
82.572965
 24
120.638342
 34
0.0
 50
90.0
100
AcDbRotatedDimension
  0
DIMENSION
  5
AAD
100
AcDbEntity
  8
QUOTE
100
AcDbDimension
  2
*D13
 10
115.906744
 20
37.304564
 30
0.0
 11
111.179669
 21
35.58311
 31
0.0
 12
-17.866426
 22
-57.690006
 32
0.0
 70
     1
  3
STANDARD
100
AcDbAlignedDimension
 13
85.175909
 23
55.138342
 33
0.0
 14
91.624437
 24
61.58687
 34
0.0
  0
DIMENSION
  5
AAE
100
AcDbEntity
  8
QUOTE
100
AcDbDimension
  2
*D12
 10
79.209004
 20
61.105247
 30
0.0
 11
85.572965
 21
14.960644
 31
0.0
 12
-17.866426
 22
-57.690006
 32
0.0
 70
     2
  3
STANDARD
100
AcDb2LineAngularDimension
 13
85.970022
 23
55.138342
 33
0.0
 14
92.021494
 24
61.189814
 34
0.0
 15
85.175909
 25
55.138342
 35
0.0
 16
74.726987
 26
14.263544
 36
0.0
  0
DIMENSION
  5
AAF
100
AcDbEntity
  8
QUOTE
100
AcDbDimension
  2
*D11
 10
143.103871
 20
171.638342
 30
0.0
 11
139.797926
 21
113.388342
 31
0.0
 12
-17.866426
 22
-57.690006
 32
0.0
  3
TOLL-05
100
AcDbAlignedDimension
 13
85.970022
 23
55.138342
 33
0.0
 14
78.872965
 24
171.638342
 34
0.0
 50
90.0
100
AcDbRotatedDimension
  0
DIMENSION
  5
AB0
100
AcDbEntity
  8
QUOTE
100
AcDbDimension
  2
*D10
 10
127.2416
 20
55.138342
 30
0.0
 11
123.935655
 21
98.538342
 31
0.0
 12
-17.866426
 22
-57.690006
 32
0.0
  3
TOLL-05
100
AcDbAlignedDimension
 13
91.872965
 23
141.938342
 33
0.0
 14
85.970022
 24
55.138342
 34
0.0
 50
90.0
100
AcDbRotatedDimension
  0
DIMENSION
  5
AB1
100
AcDbEntity
  8
QUOTE
100
AcDbDimension
  2
*D9
 10
127.284539
 20
141.938342
 30
0.0
 11
123.308358
 21
156.788342
 31
0.0
 12
-17.866426
 22
-57.690006
 32
0.0
  3
TOLL-07
100
AcDbAlignedDimension
 13
78.872965
 23
171.638342
 33
0.0
 14
91.872965
 24
141.938342
 34
0.0
 50
90.0
100
AcDbRotatedDimension
  0
LINE
  5
AB2
100
AcDbEntity
  8
DISEGNO
100
AcDbLine
 10
78.872965
 20
141.938342
 30
0.0
 11
90.572965
 21
141.938342
 31
0.0
  0
DIMENSION
  5
AB3
100
AcDbEntity
  8
QUOTE
100
AcDbDimension
  2
*D8
 10
85.970022
 20
27.600577
 30
0.0
 11
98.464787
 21
30.906522
 31
0.0
 12
-17.866426
 22
-57.690006
 32
0.0
  3
TOLL-05
100
AcDbAlignedDimension
 13
85.175909
 23
55.138342
 33
0.0
 14
85.970022
 24
55.138342
 34
0.0
100
AcDbRotatedDimension
  0
DIMENSION
  5
AB4
100
AcDbEntity
  8
QUOTE
100
AcDbDimension
  2
*D4
 10
91.872965
 20
214.224191
 30
0.0
 11
78.572965
 21
216.349191
 31
0.0
 12
-17.866426
 22
-57.690006
 32
0.0
  3
TOLL-04
100
AcDbAlignedDimension
 13
65.272965
 23
171.638342
 33
0.0
 14
91.872965
 24
142.138342
 34
0.0
100
AcDbRotatedDimension
  0
DIMENSION
  5
AB5
100
AcDbEntity
  8
QUOTE
100
AcDbDimension
  2
*D3
 10
85.572965
 20
192.216289
 30
0.0
 11
105.113396
 21
192.216289
 31
0.0
 12
-17.866426
 22
-57.690006
 32
0.0
 70
   128
  3
TOLL-04
100
AcDbAlignedDimension
 13
78.872965
 23
171.638342
 33
0.0
 14
85.572965
 24
191.046617
 34
0.0
100
AcDbRotatedDimension
  0
LINE
  5
AB6
100
AcDbEntity
  8
DISEGNO
100
AcDbLine
 10
85.970022
 20
55.138342
 30
0.0
 11
92.021494
 21
61.189814
 31
0.0
1001
ACAD
1000
ASC_BOUNDS
1002
{
1070
    19
1005
AA5
1002
}
  0
LINE
  5
AB7
100
AcDbEntity
  8
DISEGNO
100
AcDbLine
 10
82.572965
 20
70.638342
 30
0.0
 11
92.021494
 21
61.189814
 31
0.0
  0
LINE
  5
AB8
100
AcDbEntity
  8
DISEGNO
100
AcDbLine
 10
82.572965
 20
120.638342
 30
0.0
 11
91.872965
 21
129.938342
 31
0.0
  0
LINE
  5
AB9
100
AcDbEntity
  8
DISEGNO
100
AcDbLine
 10
65.272965
 20
145.638342
 30
0.0
 11
65.272965
 21
77.021185
 31
0.0
  0
LINE
  5
ABA
100
AcDbEntity
  8
DISEGNO
100
AcDbLine
 10
82.572965
 20
120.638342
 30
0.0
 11
82.572965
 21
70.638342
 31
0.0
  0
LINE
  5
ABB
100
AcDbEntity
  8
ASSI
100
AcDbLine
 10
85.572965
 20
44.389863
 30
0.0
 11
85.572965
 21
215.562383
 31
0.0
1001
ACAD
1000
ASC_BOUNDS
1002
{
1070
    19
1005
AA5
1005
AA5
1002
}
  0
TEXT
  5
ABC
100
AcDbEntity
  8
DISEGNO
100
AcDbText
 10
12.046779
 20
0.32114
 30
0.0
 40
3.0
  1
DISEGNO DI FRESATURA
 41
1.1
100
AcDbText
  0
MTEXT
  5
ABD
100
AcDbEntity
  8
QUOTE
100
AcDbMText
 10
43.381242
 20
42.407037
 30
0.0
 40
3.0
 41
0.0
 71
     9
 72
     1
  1
{TEMPRA IND. 54 HRC}
  0
LEADER
  5
ABE
100
AcDbEntity
  8
QUOTE
100
AcDbLeader
  3
STANDARD
 73
     0
 75
     1
 40
3.0
 41
39.093777
 76
     3
 10
84.074055
 20
56.240197
 30
0.0
 10
46.506242
 20
41.782037
 30
0.0
 10
44.006242
 20
41.782037
 30
0.0
 77
   256
  0
DIMENSION
  5
ABF
100
AcDbEntity
  8
QUOTE
100
AcDbDimension
  2
*D21
 10
71.870987
 20
41.039307
 30
0.0
 11
69.066807
 21
43.843487
 31
0.0
 12
-17.866426
 22
-57.690006
 32
0.0
 70
   129
  3
STANDARD
100
AcDbAlignedDimension
 13
79.209004
 23
61.105247
 33
0.0
 14
85.572965
 24
54.741286
 34
0.0
  0
DIMENSION
  5
AC0
100
AcDbEntity
  8
QUOTE
100
AcDbDimension
  2
*D20
 10
71.276947
 20
69.037304
 30
0.0
 11
64.280126
 21
65.045686
 31
0.0
 12
-17.866426
 22
-57.690006
 32
0.0
 70
     1
  3
STANDARD
100
AcDbAlignedDimension
 13
79.209004
 23
63.085146
 33
0.0
 14
78.219055
 24
62.095196
 34
0.0
  0
LINE
  5
AC1
100
AcDbEntity
  8
DISEGNO
100
AcDbLine
 10
79.209004
 20
63.085146
 30
0.0
 11
65.272965
 21
77.021185
 31
0.0
  0
LINE
  5
AC2
100
AcDbEntity
  8
DISEGNO
100
AcDbLine
 10
85.175909
 20
55.138342
 30
0.0
 11
79.209004
 21
61.105247
 31
0.0
1001
ACAD
1000
ASC_BOUNDS
1002
{
1070
    19
1005
AA5
1002
}
  0
LINE
  5
AC3
100
AcDbEntity
  8
DISEGNO
100
AcDbLine
 10
85.175909
 20
55.138342
 30
0.0
 11
85.970022
 21
55.138342
 31
0.0
1001
ACAD
1000
ASC_BOUNDS
1002
{
1070
    19
1005
AA5
1005
AA5
1002
}
  0
LINE
  5
AC4
100
AcDbEntity
  8
DISEGNO
100
AcDbLine
 10
79.209004
 20
61.105247
 30
0.0
 11
79.209004
 21
63.085146
 31
0.0
  0
TEXT
  5
AC5
100
AcDbEntity
  8
DISEGNO
100
AcDbText
 10
-0.139576
 20
209.699129
 30
0.0
 40
2.5
  1
USARE  MASTER DI
 41
1.1
100
AcDbText
  0
TEXT
  5
AC6
100
AcDbEntity
  8
DISEGNO
100
AcDbText
 10
-0.139576
 20
204.949129
 30
0.0
 40
2.5
  1
FRESATURA P.116.88.08/FR
 41
1.1
100
AcDbText
  0
MTEXT
  5
AC7
100
AcDbEntity
  8
QUOTE
100
AcDbMText
 10
33.730343
 20
123.573998
 30
0.0
 40
3.0
 41
0.0
 71
     9
 72
     1
  1
{N° 2 SM 0.8X45°}
  0
LEADER
  5
AC8
100
AcDbEntity
  8
QUOTE
100
AcDbLeader
  3
STANDARD
 73
     0
 75
     1
 40
3.0
 41
31.02
 76
     3
 10
65.620698
 20
155.09061
 30
0.0
 10
36.855343
 20
122.948998
 30
0.0
 10
34.355343
 20
122.948998
 30
0.0
 77
   256
  0
MTEXT
  5
AC9
100
AcDbEntity
  8
QUOTE
100
AcDbMText
 10
31.236139
 20
187.157377
 30
0.0
 40
3.0
 41
0.0
 71
     9
 72
     1
  1
{N° 2 SM 1.2X45°}
  0
LEADER
  5
ACA
100
AcDbEntity
  8
QUOTE
100
AcDbLeader
  3
STANDARD
 73
     0
 75
     1
 40
3.0
 41
30.36
 76
     3
 10
65.272965
 20
170.338342
 30
0.0
 10
34.361139
 20
186.532377
 30
0.0
 10
31.861139
 20
186.532377
 30
0.0
 77
   256
  0
DIMENSION
  5
ACB
100
AcDbEntity
  8
QUOTE
100
AcDbDimension
  2
*D2
 10
78.872965
 20
192.216289
 30
0.0
 11
55.688081
 21
192.216289
 31
0.0
 12
-17.866426
 22
-57.690006
 32
0.0
 70
   128
  3
TOLL-04
100
AcDbAlignedDimension
 13
65.272965
 23
171.638342
 33
0.0
 14
78.872965
 24
171.638342
 34
0.0
100
AcDbRotatedDimension
  0
DIMENSION
  5
ACC
100
AcDbEntity
  8
QUOTE
100
AcDbDimension
  2
*D6
 10
45.740985
 20
146.438342
 30
0.0
 11
43.61569
 21
150.538342
 31
0.0
 12
-17.866426
 22
-57.690006
 32
0.0
  3
STANDARD
100
AcDbAlignedDimension
 13
65.272965
 23
154.638342
 33
0.0
 14
65.272965
 24
146.438342
 34
0.0
 50
90.0
100
AcDbRotatedDimension
  0
DIMENSION
  5
ACD
100
AcDbEntity
  8
QUOTE
100
AcDbDimension
  2
*D5
 10
45.740985
 20
154.638342
 30
0.0
 11
43.615985
 21
163.138342
 31
0.0
 12
-17.866426
 22
-57.690006
 32
0.0
  3
STANDARD
100
AcDbAlignedDimension
 13
65.272965
 23
171.638342
 33
0.0
 14
65.272965
 24
154.638342
 34
0.0
 50
90.0
100
AcDbRotatedDimension
  0
DIMENSION
  5
ACE
100
AcDbEntity
  8
QUOTE
100
AcDbDimension
  2
*D7
 10
69.072965
 20
162.372996
 30
0.0
 11
75.132965
 21
162.372996
 31
0.0
 12
-17.866426
 22
-57.690006
 32
0.0
 70
   128
  3
STANDARD
100
AcDbAlignedDimension
 13
65.272965
 23
154.638342
 33
0.0
 14
69.072965
 24
154.638342
 34
0.0
100
AcDbRotatedDimension
  0
LINE
  5
ACF
100
AcDbEntity
  8
DISEGNO
100
AcDbLine
 10
66.572965
 20
171.638342
 30
0.0
 11
77.572965
 21
171.638342
 31
0.0
  0
LINE
  5
AD0
100
AcDbEntity
  8
DISEGNO
100
AcDbLine
 10
65.272965
 20
170.338342
 30
0.0
 11
65.272965
 21
155.438342
 31
0.0
  0
LEADER
  5
AD1
100
AcDbEntity
  8
QUOTE
100
AcDbLeader
  3
STANDARD
 76
     2
 10
65.625982
 20
145.991358
 30
0.0
 10
61.314897
 20
150.279427
 30
0.0
 77
   256
  0
LINE
  5
AD2
100
AcDbEntity
  8
DISEGNO
100
AcDbLine
 10
69.072965
 20
154.638342
 30
0.0
 11
69.072965
 21
146.438342
 31
0.0
  0
LINE
  5
AD3
100
AcDbEntity
  8
DISEGNO
100
AcDbLine
 10
69.072965
 20
146.438342
 30
0.0
 11
66.072965
 21
146.438342
 31
0.0
  0
LINE
  5
AD4
100
AcDbEntity
  8
DISEGNO
100
AcDbLine
 10
65.272965
 20
145.638342
 30
0.0
 11
66.072965
 21
146.438342
 31
0.0
  0
LINE
  5
AD5
100
AcDbEntity
  8
DISEGNO
100
AcDbLine
 10
66.072965
 20
154.638342
 30
0.0
 11
69.072965
 21
154.638342
 31
0.0
  0
LINE
  5
AD6
100
AcDbEntity
  8
DISEGNO
100
AcDbLine
 10
65.272965
 20
155.438342
 30
0.0
 11
66.072965
 21
154.638342
 31
0.0
  0
LINE
  5
AD7
100
AcDbEntity
  8
DISEGNO
100
AcDbLine
 10
65.272965
 20
170.338342
 30
0.0
 11
66.572965
 21
171.638342
 31
0.0
  0
LINE
  5
AD8
100
AcDbEntity
  8
DISEGNO
100
AcDbLine
 10
78.872965
 20
170.338342
 30
0.0
 11
78.872965
 21
141.938342
 31
0.0
  0
LINE
  5
AD9
100
AcDbEntity
  8
DISEGNO
100
AcDbLine
 10
77.572965
 20
171.638342
 30
0.0
 11
78.872965
 21
170.338342
 31
0.0
  0
TEXT
  5
ADA
100
AcDbEntity
  8
DISEGNO
100
AcDbText
 10
132.715789
 20
6.107111
 30
0.0
 40
3.0
  1
L=835mm
 41
1.1
100
AcDbText
  0
LEADER
  5
ADB
100
AcDbEntity
  8
QUOTE
100
AcDbLeader
  3
STANDARD
 73
     0
 74
     0
 75
     1
 40
3.0
 41
20.79
 76
     3
 10
90.78433
 20
141.726978
 30
0.0
 10
121.977946
 20
185.197153
 30
0.0
 10
124.477946
 20
185.197153
 30
0.0
 77
   256
  0
LINE
  5
ADC
100
AcDbEntity
  8
DISEGNO
100
AcDbLine
 10
91.872965
 20
140.638342
 30
0.0
 11
91.872965
 21
129.938342
 31
0.0
  0
LINE
  5
ADD
100
AcDbEntity
  8
DISEGNO
100
AcDbLine
 10
90.572965
 20
141.938342
 30
0.0
 11
91.872965
 21
140.638342
 31
0.0
  0
MTEXT
  5
ADE
100
AcDbEntity
  8
QUOTE
100
AcDbMText
 10
125.102946
 20
185.822153
 30
0.0
 40
3.0
 41
0.0
 71
     7
 72
     1
  1
{SM 1.5X45°}
  0
ENDBLK
  5
AE0
100
AcDbEntity
  8
DISEGNO
100
AcDbBlockEnd
  0
BLOCK
  5
CEB
100
AcDbEntity
  8
0
100
AcDbBlockBegin
  2
*D24
 70
    65
 10
0.0
 20
0.0
 30
0.0
  3
*D24
  1

  0
LINE
  5
CEC
100
AcDbEntity
  8
0
  6
BYBLOCK
 62
     0
100
AcDbLine
 10
-1849.844032
 20
-1434.172195
 30
0.0
 11
-1870.001012
 21
-1434.172195
 31
0.0
  0
LINE
  5
CED
100
AcDbEntity
  8
0
  6
BYBLOCK
 62
     0
100
AcDbLine
 10
-1849.844032
 20
-1451.172195
 30
0.0
 11
-1870.001012
 21
-1451.172195
 31
0.0
  0
LINE
  5
CEE
100
AcDbEntity
  8
0
  6
BYBLOCK
 62
     0
100
AcDbLine
 10
-1868.751012
 20
-1436.672195
 30
0.0
 11
-1868.751012
 21
-1448.672195
 31
0.0
  0
SOLID
  5
CEF
100
AcDbEntity
  8
0
  6
BYBLOCK
 62
     0
100
AcDbTrace
 10
-1869.167679
 20
-1436.672195
 30
0.0
 11
-1868.334346
 21
-1436.672195
 31
0.0
 12
-1868.751012
 22
-1434.172195
 32
0.0
 13
-1868.751012
 23
-1434.172195
 33
0.0
  0
SOLID
  5
CF0
100
AcDbEntity
  8
0
  6
BYBLOCK
 62
     0
100
AcDbTrace
 10
-1869.167679
 20
-1448.672195
 30
0.0
 11
-1868.334346
 21
-1448.672195
 31
0.0
 12
-1868.751012
 22
-1451.172195
 32
0.0
 13
-1868.751012
 23
-1451.172195
 33
0.0
  0
MTEXT
  5
CF1
100
AcDbEntity
  8
0
  6
BYBLOCK
 62
     0
100
AcDbMText
 10
-1870.876012
 20
-1442.672195
 30
0.0
 40
3.0
 41
0.0
 71
     5
 72
     1
  1
\A1;17
 11
0.0
 21
1.0
 31
0.0
  0
POINT
  5
CF2
100
AcDbEntity
  8
DEFPOINTS
  6
BYBLOCK
 62
     0
100
AcDbPoint
 10
-1849.219032
 20
-1434.172195
 30
0.0
  0
POINT
  5
CF3
100
AcDbEntity
  8
DEFPOINTS
  6
BYBLOCK
 62
     0
100
AcDbPoint
 10
-1849.219032
 20
-1451.172195
 30
0.0
  0
POINT
  5
CF4
100
AcDbEntity
  8
DEFPOINTS
  6
BYBLOCK
 62
     0
100
AcDbPoint
 10
-1868.751012
 20
-1451.172195
 30
0.0
  0
ENDBLK
  5
CF5
100
AcDbEntity
  8
0
100
AcDbBlockEnd
  0
BLOCK
  5
D5B
100
AcDbEntity
  8
0
100
AcDbBlockBegin
  2
*D25
 70
    65
 10
0.0
 20
0.0
 30
0.0
  3
*D25
  1

  0
LINE
  5
D5C
100
AcDbEntity
  8
0
  6
BYBLOCK
 62
     0
100
AcDbLine
 10
-1849.044032
 20
-1451.172195
 30
0.0
 11
-1870.010533
 21
-1451.172195
 31
0.0
  0
LINE
  5
D5D
100
AcDbEntity
  8
0
  6
BYBLOCK
 62
     0
100
AcDbLine
 10
-1849.044032
 20
-1459.572195
 30
0.0
 11
-1870.010533
 21
-1459.572195
 31
0.0
  0
LINE
  5
D5E
100
AcDbEntity
  8
0
  6
BYBLOCK
 62
     0
100
AcDbLine
 10
-1868.760533
 20
-1448.672195
 30
0.0
 11
-1868.760533
 21
-1446.172195
 31
0.0
  0
LINE
  5
D5F
100
AcDbEntity
  8
0
  6
BYBLOCK
 62
     0
100
AcDbLine
 10
-1868.760533
 20
-1462.072195
 30
0.0
 11
-1868.760533
 21
-1464.572195
 31
0.0
  0
SOLID
  5
D60
100
AcDbEntity
  8
0
  6
BYBLOCK
 62
     0
100
AcDbTrace
 10
-1869.1772
 20
-1448.672195
 30
0.0
 11
-1868.343867
 21
-1448.672195
 31
0.0
 12
-1868.760533
 22
-1451.172195
 32
0.0
 13
-1868.760533
 23
-1451.172195
 33
0.0
  0
SOLID
  5
D61
100
AcDbEntity
  8
0
  6
BYBLOCK
 62
     0
100
AcDbTrace
 10
-1869.1772
 20
-1462.072195
 30
0.0
 11
-1868.343867
 21
-1462.072195
 31
0.0
 12
-1868.760533
 22
-1459.572195
 32
0.0
 13
-1868.760533
 23
-1459.572195
 33
0.0
  0
MTEXT
  5
D62
100
AcDbEntity
  8
0
  6
BYBLOCK
 62
     0
100
AcDbMText
 10
-1870.885533
 20
-1455.372195
 30
0.0
 40
3.0
 41
0.0
 71
     5
 72
     1
  1
\A1;8.4
 11
0.0
 21
1.0
 31
0.0
  0
POINT
  5
D63
100
AcDbEntity
  8
DEFPOINTS
  6
BYBLOCK
 62
     0
100
AcDbPoint
 10
-1848.419032
 20
-1451.172195
 30
0.0
  0
POINT
  5
D64
100
AcDbEntity
  8
DEFPOINTS
  6
BYBLOCK
 62
     0
100
AcDbPoint
 10
-1848.419032
 20
-1459.572195
 30
0.0
  0
POINT
  5
D65
100
AcDbEntity
  8
DEFPOINTS
  6
BYBLOCK
 62
     0
100
AcDbPoint
 10
-1868.760533
 20
-1459.572195
 30
0.0
  0
ENDBLK
  5
D66
100
AcDbEntity
  8
0
100
AcDbBlockEnd
  0
BLOCK
  5
1158
100
AcDbEntity
  8
0
100
AcDbBlockBegin
  2
*D26
 70
    65
 10
0.0
 20
0.0
 30
0.0
  3
*D26
  1

  0
ARC
  5
1159
100
AcDbEntity
  8
0
  6
BYBLOCK
 62
     0
100
AcDbCircle
 10
-1831.919032
 20
-1534.747931
 30
0.0
 40
10.736453
100
AcDbArc
 50
328.371738
 51
76.628262
  0
SOLID
  5
115A
100
AcDbEntity
  8
0
  6
BYBLOCK
 62
     0
100
AcDbTrace
 10
-1822.450356
 20
-1540.636513
 30
0.0
 11
-1823.104208
 21
-1540.119869
 31
0.0
 12
-1824.327213
 22
-1542.33975
 32
0.0
 13
-1824.327213
 23
-1542.33975
 33
0.0
  0
SOLID
  5
115B
100
AcDbEntity
  8
0
  6
BYBLOCK
 62
     0
100
AcDbTrace
 10
-1829.484544
 20
-1524.716376
 30
0.0
 11
-1829.387523
 21
-1523.88871
 31
0.0
 12
-1831.919032
 22
-1524.011478
 32
0.0
 13
-1831.919032
 23
-1524.011478
 33
0.0
  0
MTEXT
  5
115C
100
AcDbEntity
  8
0
  6
BYBLOCK
 62
     0
100
AcDbMText
 10
-1820.036599
 20
-1529.826066
 30
0.0
 40
3.0
 41
0.0
 71
     5
 72
     1
  1
\A1;135°
 11
0.382683
 21
-0.92388
 31
0.0
  0
POINT
  5
115D
100
AcDbEntity
  8
DEFPOINTS
  6
BYBLOCK
 62
     0
100
AcDbPoint
 10
-1821.182579
 20
-1534.747931
 30
0.0
  0
POINT
  5
115E
100
AcDbEntity
  8
DEFPOINTS
  6
BYBLOCK
 62
     0
100
AcDbPoint
 10
-1831.919032
 20
-1485.172195
 30
0.0
  0
POINT
  5
115F
100
AcDbEntity
  8
DEFPOINTS
  6
BYBLOCK
 62
     0
100
AcDbPoint
 10
-1831.919032
 20
-1534.747931
 30
0.0
  0
POINT
  5
1160
100
AcDbEntity
  8
DEFPOINTS
  6
BYBLOCK
 62
     0
100
AcDbPoint
 10
-1822.719032
 20
-1543.947931
 30
0.0
  0
POINT
  5
1161
100
AcDbEntity
  8
DEFPOINTS
  6
BYBLOCK
 62
     0
100
AcDbPoint
 10
-1831.919032
 20
-1534.747931
 30
0.0
  0
ENDBLK
  5
1162
100
AcDbEntity
  8
0
100
AcDbBlockEnd
  0
BLOCK
  5
162B
100
AcDbEntity
  8
0
100
AcDbBlockBegin
  2
*D27
 70
    65
 10
0.0
 20
0.0
 30
0.0
  3
*D27
  1

  0
LINE
  5
162C
100
AcDbEntity
  8
0
  6
BYBLOCK
 62
     0
100
AcDbLine
 10
-1836.294032
 20
-1434.172195
 30
0.0
 11
-1801.947162
 21
-1434.172195
 31
0.0
  0
LINE
  5
162D
100
AcDbEntity
  8
0
  6
BYBLOCK
 62
     0
100
AcDbLine
 10
-1822.994032
 20
-1464.172195
 30
0.0
 11
-1801.947162
 21
-1464.172195
 31
0.0
  0
LINE
  5
162E
100
AcDbEntity
  8
0
  6
BYBLOCK
 62
     0
100
AcDbLine
 10
-1803.197162
 20
-1436.672195
 30
0.0
 11
-1803.197162
 21
-1461.672195
 31
0.0
  0
SOLID
  5
162F
100
AcDbEntity
  8
0
  6
BYBLOCK
 62
     0
100
AcDbTrace
 10
-1803.613828
 20
-1436.672195
 30
0.0
 11
-1802.780495
 21
-1436.672195
 31
0.0
 12
-1803.197162
 22
-1434.172195
 32
0.0
 13
-1803.197162
 23
-1434.172195
 33
0.0
  0
SOLID
  5
1630
100
AcDbEntity
  8
0
  6
BYBLOCK
 62
     0
100
AcDbTrace
 10
-1803.613828
 20
-1461.672195
 30
0.0
 11
-1802.780495
 21
-1461.672195
 31
0.0
 12
-1803.197162
 22
-1464.172195
 32
0.0
 13
-1803.197162
 23
-1464.172195
 33
0.0
  0
MTEXT
  5
1631
100
AcDbEntity
  8
0
  6
BYBLOCK
 62
     0
100
AcDbMText
 10
-1805.322162
 20
-1449.172195
 30
0.0
 40
3.0
 41
0.0
 71
     5
 72
     1
  1
\A1;30
 11
0.0
 21
1.0
 31
0.0
  0
POINT
  5
1632
100
AcDbEntity
  8
DEFPOINTS
  6
BYBLOCK
 62
     0
100
AcDbPoint
 10
-1836.919032
 20
-1434.172195
 30
0.0
  0
POINT
  5
1633
100
AcDbEntity
  8
DEFPOINTS
  6
BYBLOCK
 62
     0
100
AcDbPoint
 10
-1823.619032
 20
-1464.172195
 30
0.0
  0
POINT
  5
1634
100
AcDbEntity
  8
DEFPOINTS
  6
BYBLOCK
 62
     0
100
AcDbPoint
 10
-1803.197162
 20
-1464.172195
 30
0.0
  0
ENDBLK
  5
1635
100
AcDbEntity
  8
0
100
AcDbBlockEnd
  0
BLOCK
  5
12F6
100
AcDbEntity
  8
0
100
AcDbBlockBegin
  2
*D28
 70
    65
 10
0.0
 20
0.0
 30
0.0
  3
*D28
  1

  0
LINE
  5
12F7
100
AcDbEntity
  8
0
  6
BYBLOCK
 62
     0
100
AcDbLine
 10
-1835.919032
 20
-1451.065617
 30
0.0
 11
-1835.919032
 21
-1452.382119
 31
0.0
  0
LINE
  5
12F8
100
AcDbEntity
  8
0
  6
BYBLOCK
 62
     0
100
AcDbLine
 10
-1828.919032
 20
-1451.065617
 30
0.0
 11
-1828.919032
 21
-1452.382119
 31
0.0
  0
LINE
  5
12F9
100
AcDbEntity
  8
0
  6
BYBLOCK
 62
     0
100
AcDbLine
 10
-1833.419032
 20
-1451.132119
 30
0.0
 11
-1831.419032
 21
-1451.132119
 31
0.0
  0
LINE
  5
12FA
100
AcDbEntity
  8
0
  6
BYBLOCK
 62
     0
100
AcDbLine
 10
-1828.919032
 20
-1451.132119
 30
0.0
 11
-1810.106056
 21
-1451.132119
 31
0.0
  0
SOLID
  5
12FB
100
AcDbEntity
  8
0
  6
BYBLOCK
 62
     0
100
AcDbTrace
 10
-1833.419032
 20
-1450.715453
 30
0.0
 11
-1833.419032
 21
-1451.548786
 31
0.0
 12
-1835.919032
 22
-1451.132119
 32
0.0
 13
-1835.919032
 23
-1451.132119
 33
0.0
  0
SOLID
  5
12FC
100
AcDbEntity
  8
0
  6
BYBLOCK
 62
     0
100
AcDbTrace
 10
-1831.419032
 20
-1450.715453
 30
0.0
 11
-1831.419032
 21
-1451.548786
 31
0.0
 12
-1828.919032
 22
-1451.132119
 32
0.0
 13
-1828.919032
 23
-1451.132119
 33
0.0
  0
MTEXT
  5
12FD
100
AcDbEntity
  8
0
  6
BYBLOCK
 62
     0
100
AcDbMText
 10
-1815.318056
 20
-1449.007119
 30
0.0
 40
3.0
 41
0.0
 71
     5
 72
     1
  1
\A2;7{\H2.400000;±0.01}
  0
POINT
  5
12FE
100
AcDbEntity
  8
DEFPOINTS
  6
BYBLOCK
 62
     0
100
AcDbPoint
 10
-1835.919032
 20
-1450.440617
 30
0.0
  0
POINT
  5
12FF
100
AcDbEntity
  8
DEFPOINTS
  6
BYBLOCK
 62
     0
100
AcDbPoint
 10
-1828.919032
 20
-1450.440617
 30
0.0
  0
POINT
  5
1300
100
AcDbEntity
  8
DEFPOINTS
  6
BYBLOCK
 62
     0
100
AcDbPoint
 10
-1828.919032
 20
-1451.132119
 30
0.0
  0
ENDBLK
  5
1301
100
AcDbEntity
  8
0
100
AcDbBlockEnd
  0
BLOCK
  5
130D
100
AcDbEntity
  8
0
100
AcDbBlockBegin
  2
*D29
 70
    65
 10
0.0
 20
0.0
 30
0.0
  3
*D29
  1

  0
LINE
  5
130E
100
AcDbEntity
  8
0
  6
BYBLOCK
 62
     0
100
AcDbLine
 10
-1848.919032
 20
-1434.547195
 30
0.0
 11
-1848.919032
 21
-1400.109476
 31
0.0
  0
LINE
  5
130F
100
AcDbEntity
  8
0
  6
BYBLOCK
 62
     0
100
AcDbLine
 10
-1822.919032
 20
-1464.247195
 30
0.0
 11
-1822.919032
 21
-1400.109476
 31
0.0
  0
LINE
  5
1310
100
AcDbEntity
  8
0
  6
BYBLOCK
 62
     0
100
AcDbLine
 10
-1846.419032
 20
-1401.359476
 30
0.0
 11
-1825.419032
 21
-1401.359476
 31
0.0
  0
SOLID
  5
1311
100
AcDbEntity
  8
0
  6
BYBLOCK
 62
     0
100
AcDbTrace
 10
-1846.419032
 20
-1400.94281
 30
0.0
 11
-1846.419032
 21
-1401.776143
 31
0.0
 12
-1848.919032
 22
-1401.359476
 32
0.0
 13
-1848.919032
 23
-1401.359476
 33
0.0
  0
SOLID
  5
1312
100
AcDbEntity
  8
0
  6
BYBLOCK
 62
     0
100
AcDbTrace
 10
-1825.419032
 20
-1400.94281
 30
0.0
 11
-1825.419032
 21
-1401.776143
 31
0.0
 12
-1822.919032
 22
-1401.359476
 32
0.0
 13
-1822.919032
 23
-1401.359476
 33
0.0
  0
MTEXT
  5
1313
100
AcDbEntity
  8
0
  6
BYBLOCK
 62
     0
100
AcDbMText
 10
-1835.919032
 20
-1397.993768
 30
0.0
 40
3.0
 41
0.0
 71
     5
 72
     1
  1
\A2;26{\H2.400000;\S+0.02^  0;}
  0
POINT
  5
1314
100
AcDbEntity
  8
DEFPOINTS
  6
BYBLOCK
 62
     0
100
AcDbPoint
 10
-1848.919032
 20
-1435.172195
 30
0.0
  0
POINT
  5
1315
100
AcDbEntity
  8
DEFPOINTS
  6
BYBLOCK
 62
     0
100
AcDbPoint
 10
-1822.919032
 20
-1464.872195
 30
0.0
  0
POINT
  5
1316
100
AcDbEntity
  8
DEFPOINTS
  6
BYBLOCK
 62
     0
100
AcDbPoint
 10
-1822.919032
 20
-1401.359476
 30
0.0
  0
ENDBLK
  5
1317
100
AcDbEntity
  8
0
100
AcDbBlockEnd
  0
BLOCK
  5
12BA
100
AcDbEntity
  8
0
100
AcDbBlockBegin
  2
*D30
 70
    65
 10
0.0
 20
0.0
 30
0.0
  3
*D30
  1

  0
LINE
  5
12BB
100
AcDbEntity
  8
0
  6
BYBLOCK
 62
     0
100
AcDbLine
 10
-1848.919032
 20
-1434.547195
 30
0.0
 11
-1848.919032
 21
-1418.247676
 31
0.0
  0
LINE
  5
12BC
100
AcDbEntity
  8
0
  6
BYBLOCK
 62
     0
100
AcDbLine
 10
-1835.919032
 20
-1434.547195
 30
0.0
 11
-1835.919032
 21
-1418.247676
 31
0.0
  0
LINE
  5
12BD
100
AcDbEntity
  8
0
  6
BYBLOCK
 62
     0
100
AcDbLine
 10
-1838.419032
 20
-1419.497676
 30
0.0
 11
-1846.419032
 21
-1419.497676
 31
0.0
  0
LINE
  5
12BE
100
AcDbEntity
  8
0
  6
BYBLOCK
 62
     0
100
AcDbLine
 10
-1848.919032
 20
-1419.497676
 30
0.0
 11
-1864.413227
 21
-1419.497676
 31
0.0
  0
SOLID
  5
12BF
100
AcDbEntity
  8
0
  6
BYBLOCK
 62
     0
100
AcDbTrace
 10
-1838.419032
 20
-1419.08101
 30
0.0
 11
-1838.419032
 21
-1419.914343
 31
0.0
 12
-1835.919032
 22
-1419.497676
 32
0.0
 13
-1835.919032
 23
-1419.497676
 33
0.0
  0
SOLID
  5
12C0
100
AcDbEntity
  8
0
  6
BYBLOCK
 62
     0
100
AcDbTrace
 10
-1846.419032
 20
-1419.08101
 30
0.0
 11
-1846.419032
 21
-1419.914343
 31
0.0
 12
-1848.919032
 22
-1419.497676
 32
0.0
 13
-1848.919032
 23
-1419.497676
 33
0.0
  0
MTEXT
  5
12C1
100
AcDbEntity
  8
0
  6
BYBLOCK
 62
     0
100
AcDbMText
 10
-1857.716227
 20
-1416.131968
 30
0.0
 40
3.0
 41
0.0
 71
     5
 72
     1
  1
\A2;13{\H2.400000;\S+0.02^  0;}
  0
POINT
  5
12C2
100
AcDbEntity
  8
DEFPOINTS
  6
BYBLOCK
 62
     0
100
AcDbPoint
 10
-1848.919032
 20
-1435.172195
 30
0.0
  0
POINT
  5
12C3
100
AcDbEntity
  8
DEFPOINTS
  6
BYBLOCK
 62
     0
100
AcDbPoint
 10
-1835.919032
 20
-1435.172195
 30
0.0
  0
POINT
  5
12C4
100
AcDbEntity
  8
DEFPOINTS
  6
BYBLOCK
 62
     0
100
AcDbPoint
 10
-1835.919032
 20
-1419.497676
 30
0.0
  0
ENDBLK
  5
12C5
100
AcDbEntity
  8
0
100
AcDbBlockEnd
  0
BLOCK
  5
12A2
100
AcDbEntity
  8
0
100
AcDbBlockBegin
  2
*D31
 70
    65
 10
0.0
 20
0.0
 30
0.0
  3
*D31
  1

  0
ARC
  5
12A3
100
AcDbEntity
  8
0
  6
BYBLOCK
 62
     0
100
AcDbCircle
 10
-1822.919032
 20
-1476.172195
 30
0.0
 40
7.245312
100
AcDbArc
 50
109.869361
 51
205.130639
  0
SOLID
  5
12A4
100
AcDbEntity
  8
0
  6
BYBLOCK
 62
     0
100
AcDbTrace
 10
-1825.45343
 20
-1468.947778
 30
0.0
 11
-1825.309659
 21
-1469.768615
 31
0.0
 12
-1822.919032
 22
-1468.926883
 32
0.0
 13
-1822.919032
 23
-1468.926883
 33
0.0
  0
SOLID
  5
12A5
100
AcDbEntity
  8
0
  6
BYBLOCK
 62
     0
100
AcDbTrace
 10
-1829.137476
 20
-1479.009781
 30
0.0
 11
-1829.819557
 21
-1479.48854
 31
0.0
 12
-1828.042241
 22
-1481.295405
 32
0.0
 13
-1828.042241
 23
-1481.295405
 33
0.0
  0
MTEXT
  5
12A6
100
AcDbEntity
  8
0
  6
BYBLOCK
 62
     0
100
AcDbMText
 10
-1831.576072
 20
-1472.586332
 30
0.0
 40
3.0
 41
0.0
 71
     5
 72
     1
  1
\A1;135°
 11
0.382683
 21
0.92388
 31
0.0
  0
POINT
  5
12A7
100
AcDbEntity
  8
DEFPOINTS
  6
BYBLOCK
 62
     0
100
AcDbPoint
 10
-1828.042241
 20
-1471.048986
 30
0.0
  0
POINT
  5
12A8
100
AcDbEntity
  8
DEFPOINTS
  6
BYBLOCK
 62
     0
100
AcDbPoint
 10
-1831.919032
 20
-1485.172195
 30
0.0
  0
POINT
  5
12A9
100
AcDbEntity
  8
DEFPOINTS
  6
BYBLOCK
 62
     0
100
AcDbPoint
 10
-1822.919032
 20
-1464.872195
 30
0.0
  0
POINT
  5
12AA
100
AcDbEntity
  8
DEFPOINTS
  6
BYBLOCK
 62
     0
100
AcDbPoint
 10
-1822.919032
 20
-1476.172195
 30
0.0
  0
POINT
  5
12AB
100
AcDbEntity
  8
DEFPOINTS
  6
BYBLOCK
 62
     0
100
AcDbPoint
 10
-1822.919032
 20
-1476.172195
 30
0.0
  0
ENDBLK
  5
12AC
100
AcDbEntity
  8
0
100
AcDbBlockEnd
  0
BLOCK
  5
13DC
100
AcDbEntity
  8
0
100
AcDbBlockBegin
  2
*D32
 70
    65
 10
0.0
 20
0.0
 30
0.0
  3
*D32
  1

  0
LINE
  5
13DD
100
AcDbEntity
  8
0
  6
BYBLOCK
 62
     0
100
AcDbLine
 10
-1905.209016
 20
-1505.294344
 30
0.0
 11
-1905.209016
 21
-1513.431863
 31
0.0
  0
LINE
  5
13DE
100
AcDbEntity
  8
0
  6
BYBLOCK
 62
     0
100
AcDbLine
 10
-1917.512446
 20
-1505.294344
 30
0.0
 11
-1917.512446
 21
-1513.431863
 31
0.0
  0
LINE
  5
13DF
100
AcDbEntity
  8
0
  6
BYBLOCK
 62
     0
100
AcDbLine
 10
-1907.709016
 20
-1512.181863
 30
0.0
 11
-1915.012446
 21
-1512.181863
 31
0.0
  0
SOLID
  5
13E0
100
AcDbEntity
  8
0
  6
BYBLOCK
 62
     0
100
AcDbTrace
 10
-1907.709016
 20
-1511.765196
 30
0.0
 11
-1907.709016
 21
-1512.59853
 31
0.0
 12
-1905.209016
 22
-1512.181863
 32
0.0
 13
-1905.209016
 23
-1512.181863
 33
0.0
  0
SOLID
  5
13E1
100
AcDbEntity
  8
0
  6
BYBLOCK
 62
     0
100
AcDbTrace
 10
-1915.012446
 20
-1511.765196
 30
0.0
 11
-1915.012446
 21
-1512.59853
 31
0.0
 12
-1917.512446
 22
-1512.181863
 32
0.0
 13
-1917.512446
 23
-1512.181863
 33
0.0
  0
MTEXT
  5
13E2
100
AcDbEntity
  8
0
  6
BYBLOCK
 62
     0
100
AcDbMText
 10
-1911.360731
 20
-1510.056863
 30
0.0
 40
3.0
 41
0.0
 71
     5
 72
     1
  1
\A1;{50}
  0
POINT
  5
13E3
100
AcDbEntity
  8
DEFPOINTS
  6
BYBLOCK
 62
     0
100
AcDbPoint
 10
-1905.209016
 20
-1504.669344
 30
0.0
  0
POINT
  5
13E4
100
AcDbEntity
  8
DEFPOINTS
  6
BYBLOCK
 62
     0
100
AcDbPoint
 10
-1917.512446
 20
-1504.669344
 30
0.0
  0
POINT
  5
13E5
100
AcDbEntity
  8
DEFPOINTS
  6
BYBLOCK
 62
     0
100
AcDbPoint
 10
-1917.512446
 20
-1512.181863
 30
0.0
  0
ENDBLK
  5
13E6
100
AcDbEntity
  8
0
100
AcDbBlockEnd
  0
BLOCK
  5
13FF
100
AcDbEntity
  8
0
100
AcDbBlockBegin
  2
*D33
 70
    65
 10
0.0
 20
0.0
 30
0.0
  3
*D33
  1

  0
LINE
  5
1400
100
AcDbEntity
  8
0
  6
BYBLOCK
 62
     0
100
AcDbLine
 10
-1905.834016
 20
-1494.669344
 30
0.0
 11
-1925.528592
 21
-1494.669344
 31
0.0
  0
LINE
  5
1401
100
AcDbEntity
  8
0
  6
BYBLOCK
 62
     0
100
AcDbLine
 10
-1918.137446
 20
-1488.69844
 30
0.0
 11
-1925.528592
 21
-1488.69844
 31
0.0
  0
LINE
  5
1402
100
AcDbEntity
  8
0
  6
BYBLOCK
 62
     0
100
AcDbLine
 10
-1924.278592
 20
-1497.169344
 30
0.0
 11
-1924.278592
 21
-1499.669344
 31
0.0
  0
LINE
  5
1403
100
AcDbEntity
  8
0
  6
BYBLOCK
 62
     0
100
AcDbLine
 10
-1924.278592
 20
-1486.19844
 30
0.0
 11
-1924.278592
 21
-1483.69844
 31
0.0
  0
SOLID
  5
1404
100
AcDbEntity
  8
0
  6
BYBLOCK
 62
     0
100
AcDbTrace
 10
-1924.695258
 20
-1497.169344
 30
0.0
 11
-1923.861925
 21
-1497.169344
 31
0.0
 12
-1924.278592
 22
-1494.669344
 32
0.0
 13
-1924.278592
 23
-1494.669344
 33
0.0
  0
SOLID
  5
1405
100
AcDbEntity
  8
0
  6
BYBLOCK
 62
     0
100
AcDbTrace
 10
-1924.695258
 20
-1486.19844
 30
0.0
 11
-1923.861925
 21
-1486.19844
 31
0.0
 12
-1924.278592
 22
-1488.69844
 32
0.0
 13
-1924.278592
 23
-1488.69844
 33
0.0
  0
MTEXT
  5
1406
100
AcDbEntity
  8
0
  6
BYBLOCK
 62
     0
100
AcDbMText
 10
-1926.403592
 20
-1491.683892
 30
0.0
 40
3.0
 41
0.0
 71
     5
 72
     1
  1
\A1;{20}
 11
0.0
 21
1.0
 31
0.0
  0
POINT
  5
1407
100
AcDbEntity
  8
DEFPOINTS
  6
BYBLOCK
 62
     0
100
AcDbPoint
 10
-1905.209016
 20
-1494.669344
 30
0.0
  0
POINT
  5
1408
100
AcDbEntity
  8
DEFPOINTS
  6
BYBLOCK
 62
     0
100
AcDbPoint
 10
-1917.512446
 20
-1488.69844
 30
0.0
  0
POINT
  5
1409
100
AcDbEntity
  8
DEFPOINTS
  6
BYBLOCK
 62
     0
100
AcDbPoint
 10
-1924.278592
 20
-1488.69844
 30
0.0
  0
ENDBLK
  5
140A
100
AcDbEntity
  8
0
100
AcDbBlockEnd
  0
BLOCK
  5
154B
100
AcDbEntity
  8
0
100
AcDbBlockBegin
  2
*X34
 70
    65
 10
0.0
 20
0.0
 30
0.0
  3
*X34
  1

  0
LINE
  5
154D
100
AcDbEntity
  8
0
 62
     0
100
AcDbLine
 10
-1830.062525
 20
-1549.339719
 30
0.0
 11
-1828.919032
 21
-1548.196226
 31
0.0
  0
LINE
  5
154E
100
AcDbEntity
  8
0
 62
     0
100
AcDbLine
 10
-1828.919032
 20
-1548.196226
 30
0.0
 11
-1828.391351
 21
-1547.668545
 31
0.0
  0
LINE
  5
154F
100
AcDbEntity
  8
0
 62
     0
100
AcDbLine
 10
-1830.194878
 20
-1549.202664
 30
0.0
 11
-1828.919032
 21
-1547.926818
 31
0.0
  0
LINE
  5
1550
100
AcDbEntity
  8
0
 62
     0
100
AcDbLine
 10
-1828.919032
 20
-1547.926818
 30
0.0
 11
-1828.670403
 21
-1547.678189
 31
0.0
  0
LINE
  5
1551
100
AcDbEntity
  8
0
 62
     0
100
AcDbLine
 10
-1830.32723
 20
-1549.065608
 30
0.0
 11
-1828.938685
 21
-1547.677063
 31
0.0
  0
LINE
  5
1552
100
AcDbEntity
  8
0
 62
     0
100
AcDbLine
 10
-1830.459583
 20
-1548.928553
 30
0.0
 11
-1829.197351
 21
-1547.666322
 31
0.0
  0
LINE
  5
1553
100
AcDbEntity
  8
0
 62
     0
100
AcDbLine
 10
-1830.591935
 20
-1548.791498
 30
0.0
 11
-1829.447331
 21
-1547.646894
 31
0.0
  0
LINE
  5
1554
100
AcDbEntity
  8
0
 62
     0
100
AcDbLine
 10
-1830.724288
 20
-1548.654443
 30
0.0
 11
-1829.689383
 21
-1547.619538
 31
0.0
  0
LINE
  5
1555
100
AcDbEntity
  8
0
 62
     0
100
AcDbLine
 10
-1830.85664
 20
-1548.517388
 30
0.0
 11
-1829.924135
 21
-1547.584883
 31
0.0
  0
LINE
  5
1556
100
AcDbEntity
  8
0
 62
     0
100
AcDbLine
 10
-1830.988993
 20
-1548.380333
 30
0.0
 11
-1830.152115
 21
-1547.543455
 31
0.0
  0
LINE
  5
1557
100
AcDbEntity
  8
0
 62
     0
100
AcDbLine
 10
-1831.121346
 20
-1548.243278
 30
0.0
 11
-1830.37377
 21
-1547.495702
 31
0.0
  0
LINE
  5
1558
100
AcDbEntity
  8
0
 62
     0
100
AcDbLine
 10
-1831.253698
 20
-1548.106223
 30
0.0
 11
-1830.589481
 21
-1547.442006
 31
0.0
  0
LINE
  5
1559
100
AcDbEntity
  8
0
 62
     0
100
AcDbLine
 10
-1831.386051
 20
-1547.969168
 30
0.0
 11
-1830.799577
 21
-1547.382694
 31
0.0
  0
LINE
  5
155A
100
AcDbEntity
  8
0
 62
     0
100
AcDbLine
 10
-1831.518403
 20
-1547.832113
 30
0.0
 11
-1831.004343
 21
-1547.318052
 31
0.0
  0
LINE
  5
155B
100
AcDbEntity
  8
0
 62
     0
100
AcDbLine
 10
-1831.650756
 20
-1547.695057
 30
0.0
 11
-1831.204025
 21
-1547.248326
 31
0.0
  0
LINE
  5
155C
100
AcDbEntity
  8
0
 62
     0
100
AcDbLine
 10
-1831.783109
 20
-1547.558002
 30
0.0
 11
-1831.398839
 21
-1547.173733
 31
0.0
  0
LINE
  5
155D
100
AcDbEntity
  8
0
 62
     0
100
AcDbLine
 10
-1831.915461
 20
-1547.420947
 30
0.0
 11
-1831.588975
 21
-1547.094461
 31
0.0
  0
LINE
  5
155E
100
AcDbEntity
  8
0
 62
     0
100
AcDbLine
 10
-1832.047814
 20
-1547.283892
 30
0.0
 11
-1831.774597
 21
-1547.010675
 31
0.0
  0
LINE
  5
155F
100
AcDbEntity
  8
0
 62
     0
100
AcDbLine
 10
-1832.180166
 20
-1547.146837
 30
0.0
 11
-1831.955851
 21
-1546.922522
 31
0.0
  0
LINE
  5
1560
100
AcDbEntity
  8
0
 62
     0
100
AcDbLine
 10
-1832.312519
 20
-1547.009782
 30
0.0
 11
-1832.132865
 21
-1546.830128
 31
0.0
  0
LINE
  5
1561
100
AcDbEntity
  8
0
 62
     0
100
AcDbLine
 10
-1832.444871
 20
-1546.872727
 30
0.0
 11
-1832.305749
 21
-1546.733605
 31
0.0
  0
LINE
  5
1562
100
AcDbEntity
  8
0
 62
     0
100
AcDbLine
 10
-1832.577224
 20
-1546.735672
 30
0.0
 11
-1832.474602
 21
-1546.63305
 31
0.0
  0
LINE
  5
1563
100
AcDbEntity
  8
0
 62
     0
100
AcDbLine
 10
-1832.709577
 20
-1546.598617
 30
0.0
 11
-1832.639508
 21
-1546.528548
 31
0.0
  0
LINE
  5
1564
100
AcDbEntity
  8
0
 62
     0
100
AcDbLine
 10
-1832.841929
 20
-1546.461561
 30
0.0
 11
-1832.800539
 21
-1546.420171
 31
0.0
  0
LINE
  5
1565
100
AcDbEntity
  8
0
 62
     0
100
AcDbLine
 10
-1832.974282
 20
-1546.324506
 30
0.0
 11
-1832.957757
 21
-1546.307982
 31
0.0
  0
LINE
  5
1566
100
AcDbEntity
  8
0
 62
     0
100
AcDbLine
 10
-1829.930172
 20
-1549.476774
 30
0.0
 11
-1828.919032
 21
-1548.465633
 31
0.0
  0
LINE
  5
1567
100
AcDbEntity
  8
0
 62
     0
100
AcDbLine
 10
-1828.919032
 20
-1548.465633
 30
0.0
 11
-1828.100064
 21
-1547.646665
 31
0.0
  0
LINE
  5
1568
100
AcDbEntity
  8
0
 62
     0
100
AcDbLine
 10
-1829.79782
 20
-1549.613829
 30
0.0
 11
-1828.919032
 21
-1548.735041
 31
0.0
  0
LINE
  5
1569
100
AcDbEntity
  8
0
 62
     0
100
AcDbLine
 10
-1828.919032
 20
-1548.735041
 30
0.0
 11
-1827.794631
 21
-1547.61064
 31
0.0
  0
LINE
  5
156A
100
AcDbEntity
  8
0
 62
     0
100
AcDbLine
 10
-1829.665467
 20
-1549.750884
 30
0.0
 11
-1828.919032
 21
-1549.004449
 31
0.0
  0
LINE
  5
156B
100
AcDbEntity
  8
0
 62
     0
100
AcDbLine
 10
-1828.919032
 20
-1549.004449
 30
0.0
 11
-1827.472485
 21
-1547.557902
 31
0.0
  0
LINE
  5
156C
100
AcDbEntity
  8
0
 62
     0
100
AcDbLine
 10
-1829.533115
 20
-1549.887939
 30
0.0
 11
-1828.919032
 21
-1549.273856
 31
0.0
  0
LINE
  5
156D
100
AcDbEntity
  8
0
 62
     0
100
AcDbLine
 10
-1828.919032
 20
-1549.273856
 30
0.0
 11
-1827.130034
 21
-1547.484858
 31
0.0
  0
LINE
  5
156E
100
AcDbEntity
  8
0
 62
     0
100
AcDbLine
 10
-1829.392679
 20
-1550.016911
 30
0.0
 11
-1828.919032
 21
-1549.543264
 31
0.0
  0
LINE
  5
156F
100
AcDbEntity
  8
0
 62
     0
100
AcDbLine
 10
-1828.919032
 20
-1549.543264
 30
0.0
 11
-1826.761967
 21
-1547.386199
 31
0.0
  0
LINE
  5
1570
100
AcDbEntity
  8
0
 62
     0
100
AcDbLine
 10
-1829.219846
 20
-1550.113485
 30
0.0
 11
-1828.919032
 21
-1549.812672
 31
0.0
  0
LINE
  5
1571
100
AcDbEntity
  8
0
 62
     0
100
AcDbLine
 10
-1828.919032
 20
-1549.812672
 30
0.0
 11
-1826.359813
 21
-1547.253453
 31
0.0
  0
LINE
  5
1572
100
AcDbEntity
  8
0
 62
     0
100
AcDbLine
 10
-1829.004562
 20
-1550.16761
 30
0.0
 11
-1828.919032
 21
-1550.082079
 31
0.0
  0
LINE
  5
1573
100
AcDbEntity
  8
0
 62
     0
100
AcDbLine
 10
-1828.919032
 20
-1550.082079
 30
0.0
 11
-1825.908411
 21
-1547.071459
 31
0.0
  0
LINE
  5
1574
100
AcDbEntity
  8
0
 62
     0
100
AcDbLine
 10
-1828.712665
 20
-1550.14512
 30
0.0
 11
-1825.374664
 21
-1546.807119
 31
0.0
  0
ENDBLK
  5
1575
100
AcDbEntity
  8
0
100
AcDbBlockEnd
  0
BLOCK
  5
1641
100
AcDbEntity
  8
0
100
AcDbBlockBegin
  2
*D35
 70
    65
 10
0.0
 20
0.0
 30
0.0
  3
*D35
  1

  0
LINE
  5
1642
100
AcDbEntity
  8
0
  6
BYBLOCK
 62
     0
100
AcDbLine
 10
-1822.994032
 20
-1464.172195
 30
0.0
 11
-1810.67601
 21
-1464.172195
 31
0.0
  0
LINE
  5
1643
100
AcDbEntity
  8
0
  6
BYBLOCK
 62
     0
100
AcDbLine
 10
-1828.294032
 20
-1550.172195
 30
0.0
 11
-1810.67601
 21
-1550.172195
 31
0.0
  0
LINE
  5
1644
100
AcDbEntity
  8
0
  6
BYBLOCK
 62
     0
100
AcDbLine
 10
-1811.92601
 20
-1466.672195
 30
0.0
 11
-1811.92601
 21
-1547.672195
 31
0.0
  0
SOLID
  5
1645
100
AcDbEntity
  8
0
  6
BYBLOCK
 62
     0
100
AcDbTrace
 10
-1812.342677
 20
-1466.672195
 30
0.0
 11
-1811.509343
 21
-1466.672195
 31
0.0
 12
-1811.92601
 22
-1464.172195
 32
0.0
 13
-1811.92601
 23
-1464.172195
 33
0.0
  0
SOLID
  5
1646
100
AcDbEntity
  8
0
  6
BYBLOCK
 62
     0
100
AcDbTrace
 10
-1812.342677
 20
-1547.672195
 30
0.0
 11
-1811.509343
 21
-1547.672195
 31
0.0
 12
-1811.92601
 22
-1550.172195
 32
0.0
 13
-1811.92601
 23
-1550.172195
 33
0.0
  0
MTEXT
  5
1647
100
AcDbEntity
  8
0
  6
BYBLOCK
 62
     0
100
AcDbMText
 10
-1815.291719
 20
-1507.172195
 30
0.0
 40
3.0
 41
0.0
 71
     5
 72
     1
  1
\A2;86{\H2.400000;\S+0.02^  0;}
 11
0.0
 21
1.0
 31
0.0
  0
POINT
  5
1648
100
AcDbEntity
  8
DEFPOINTS
  6
BYBLOCK
 62
     0
100
AcDbPoint
 10
-1823.619032
 20
-1464.172195
 30
0.0
  0
POINT
  5
1649
100
AcDbEntity
  8
DEFPOINTS
  6
BYBLOCK
 62
     0
100
AcDbPoint
 10
-1828.919032
 20
-1550.172195
 30
0.0
  0
POINT
  5
164A
100
AcDbEntity
  8
DEFPOINTS
  6
BYBLOCK
 62
     0
100
AcDbPoint
 10
-1811.92601
 20
-1550.172195
 30
0.0
  0
ENDBLK
  5
164B
100
AcDbEntity
  8
0
100
AcDbBlockEnd
  0
BLOCK
  5
164D
100
AcDbEntity
  8
0
100
AcDbBlockBegin
  2
*D36
 70
    65
 10
0.0
 20
0.0
 30
0.0
  3
*D36
  1

  0
LINE
  5
164E
100
AcDbEntity
  8
0
  6
BYBLOCK
 62
     0
100
AcDbLine
 10
-1845.419032
 20
-1450.547195
 30
0.0
 11
-1845.419032
 21
-1442.508458
 31
0.0
  0
LINE
  5
164F
100
AcDbEntity
  8
0
  6
BYBLOCK
 62
     0
100
AcDbLine
 10
-1848.919032
 20
-1443.274122
 30
0.0
 11
-1848.919032
 21
-1442.508458
 31
0.0
  0
LINE
  5
1650
100
AcDbEntity
  8
0
  6
BYBLOCK
 62
     0
100
AcDbLine
 10
-1842.919032
 20
-1443.758458
 30
0.0
 11
-1840.419032
 21
-1443.758458
 31
0.0
  0
LINE
  5
1651
100
AcDbEntity
  8
0
  6
BYBLOCK
 62
     0
100
AcDbLine
 10
-1851.419032
 20
-1443.758458
 30
0.0
 11
-1859.925722
 21
-1443.758458
 31
0.0
  0
SOLID
  5
1652
100
AcDbEntity
  8
0
  6
BYBLOCK
 62
     0
100
AcDbTrace
 10
-1842.919032
 20
-1443.341791
 30
0.0
 11
-1842.919032
 21
-1444.175125
 31
0.0
 12
-1845.419032
 22
-1443.758458
 32
0.0
 13
-1845.419032
 23
-1443.758458
 33
0.0
  0
SOLID
  5
1653
100
AcDbEntity
  8
0
  6
BYBLOCK
 62
     0
100
AcDbTrace
 10
-1851.419032
 20
-1443.341791
 30
0.0
 11
-1851.419032
 21
-1444.175125
 31
0.0
 12
-1848.919032
 22
-1443.758458
 32
0.0
 13
-1848.919032
 23
-1443.758458
 33
0.0
  0
MTEXT
  5
1654
100
AcDbEntity
  8
0
  6
BYBLOCK
 62
     0
100
AcDbMText
 10
-1856.922377
 20
-1441.633458
 30
0.0
 40
3.0
 41
0.0
 71
     5
 72
     1
  1
\A1;3.5
  0
POINT
  5
1655
100
AcDbEntity
  8
DEFPOINTS
  6
BYBLOCK
 62
     0
100
AcDbPoint
 10
-1845.419032
 20
-1451.172195
 30
0.0
  0
POINT
  5
1656
100
AcDbEntity
  8
DEFPOINTS
  6
BYBLOCK
 62
     0
100
AcDbPoint
 10
-1848.919032
 20
-1443.899122
 30
0.0
  0
POINT
  5
1657
100
AcDbEntity
  8
DEFPOINTS
  6
BYBLOCK
 62
     0
100
AcDbPoint
 10
-1848.919032
 20
-1443.758458
 30
0.0
  0
ENDBLK
  5
1658
100
AcDbEntity
  8
0
100
AcDbBlockEnd
  0
ENDSEC
  0
SECTION
  2
ENTITIES
  0
LINE
  5
AF5
100
AcDbEntity
  8
DISEGNO
100
AcDbLine
 10
-1831.919032
 20
-1485.172195
 30
0.0
 11
-1822.919032
 21
-1476.172195
 31
0.0
  0
LINE
  5
AFE
100
AcDbEntity
  8
DISEGNO
100
AcDbLine
 10
-1836.202232
 20
-1541.806153
 30
0.0
 11
-1848.919032
 21
-1529.089352
 31
0.0
  0
LINE
  5
B0C
100
AcDbEntity
  8
DISEGNO
100
AcDbLine
 10
-1847.919032
 20
-1434.172195
 30
0.0
 11
-1836.919032
 21
-1434.172195
 31
0.0
  0
LINE
  5
B0F
100
AcDbEntity
  8
DISEGNO
100
AcDbLine
 10
-1845.419032
 20
-1451.172195
 30
0.0
 11
-1845.419032
 21
-1459.572195
 31
0.0
  0
LINE
  5
B10
100
AcDbEntity
  8
DISEGNO
100
AcDbLine
 10
-1845.419032
 20
-1459.572195
 30
0.0
 11
-1848.419032
 21
-1459.572195
 31
0.0
  0
LINE
  5
B11
100
AcDbEntity
  8
DISEGNO
100
AcDbLine
 10
-1848.919032
 20
-1460.072195
 30
0.0
 11
-1848.419032
 21
-1459.572195
 31
0.0
  0
LINE
  5
B12
100
AcDbEntity
  8
DISEGNO
100
AcDbLine
 10
-1848.419032
 20
-1451.172195
 30
0.0
 11
-1845.419032
 21
-1451.172195
 31
0.0
  0
LINE
  5
B13
100
AcDbEntity
  8
DISEGNO
100
AcDbLine
 10
-1848.919032
 20
-1450.672195
 30
0.0
 11
-1848.419032
 21
-1451.172195
 31
0.0
  0
LINE
  5
B14
100
AcDbEntity
  8
DISEGNO
100
AcDbLine
 10
-1848.919032
 20
-1435.172195
 30
0.0
 11
-1847.919032
 21
-1434.172195
 31
0.0
  0
LINE
  5
B16
100
AcDbEntity
  8
DISEGNO
100
AcDbLine
 10
-1836.919032
 20
-1434.172195
 30
0.0
 11
-1835.919032
 21
-1435.172195
 31
0.0
  0
LINE
  5
B1A
100
AcDbEntity
  8
DISEGNO
100
AcDbLine
 10
-1823.619032
 20
-1464.172195
 30
0.0
 11
-1822.919032
 21
-1464.872195
 31
0.0
  0
LINE
  5
E05
100
AcDbEntity
  8
DISEGNO
100
AcDbLine
 10
-1836.202232
 20
-1542.981866
 30
0.0
 11
-1836.202232
 21
-1541.806153
 31
0.0
  0
LINE
  5
1122
100
AcDbEntity
  8
DISEGNO
100
AcDbLine
 10
-1831.919032
 20
-1534.747931
 30
0.0
 11
-1822.919032
 21
-1543.747931
 31
0.0
  0
ARC
  5
1166
100
AcDbEntity
  8
DISEGNO
100
AcDbCircle
 10
-1828.919032
 20
-1549.372195
 30
0.0
 40
0.8
100
AcDbArc
 50
224.0
 51
316.0
1001
ACAD
1000
ASC_BOUNDS
1002
{
1070
    19
1002
}
  0
LINE
  5
1168
100
AcDbEntity
  8
DISEGNO
100
AcDbLine
 10
-1828.34356
 20
-1549.927922
 30
0.0
 11
-1822.919032
 21
-1544.310658
 31
0.0
1001
ACAD
1000
ASC_BOUNDS
1002
{
1070
    19
1002
}
  0
LINE
  5
1169
100
AcDbEntity
  8
DISEGNO
100
AcDbLine
 10
-1829.494504
 20
-1549.927922
 30
0.0
 11
-1836.202232
 21
-1542.981866
 31
0.0
1001
ACAD
1000
ASC_BOUNDS
1002
{
1070
    19
1002
}
  0
LINE
  5
11E1
100
AcDbEntity
  8
DISEGNO
100
AcDbLine
 10
-1822.919032
 20
-1543.747931
 30
0.0
 11
-1822.919032
 21
-1544.310658
 31
0.0
  0
LINE
  5
11E2
100
AcDbEntity
  8
DISEGNO
100
AcDbLine
 10
-1822.919032
 20
-1464.872195
 30
0.0
 11
-1822.919032
 21
-1476.172195
 31
0.0
  0
LINE
  5
11E3
100
AcDbEntity
  8
DISEGNO
100
AcDbLine
 10
-1848.919032
 20
-1460.072195
 30
0.0
 11
-1848.919032
 21
-1529.089352
 31
0.0
  0
LINE
  5
11E4
100
AcDbEntity
  8
DISEGNO
100
AcDbLine
 10
-1848.919032
 20
-1435.172195
 30
0.0
 11
-1848.919032
 21
-1450.672195
 31
0.0
  0
LINE
  5
11E5
100
AcDbEntity
  8
DISEGNO
100
AcDbLine
 10
-1835.919032
 20
-1464.172195
 30
0.0
 11
-1823.619032
 21
-1464.172195
 31
0.0
  0
LINE
  5
1200
100
AcDbEntity
  8
DISEGNO
100
AcDbLine
 10
-1835.919032
 20
-1435.172195
 30
0.0
 11
-1835.919032
 21
-1464.172195
 31
0.0
  0
LINE
  5
165F
100
AcDbEntity
  8
DISEGNO
100
AcDbLine
 10
-1831.919032
 20
-1485.172195
 30
0.0
 11
-1831.919032
 21
-1534.747931
 31
0.0
  0
ENDSEC
  0
SECTION
  2
OBJECTS
  0
DICTIONARY
  5
C
100
AcDbDictionary
  3
ACAD_GROUP
350
D
  3
ACAD_MLINESTYLE
350
E
  0
DICTIONARY
  5
D
102
{ACAD_REACTORS
330
C
102
}
100
AcDbDictionary
  0
DICTIONARY
  5
E
102
{ACAD_REACTORS
330
C
102
}
100
AcDbDictionary
  3
STANDARD
350
1C
  0
MLINESTYLE
  5
1C
102
{ACAD_REACTORS
330
E
102
}
100
AcDbMlineStyle
  2
STANDARD
 70
     0
  3

 62
     0
 51
90.0
 52
90.0
 71
     2
 49
0.5
 62
   256
  6
BYLAYER
 49
-0.5
 62
   256
  6
BYLAYER
  0
ENDSEC
  0
EOF
