  0
SECTION
  2
HEADER
  9
$ACADVER
  1
AC1012
  9
$DWGCODEPAGE
  3
iso8859-1
  9
$INSBASE
 10
0.0
 20
0.0
 30
0.0
  9
$EXTMIN
 10
197.99671
 20
7.275204
 30
0.0
  9
$EXTMAX
 10
362.668721
 20
201.029675
 30
0.0
  9
$LIMMIN
 10
0.0
 20
0.0
  9
$LIMMAX
 10
200.0
 20
250.0
  9
$ORTHOMODE
 70
     1
  9
$REGENMODE
 70
     1
  9
$FILLMODE
 70
     1
  9
$QTEXTMODE
 70
     0
  9
$MIRRTEXT
 70
     1
  9
$DRAGMODE
 70
     2
  9
$LTSCALE
 40
0.841751
  9
$OSMODE
 70
     0
  9
$ATTMODE
 70
     1
  9
$TEXTSIZE
 40
3.0
  9
$TRACEWID
 40
1.0
  9
$TEXTSTYLE
  7
STANDARD
  9
$CLAYER
  8
QUOTE
  9
$CELTYPE
  6
CONTINUOUS
  9
$CECOLOR
 62
   256
  9
$CELTSCALE
 40
1.0
  9
$DELOBJ
 70
     1
  9
$DISPSILH
 70
     0
  9
$DIMSCALE
 40
1.0
  9
$DIMASZ
 40
2.6
  9
$DIMEXO
 40
0.5261
  9
$DIMDLI
 40
3.1566
  9
$DIMRND
 40
0.0
  9
$DIMDLE
 40
0.0
  9
$DIMEXE
 40
1.0522
  9
$DIMTP
 40
0.2
  9
$DIMTM
 40
0.2
  9
$DIMTXT
 40
2.6
  9
$DIMCEN
 40
2.1044
  9
$DIMTSZ
 40
0.0
  9
$DIMTOL
 70
     0
  9
$DIMLIM
 70
     0
  9
$DIMTIH
 70
     0
  9
$DIMTOH
 70
     0
  9
$DIMSE1
 70
     0
  9
$DIMSE2
 70
     0
  9
$DIMTAD
 70
     1
  9
$DIMZIN
 70
     8
  9
$DIMBLK
  1

  9
$DIMASO
 70
     1
  9
$DIMSHO
 70
     1
  9
$DIMPOST
  1

  9
$DIMAPOST
  1

  9
$DIMALT
 70
     0
  9
$DIMALTD
 70
     2
  9
$DIMALTF
 40
0.0394
  9
$DIMLFAC
 40
1.0
  9
$DIMTOFL
 70
     1
  9
$DIMTVP
 40
1.0
  9
$DIMTIX
 70
     0
  9
$DIMSOXD
 70
     0
  9
$DIMSAH
 70
     0
  9
$DIMBLK1
  1

  9
$DIMBLK2
  1

  9
$DIMSTYLE
  2
ISO-25
  9
$DIMCLRD
 70
     0
  9
$DIMCLRE
 70
     0
  9
$DIMCLRT
 70
     0
  9
$DIMTFAC
 40
1.0
  9
$DIMGAP
 40
0.53
  9
$DIMJUST
 70
     0
  9
$DIMSD1
 70
     0
  9
$DIMSD2
 70
     0
  9
$DIMTOLJ
 70
     1
  9
$DIMTZIN
 70
     0
  9
$DIMALTZ
 70
     0
  9
$DIMALTTZ
 70
     0
  9
$DIMFIT
 70
     3
  9
$DIMUPT
 70
     0
  9
$DIMUNIT
 70
     2
  9
$DIMDEC
 70
     2
  9
$DIMTDEC
 70
     2
  9
$DIMALTU
 70
     2
  9
$DIMALTTD
 70
     2
  9
$DIMTXSTY
  7
STANDARD
  9
$DIMAUNIT
 70
     0
  9
$LUNITS
 70
     2
  9
$LUPREC
 70
     2
  9
$SKETCHINC
 40
1.0
  9
$FILLETRAD
 40
8.417508
  9
$AUNITS
 70
     0
  9
$AUPREC
 70
     2
  9
$MENU
  1
.
  9
$ELEVATION
 40
0.0
  9
$PELEVATION
 40
0.0
  9
$THICKNESS
 40
0.0
  9
$LIMCHECK
 70
     0
  9
$BLIPMODE
 70
     1
  9
$CHAMFERA
 40
1.0
  9
$CHAMFERB
 40
1.0
  9
$CHAMFERC
 40
16.835017
  9
$CHAMFERD
 40
0.0
  9
$SKPOLY
 70
     0
  9
$TDCREATE
 40
2450962.329882870
  9
$TDUPDATE
 40
2451801.667578009
  9
$TDINDWG
 40
0.2566391551
  9
$TDUSRTIMER
 40
0.2566391551
  9
$USRTIMER
 70
     1
  9
$ANGBASE
 50
0.0
  9
$ANGDIR
 70
     0
  9
$PDMODE
 70
     0
  9
$PDSIZE
 40
0.0
  9
$PLINEWID
 40
0.0
  9
$COORDS
 70
     0
  9
$SPLFRAME
 70
     0
  9
$SPLINETYPE
 70
     6
  9
$SPLINESEGS
 70
     8
  9
$ATTDIA
 70
     0
  9
$ATTREQ
 70
     1
  9
$HANDLING
 70
     1
  9
$HANDSEED
  5
188E
  9
$SURFTAB1
 70
     6
  9
$SURFTAB2
 70
     6
  9
$SURFTYPE
 70
     6
  9
$SURFU
 70
     6
  9
$SURFV
 70
     6
  9
$UCSNAME
  2

  9
$UCSORG
 10
0.0
 20
0.0
 30
0.0
  9
$UCSXDIR
 10
1.0
 20
0.0
 30
0.0
  9
$UCSYDIR
 10
0.0
 20
1.0
 30
0.0
  9
$PUCSNAME
  2

  9
$PUCSORG
 10
0.0
 20
0.0
 30
0.0
  9
$PUCSXDIR
 10
1.0
 20
0.0
 30
0.0
  9
$PUCSYDIR
 10
0.0
 20
1.0
 30
0.0
  9
$USERI1
 70
     0
  9
$USERI2
 70
     0
  9
$USERI3
 70
     0
  9
$USERI4
 70
     0
  9
$USERI5
 70
     0
  9
$USERR1
 40
0.0
  9
$USERR2
 40
0.0
  9
$USERR3
 40
0.0
  9
$USERR4
 40
0.0
  9
$USERR5
 40
0.0
  9
$WORLDVIEW
 70
     1
  9
$SHADEDGE
 70
     3
  9
$SHADEDIF
 70
    70
  9
$TILEMODE
 70
     1
  9
$MAXACTVP
 70
    16
  9
$PINSBASE
 10
0.0
 20
0.0
 30
0.0
  9
$PLIMCHECK
 70
     0
  9
$PEXTMIN
 10
1.000000E+20
 20
1.000000E+20
 30
1.000000E+20
  9
$PEXTMAX
 10
-1.000000E+20
 20
-1.000000E+20
 30
-1.000000E+20
  9
$PLIMMIN
 10
0.0
 20
0.0
  9
$PLIMMAX
 10
420.0
 20
297.0
  9
$UNITMODE
 70
     0
  9
$VISRETAIN
 70
     0
  9
$PLINEGEN
 70
     0
  9
$PSLTSCALE
 70
     1
  9
$TREEDEPTH
 70
  3020
  9
$PICKSTYLE
 70
     1
  9
$CMLSTYLE
  2
STANDARD
  9
$CMLJUST
 70
     0
  9
$CMLSCALE
 40
1.0
  9
$SAVEIMAGES
 70
     0
  0
ENDSEC
  0
SECTION
  2
CLASSES
  0
ENDSEC
  0
SECTION
  2
TABLES
  0
TABLE
  2
VPORT
  5
8
100
AcDbSymbolTable
 70
     2
  0
VPORT
  5
188D
100
AcDbSymbolTableRecord
100
AcDbViewportTableRecord
  2
*ACTIVE
 70
     0
 10
0.0
 20
0.0
 11
1.0
 21
1.0
 12
288.84844
 22
152.615458
 13
0.0
 23
0.0
 14
5.0
 24
5.0
 15
5.0
 25
5.0
 16
0.0
 26
0.0
 36
1.0
 17
0.0
 27
0.0
 37
0.0
 40
619.927285
 41
1.563011
 42
50.0
 43
0.0
 44
0.0
 50
0.0
 51
0.0
 71
     0
 72
   100
 73
     1
 74
     0
 75
     0
 76
     0
 77
     0
 78
     0
  0
ENDTAB
  0
TABLE
  2
LTYPE
  5
5
100
AcDbSymbolTable
 70
     6
  0
LTYPE
  5
14
100
AcDbSymbolTableRecord
100
AcDbLinetypeTableRecord
  2
BYBLOCK
 70
     0
  3

 72
    65
 73
     0
 40
0.0
  0
LTYPE
  5
15
100
AcDbSymbolTableRecord
100
AcDbLinetypeTableRecord
  2
BYLAYER
 70
     0
  3

 72
    65
 73
     0
 40
0.0
  0
LTYPE
  5
16
100
AcDbSymbolTableRecord
100
AcDbLinetypeTableRecord
  2
CONTINUOUS
 70
    64
  3
Solid line
 72
    65
 73
     0
 40
0.0
  0
LTYPE
  5
62
100
AcDbSymbolTableRecord
100
AcDbLinetypeTableRecord
  2
LINEA-LINEETTEX2
 70
    64
  3
____________    ____    ____    ____________   
 72
    65
 73
     6
 40
5.0
 49
2.5
 74
     0
 49
-0.5
 74
     0
 49
0.5
 74
     0
 49
-0.5
 74
     0
 49
0.5
 74
     0
 49
-0.5
 74
     0
  0
LTYPE
  5
63
100
AcDbSymbolTableRecord
100
AcDbLinetypeTableRecord
  2
TRATTEGGIATA
 70
    64
  3
__ __ __ __ __ __ __ __ __ __ __ __ __ __ __ __
 72
    65
 73
     2
 40
0.75
 49
0.5
 74
     0
 49
-0.25
 74
     0
  0
LTYPE
  5
436
100
AcDbSymbolTableRecord
100
AcDbLinetypeTableRecord
  2
TRATTO-PUNTO
 70
    64
  3
__ . __ . __ . __ . __ . __ . __ . __ . __ . __
 72
    65
 73
     4
 40
1.0
 49
0.5
 74
     0
 49
-0.25
 74
     0
 49
0.0
 74
     0
 49
-0.25
 74
     0
  0
LTYPE
  5
12DB
100
AcDbSymbolTableRecord
100
AcDbLinetypeTableRecord
  2
ACAD_ISO04W100
 70
    64
  3
____ . ____ . ____ . ____ . ____ . ____ . ____ 
 72
    65
 73
     4
 40
30.5
 49
24.0
 74
     0
 49
-3.0
 74
     0
 49
0.5
 74
     0
 49
-3.0
 74
     0
  0
LTYPE
  5
1689
100
AcDbSymbolTableRecord
100
AcDbLinetypeTableRecord
  2
TRATTEGGIATAX2
 70
    64
  3
____  ____  ____  ____  ____  ____  ____  ____ 
 72
    65
 73
     2
 40
1.5
 49
1.0
 74
     0
 49
-0.5
 74
     0
  0
ENDTAB
  0
TABLE
  2
LAYER
  5
2
100
AcDbSymbolTable
 70
    11
  0
LAYER
  5
F
100
AcDbSymbolTableRecord
100
AcDbLayerTableRecord
  2
0
 70
     0
 62
     7
  6
CONTINUOUS
  0
LAYER
  5
64
100
AcDbSymbolTableRecord
100
AcDbLayerTableRecord
  2
OGGETTO
 70
    64
 62
     7
  6
CONTINUOUS
  0
LAYER
  5
65
100
AcDbSymbolTableRecord
100
AcDbLayerTableRecord
  2
QUOTE
 70
    64
 62
     1
  6
CONTINUOUS
  0
LAYER
  5
66
100
AcDbSymbolTableRecord
100
AcDbLayerTableRecord
  2
CENTRO
 70
    64
 62
     3
  6
TRATTO-PUNTO
  0
LAYER
  5
67
100
AcDbSymbolTableRecord
100
AcDbLayerTableRecord
  2
NASCOSTA
 70
    64
 62
     5
  6
TRATTEGGIATA
  0
LAYER
  5
68
100
AcDbSymbolTableRecord
100
AcDbLayerTableRecord
  2
SEZIONE
 70
    64
 62
     8
  6
CONTINUOUS
  0
LAYER
  5
78
100
AcDbSymbolTableRecord
100
AcDbLayerTableRecord
  2
TESTO
 70
    64
 62
     6
  6
CONTINUOUS
  0
LAYER
  5
A9
100
AcDbSymbolTableRecord
100
AcDbLayerTableRecord
  2
DEFPOINTS
 70
    64
 62
     7
  6
CONTINUOUS
  0
LAYER
  5
12DC
100
AcDbSymbolTableRecord
100
AcDbLayerTableRecord
  2
DISEGNO
 70
    64
 62
     7
  6
CONTINUOUS
  0
LAYER
  5
12DD
100
AcDbSymbolTableRecord
100
AcDbLayerTableRecord
  2
ASSI
 70
    64
 62
     1
  6
ACAD_ISO04W100
  0
LAYER
  5
168A
100
AcDbSymbolTableRecord
100
AcDbLayerTableRecord
  2
FOGLIO
 70
    64
 62
     8
  6
CONTINUOUS
  0
ENDTAB
  0
TABLE
  2
STYLE
  5
3
100
AcDbSymbolTable
 70
     2
  0
STYLE
  5
10
100
AcDbSymbolTableRecord
100
AcDbTextStyleTableRecord
  2
STANDARD
 70
    64
 40
5.0
 41
1.0
 50
0.0
 71
     0
 42
3.0
  3
ISOCP
  4

  0
STYLE
  5
6A
100
AcDbSymbolTableRecord
100
AcDbTextStyleTableRecord
  2

 70
    65
 40
0.0
 41
1.0
 50
0.0
 71
     0
 42
2.104377
  3
ltypeshp.shx
  4

  0
ENDTAB
  0
TABLE
  2
VIEW
  5
6
100
AcDbSymbolTable
 70
     0
  0
ENDTAB
  0
TABLE
  2
UCS
  5
7
100
AcDbSymbolTable
 70
     0
  0
ENDTAB
  0
TABLE
  2
APPID
  5
9
100
AcDbSymbolTable
 70
     1
  0
APPID
  5
11
100
AcDbSymbolTableRecord
100
AcDbRegAppTableRecord
  2
ACAD
 70
     0
  0
ENDTAB
  0
TABLE
  2
DIMSTYLE
  5
A
100
AcDbSymbolTable
 70
    10
  0
DIMSTYLE
105
1D
100
AcDbSymbolTableRecord
100
AcDbDimStyleTableRecord
  2
STANDARD
 70
     0
  3

  4

  5

  6

  7

 40
1.0
 41
0.18
 42
0.0625
 43
0.38
 44
0.18
 45
0.0
 46
0.0
 47
0.0
 48
0.0
140
0.18
141
0.09
142
0.0
143
25.4
144
1.0
145
0.0
146
1.0
147
0.09
 71
     0
 72
     0
 73
     1
 74
     1
 75
     0
 76
     0
 77
     0
 78
     0
170
     0
171
     2
172
     0
173
     0
174
     0
175
     0
176
     0
177
     0
178
     0
270
     2
271
     4
272
     4
273
     2
274
     2
340
10
275
     0
280
     0
281
     0
282
     0
283
     1
284
     0
285
     0
286
     0
287
     3
288
     0
  0
DIMSTYLE
105
24
100
AcDbSymbolTableRecord
100
AcDbDimStyleTableRecord
  2
ISO-25
 70
     0
  3

  4

  5

  6

  7

 40
1.0
 41
2.5
 42
0.625
 43
3.75
 44
1.25
 45
0.0
 46
0.0
 47
0.0
 48
0.0
140
2.5
141
2.5
142
0.0
143
0.0394
144
1.0
145
1.0
146
1.0
147
0.625
 71
     0
 72
     0
 73
     1
 74
     0
 75
     0
 76
     0
 77
     1
 78
     8
170
     0
171
     2
172
     1
173
     0
174
     0
175
     0
176
     0
177
     0
178
     0
270
     2
271
     4
272
     4
273
     2
274
     2
340
10
275
     0
280
     0
281
     0
282
     0
283
     1
284
     0
285
     0
286
     0
287
     3
288
     0
  0
DIMSTYLE
105
25
100
AcDbSymbolTableRecord
100
AcDbDimStyleTableRecord
  2
ISO-35
 70
     0
  3

  4

  5

  6

  7

 40
1.0
 41
3.5
 42
0.875
 43
5.25
 44
1.75
 45
0.0
 46
0.0
 47
0.0
 48
0.0
140
3.5
141
3.5
142
0.0
143
0.0394
144
1.0
145
1.4
146
1.0
147
0.875
 71
     0
 72
     0
 73
     1
 74
     0
 75
     0
 76
     0
 77
     1
 78
     8
170
     0
171
     2
172
     1
173
     0
174
     0
175
     0
176
     0
177
     0
178
     0
270
     2
271
     4
272
     4
273
     2
274
     2
340
10
275
     0
280
     0
281
     0
282
     0
283
     1
284
     0
285
     0
286
     0
287
     3
288
     0
  0
DIMSTYLE
105
26
100
AcDbSymbolTableRecord
100
AcDbDimStyleTableRecord
  2
ISO-5
 70
     0
  3

  4

  5

  6

  7

 40
1.0
 41
5.0
 42
1.25
 43
7.5
 44
2.5
 45
0.0
 46
0.0
 47
0.0
 48
0.0
140
5.0
141
5.0
142
0.0
143
0.0394
144
1.0
145
2.0
146
1.0
147
1.25
 71
     0
 72
     0
 73
     1
 74
     0
 75
     0
 76
     0
 77
     1
 78
     8
170
     0
171
     2
172
     1
173
     0
174
     0
175
     0
176
     0
177
     0
178
     0
270
     2
271
     4
272
     4
273
     2
274
     2
340
10
275
     0
280
     0
281
     0
282
     0
283
     1
284
     0
285
     0
286
     0
287
     3
288
     0
  0
DIMSTYLE
105
27
100
AcDbSymbolTableRecord
100
AcDbDimStyleTableRecord
  2
ISO-7
 70
     0
  3

  4

  5

  6

  7

 40
1.0
 41
7.0
 42
1.75
 43
10.5
 44
3.5
 45
0.0
 46
0.0
 47
0.0
 48
0.0
140
7.0
141
7.0
142
0.0
143
0.0394
144
1.0
145
2.8
146
1.0
147
1.75
 71
     0
 72
     0
 73
     1
 74
     0
 75
     0
 76
     0
 77
     1
 78
     8
170
     0
171
     2
172
     1
173
     0
174
     0
175
     0
176
     0
177
     0
178
     0
270
     2
271
     4
272
     4
273
     2
274
     2
340
10
275
     0
280
     0
281
     0
282
     0
283
     1
284
     0
285
     0
286
     0
287
     3
288
     0
  0
DIMSTYLE
105
28
100
AcDbSymbolTableRecord
100
AcDbDimStyleTableRecord
  2
ISO1
 70
     0
  3

  4

  5

  6

  7

 40
1.0
 41
10.0
 42
2.5
 43
15.0
 44
5.0
 45
0.0
 46
0.0
 47
0.0
 48
0.0
140
10.0
141
10.0
142
0.0
143
0.0394
144
1.0
145
4.0
146
1.0
147
2.5
 71
     0
 72
     0
 73
     1
 74
     0
 75
     0
 76
     0
 77
     1
 78
     8
170
     0
171
     2
172
     1
173
     0
174
     0
175
     0
176
     0
177
     0
178
     0
270
     2
271
     4
272
     4
273
     2
274
     2
340
10
275
     0
280
     0
281
     0
282
     0
283
     1
284
     0
285
     0
286
     0
287
     3
288
     0
  0
DIMSTYLE
105
29
100
AcDbSymbolTableRecord
100
AcDbDimStyleTableRecord
  2
ISO1-4
 70
     0
  3

  4

  5

  6

  7

 40
1.0
 41
14.0
 42
3.5
 43
21.0
 44
7.0
 45
0.0
 46
0.0
 47
0.0
 48
0.0
140
14.0
141
14.0
142
0.0
143
0.0394
144
1.0
145
5.6
146
1.0
147
3.5
 71
     0
 72
     0
 73
     1
 74
     0
 75
     0
 76
     0
 77
     1
 78
     8
170
     0
171
     2
172
     1
173
     0
174
     0
175
     0
176
     0
177
     0
178
     0
270
     2
271
     4
272
     4
273
     2
274
     2
340
10
275
     0
280
     0
281
     0
282
     0
283
     1
284
     0
285
     0
286
     0
287
     3
288
     0
  0
DIMSTYLE
105
2A
100
AcDbSymbolTableRecord
100
AcDbDimStyleTableRecord
  2
ISO2
 70
     0
  3

  4

  5

  6

  7

 40
1.0
 41
20.0
 42
5.0
 43
30.0
 44
10.0
 45
0.0
 46
0.0
 47
0.0
 48
0.0
140
20.0
141
20.0
142
0.0
143
0.0394
144
1.0
145
8.0
146
1.0
147
5.0
 71
     0
 72
     0
 73
     1
 74
     0
 75
     0
 76
     0
 77
     1
 78
     8
170
     0
171
     2
172
     1
173
     0
174
     0
175
     0
176
     0
177
     0
178
     0
270
     2
271
     4
272
     4
273
     2
274
     2
340
10
275
     0
280
     0
281
     0
282
     0
283
     1
284
     0
285
     0
286
     0
287
     3
288
     0
  0
DIMSTYLE
105
12DE
100
AcDbSymbolTableRecord
100
AcDbDimStyleTableRecord
  2
TOLL-01
 70
     0
  3

  4

  5

  6

  7

 40
1.0
 41
2.5
 42
0.625
 43
3.75
 44
1.25
 45
0.0
 46
0.0
 47
0.02
 48
0.0
140
3.0
141
2.5
142
0.0
143
0.03937
144
1.0
145
0.0
146
0.8
147
0.625
 71
     1
 72
     0
 73
     0
 74
     0
 75
     0
 76
     0
 77
     1
 78
     8
170
     0
171
     2
172
     0
173
     0
174
     0
175
     0
176
     0
177
     0
178
     0
270
     2
271
     2
272
     2
273
     2
274
     2
340
10
275
     0
280
     0
281
     0
282
     0
283
     2
284
     8
285
     0
286
     0
287
     3
288
     0
  0
DIMSTYLE
105
12DF
100
AcDbSymbolTableRecord
100
AcDbDimStyleTableRecord
  2
TOLL-03
 70
     0
  3

  4

  5

  6

  7

 40
1.0
 41
2.5
 42
0.625
 43
3.75
 44
1.25
 45
0.0
 46
0.0
 47
0.01
 48
0.01
140
3.0
141
2.5
142
0.0
143
0.03937
144
1.0
145
0.0
146
0.8
147
0.625
 71
     1
 72
     0
 73
     0
 74
     0
 75
     0
 76
     0
 77
     1
 78
     8
170
     0
171
     2
172
     0
173
     0
174
     0
175
     0
176
     0
177
     0
178
     0
270
     2
271
     2
272
     2
273
     2
274
     2
340
10
275
     0
280
     0
281
     0
282
     0
283
     2
284
     8
285
     0
286
     0
287
     3
288
     0
  0
ENDTAB
  0
TABLE
  2
BLOCK_RECORD
  5
1
100
AcDbSymbolTable
 70
    62
  0
BLOCK_RECORD
  5
1A
100
AcDbSymbolTableRecord
100
AcDbBlockTableRecord
  2
*MODEL_SPACE
  0
BLOCK_RECORD
  5
17
100
AcDbSymbolTableRecord
100
AcDbBlockTableRecord
  2
*PAPER_SPACE
  0
BLOCK_RECORD
  5
4F8
100
AcDbSymbolTableRecord
100
AcDbBlockTableRecord
  2
*D0
  0
BLOCK_RECORD
  5
506
100
AcDbSymbolTableRecord
100
AcDbBlockTableRecord
  2
*D1
  0
BLOCK_RECORD
  5
514
100
AcDbSymbolTableRecord
100
AcDbBlockTableRecord
  2
*D2
  0
BLOCK_RECORD
  5
520
100
AcDbSymbolTableRecord
100
AcDbBlockTableRecord
  2
*D3
  0
BLOCK_RECORD
  5
52E
100
AcDbSymbolTableRecord
100
AcDbBlockTableRecord
  2
*D4
  0
BLOCK_RECORD
  5
53A
100
AcDbSymbolTableRecord
100
AcDbBlockTableRecord
  2
*D5
  0
BLOCK_RECORD
  5
547
100
AcDbSymbolTableRecord
100
AcDbBlockTableRecord
  2
*D6
  0
BLOCK_RECORD
  5
553
100
AcDbSymbolTableRecord
100
AcDbBlockTableRecord
  2
*D7
  0
BLOCK_RECORD
  5
562
100
AcDbSymbolTableRecord
100
AcDbBlockTableRecord
  2
*D8
  0
BLOCK_RECORD
  5
570
100
AcDbSymbolTableRecord
100
AcDbBlockTableRecord
  2
*D9
  0
BLOCK_RECORD
  5
57E
100
AcDbSymbolTableRecord
100
AcDbBlockTableRecord
  2
*D10
  0
BLOCK_RECORD
  5
58A
100
AcDbSymbolTableRecord
100
AcDbBlockTableRecord
  2
*D11
  0
BLOCK_RECORD
  5
596
100
AcDbSymbolTableRecord
100
AcDbBlockTableRecord
  2
*D12
  0
BLOCK_RECORD
  5
5A4
100
AcDbSymbolTableRecord
100
AcDbBlockTableRecord
  2
*D13
  0
BLOCK_RECORD
  5
5B0
100
AcDbSymbolTableRecord
100
AcDbBlockTableRecord
  2
*D14
  0
BLOCK_RECORD
  5
5BD
100
AcDbSymbolTableRecord
100
AcDbBlockTableRecord
  2
*D15
  0
BLOCK_RECORD
  5
5C9
100
AcDbSymbolTableRecord
100
AcDbBlockTableRecord
  2
*X16
  0
BLOCK_RECORD
  5
5D9
100
AcDbSymbolTableRecord
100
AcDbBlockTableRecord
  2
*X17
  0
BLOCK_RECORD
  5
5E1
100
AcDbSymbolTableRecord
100
AcDbBlockTableRecord
  2
*X18
  0
BLOCK_RECORD
  5
5E9
100
AcDbSymbolTableRecord
100
AcDbBlockTableRecord
  2
*D19
  0
BLOCK_RECORD
  5
5F6
100
AcDbSymbolTableRecord
100
AcDbBlockTableRecord
  2
*D20
  0
BLOCK_RECORD
  5
604
100
AcDbSymbolTableRecord
100
AcDbBlockTableRecord
  2
*X21
  0
BLOCK_RECORD
  5
609
100
AcDbSymbolTableRecord
100
AcDbBlockTableRecord
  2
A$C4375
  0
BLOCK_RECORD
  5
898
100
AcDbSymbolTableRecord
100
AcDbBlockTableRecord
  2
*D23
  0
BLOCK_RECORD
  5
8A4
100
AcDbSymbolTableRecord
100
AcDbBlockTableRecord
  2
*D24
  0
BLOCK_RECORD
  5
8B0
100
AcDbSymbolTableRecord
100
AcDbBlockTableRecord
  2
*D25
  0
BLOCK_RECORD
  5
8BC
100
AcDbSymbolTableRecord
100
AcDbBlockTableRecord
  2
*D26
  0
BLOCK_RECORD
  5
8C8
100
AcDbSymbolTableRecord
100
AcDbBlockTableRecord
  2
*D27
  0
BLOCK_RECORD
  5
8D4
100
AcDbSymbolTableRecord
100
AcDbBlockTableRecord
  2
*D28
  0
BLOCK_RECORD
  5
8E0
100
AcDbSymbolTableRecord
100
AcDbBlockTableRecord
  2
*D29
  0
BLOCK_RECORD
  5
8EC
100
AcDbSymbolTableRecord
100
AcDbBlockTableRecord
  2
*D30
  0
BLOCK_RECORD
  5
8F5
100
AcDbSymbolTableRecord
100
AcDbBlockTableRecord
  2
*D31
  0
BLOCK_RECORD
  5
901
100
AcDbSymbolTableRecord
100
AcDbBlockTableRecord
  2
*D32
  0
BLOCK_RECORD
  5
90E
100
AcDbSymbolTableRecord
100
AcDbBlockTableRecord
  2
A$C60F0
  0
BLOCK_RECORD
  5
1258
100
AcDbSymbolTableRecord
100
AcDbBlockTableRecord
  2
*D34
  0
BLOCK_RECORD
  5
1265
100
AcDbSymbolTableRecord
100
AcDbBlockTableRecord
  2
*D35
  0
BLOCK_RECORD
  5
1272
100
AcDbSymbolTableRecord
100
AcDbBlockTableRecord
  2
*D36
  0
BLOCK_RECORD
  5
127E
100
AcDbSymbolTableRecord
100
AcDbBlockTableRecord
  2
*D37
  0
BLOCK_RECORD
  5
128B
100
AcDbSymbolTableRecord
100
AcDbBlockTableRecord
  2
*D38
  0
BLOCK_RECORD
  5
1297
100
AcDbSymbolTableRecord
100
AcDbBlockTableRecord
  2
*D39
  0
BLOCK_RECORD
  5
12A3
100
AcDbSymbolTableRecord
100
AcDbBlockTableRecord
  2
*D40
  0
BLOCK_RECORD
  5
12AF
100
AcDbSymbolTableRecord
100
AcDbBlockTableRecord
  2
*D41
  0
BLOCK_RECORD
  5
12BB
100
AcDbSymbolTableRecord
100
AcDbBlockTableRecord
  2
*D42
  0
BLOCK_RECORD
  5
12C7
100
AcDbSymbolTableRecord
100
AcDbBlockTableRecord
  2
RUGOSITA
  0
BLOCK_RECORD
  5
12CE
100
AcDbSymbolTableRecord
100
AcDbBlockTableRecord
  2
*D44
  0
BLOCK_RECORD
  5
12E0
100
AcDbSymbolTableRecord
100
AcDbBlockTableRecord
  2
A$C3111
  0
BLOCK_RECORD
  5
157F
100
AcDbSymbolTableRecord
100
AcDbBlockTableRecord
  2
*D46
  0
BLOCK_RECORD
  5
158E
100
AcDbSymbolTableRecord
100
AcDbBlockTableRecord
  2
*D47
  0
BLOCK_RECORD
  5
159B
100
AcDbSymbolTableRecord
100
AcDbBlockTableRecord
  2
*D48
  0
BLOCK_RECORD
  5
15AA
100
AcDbSymbolTableRecord
100
AcDbBlockTableRecord
  2
*D49
  0
BLOCK_RECORD
  5
15B7
100
AcDbSymbolTableRecord
100
AcDbBlockTableRecord
  2
*D50
  0
BLOCK_RECORD
  5
15C4
100
AcDbSymbolTableRecord
100
AcDbBlockTableRecord
  2
*D51
  0
BLOCK_RECORD
  5
15D1
100
AcDbSymbolTableRecord
100
AcDbBlockTableRecord
  2
*D52
  0
BLOCK_RECORD
  5
15E9
100
AcDbSymbolTableRecord
100
AcDbBlockTableRecord
  2
*D53
  0
BLOCK_RECORD
  5
15F6
100
AcDbSymbolTableRecord
100
AcDbBlockTableRecord
  2
*D54
  0
BLOCK_RECORD
  5
1603
100
AcDbSymbolTableRecord
100
AcDbBlockTableRecord
  2
*D55
  0
BLOCK_RECORD
  5
1610
100
AcDbSymbolTableRecord
100
AcDbBlockTableRecord
  2
*D56
  0
BLOCK_RECORD
  5
1622
100
AcDbSymbolTableRecord
100
AcDbBlockTableRecord
  2
*X57
  0
BLOCK_RECORD
  5
162A
100
AcDbSymbolTableRecord
100
AcDbBlockTableRecord
  2
*X58
  0
BLOCK_RECORD
  5
1632
100
AcDbSymbolTableRecord
100
AcDbBlockTableRecord
  2
A$C7351
  0
BLOCK_RECORD
  5
168B
100
AcDbSymbolTableRecord
100
AcDbBlockTableRecord
  2
A$C9342
  0
BLOCK_RECORD
  5
16D4
100
AcDbSymbolTableRecord
100
AcDbBlockTableRecord
  2
A$CC101
  0
ENDTAB
  0
ENDSEC
  0
SECTION
  2
BLOCKS
  0
BLOCK
  5
1B
100
AcDbEntity
  8
0
100
AcDbBlockBegin
  2
*MODEL_SPACE
 70
     0
 10
0.0
 20
0.0
 30
0.0
  3
*MODEL_SPACE
  1

  0
ENDBLK
  5
1C
100
AcDbEntity
  8
0
100
AcDbBlockEnd
  0
BLOCK
  5
18
100
AcDbEntity
 67
     1
  8
0
100
AcDbBlockBegin
  2
*PAPER_SPACE
 70
     0
 10
0.0
 20
0.0
 30
0.0
  3
*PAPER_SPACE
  1

  0
ENDBLK
  5
19
100
AcDbEntity
 67
     1
  8
0
100
AcDbBlockEnd
  0
BLOCK
  5
504
100
AcDbEntity
  8
0
100
AcDbBlockBegin
  2
*D0
 70
    65
 10
0.0
 20
0.0
 30
0.0
  3
*D0
  1

  0
LINE
  5
4F9
100
AcDbEntity
  8
0
  6
BYBLOCK
 62
     0
100
AcDbLine
 10
74.4739
 20
160.0
 30
0.0
 11
59.951067
 21
160.0
 31
0.0
  0
LINE
  5
4FA
100
AcDbEntity
  8
0
  6
BYBLOCK
 62
     0
100
AcDbLine
 10
74.4739
 20
166.0
 30
0.0
 11
59.951067
 21
166.0
 31
0.0
  0
LINE
  5
4FB
100
AcDbEntity
  8
0
  6
BYBLOCK
 62
     0
100
AcDbLine
 10
61.003267
 20
157.4
 30
0.0
 11
61.003267
 21
154.8
 31
0.0
  0
LINE
  5
4FC
100
AcDbEntity
  8
0
  6
BYBLOCK
 62
     0
100
AcDbLine
 10
61.003267
 20
168.6
 30
0.0
 11
61.003267
 21
171.2
 31
0.0
  0
LINE
  5
4FD
100
AcDbEntity
  8
0
  6
BYBLOCK
 62
     0
100
AcDbLine
 10
61.003267
 20
160.0
 30
0.0
 11
61.003267
 21
166.0
 31
0.0
  0
SOLID
  5
4FE
100
AcDbEntity
  8
0
  6
BYBLOCK
 62
     0
100
AcDbTrace
 10
60.569934
 20
157.4
 30
0.0
 11
61.436601
 21
157.4
 31
0.0
 12
61.003267
 22
160.0
 32
0.0
 13
61.003267
 23
160.0
 33
0.0
  0
SOLID
  5
4FF
100
AcDbEntity
  8
0
  6
BYBLOCK
 62
     0
100
AcDbTrace
 10
60.569934
 20
168.6
 30
0.0
 11
61.436601
 21
168.6
 31
0.0
 12
61.003267
 22
166.0
 32
0.0
 13
61.003267
 23
166.0
 33
0.0
  0
MTEXT
  5
500
100
AcDbEntity
  8
0
  6
BYBLOCK
 62
     0
100
AcDbMText
 10
58.977167
 20
163.0
 30
0.0
 40
3.0
 41
0.0
 71
     5
 72
     1
  1
\A1;6
 11
0.0
 21
1.0
 31
0.0
  0
POINT
  5
501
100
AcDbEntity
  8
DEFPOINTS
  6
BYBLOCK
 62
     0
100
AcDbPoint
 10
75.0
 20
160.0
 30
0.0
  0
POINT
  5
502
100
AcDbEntity
  8
DEFPOINTS
  6
BYBLOCK
 62
     0
100
AcDbPoint
 10
75.0
 20
166.0
 30
0.0
  0
POINT
  5
503
100
AcDbEntity
  8
DEFPOINTS
  6
BYBLOCK
 62
     0
100
AcDbPoint
 10
61.003267
 20
166.0
 30
0.0
  0
ENDBLK
  5
505
100
AcDbEntity
  8
0
100
AcDbBlockEnd
  0
BLOCK
  5
512
100
AcDbEntity
  8
0
100
AcDbBlockBegin
  2
*D1
 70
    65
 10
0.0
 20
0.0
 30
0.0
  3
*D1
  1

  0
LINE
  5
507
100
AcDbEntity
  8
0
  6
BYBLOCK
 62
     0
100
AcDbLine
 10
74.4739
 20
166.0
 30
0.0
 11
59.951067
 21
166.0
 31
0.0
  0
LINE
  5
508
100
AcDbEntity
  8
0
  6
BYBLOCK
 62
     0
100
AcDbLine
 10
77.4739
 20
170.0
 30
0.0
 11
59.951067
 21
170.0
 31
0.0
  0
LINE
  5
509
100
AcDbEntity
  8
0
  6
BYBLOCK
 62
     0
100
AcDbLine
 10
61.003267
 20
163.4
 30
0.0
 11
61.003267
 21
160.8
 31
0.0
  0
LINE
  5
50A
100
AcDbEntity
  8
0
  6
BYBLOCK
 62
     0
100
AcDbLine
 10
61.003267
 20
172.6
 30
0.0
 11
61.003267
 21
175.2
 31
0.0
  0
LINE
  5
50B
100
AcDbEntity
  8
0
  6
BYBLOCK
 62
     0
100
AcDbLine
 10
61.003267
 20
166.0
 30
0.0
 11
61.003267
 21
170.0
 31
0.0
  0
SOLID
  5
50C
100
AcDbEntity
  8
0
  6
BYBLOCK
 62
     0
100
AcDbTrace
 10
60.569934
 20
163.4
 30
0.0
 11
61.436601
 21
163.4
 31
0.0
 12
61.003267
 22
166.0
 32
0.0
 13
61.003267
 23
166.0
 33
0.0
  0
SOLID
  5
50D
100
AcDbEntity
  8
0
  6
BYBLOCK
 62
     0
100
AcDbTrace
 10
60.569934
 20
172.6
 30
0.0
 11
61.436601
 21
172.6
 31
0.0
 12
61.003267
 22
170.0
 32
0.0
 13
61.003267
 23
170.0
 33
0.0
  0
MTEXT
  5
50E
100
AcDbEntity
  8
0
  6
BYBLOCK
 62
     0
100
AcDbMText
 10
58.977167
 20
168.0
 30
0.0
 40
3.0
 41
0.0
 71
     5
 72
     1
  1
\A1;4
 11
0.0
 21
1.0
 31
0.0
  0
POINT
  5
50F
100
AcDbEntity
  8
DEFPOINTS
  6
BYBLOCK
 62
     0
100
AcDbPoint
 10
75.0
 20
166.0
 30
0.0
  0
POINT
  5
510
100
AcDbEntity
  8
DEFPOINTS
  6
BYBLOCK
 62
     0
100
AcDbPoint
 10
78.0
 20
170.0
 30
0.0
  0
POINT
  5
511
100
AcDbEntity
  8
DEFPOINTS
  6
BYBLOCK
 62
     0
100
AcDbPoint
 10
61.003267
 20
170.0
 30
0.0
  0
ENDBLK
  5
513
100
AcDbEntity
  8
0
100
AcDbBlockEnd
  0
BLOCK
  5
51E
100
AcDbEntity
  8
0
100
AcDbBlockBegin
  2
*D2
 70
    65
 10
0.0
 20
0.0
 30
0.0
  3
*D2
  1

  0
LINE
  5
515
100
AcDbEntity
  8
0
  6
BYBLOCK
 62
     0
100
AcDbLine
 10
78.4739
 20
211.0
 30
0.0
 11
60.04593
 21
211.0
 31
0.0
  0
LINE
  5
516
100
AcDbEntity
  8
0
  6
BYBLOCK
 62
     0
100
AcDbLine
 10
78.4739
 20
179.0
 30
0.0
 11
60.04593
 21
179.0
 31
0.0
  0
LINE
  5
517
100
AcDbEntity
  8
0
  6
BYBLOCK
 62
     0
100
AcDbLine
 10
61.09813
 20
208.4
 30
0.0
 11
61.09813
 21
181.6
 31
0.0
  0
SOLID
  5
518
100
AcDbEntity
  8
0
  6
BYBLOCK
 62
     0
100
AcDbTrace
 10
60.664797
 20
208.4
 30
0.0
 11
61.531464
 21
208.4
 31
0.0
 12
61.09813
 22
211.0
 32
0.0
 13
61.09813
 23
211.0
 33
0.0
  0
SOLID
  5
519
100
AcDbEntity
  8
0
  6
BYBLOCK
 62
     0
100
AcDbTrace
 10
60.664797
 20
181.6
 30
0.0
 11
61.531464
 21
181.6
 31
0.0
 12
61.09813
 22
179.0
 32
0.0
 13
61.09813
 23
179.0
 33
0.0
  0
MTEXT
  5
51A
100
AcDbEntity
  8
0
  6
BYBLOCK
 62
     0
100
AcDbMText
 10
59.071735
 20
195.0
 30
0.0
 40
3.0
 41
0.0
 71
     5
 72
     1
  1
\A1;32
 11
0.0
 21
1.0
 31
0.0
  0
POINT
  5
51B
100
AcDbEntity
  8
DEFPOINTS
  6
BYBLOCK
 62
     0
100
AcDbPoint
 10
79.0
 20
211.0
 30
0.0
  0
POINT
  5
51C
100
AcDbEntity
  8
DEFPOINTS
  6
BYBLOCK
 62
     0
100
AcDbPoint
 10
79.0
 20
179.0
 30
0.0
  0
POINT
  5
51D
100
AcDbEntity
  8
DEFPOINTS
  6
BYBLOCK
 62
     0
100
AcDbPoint
 10
61.09813
 20
179.0
 30
0.0
  0
ENDBLK
  5
51F
100
AcDbEntity
  8
0
100
AcDbBlockEnd
  0
BLOCK
  5
52C
100
AcDbEntity
  8
0
100
AcDbBlockBegin
  2
*D3
 70
    65
 10
0.0
 20
0.0
 30
0.0
  3
*D3
  1

  0
LINE
  5
521
100
AcDbEntity
  8
0
  6
BYBLOCK
 62
     0
100
AcDbLine
 10
128.0
 20
169.4739
 30
0.0
 11
128.0
 21
152.522558
 31
0.0
  0
LINE
  5
522
100
AcDbEntity
  8
0
  6
BYBLOCK
 62
     0
100
AcDbLine
 10
130.0
 20
165.4739
 30
0.0
 11
130.0
 21
152.522558
 31
0.0
  0
LINE
  5
523
100
AcDbEntity
  8
0
  6
BYBLOCK
 62
     0
100
AcDbLine
 10
125.4
 20
153.574758
 30
0.0
 11
122.8
 21
153.574758
 31
0.0
  0
LINE
  5
524
100
AcDbEntity
  8
0
  6
BYBLOCK
 62
     0
100
AcDbLine
 10
132.6
 20
153.574758
 30
0.0
 11
137.409281
 21
153.574758
 31
0.0
  0
LINE
  5
525
100
AcDbEntity
  8
0
  6
BYBLOCK
 62
     0
100
AcDbLine
 10
128.0
 20
153.574758
 30
0.0
 11
130.0
 21
153.574758
 31
0.0
  0
SOLID
  5
526
100
AcDbEntity
  8
0
  6
BYBLOCK
 62
     0
100
AcDbTrace
 10
125.4
 20
154.008091
 30
0.0
 11
125.4
 21
153.141424
 31
0.0
 12
128.0
 22
153.574758
 32
0.0
 13
128.0
 23
153.574758
 33
0.0
  0
SOLID
  5
527
100
AcDbEntity
  8
0
  6
BYBLOCK
 62
     0
100
AcDbTrace
 10
132.6
 20
154.008091
 30
0.0
 11
132.6
 21
153.141424
 31
0.0
 12
130.0
 22
153.574758
 32
0.0
 13
130.0
 23
153.574758
 33
0.0
  0
MTEXT
  5
528
100
AcDbEntity
  8
0
  6
BYBLOCK
 62
     0
100
AcDbMText
 10
136.155001
 20
155.601153
 30
0.0
 40
3.0
 41
0.0
 71
     5
 72
     1
  1
\A1;2
  0
POINT
  5
529
100
AcDbEntity
  8
DEFPOINTS
  6
BYBLOCK
 62
     0
100
AcDbPoint
 10
128.0
 20
170.0
 30
0.0
  0
POINT
  5
52A
100
AcDbEntity
  8
DEFPOINTS
  6
BYBLOCK
 62
     0
100
AcDbPoint
 10
130.0
 20
166.0
 30
0.0
  0
POINT
  5
52B
100
AcDbEntity
  8
DEFPOINTS
  6
BYBLOCK
 62
     0
100
AcDbPoint
 10
130.0
 20
153.574758
 30
0.0
  0
ENDBLK
  5
52D
100
AcDbEntity
  8
0
100
AcDbBlockEnd
  0
BLOCK
  5
538
100
AcDbEntity
  8
0
100
AcDbBlockBegin
  2
*D4
 70
    65
 10
0.0
 20
0.0
 30
0.0
  3
*D4
  1

  0
LINE
  5
52F
100
AcDbEntity
  8
0
  6
BYBLOCK
 62
     0
100
AcDbLine
 10
125.0
 20
159.4739
 30
0.0
 11
125.0
 21
144.575038
 31
0.0
  0
LINE
  5
530
100
AcDbEntity
  8
0
  6
BYBLOCK
 62
     0
100
AcDbLine
 10
145.0
 20
183.4739
 30
0.0
 11
145.0
 21
144.575038
 31
0.0
  0
LINE
  5
531
100
AcDbEntity
  8
0
  6
BYBLOCK
 62
     0
100
AcDbLine
 10
127.6
 20
145.627238
 30
0.0
 11
142.4
 21
145.627238
 31
0.0
  0
SOLID
  5
532
100
AcDbEntity
  8
0
  6
BYBLOCK
 62
     0
100
AcDbTrace
 10
127.6
 20
146.060572
 30
0.0
 11
127.6
 21
145.193905
 31
0.0
 12
125.0
 22
145.627238
 32
0.0
 13
125.0
 23
145.627238
 33
0.0
  0
SOLID
  5
533
100
AcDbEntity
  8
0
  6
BYBLOCK
 62
     0
100
AcDbTrace
 10
142.4
 20
146.060572
 30
0.0
 11
142.4
 21
145.193905
 31
0.0
 12
145.0
 22
145.627238
 32
0.0
 13
145.0
 23
145.627238
 33
0.0
  0
MTEXT
  5
534
100
AcDbEntity
  8
0
  6
BYBLOCK
 62
     0
100
AcDbMText
 10
135.0
 20
147.653338
 30
0.0
 40
3.0
 41
0.0
 71
     5
 72
     1
  1
\A1;20
  0
POINT
  5
535
100
AcDbEntity
  8
DEFPOINTS
  6
BYBLOCK
 62
     0
100
AcDbPoint
 10
125.0
 20
160.0
 30
0.0
  0
POINT
  5
536
100
AcDbEntity
  8
DEFPOINTS
  6
BYBLOCK
 62
     0
100
AcDbPoint
 10
145.0
 20
184.0
 30
0.0
  0
POINT
  5
537
100
AcDbEntity
  8
DEFPOINTS
  6
BYBLOCK
 62
     0
100
AcDbPoint
 10
145.0
 20
145.627238
 30
0.0
  0
ENDBLK
  5
539
100
AcDbEntity
  8
0
100
AcDbBlockEnd
  0
BLOCK
  5
545
100
AcDbEntity
  8
0
100
AcDbBlockBegin
  2
*D5
 70
    65
 10
0.0
 20
0.0
 30
0.0
  3
*D5
  1

  0
LINE
  5
53B
100
AcDbEntity
  8
0
  6
BYBLOCK
 62
     0
100
AcDbLine
 10
95.0
 20
183.4739
 30
0.0
 11
95.0
 21
157.858009
 31
0.0
  0
ARC
  5
53C
100
AcDbEntity
  8
0
  6
BYBLOCK
 62
     0
100
AcDbCircle
 10
95.0
 20
184.0
 30
0.0
 40
25.089791
100
AcDbArc
 50
248.940096
 51
264.059904
  0
SOLID
  5
53D
100
AcDbEntity
  8
0
  6
BYBLOCK
 62
     0
100
AcDbTrace
 10
85.807679
 20
160.190298
 30
0.0
 11
86.160598
 21
160.981853
 31
0.0
 12
83.609473
 22
161.644832
 32
0.0
 13
83.609473
 23
161.644832
 33
0.0
  0
SOLID
  5
53E
100
AcDbEntity
  8
0
  6
BYBLOCK
 62
     0
100
AcDbTrace
 10
92.425945
 20
159.477676
 30
0.0
 11
92.38104
 21
158.612174
 31
0.0
 12
95.0
 22
158.910209
 32
0.0
 13
95.0
 23
158.910209
 33
0.0
  0
MTEXT
  5
53F
100
AcDbEntity
  8
0
  6
BYBLOCK
 62
     0
100
AcDbMText
 10
89.615888
 20
161.57356
 30
0.0
 40
3.0
 41
0.0
 71
     5
 72
     1
  1
\A1;27°
 11
0.97237
 21
-0.233445
 31
0.0
  0
POINT
  5
540
100
AcDbEntity
  8
DEFPOINTS
  6
BYBLOCK
 62
     0
100
AcDbPoint
 10
87.246828
 20
160.13819
 30
0.0
  0
POINT
  5
541
100
AcDbEntity
  8
DEFPOINTS
  6
BYBLOCK
 62
     0
100
AcDbPoint
 10
95.0
 20
195.0
 30
0.0
  0
POINT
  5
542
100
AcDbEntity
  8
DEFPOINTS
  6
BYBLOCK
 62
     0
100
AcDbPoint
 10
95.0
 20
184.0
 30
0.0
  0
POINT
  5
543
100
AcDbEntity
  8
DEFPOINTS
  6
BYBLOCK
 62
     0
100
AcDbPoint
 10
82.771389
 20
160.0
 30
0.0
  0
POINT
  5
544
100
AcDbEntity
  8
DEFPOINTS
  6
BYBLOCK
 62
     0
100
AcDbPoint
 10
95.0
 20
184.0
 30
0.0
  0
ENDBLK
  5
546
100
AcDbEntity
  8
0
100
AcDbBlockEnd
  0
BLOCK
  5
551
100
AcDbEntity
  8
0
100
AcDbBlockBegin
  2
*D6
 70
    65
 10
0.0
 20
0.0
 30
0.0
  3
*D6
  1

  0
LINE
  5
548
100
AcDbEntity
  8
0
  6
BYBLOCK
 62
     0
100
AcDbLine
 10
95.5261
 20
206.0
 30
0.0
 11
108.634325
 21
206.0
 31
0.0
  0
LINE
  5
549
100
AcDbEntity
  8
0
  6
BYBLOCK
 62
     0
100
AcDbLine
 10
95.5261
 20
184.0
 30
0.0
 11
108.634325
 21
184.0
 31
0.0
  0
LINE
  5
54A
100
AcDbEntity
  8
0
  6
BYBLOCK
 62
     0
100
AcDbLine
 10
107.582125
 20
203.4
 30
0.0
 11
107.582125
 21
186.6
 31
0.0
  0
SOLID
  5
54B
100
AcDbEntity
  8
0
  6
BYBLOCK
 62
     0
100
AcDbTrace
 10
107.148791
 20
203.4
 30
0.0
 11
108.015458
 21
203.4
 31
0.0
 12
107.582125
 22
206.0
 32
0.0
 13
107.582125
 23
206.0
 33
0.0
  0
SOLID
  5
54C
100
AcDbEntity
  8
0
  6
BYBLOCK
 62
     0
100
AcDbTrace
 10
107.148791
 20
186.6
 30
0.0
 11
108.015458
 21
186.6
 31
0.0
 12
107.582125
 22
184.0
 32
0.0
 13
107.582125
 23
184.0
 33
0.0
  0
MTEXT
  5
54D
100
AcDbEntity
  8
0
  6
BYBLOCK
 62
     0
100
AcDbMText
 10
105.55573
 20
195.0
 30
0.0
 40
3.0
 41
0.0
 71
     5
 72
     1
  1
\A1;22
 11
0.0
 21
1.0
 31
0.0
  0
POINT
  5
54E
100
AcDbEntity
  8
DEFPOINTS
  6
BYBLOCK
 62
     0
100
AcDbPoint
 10
95.0
 20
206.0
 30
0.0
  0
POINT
  5
54F
100
AcDbEntity
  8
DEFPOINTS
  6
BYBLOCK
 62
     0
100
AcDbPoint
 10
95.0
 20
184.0
 30
0.0
  0
POINT
  5
550
100
AcDbEntity
  8
DEFPOINTS
  6
BYBLOCK
 62
     0
100
AcDbPoint
 10
107.582125
 20
184.0
 30
0.0
  0
ENDBLK
  5
552
100
AcDbEntity
  8
0
100
AcDbBlockEnd
  0
BLOCK
  5
560
100
AcDbEntity
  8
0
100
AcDbBlockBegin
  2
*D7
 70
    65
 10
0.0
 20
0.0
 30
0.0
  3
*D7
  1

  0
LINE
  5
554
100
AcDbEntity
  8
0
  6
BYBLOCK
 62
     0
100
AcDbLine
 10
95.0
 20
206.5261
 30
0.0
 11
95.0
 21
216.720741
 31
0.0
  0
ARC
  5
555
100
AcDbEntity
  8
0
  6
BYBLOCK
 62
     0
100
AcDbCircle
 10
95.0
 20
206.0
 30
0.0
 40
9.668541
100
AcDbArc
 50
59.091184
 51
74.545592
  0
ARC
  5
556
100
AcDbEntity
  8
0
  6
BYBLOCK
 62
     0
100
AcDbCircle
 10
95.0
 20
206.0
 30
0.0
 40
9.668541
100
AcDbArc
 50
135.454408
 51
150.908816
  0
ARC
  5
557
100
AcDbEntity
  8
0
  6
BYBLOCK
 62
     0
100
AcDbCircle
 10
95.0
 20
206.0
 30
0.0
 40
9.668541
100
AcDbArc
 50
90.0
 51
120.0
  0
SOLID
  5
558
100
AcDbEntity
  8
0
  6
BYBLOCK
 62
     0
100
AcDbTrace
 10
97.518126
 20
214.889555
 30
0.0
 11
97.634655
 21
215.748352
 31
0.0
 12
95.0
 22
215.668541
 32
0.0
 13
95.0
 23
215.668541
 33
0.0
  0
SOLID
  5
559
100
AcDbEntity
  8
0
  6
BYBLOCK
 62
     0
100
AcDbTrace
 10
87.844146
 20
213.124993
 30
0.0
 11
88.374461
 21
212.439518
 31
0.0
 12
90.16573
 22
214.373202
 32
0.0
 13
90.16573
 23
214.373202
 33
0.0
  0
MTEXT
  5
55A
100
AcDbEntity
  8
0
  6
BYBLOCK
 62
     0
100
AcDbMText
 10
102.831016
 20
214.68561
 30
0.0
 40
3.0
 41
0.0
 71
     5
 72
     1
  1
\A1;30°
 11
0.7427
 21
-0.669624
 31
0.0
  0
POINT
  5
55B
100
AcDbEntity
  8
DEFPOINTS
  6
BYBLOCK
 62
     0
100
AcDbPoint
 10
91.693164
 20
215.085457
 30
0.0
  0
POINT
  5
55C
100
AcDbEntity
  8
DEFPOINTS
  6
BYBLOCK
 62
     0
100
AcDbPoint
 10
95.0
 20
195.0
 30
0.0
  0
POINT
  5
55D
100
AcDbEntity
  8
DEFPOINTS
  6
BYBLOCK
 62
     0
100
AcDbPoint
 10
95.0
 20
206.0
 30
0.0
  0
POINT
  5
55E
100
AcDbEntity
  8
DEFPOINTS
  6
BYBLOCK
 62
     0
100
AcDbPoint
 10
86.917096
 20
220.0
 30
0.0
  0
POINT
  5
55F
100
AcDbEntity
  8
DEFPOINTS
  6
BYBLOCK
 62
     0
100
AcDbPoint
 10
95.0
 20
203.5
 30
0.0
  0
ENDBLK
  5
561
100
AcDbEntity
  8
0
100
AcDbBlockEnd
  0
BLOCK
  5
56E
100
AcDbEntity
  8
0
100
AcDbBlockBegin
  2
*D8
 70
    65
 10
0.0
 20
0.0
 30
0.0
  3
*D8
  1

  0
LINE
  5
563
100
AcDbEntity
  8
0
  6
BYBLOCK
 62
     0
100
AcDbLine
 10
84.5
 20
204.0261
 30
0.0
 11
84.5
 21
230.507265
 31
0.0
  0
LINE
  5
564
100
AcDbEntity
  8
0
  6
BYBLOCK
 62
     0
100
AcDbLine
 10
95.0
 20
206.5261
 30
0.0
 11
95.0
 21
230.507265
 31
0.0
  0
LINE
  5
565
100
AcDbEntity
  8
0
  6
BYBLOCK
 62
     0
100
AcDbLine
 10
81.9
 20
229.455065
 30
0.0
 11
79.3
 21
229.455065
 31
0.0
  0
LINE
  5
566
100
AcDbEntity
  8
0
  6
BYBLOCK
 62
     0
100
AcDbLine
 10
97.6
 20
229.455065
 30
0.0
 11
100.2
 21
229.455065
 31
0.0
  0
LINE
  5
567
100
AcDbEntity
  8
0
  6
BYBLOCK
 62
     0
100
AcDbLine
 10
84.5
 20
229.455065
 30
0.0
 11
95.0
 21
229.455065
 31
0.0
  0
SOLID
  5
568
100
AcDbEntity
  8
0
  6
BYBLOCK
 62
     0
100
AcDbTrace
 10
81.9
 20
229.888398
 30
0.0
 11
81.9
 21
229.021731
 31
0.0
 12
84.5
 22
229.455065
 32
0.0
 13
84.5
 23
229.455065
 33
0.0
  0
SOLID
  5
569
100
AcDbEntity
  8
0
  6
BYBLOCK
 62
     0
100
AcDbTrace
 10
97.6
 20
229.888398
 30
0.0
 11
97.6
 21
229.021731
 31
0.0
 12
95.0
 22
229.455065
 32
0.0
 13
95.0
 23
229.455065
 33
0.0
  0
MTEXT
  5
56A
100
AcDbEntity
  8
0
  6
BYBLOCK
 62
     0
100
AcDbMText
 10
89.75
 20
231.481165
 30
0.0
 40
3.0
 41
0.0
 71
     5
 72
     1
  1
\A1;10.5
  0
POINT
  5
56B
100
AcDbEntity
  8
DEFPOINTS
  6
BYBLOCK
 62
     0
100
AcDbPoint
 10
84.5
 20
203.5
 30
0.0
  0
POINT
  5
56C
100
AcDbEntity
  8
DEFPOINTS
  6
BYBLOCK
 62
     0
100
AcDbPoint
 10
95.0
 20
206.0
 30
0.0
  0
POINT
  5
56D
100
AcDbEntity
  8
DEFPOINTS
  6
BYBLOCK
 62
     0
100
AcDbPoint
 10
95.0
 20
229.455065
 30
0.0
  0
ENDBLK
  5
56F
100
AcDbEntity
  8
0
100
AcDbBlockEnd
  0
BLOCK
  5
57C
100
AcDbEntity
  8
0
100
AcDbBlockBegin
  2
*D9
 70
    65
 10
0.0
 20
0.0
 30
0.0
  3
*D9
  1

  0
LINE
  5
571
100
AcDbEntity
  8
0
  6
BYBLOCK
 62
     0
100
AcDbLine
 10
78.0
 20
178.5261
 30
0.0
 11
78.0
 21
238.454779
 31
0.0
  0
LINE
  5
572
100
AcDbEntity
  8
0
  6
BYBLOCK
 62
     0
100
AcDbLine
 10
95.0
 20
206.5261
 30
0.0
 11
95.0
 21
238.454779
 31
0.0
  0
LINE
  5
573
100
AcDbEntity
  8
0
  6
BYBLOCK
 62
     0
100
AcDbLine
 10
75.4
 20
237.402579
 30
0.0
 11
72.8
 21
237.402579
 31
0.0
  0
LINE
  5
574
100
AcDbEntity
  8
0
  6
BYBLOCK
 62
     0
100
AcDbLine
 10
97.6
 20
237.402579
 30
0.0
 11
100.2
 21
237.402579
 31
0.0
  0
LINE
  5
575
100
AcDbEntity
  8
0
  6
BYBLOCK
 62
     0
100
AcDbLine
 10
78.0
 20
237.402579
 30
0.0
 11
95.0
 21
237.402579
 31
0.0
  0
SOLID
  5
576
100
AcDbEntity
  8
0
  6
BYBLOCK
 62
     0
100
AcDbTrace
 10
75.4
 20
237.835913
 30
0.0
 11
75.4
 21
236.969246
 31
0.0
 12
78.0
 22
237.402579
 32
0.0
 13
78.0
 23
237.402579
 33
0.0
  0
SOLID
  5
577
100
AcDbEntity
  8
0
  6
BYBLOCK
 62
     0
100
AcDbTrace
 10
97.6
 20
237.835913
 30
0.0
 11
97.6
 21
236.969246
 31
0.0
 12
95.0
 22
237.402579
 32
0.0
 13
95.0
 23
237.402579
 33
0.0
  0
MTEXT
  5
578
100
AcDbEntity
  8
0
  6
BYBLOCK
 62
     0
100
AcDbMText
 10
86.5
 20
241.358465
 30
0.0
 40
3.0
 41
0.0
 71
     5
 72
     1
  1
\A1;17\S+0.20^  0.00;
  0
POINT
  5
579
100
AcDbEntity
  8
DEFPOINTS
  6
BYBLOCK
 62
     0
100
AcDbPoint
 10
78.0
 20
178.0
 30
0.0
  0
POINT
  5
57A
100
AcDbEntity
  8
DEFPOINTS
  6
BYBLOCK
 62
     0
100
AcDbPoint
 10
95.0
 20
206.0
 30
0.0
  0
POINT
  5
57B
100
AcDbEntity
  8
DEFPOINTS
  6
BYBLOCK
 62
     0
100
AcDbPoint
 10
95.0
 20
237.402579
 30
0.0
  0
ENDBLK
  5
57D
100
AcDbEntity
  8
0
100
AcDbBlockEnd
  0
BLOCK
  5
588
100
AcDbEntity
  8
0
100
AcDbBlockBegin
  2
*D10
 70
    65
 10
0.0
 20
0.0
 30
0.0
  3
*D10
  1

  0
LINE
  5
57F
100
AcDbEntity
  8
0
  6
BYBLOCK
 62
     0
100
AcDbLine
 10
87.443196
 20
220.0
 30
0.0
 11
121.972597
 21
220.0
 31
0.0
  0
LINE
  5
580
100
AcDbEntity
  8
0
  6
BYBLOCK
 62
     0
100
AcDbLine
 10
83.297489
 20
160.0
 30
0.0
 11
121.972597
 21
160.0
 31
0.0
  0
LINE
  5
581
100
AcDbEntity
  8
0
  6
BYBLOCK
 62
     0
100
AcDbLine
 10
120.920397
 20
217.4
 30
0.0
 11
120.920397
 21
162.6
 31
0.0
  0
SOLID
  5
582
100
AcDbEntity
  8
0
  6
BYBLOCK
 62
     0
100
AcDbTrace
 10
120.487064
 20
217.4
 30
0.0
 11
121.353731
 21
217.4
 31
0.0
 12
120.920397
 22
220.0
 32
0.0
 13
120.920397
 23
220.0
 33
0.0
  0
SOLID
  5
583
100
AcDbEntity
  8
0
  6
BYBLOCK
 62
     0
100
AcDbTrace
 10
120.487064
 20
162.6
 30
0.0
 11
121.353731
 21
162.6
 31
0.0
 12
120.920397
 22
160.0
 32
0.0
 13
120.920397
 23
160.0
 33
0.0
  0
MTEXT
  5
584
100
AcDbEntity
  8
0
  6
BYBLOCK
 62
     0
100
AcDbMText
 10
118.890397
 20
190.0
 30
0.0
 40
3.0
 41
0.0
 71
     5
 72
     1
  1
\A1;60
 11
0.0
 21
1.0
 31
0.0
  0
POINT
  5
585
100
AcDbEntity
  8
DEFPOINTS
  6
BYBLOCK
 62
     0
100
AcDbPoint
 10
86.917096
 20
220.0
 30
0.0
  0
POINT
  5
586
100
AcDbEntity
  8
DEFPOINTS
  6
BYBLOCK
 62
     0
100
AcDbPoint
 10
82.771389
 20
160.0
 30
0.0
  0
POINT
  5
587
100
AcDbEntity
  8
DEFPOINTS
  6
BYBLOCK
 62
     0
100
AcDbPoint
 10
120.920397
 20
160.0
 30
0.0
  0
ENDBLK
  5
589
100
AcDbEntity
  8
0
100
AcDbBlockEnd
  0
BLOCK
  5
594
100
AcDbEntity
  8
0
100
AcDbBlockBegin
  2
*D11
 70
    65
 10
0.0
 20
0.0
 30
0.0
  3
*D11
  1

  0
LINE
  5
58B
100
AcDbEntity
  8
0
  6
BYBLOCK
 62
     0
100
AcDbLine
 10
95.5261
 20
184.0
 30
0.0
 11
108.766989
 21
184.0
 31
0.0
  0
LINE
  5
58C
100
AcDbEntity
  8
0
  6
BYBLOCK
 62
     0
100
AcDbLine
 10
83.297489
 20
160.0
 30
0.0
 11
108.766989
 21
160.0
 31
0.0
  0
LINE
  5
58D
100
AcDbEntity
  8
0
  6
BYBLOCK
 62
     0
100
AcDbLine
 10
107.714789
 20
181.4
 30
0.0
 11
107.714789
 21
162.6
 31
0.0
  0
SOLID
  5
58E
100
AcDbEntity
  8
0
  6
BYBLOCK
 62
     0
100
AcDbTrace
 10
107.281455
 20
181.4
 30
0.0
 11
108.148122
 21
181.4
 31
0.0
 12
107.714789
 22
184.0
 32
0.0
 13
107.714789
 23
184.0
 33
0.0
  0
SOLID
  5
58F
100
AcDbEntity
  8
0
  6
BYBLOCK
 62
     0
100
AcDbTrace
 10
107.281455
 20
162.6
 30
0.0
 11
108.148122
 21
162.6
 31
0.0
 12
107.714789
 22
160.0
 32
0.0
 13
107.714789
 23
160.0
 33
0.0
  0
MTEXT
  5
590
100
AcDbEntity
  8
0
  6
BYBLOCK
 62
     0
100
AcDbMText
 10
105.684789
 20
172.0
 30
0.0
 40
3.0
 41
0.0
 71
     5
 72
     1
  1
\A1;24
 11
0.0
 21
1.0
 31
0.0
  0
POINT
  5
591
100
AcDbEntity
  8
DEFPOINTS
  6
BYBLOCK
 62
     0
100
AcDbPoint
 10
95.0
 20
184.0
 30
0.0
  0
POINT
  5
592
100
AcDbEntity
  8
DEFPOINTS
  6
BYBLOCK
 62
     0
100
AcDbPoint
 10
82.771389
 20
160.0
 30
0.0
  0
POINT
  5
593
100
AcDbEntity
  8
DEFPOINTS
  6
BYBLOCK
 62
     0
100
AcDbPoint
 10
107.714789
 20
160.0
 30
0.0
  0
ENDBLK
  5
595
100
AcDbEntity
  8
0
100
AcDbBlockEnd
  0
BLOCK
  5
5A2
100
AcDbEntity
  8
0
100
AcDbBlockBegin
  2
*D12
 70
    65
 10
0.0
 20
0.0
 30
0.0
  3
*D12
  1

  0
LINE
  5
597
100
AcDbEntity
  8
0
  6
BYBLOCK
 62
     0
100
AcDbLine
 10
79.0
 20
205.887439
 30
0.0
 11
79.0
 21
204.604432
 31
0.0
  0
LINE
  5
598
100
AcDbEntity
  8
0
  6
BYBLOCK
 62
     0
100
AcDbLine
 10
78.0
 20
205.887439
 30
0.0
 11
78.0
 21
204.604432
 31
0.0
  0
LINE
  5
599
100
AcDbEntity
  8
0
  6
BYBLOCK
 62
     0
100
AcDbLine
 10
81.6
 20
205.656632
 30
0.0
 11
84.2
 21
205.656632
 31
0.0
  0
LINE
  5
59A
100
AcDbEntity
  8
0
  6
BYBLOCK
 62
     0
100
AcDbLine
 10
75.4
 20
205.656632
 30
0.0
 11
71.14
 21
205.656632
 31
0.0
  0
LINE
  5
59B
100
AcDbEntity
  8
0
  6
BYBLOCK
 62
     0
100
AcDbLine
 10
79.0
 20
205.656632
 30
0.0
 11
78.0
 21
205.656632
 31
0.0
  0
SOLID
  5
59C
100
AcDbEntity
  8
0
  6
BYBLOCK
 62
     0
100
AcDbTrace
 10
81.6
 20
206.089966
 30
0.0
 11
81.6
 21
205.223299
 31
0.0
 12
79.0
 22
205.656632
 32
0.0
 13
79.0
 23
205.656632
 33
0.0
  0
SOLID
  5
59D
100
AcDbEntity
  8
0
  6
BYBLOCK
 62
     0
100
AcDbTrace
 10
75.4
 20
206.089966
 30
0.0
 11
75.4
 21
205.223299
 31
0.0
 12
78.0
 22
205.656632
 32
0.0
 13
78.0
 23
205.656632
 33
0.0
  0
MTEXT
  5
59E
100
AcDbEntity
  8
0
  6
BYBLOCK
 62
     0
100
AcDbMText
 10
71.97
 20
207.686632
 30
0.0
 40
3.0
 41
0.0
 71
     5
 72
     1
  1
\A1;1
  0
POINT
  5
59F
100
AcDbEntity
  8
DEFPOINTS
  6
BYBLOCK
 62
     0
100
AcDbPoint
 10
79.0
 20
206.413539
 30
0.0
  0
POINT
  5
5A0
100
AcDbEntity
  8
DEFPOINTS
  6
BYBLOCK
 62
     0
100
AcDbPoint
 10
78.0
 20
206.413539
 30
0.0
  0
POINT
  5
5A1
100
AcDbEntity
  8
DEFPOINTS
  6
BYBLOCK
 62
     0
100
AcDbPoint
 10
78.0
 20
205.656632
 30
0.0
  0
ENDBLK
  5
5A3
100
AcDbEntity
  8
0
100
AcDbBlockEnd
  0
BLOCK
  5
5AE
100
AcDbEntity
  8
0
100
AcDbBlockBegin
  2
*D13
 70
    65
 10
0.0
 20
0.0
 30
0.0
  3
*D13
  1

  0
LINE
  5
5A5
100
AcDbEntity
  8
0
  6
BYBLOCK
 62
     0
100
AcDbLine
 10
77.4739
 20
220.0
 30
0.0
 11
60.045979
 21
220.0
 31
0.0
  0
LINE
  5
5A6
100
AcDbEntity
  8
0
  6
BYBLOCK
 62
     0
100
AcDbLine
 10
78.4739
 20
211.0
 30
0.0
 11
60.045979
 21
211.0
 31
0.0
  0
LINE
  5
5A7
100
AcDbEntity
  8
0
  6
BYBLOCK
 62
     0
100
AcDbLine
 10
61.098179
 20
217.4
 30
0.0
 11
61.098179
 21
213.6
 31
0.0
  0
SOLID
  5
5A8
100
AcDbEntity
  8
0
  6
BYBLOCK
 62
     0
100
AcDbTrace
 10
60.664846
 20
217.4
 30
0.0
 11
61.531513
 21
217.4
 31
0.0
 12
61.098179
 22
220.0
 32
0.0
 13
61.098179
 23
220.0
 33
0.0
  0
SOLID
  5
5A9
100
AcDbEntity
  8
0
  6
BYBLOCK
 62
     0
100
AcDbTrace
 10
60.664846
 20
213.6
 30
0.0
 11
61.531513
 21
213.6
 31
0.0
 12
61.098179
 22
211.0
 32
0.0
 13
61.098179
 23
211.0
 33
0.0
  0
MTEXT
  5
5AA
100
AcDbEntity
  8
0
  6
BYBLOCK
 62
     0
100
AcDbMText
 10
59.068179
 20
215.5
 30
0.0
 40
3.0
 41
0.0
 71
     5
 72
     1
  1
\A1;9
 11
0.0
 21
1.0
 31
0.0
  0
POINT
  5
5AB
100
AcDbEntity
  8
DEFPOINTS
  6
BYBLOCK
 62
     0
100
AcDbPoint
 10
78.0
 20
220.0
 30
0.0
  0
POINT
  5
5AC
100
AcDbEntity
  8
DEFPOINTS
  6
BYBLOCK
 62
     0
100
AcDbPoint
 10
79.0
 20
211.0
 30
0.0
  0
POINT
  5
5AD
100
AcDbEntity
  8
DEFPOINTS
  6
BYBLOCK
 62
     0
100
AcDbPoint
 10
61.098179
 20
211.0
 30
0.0
  0
ENDBLK
  5
5AF
100
AcDbEntity
  8
0
100
AcDbBlockEnd
  0
BLOCK
  5
5BB
100
AcDbEntity
  8
0
100
AcDbBlockBegin
  2
*D14
 70
    65
 10
0.0
 20
0.0
 30
0.0
  3
*D14
  1

  0
LINE
  5
5B1
100
AcDbEntity
  8
0
  6
BYBLOCK
 62
     0
100
AcDbLine
 10
22.459314
 20
220.549217
 30
0.0
 11
22.459314
 21
230.578005
 31
0.0
  0
LINE
  5
5B2
100
AcDbEntity
  8
0
  6
BYBLOCK
 62
     0
100
AcDbLine
 10
31.459314
 20
220.405624
 30
0.0
 11
31.459314
 21
230.578005
 31
0.0
  0
LINE
  5
5B3
100
AcDbEntity
  8
0
  6
BYBLOCK
 62
     0
100
AcDbLine
 10
25.059314
 20
229.525805
 30
0.0
 11
28.859314
 21
229.525805
 31
0.0
  0
LINE
  5
5B4
100
AcDbEntity
  8
0
  6
BYBLOCK
 62
     0
100
AcDbLine
 10
31.459314
 20
229.525805
 30
0.0
 11
45.634522
 21
229.525805
 31
0.0
  0
SOLID
  5
5B5
100
AcDbEntity
  8
0
  6
BYBLOCK
 62
     0
100
AcDbTrace
 10
25.059314
 20
229.959139
 30
0.0
 11
25.059314
 21
229.092472
 31
0.0
 12
22.459314
 22
229.525805
 32
0.0
 13
22.459314
 23
229.525805
 33
0.0
  0
SOLID
  5
5B6
100
AcDbEntity
  8
0
  6
BYBLOCK
 62
     0
100
AcDbTrace
 10
28.859314
 20
229.959139
 30
0.0
 11
28.859314
 21
229.092472
 31
0.0
 12
31.459314
 22
229.525805
 32
0.0
 13
31.459314
 23
229.525805
 33
0.0
  0
MTEXT
  5
5B7
100
AcDbEntity
  8
0
  6
BYBLOCK
 62
     0
100
AcDbMText
 10
39.846918
 20
231.555805
 30
0.0
 40
3.0
 41
0.0
 71
     5
 72
     1
  1
\A1;9±0.20
  0
POINT
  5
5B8
100
AcDbEntity
  8
DEFPOINTS
  6
BYBLOCK
 62
     0
100
AcDbPoint
 10
22.459314
 20
220.023117
 30
0.0
  0
POINT
  5
5B9
100
AcDbEntity
  8
DEFPOINTS
  6
BYBLOCK
 62
     0
100
AcDbPoint
 10
31.459314
 20
219.879524
 30
0.0
  0
POINT
  5
5BA
100
AcDbEntity
  8
DEFPOINTS
  6
BYBLOCK
 62
     0
100
AcDbPoint
 10
31.459314
 20
229.525805
 30
0.0
  0
ENDBLK
  5
5BC
100
AcDbEntity
  8
0
100
AcDbBlockEnd
  0
BLOCK
  5
5C7
100
AcDbEntity
  8
0
100
AcDbBlockBegin
  2
*D15
 70
    65
 10
0.0
 20
0.0
 30
0.0
  3
*D15
  1

  0
LINE
  5
5BE
100
AcDbEntity
  8
0
  6
BYBLOCK
 62
     0
100
AcDbLine
 10
31.902511
 20
220.023117
 30
0.0
 11
64.320144
 21
220.023117
 31
0.0
  0
LINE
  5
5BF
100
AcDbEntity
  8
0
  6
BYBLOCK
 62
     0
100
AcDbLine
 10
39.985414
 20
200.023117
 30
0.0
 11
64.320144
 21
200.023117
 31
0.0
  0
LINE
  5
5C0
100
AcDbEntity
  8
0
  6
BYBLOCK
 62
     0
100
AcDbLine
 10
63.267944
 20
217.423117
 30
0.0
 11
63.267944
 21
202.623117
 31
0.0
  0
SOLID
  5
5C1
100
AcDbEntity
  8
0
  6
BYBLOCK
 62
     0
100
AcDbTrace
 10
62.834611
 20
217.423117
 30
0.0
 11
63.701278
 21
217.423117
 31
0.0
 12
63.267944
 22
220.023117
 32
0.0
 13
63.267944
 23
220.023117
 33
0.0
  0
SOLID
  5
5C2
100
AcDbEntity
  8
0
  6
BYBLOCK
 62
     0
100
AcDbTrace
 10
62.834611
 20
202.623117
 30
0.0
 11
63.701278
 21
202.623117
 31
0.0
 12
63.267944
 22
200.023117
 32
0.0
 13
63.267944
 23
200.023117
 33
0.0
  0
MTEXT
  5
5C3
100
AcDbEntity
  8
0
  6
BYBLOCK
 62
     0
100
AcDbMText
 10
61.237944
 20
210.023117
 30
0.0
 40
3.0
 41
0.0
 71
     5
 72
     1
  1
\A1;20
 11
0.0
 21
1.0
 31
0.0
  0
POINT
  5
5C4
100
AcDbEntity
  8
DEFPOINTS
  6
BYBLOCK
 62
     0
100
AcDbPoint
 10
31.376411
 20
220.023117
 30
0.0
  0
POINT
  5
5C5
100
AcDbEntity
  8
DEFPOINTS
  6
BYBLOCK
 62
     0
100
AcDbPoint
 10
39.459314
 20
200.023117
 30
0.0
  0
POINT
  5
5C6
100
AcDbEntity
  8
DEFPOINTS
  6
BYBLOCK
 62
     0
100
AcDbPoint
 10
63.267944
 20
200.023117
 30
0.0
  0
ENDBLK
  5
5C8
100
AcDbEntity
  8
0
100
AcDbBlockEnd
  0
BLOCK
  5
5D7
100
AcDbEntity
  8
0
100
AcDbBlockBegin
  2
*X16
 70
    65
 10
0.0
 20
0.0
 30
0.0
  3
*X16
  1

  0
LINE
  5
5CA
100
AcDbEntity
  8
0
  6
CONTINUOUS
 62
     0
100
AcDbLine
 10
22.459314
 20
175.123668
 30
0.0
 11
39.459314
 21
192.123668
 31
0.0
  0
LINE
  5
5CB
100
AcDbEntity
  8
0
  6
CONTINUOUS
 62
     0
100
AcDbLine
 10
23.459314
 20
180.613796
 30
0.0
 11
39.459314
 21
196.613796
 31
0.0
  0
LINE
  5
5CC
100
AcDbEntity
  8
0
  6
CONTINUOUS
 62
     0
100
AcDbLine
 10
23.459314
 20
185.103924
 30
0.0
 11
38.378507
 21
200.023117
 31
0.0
  0
LINE
  5
5CD
100
AcDbEntity
  8
0
  6
CONTINUOUS
 62
     0
100
AcDbLine
 10
23.459314
 20
189.594053
 30
0.0
 11
33.888379
 21
200.023117
 31
0.0
  0
LINE
  5
5CE
100
AcDbEntity
  8
0
  6
CONTINUOUS
 62
     0
100
AcDbLine
 10
23.459314
 20
194.084181
 30
0.0
 11
31.459314
 21
202.084181
 31
0.0
  0
LINE
  5
5CF
100
AcDbEntity
  8
0
  6
CONTINUOUS
 62
     0
100
AcDbLine
 10
23.459314
 20
198.574309
 30
0.0
 11
31.459314
 21
206.574309
 31
0.0
  0
LINE
  5
5D0
100
AcDbEntity
  8
0
  6
CONTINUOUS
 62
     0
100
AcDbLine
 10
23.459314
 20
203.064437
 30
0.0
 11
29.167995
 21
208.773117
 31
0.0
  0
LINE
  5
5D1
100
AcDbEntity
  8
0
  6
CONTINUOUS
 62
     0
100
AcDbLine
 10
23.459314
 20
207.554565
 30
0.0
 11
24.677867
 21
208.773117
 31
0.0
  0
LINE
  5
5D2
100
AcDbEntity
  8
0
  6
CONTINUOUS
 62
     0
100
AcDbLine
 10
22.459314
 20
170.63354
 30
0.0
 11
39.459314
 21
187.63354
 31
0.0
  0
LINE
  5
5D3
100
AcDbEntity
  8
0
  6
CONTINUOUS
 62
     0
100
AcDbLine
 10
19.459314
 20
163.143412
 30
0.0
 11
22.339019
 21
166.023117
 31
0.0
  0
LINE
  5
5D4
100
AcDbEntity
  8
0
  6
CONTINUOUS
 62
     0
100
AcDbLine
 10
24.459314
 20
168.143412
 30
0.0
 11
38.54544
 21
182.229538
 31
0.0
  0
LINE
  5
5D5
100
AcDbEntity
  8
0
  6
CONTINUOUS
 62
     0
100
AcDbLine
 10
20.829147
 20
160.023117
 30
0.0
 11
33.880907
 21
173.074877
 31
0.0
  0
LINE
  5
5D6
100
AcDbEntity
  8
0
  6
CONTINUOUS
 62
     0
100
AcDbLine
 10
25.319276
 20
160.023117
 30
0.0
 11
29.216375
 21
163.920217
 31
0.0
  0
ENDBLK
  5
5D8
100
AcDbEntity
  8
0
100
AcDbBlockEnd
  0
BLOCK
  5
5DF
100
AcDbEntity
  8
0
100
AcDbBlockBegin
  2
*X17
 70
    65
 10
0.0
 20
0.0
 30
0.0
  3
*X17
  1

  0
LINE
  5
5DA
100
AcDbEntity
  8
0
  6
CONTINUOUS
 62
     0
100
AcDbLine
 10
133.148079
 20
200.5
 30
0.0
 11
134.5
 21
201.851921
 31
0.0
  0
LINE
  5
5DB
100
AcDbEntity
  8
0
  6
CONTINUOUS
 62
     0
100
AcDbLine
 10
136.148079
 20
203.5
 30
0.0
 11
142.675036
 21
210.026956
 31
0.0
  0
LINE
  5
5DC
100
AcDbEntity
  8
0
  6
CONTINUOUS
 62
     0
100
AcDbLine
 10
129.0
 20
200.842049
 30
0.0
 11
138.208731
 21
210.05078
 31
0.0
  0
LINE
  5
5DD
100
AcDbEntity
  8
0
  6
CONTINUOUS
 62
     0
100
AcDbLine
 10
129.0
 20
205.332177
 30
0.0
 11
134.190125
 21
210.522302
 31
0.0
  0
LINE
  5
5DE
100
AcDbEntity
  8
0
  6
CONTINUOUS
 62
     0
100
AcDbLine
 10
140.638207
 20
203.5
 30
0.0
 11
144.318537
 21
207.180329
 31
0.0
  0
ENDBLK
  5
5E0
100
AcDbEntity
  8
0
100
AcDbBlockEnd
  0
BLOCK
  5
5E7
100
AcDbEntity
  8
0
100
AcDbBlockBegin
  2
*X18
 70
    65
 10
0.0
 20
0.0
 30
0.0
  3
*X18
  1

  0
LINE
  5
5E2
100
AcDbEntity
  8
0
  6
CONTINUOUS
 62
     0
100
AcDbLine
 10
134.439969
 20
179.34125
 30
0.0
 11
141.598719
 21
186.5
 31
0.0
  0
LINE
  5
5E3
100
AcDbEntity
  8
0
  6
CONTINUOUS
 62
     0
100
AcDbLine
 10
131.176537
 20
180.567946
 30
0.0
 11
137.108591
 21
186.5
 31
0.0
  0
LINE
  5
5E4
100
AcDbEntity
  8
0
  6
CONTINUOUS
 62
     0
100
AcDbLine
 10
129.0
 20
182.881537
 30
0.0
 11
134.5
 21
188.381537
 31
0.0
  0
LINE
  5
5E5
100
AcDbEntity
  8
0
  6
CONTINUOUS
 62
     0
100
AcDbLine
 10
129.0
 20
187.371665
 30
0.0
 11
131.128335
 21
189.5
 31
0.0
  0
LINE
  5
5E6
100
AcDbEntity
  8
0
  6
CONTINUOUS
 62
     0
100
AcDbLine
 10
139.082431
 20
179.493584
 30
0.0
 11
145.0
 21
185.411153
 31
0.0
  0
ENDBLK
  5
5E8
100
AcDbEntity
  8
0
100
AcDbBlockEnd
  0
BLOCK
  5
5F4
100
AcDbEntity
  8
0
100
AcDbBlockBegin
  2
*D19
 70
    65
 10
0.0
 20
0.0
 30
0.0
  3
*D19
  1

  0
LINE
  5
5EA
100
AcDbEntity
  8
0
  6
BYBLOCK
 62
     0
100
AcDbLine
 10
21.933214
 20
220.023117
 30
0.0
 11
10.836465
 21
220.023117
 31
0.0
  0
LINE
  5
5EB
100
AcDbEntity
  8
0
  6
BYBLOCK
 62
     0
100
AcDbLine
 10
21.933214
 20
213.024571
 30
0.0
 11
10.836465
 21
213.024571
 31
0.0
  0
LINE
  5
5EC
100
AcDbEntity
  8
0
  6
BYBLOCK
 62
     0
100
AcDbLine
 10
11.888665
 20
217.423117
 30
0.0
 11
11.888665
 21
215.624571
 31
0.0
  0
LINE
  5
5ED
100
AcDbEntity
  8
0
  6
BYBLOCK
 62
     0
100
AcDbLine
 10
11.888665
 20
213.024571
 30
0.0
 11
11.888665
 21
198.859846
 31
0.0
  0
SOLID
  5
5EE
100
AcDbEntity
  8
0
  6
BYBLOCK
 62
     0
100
AcDbTrace
 10
11.455332
 20
217.423117
 30
0.0
 11
12.321998
 21
217.423117
 31
0.0
 12
11.888665
 22
220.023117
 32
0.0
 13
11.888665
 23
220.023117
 33
0.0
  0
SOLID
  5
5EF
100
AcDbEntity
  8
0
  6
BYBLOCK
 62
     0
100
AcDbTrace
 10
11.455332
 20
215.624571
 30
0.0
 11
12.321998
 21
215.624571
 31
0.0
 12
11.888665
 22
213.024571
 32
0.0
 13
11.888665
 23
213.024571
 33
0.0
  0
MTEXT
  5
5F0
100
AcDbEntity
  8
0
  6
BYBLOCK
 62
     0
100
AcDbMText
 10
9.858665
 20
204.642209
 30
0.0
 40
3.0
 41
0.0
 71
     5
 72
     1
  1
\A1;7±0.20
 11
0.0
 21
1.0
 31
0.0
  0
POINT
  5
5F1
100
AcDbEntity
  8
DEFPOINTS
  6
BYBLOCK
 62
     0
100
AcDbPoint
 10
22.459314
 20
220.023117
 30
0.0
  0
POINT
  5
5F2
100
AcDbEntity
  8
DEFPOINTS
  6
BYBLOCK
 62
     0
100
AcDbPoint
 10
22.459314
 20
213.024571
 30
0.0
  0
POINT
  5
5F3
100
AcDbEntity
  8
DEFPOINTS
  6
BYBLOCK
 62
     0
100
AcDbPoint
 10
11.888665
 20
213.024571
 30
0.0
  0
ENDBLK
  5
5F5
100
AcDbEntity
  8
0
100
AcDbBlockEnd
  0
BLOCK
  5
602
100
AcDbEntity
  8
0
100
AcDbBlockBegin
  2
*D20
 70
    65
 10
0.0
 20
0.0
 30
0.0
  3
*D20
  1

  0
LINE
  5
5F7
100
AcDbEntity
  8
0
  6
BYBLOCK
 62
     0
100
AcDbLine
 10
31.985414
 20
218.023117
 30
0.0
 11
52.46197
 21
218.023117
 31
0.0
  0
LINE
  5
5F8
100
AcDbEntity
  8
0
  6
BYBLOCK
 62
     0
100
AcDbLine
 10
31.985414
 20
208.023117
 30
0.0
 11
52.46197
 21
208.023117
 31
0.0
  0
LINE
  5
5F9
100
AcDbEntity
  8
0
  6
BYBLOCK
 62
     0
100
AcDbLine
 10
51.40977
 20
220.623117
 30
0.0
 11
51.40977
 21
223.223117
 31
0.0
  0
LINE
  5
5FA
100
AcDbEntity
  8
0
  6
BYBLOCK
 62
     0
100
AcDbLine
 10
51.40977
 20
205.423117
 30
0.0
 11
51.40977
 21
202.823117
 31
0.0
  0
LINE
  5
5FB
100
AcDbEntity
  8
0
  6
BYBLOCK
 62
     0
100
AcDbLine
 10
51.40977
 20
218.023117
 30
0.0
 11
51.40977
 21
208.023117
 31
0.0
  0
SOLID
  5
5FC
100
AcDbEntity
  8
0
  6
BYBLOCK
 62
     0
100
AcDbTrace
 10
50.976436
 20
220.623117
 30
0.0
 11
51.843103
 21
220.623117
 31
0.0
 12
51.40977
 22
218.023117
 32
0.0
 13
51.40977
 23
218.023117
 33
0.0
  0
SOLID
  5
5FD
100
AcDbEntity
  8
0
  6
BYBLOCK
 62
     0
100
AcDbTrace
 10
50.976436
 20
205.423117
 30
0.0
 11
51.843103
 21
205.423117
 31
0.0
 12
51.40977
 22
208.023117
 32
0.0
 13
51.40977
 23
208.023117
 33
0.0
  0
MTEXT
  5
5FE
100
AcDbEntity
  8
0
  6
BYBLOCK
 62
     0
100
AcDbMText
 10
49.37977
 20
213.023117
 30
0.0
 40
3.0
 41
0.0
 71
     5
 72
     1
  1
\A1;{M10}
 11
0.0
 21
1.0
 31
0.0
  0
POINT
  5
5FF
100
AcDbEntity
  8
DEFPOINTS
  6
BYBLOCK
 62
     0
100
AcDbPoint
 10
31.459314
 20
218.023117
 30
0.0
  0
POINT
  5
600
100
AcDbEntity
  8
DEFPOINTS
  6
BYBLOCK
 62
     0
100
AcDbPoint
 10
31.459314
 20
208.023117
 30
0.0
  0
POINT
  5
601
100
AcDbEntity
  8
DEFPOINTS
  6
BYBLOCK
 62
     0
100
AcDbPoint
 10
51.40977
 20
208.023117
 30
0.0
  0
ENDBLK
  5
603
100
AcDbEntity
  8
0
100
AcDbBlockEnd
  0
BLOCK
  5
607
100
AcDbEntity
  8
0
100
AcDbBlockBegin
  2
*X21
 70
    65
 10
0.0
 20
0.0
 30
0.0
  3
*X21
  1

  0
LINE
  5
605
100
AcDbEntity
  8
0
  6
CONTINUOUS
 62
     0
100
AcDbLine
 10
28.687739
 20
217.273117
 30
0.0
 11
31.398858
 21
219.984237
 31
0.0
  0
LINE
  5
606
100
AcDbEntity
  8
0
  6
CONTINUOUS
 62
     0
100
AcDbLine
 10
24.197611
 20
217.273117
 30
0.0
 11
26.947611
 21
220.023117
 31
0.0
  0
ENDBLK
  5
608
100
AcDbEntity
  8
0
100
AcDbBlockEnd
  0
BLOCK
  5
66A
100
AcDbEntity
  8
OGGETTO
  6
CONTINUOUS
100
AcDbBlockBegin
  2
A$C4375
 70
     0
 10
0.0
 20
0.0
 30
0.0
  3
A$C4375
  1

  0
DIMENSION
  5
60A
100
AcDbEntity
  8
QUOTE
  6
CONTINUOUS
100
AcDbDimension
  2
*D20
 10
43.094101
 20
63.538809
 30
0.0
 11
41.064101
 21
68.538809
 31
0.0
 12
-8.315668
 22
-144.484308
 32
0.0
  1
{M10}
  3
ISO-25
100
AcDbAlignedDimension
 13
23.143646
 23
73.538809
 33
0.0
 14
23.143646
 24
63.538809
 34
0.0
 50
90.0
100
AcDbRotatedDimension
1001
ACAD
1000
DSTYLE
1002
{
1070
   140
1040
2.6
1070
    47
1040
0.1
1070
    71
1070
     1
1070
    48
1040
0.1
1070
    73
1070
     0
1070
   272
1070
     2
1070
   147
1040
0.53
1070
    42
1040
0.5261
1070
    44
1040
1.0522
1070
    43
1040
3.1566
1070
   271
1070
     2
1070
   141
1040
2.1044
1070
    41
1040
2.6
1002
}
  0
INSERT
  5
60B
100
AcDbEntity
  8
SEZIONE
  6
CONTINUOUS
100
AcDbBlockReference
  2
*X16
 10
-8.315668
 20
-144.484308
 30
0.0
1001
ACAD
1000
HATCH
1002
{
1070
    19
1000
ANSI31
1040
1.0
1040
0.0
1000
ASC_BOUNDS
1070
     1
1070
     2
1070
    13
1005
61E
1005
620
1005
62A
1005
60F
1005
62D
1005
625
1005
610
1005
624
1005
623
1005
622
1005
614
1005
615
1005
613
1000
ASC_SEEDPOINT
1011
-8.315668
1021
-144.484308
1031
0.0
1002
}
  0
DIMENSION
  5
60C
100
AcDbEntity
  8
QUOTE
  6
CONTINUOUS
100
AcDbDimension
  2
*D15
 10
54.952276
 20
55.538809
 30
0.0
 11
52.922276
 21
65.538809
 31
0.0
 12
-8.315668
 22
-144.484308
 32
0.0
  3
ISO-25
100
AcDbAlignedDimension
 13
23.060742
 23
75.538809
 33
0.0
 14
31.143646
 24
55.538809
 34
0.0
 50
90.0
100
AcDbRotatedDimension
1001
ACAD
1000
DSTYLE
1002
{
1070
   140
1040
2.6
1070
    47
1040
0.2
1070
    48
1040
0.2
1070
    73
1070
     0
1070
   272
1070
     2
1070
   147
1040
0.53
1070
    42
1040
0.5261
1070
    44
1040
1.0522
1070
    43
1040
3.1566
1070
   271
1070
     2
1070
   141
1040
2.1044
1070
    41
1040
2.6
1002
}
1000
ASC_BOUNDS
1002
{
1070
    19
1005
616
1002
}
  0
DIMENSION
  5
60D
100
AcDbEntity
  8
QUOTE
  6
CONTINUOUS
100
AcDbDimension
  2
*D14
 10
23.143646
 20
85.041497
 30
0.0
 11
31.53125
 21
87.071497
 31
0.0
 12
-8.315668
 22
-144.484308
 32
0.0
  3
ISO-25
100
AcDbAlignedDimension
 13
14.143646
 23
75.538809
 33
0.0
 14
23.143646
 24
75.395215
 34
0.0
100
AcDbRotatedDimension
1001
ACAD
1000
DSTYLE
1002
{
1070
   140
1040
2.6
1070
    47
1040
0.2
1070
    71
1070
     1
1070
    48
1040
0.2
1070
    73
1070
     0
1070
   272
1070
     2
1070
   147
1040
0.53
1070
    42
1040
0.5261
1070
    44
1040
1.0522
1070
    43
1040
3.1566
1070
   271
1070
     2
1070
   141
1040
2.1044
1070
    41
1040
2.6
1002
}
1000
ASC_BOUNDS
1002
{
1070
    19
1005
616
1002
}
  0
LINE
  5
60E
100
AcDbEntity
  8
CENTRO
  6
LINEA-LINEETTEX2
100
AcDbLine
 10
33.128782
 20
68.540262
 30
0.0
 11
5.562112
 21
68.540262
 31
0.0
  0
LINE
  5
60F
100
AcDbEntity
  8
OGGETTO
  6
CONTINUOUS
100
AcDbLine
 10
23.143646
 20
55.538809
 30
0.0
 11
31.143646
 21
55.538809
 31
0.0
1001
ACAD
1000
ASC_BOUNDS
1002
{
1070
    19
1005
60B
1002
}
  0
LINE
  5
610
100
AcDbEntity
  8
OGGETTO
  6
CONTINUOUS
100
AcDbLine
 10
31.143646
 20
39.538809
 30
0.0
 11
18.915035
 21
15.538809
 31
0.0
1001
ACAD
1000
ASC_BOUNDS
1002
{
1070
    19
1005
60B
1002
}
  0
LINE
  5
611
100
AcDbEntity
  8
OGGETTO
  6
CONTINUOUS
100
AcDbLine
 10
31.143646
 20
61.538809
 30
0.0
 11
23.060742
 21
75.538809
 31
0.0
  0
DIMENSION
  5
612
100
AcDbEntity
  8
QUOTE
  6
CONTINUOUS
100
AcDbDimension
  2
*D19
 10
3.572997
 20
68.540262
 30
0.0
 11
1.542997
 21
60.1579
 31
0.0
 12
-8.315668
 22
-144.484308
 32
0.0
  3
ISO-25
100
AcDbAlignedDimension
 13
14.143646
 23
75.538809
 33
0.0
 14
14.143646
 24
68.540262
 34
0.0
 50
90.0
100
AcDbRotatedDimension
1001
ACAD
1000
DSTYLE
1002
{
1070
   140
1040
2.6
1070
    47
1040
0.2
1070
    71
1070
     1
1070
    48
1040
0.2
1070
    73
1070
     0
1070
   272
1070
     2
1070
   147
1040
0.53
1070
    42
1040
0.5261
1070
    44
1040
1.0522
1070
    43
1040
3.1566
1070
   271
1070
     2
1070
   141
1040
2.1044
1070
    41
1040
2.6
1002
}
  0
LINE
  5
613
100
AcDbEntity
  8
OGGETTO
  6
CONTINUOUS
100
AcDbLine
 10
11.143646
 20
15.538809
 30
0.0
 11
18.915035
 21
15.538809
 31
0.0
1001
ACAD
1000
ASC_BOUNDS
1002
{
1070
    19
1005
60B
1002
}
  0
LINE
  5
614
100
AcDbEntity
  8
OGGETTO
  6
CONTINUOUS
100
AcDbLine
 10
11.143646
 20
21.538809
 30
0.0
 11
16.143646
 21
21.538809
 31
0.0
1001
ACAD
1000
ASC_BOUNDS
1002
{
1070
    19
1005
60B
1002
}
  0
LINE
  5
615
100
AcDbEntity
  8
OGGETTO
  6
CONTINUOUS
100
AcDbLine
 10
11.143646
 20
15.538809
 30
0.0
 11
11.143646
 21
21.538809
 31
0.0
1001
ACAD
1000
ASC_BOUNDS
1002
{
1070
    19
1005
60B
1002
}
  0
INSERT
  5
616
100
AcDbEntity
  8
SEZIONE
  6
CONTINUOUS
100
AcDbBlockReference
  2
*X21
 10
-8.315668
 20
-144.484308
 30
0.0
1001
ACAD
1000
HATCH
1002
{
1070
    19
1000
ANSI31
1040
1.0
1040
0.0
1000
ASC_BOUNDS
1070
     1
1070
     2
1070
     7
1005
619
1005
62C
1005
61A
1005
628
1005
60C
1005
60D
1005
62B
1000
ASC_SEEDPOINT
1011
21.72763
1021
74.144369
1031
0.0
1002
}
  0
LINE
  5
617
100
AcDbEntity
  8
SEZIONE
  6
CONTINUOUS
100
AcDbLine
 10
15.143646
 20
63.538809
 30
0.0
 11
23.143646
 21
63.538809
 31
0.0
  0
LINE
  5
618
100
AcDbEntity
  8
SEZIONE
  6
CONTINUOUS
100
AcDbLine
 10
14.143646
 20
73.538809
 30
0.0
 11
23.143646
 21
73.538809
 31
0.0
  0
LINE
  5
619
100
AcDbEntity
  8
OGGETTO
  6
CONTINUOUS
100
AcDbLine
 10
23.060742
 20
75.538809
 30
0.0
 11
14.143646
 21
75.538809
 31
0.0
1001
ACAD
1000
ASC_BOUNDS
1002
{
1070
    19
1005
616
1002
}
  0
LINE
  5
61A
100
AcDbEntity
  8
OGGETTO
  6
CONTINUOUS
100
AcDbLine
 10
14.143646
 20
72.788809
 30
0.0
 11
23.143646
 21
72.788809
 31
0.0
1001
ACAD
1000
ASC_BOUNDS
1002
{
1070
    19
1005
616
1002
}
  0
LINE
  5
61B
100
AcDbEntity
  8
SEZIONE
  6
LINEA-LINEETTEX2
100
AcDbLine
 10
15.143646
 20
63.538809
 30
0.0
 11
23.143646
 21
63.538809
 31
0.0
  0
LINE
  5
61C
100
AcDbEntity
  8
SEZIONE
  6
LINEA-LINEETTEX2
100
AcDbLine
 10
14.143646
 20
73.538809
 30
0.0
 11
23.143646
 21
73.538809
 31
0.0
  0
LINE
  5
61D
100
AcDbEntity
  8
OGGETTO
  6
CONTINUOUS
100
AcDbLine
 10
14.143646
 20
72.788809
 30
0.0
 11
23.143646
 21
72.788809
 31
0.0
1001
ACAD
1000
ASC_BOUNDS
1002
{
1070
    19
1002
}
  0
LINE
  5
61E
100
AcDbEntity
  8
OGGETTO
  6
CONTINUOUS
100
AcDbLine
 10
15.143646
 20
64.288809
 30
0.0
 11
23.143646
 21
64.288809
 31
0.0
1001
ACAD
1000
ASC_BOUNDS
1002
{
1070
    19
1005
60B
1002
}
  0
LINE
  5
61F
100
AcDbEntity
  8
OGGETTO
  6
CONTINUOUS
100
AcDbLine
 10
14.143646
 20
75.538809
 30
0.0
 11
23.060742
 21
75.538809
 31
0.0
1001
ACAD
1000
ASC_BOUNDS
1002
{
1070
    19
1002
}
  0
LINE
  5
620
100
AcDbEntity
  8
OGGETTO
  6
CONTINUOUS
100
AcDbLine
 10
15.143646
 20
64.288809
 30
0.0
 11
15.143646
 21
34.538809
 31
0.0
1001
ACAD
1000
ASC_BOUNDS
1002
{
1070
    19
1005
60B
1002
}
  0
LINE
  5
621
100
AcDbEntity
  8
OGGETTO
  6
CONTINUOUS
100
AcDbLine
 10
15.143646
 20
34.538809
 30
0.0
 11
15.143646
 21
66.538809
 31
0.0
1001
ACAD
1000
ASC_BOUNDS
1002
{
1070
    19
1002
}
  0
LINE
  5
622
100
AcDbEntity
  8
OGGETTO
  6
CONTINUOUS
100
AcDbLine
 10
16.143646
 20
21.538809
 30
0.0
 11
16.143646
 21
25.538809
 31
0.0
1001
ACAD
1000
ASC_BOUNDS
1002
{
1070
    19
1005
60B
1002
}
  0
LINE
  5
623
100
AcDbEntity
  8
OGGETTO
  6
CONTINUOUS
100
AcDbLine
 10
16.143646
 20
25.538809
 30
0.0
 11
14.143646
 21
25.538809
 31
0.0
1001
ACAD
1000
ASC_BOUNDS
1002
{
1070
    19
1005
60B
1002
}
  0
LINE
  5
624
100
AcDbEntity
  8
OGGETTO
  6
CONTINUOUS
100
AcDbLine
 10
14.143646
 20
25.538809
 30
0.0
 11
14.143646
 21
33.538809
 31
0.0
1001
ACAD
1000
ASC_BOUNDS
1002
{
1070
    19
1005
60B
1002
}
  0
LINE
  5
625
100
AcDbEntity
  8
OGGETTO
  6
CONTINUOUS
100
AcDbLine
 10
15.143646
 20
34.538809
 30
0.0
 11
14.143646
 21
33.538809
 31
0.0
1001
ACAD
1000
ASC_BOUNDS
1002
{
1070
    19
1005
60B
1002
}
  0
LINE
  5
626
100
AcDbEntity
  8
OGGETTO
  6
CONTINUOUS
100
AcDbLine
 10
14.143646
 20
75.538809
 30
0.0
 11
14.143646
 21
67.538809
 31
0.0
1001
ACAD
1000
ASC_BOUNDS
1002
{
1070
    19
1002
}
  0
LINE
  5
627
100
AcDbEntity
  8
OGGETTO
  6
CONTINUOUS
100
AcDbLine
 10
15.143646
 20
66.538809
 30
0.0
 11
14.143646
 21
67.538809
 31
0.0
1001
ACAD
1000
ASC_BOUNDS
1002
{
1070
    19
1002
}
  0
LINE
  5
628
100
AcDbEntity
  8
OGGETTO
  6
CONTINUOUS
100
AcDbLine
 10
14.143646
 20
75.538809
 30
0.0
 11
14.143646
 21
72.788809
 31
0.0
1001
ACAD
1000
ASC_BOUNDS
1002
{
1070
    19
1005
616
1002
}
  0
LINE
  5
629
100
AcDbEntity
  8
OGGETTO
  6
CONTINUOUS
100
AcDbLine
 10
23.143646
 20
75.395215
 30
0.0
 11
23.143646
 21
55.538809
 31
0.0
1001
ACAD
1000
ASC_BOUNDS
1002
{
1070
    19
1002
}
  0
LINE
  5
62A
100
AcDbEntity
  8
OGGETTO
  6
CONTINUOUS
100
AcDbLine
 10
23.143646
 20
64.288809
 30
0.0
 11
23.143646
 21
55.538809
 31
0.0
1001
ACAD
1000
ASC_BOUNDS
1002
{
1070
    19
1005
60B
1002
}
  0
LINE
  5
62B
100
AcDbEntity
  8
OGGETTO
  6
CONTINUOUS
100
AcDbLine
 10
23.143646
 20
75.395215
 30
0.0
 11
23.060742
 21
75.538809
 31
0.0
1001
ACAD
1000
ASC_BOUNDS
1002
{
1070
    19
1005
616
1002
}
  0
LINE
  5
62C
100
AcDbEntity
  8
OGGETTO
  6
CONTINUOUS
100
AcDbLine
 10
23.143646
 20
72.788809
 30
0.0
 11
23.143646
 21
75.395215
 31
0.0
1001
ACAD
1000
ASC_BOUNDS
1002
{
1070
    19
1005
616
1002
}
  0
LINE
  5
62D
100
AcDbEntity
  8
OGGETTO
  6
CONTINUOUS
100
AcDbLine
 10
31.143646
 20
55.538809
 30
0.0
 11
31.143646
 21
39.538809
 31
0.0
1001
ACAD
1000
ASC_BOUNDS
1002
{
1070
    19
1005
60B
1002
}
  0
LINE
  5
62E
100
AcDbEntity
  8
OGGETTO
  6
CONTINUOUS
100
AcDbLine
 10
31.143646
 20
50.538809
 30
0.0
 11
31.143646
 21
39.538809
 31
0.0
1001
ACAD
1000
ASC_BOUNDS
1002
{
1070
    19
1002
}
  0
LINE
  5
62F
100
AcDbEntity
  8
OGGETTO
  6
CONTINUOUS
100
AcDbLine
 10
31.143646
 20
50.538809
 30
0.0
 11
31.143646
 21
61.538809
 31
0.0
1001
ACAD
1000
ASC_BOUNDS
1002
{
1070
    19
1002
}
  0
DIMENSION
  5
630
100
AcDbEntity
  8
QUOTE
  6
CONTINUOUS
100
AcDbDimension
  2
*D10
 10
162.604729
 20
15.515692
 30
0.0
 11
160.574729
 21
45.515692
 31
0.0
 12
41.684332
 22
-144.484308
 32
0.0
  3
ISO-25
100
AcDbAlignedDimension
 13
128.601428
 23
75.515692
 33
0.0
 14
124.455721
 24
15.515692
 34
0.0
 50
90.0
100
AcDbRotatedDimension
1001
ACAD
1000
DSTYLE
1002
{
1070
   140
1040
2.6
1070
    47
1040
0.2
1070
    73
1070
     0
1070
   272
1070
     2
1070
   147
1040
0.53
1070
    42
1040
0.5261
1070
    44
1040
1.0522
1070
    43
1040
3.1566
1070
   271
1070
     2
1070
   141
1040
2.1044
1070
    41
1040
2.6
1002
}
  0
DIMENSION
  5
631
100
AcDbEntity
  8
QUOTE
  6
CONTINUOUS
100
AcDbDimension
  2
*D9
 10
136.684332
 20
92.918271
 30
0.0
 11
128.184332
 21
96.874157
 31
0.0
 12
41.684332
 22
-144.484308
 32
0.0
  3
ISO-25
100
AcDbAlignedDimension
 13
119.684332
 23
33.515692
 33
0.0
 14
136.684332
 24
61.515692
 34
0.0
100
AcDbRotatedDimension
1001
ACAD
1000
DSTYLE
1002
{
1070
   140
1040
2.6
1070
    47
1040
0.2
1070
    71
1070
     1
1070
    73
1070
     0
1070
   272
1070
     2
1070
   147
1040
0.53
1070
    42
1040
0.5261
1070
    44
1040
1.0522
1070
    43
1040
3.1566
1070
   271
1070
     2
1070
   141
1040
2.1044
1070
    41
1040
2.6
1002
}
  0
INSERT
  5
632
100
AcDbEntity
  8
SEZIONE
  6
CONTINUOUS
100
AcDbBlockReference
  2
*X18
 10
-8.315668
 20
-144.484308
 30
0.0
1001
ACAD
1000
HATCH
1002
{
1070
    19
1000
ANSI31
1040
1.0
1040
0.0
1000
ASC_BOUNDS
1070
     1
1070
     2
1070
     7
1005
65C
1005
661
1005
638
1005
652
1005
63A
1005
664
1005
665
1000
ASC_SEEDPOINT
1011
-8.315668
1021
-144.484308
1031
0.0
1002
}
  0
INSERT
  5
633
100
AcDbEntity
  8
SEZIONE
  6
CONTINUOUS
100
AcDbBlockReference
  2
*X17
 10
-8.315668
 20
-144.484308
 30
0.0
1001
ACAD
1000
HATCH
1002
{
1070
    19
1000
ANSI31
1040
1.0
1040
0.0
1000
ASC_BOUNDS
1070
     1
1070
     2
1070
     7
1005
662
1005
65D
1005
639
1005
656
1005
640
1005
666
1005
667
1000
ASC_SEEDPOINT
1011
-8.315668
1021
-144.484308
1031
0.0
1002
}
  0
DIMENSION
  5
634
100
AcDbEntity
  8
QUOTE
  6
CONTINUOUS
100
AcDbDimension
  2
*D12
 10
119.684332
 20
61.172324
 30
0.0
 11
113.654332
 21
63.202324
 31
0.0
 12
41.684332
 22
-144.484308
 32
0.0
  3
ISO-25
100
AcDbAlignedDimension
 13
120.684332
 23
61.929231
 33
0.0
 14
119.684332
 24
61.929231
 34
0.0
100
AcDbRotatedDimension
1001
ACAD
1000
DSTYLE
1002
{
1070
   140
1040
2.6
1070
    47
1040
0.2
1070
    48
1040
0.2
1070
    73
1070
     0
1070
   272
1070
     2
1070
   147
1040
0.53
1070
    42
1040
0.5261
1070
    44
1040
1.0522
1070
    43
1040
3.1566
1070
   271
1070
     2
1070
   141
1040
2.1044
1070
    41
1040
2.6
1002
}
  0
DIMENSION
  5
635
100
AcDbEntity
  8
QUOTE
  6
CONTINUOUS
100
AcDbDimension
  2
*D8
 10
136.684332
 20
84.970756
 30
0.0
 11
131.434332
 21
86.996856
 31
0.0
 12
41.684332
 22
-144.484308
 32
0.0
  3
ISO-25
100
AcDbAlignedDimension
 13
126.184332
 23
59.015692
 33
0.0
 14
136.684332
 24
61.515692
 34
0.0
100
AcDbRotatedDimension
1001
ACAD
1000
DSTYLE
1002
{
1070
   140
1040
2.6
1070
    73
1070
     0
1070
   272
1070
     2
1070
   147
1040
0.5261
1070
    42
1040
0.5261
1070
    44
1040
1.0522
1070
    43
1040
3.1566
1070
   271
1070
     2
1070
   141
1040
2.1044
1070
    41
1040
2.6
1002
}
  0
DIMENSION
  5
636
100
AcDbEntity
  8
QUOTE
  6
CONTINUOUS
100
AcDbDimension
  2
*D4
 10
136.684332
 20
1.14293
 30
0.0
 11
126.684332
 21
3.16903
 31
0.0
 12
-8.315668
 22
-144.484308
 32
0.0
  3
ISO-25
100
AcDbAlignedDimension
 13
116.684332
 23
15.515692
 33
0.0
 14
136.684332
 24
39.515692
 34
0.0
100
AcDbRotatedDimension
1001
ACAD
1000
DSTYLE
1002
{
1070
   140
1040
2.6
1070
    73
1070
     0
1070
   272
1070
     2
1070
   147
1040
0.5261
1070
    42
1040
0.5261
1070
    44
1040
1.0522
1070
    43
1040
3.1566
1070
   271
1070
     2
1070
   141
1040
2.1044
1070
    41
1040
2.6
1002
}
  0
DIMENSION
  5
637
100
AcDbEntity
  8
QUOTE
  6
CONTINUOUS
100
AcDbDimension
  2
*D3
 10
121.684332
 20
9.090449
 30
0.0
 11
127.839333
 21
9.090449
 31
0.0
 12
-8.315668
 22
-144.484308
 32
0.0
 70
   128
  3
ISO-25
100
AcDbAlignedDimension
 13
119.684332
 23
25.515692
 33
0.0
 14
121.684332
 24
21.515692
 34
0.0
100
AcDbRotatedDimension
1001
ACAD
1000
DSTYLE
1002
{
1070
   140
1040
2.6
1070
    73
1070
     0
1070
   272
1070
     2
1070
   147
1040
0.5261
1070
    42
1040
0.5261
1070
    44
1040
1.0522
1070
    43
1040
3.1566
1070
   271
1070
     2
1070
   141
1040
2.1044
1070
    41
1040
2.6
1002
}
  0
LINE
  5
638
100
AcDbEntity
  8
OGGETTO
  6
CONTINUOUS
100
AcDbLine
 10
120.684332
 20
45.015692
 30
0.0
 11
126.184332
 21
45.015692
 31
0.0
1001
ACAD
1000
ASC_BOUNDS
1002
{
1070
    19
1005
632
1002
}
  0
LINE
  5
639
100
AcDbEntity
  8
OGGETTO
  6
CONTINUOUS
100
AcDbLine
 10
120.684332
 20
56.015692
 30
0.0
 11
126.184332
 21
56.015692
 31
0.0
1001
ACAD
1000
ASC_BOUNDS
1002
{
1070
    19
1005
633
1002
}
  0
POLYLINE
  5
63A
100
AcDbEntity
  8
OGGETTO
  6
CONTINUOUS
100
AcDb2dPolyline
 66
     1
 10
0.0
 20
0.0
 30
0.0
1001
ACAD
1000
ASC_BOUNDS
1002
{
1070
    19
1005
632
1002
}
  0
VERTEX
  5
63B
100
AcDbEntity
  8
OGGETTO
  6
CONTINUOUS
100
AcDbVertex
100
AcDb2dVertex
 10
120.684332
 20
36.901779
 30
0.0
  0
VERTEX
  5
63C
100
AcDbEntity
  8
OGGETTO
  6
CONTINUOUS
100
AcDbVertex
100
AcDb2dVertex
 10
127.732034
 20
34.252609
 30
0.0
  0
VERTEX
  5
63D
100
AcDbEntity
  8
OGGETTO
  6
CONTINUOUS
100
AcDbVertex
100
AcDb2dVertex
 10
132.285567
 20
35.387967
 30
0.0
  0
VERTEX
  5
63E
100
AcDbEntity
  8
OGGETTO
  6
CONTINUOUS
100
AcDbVertex
100
AcDb2dVertex
 10
134.192889
 20
34.625959
 30
0.0
  0
SEQEND
  5
63F
100
AcDbEntity
  8
OGGETTO
  6
CONTINUOUS
  0
POLYLINE
  5
640
100
AcDbEntity
  8
OGGETTO
  6
CONTINUOUS
100
AcDb2dPolyline
 66
     1
 10
0.0
 20
0.0
 30
0.0
1001
ACAD
1000
ASC_BOUNDS
1002
{
1070
    19
1005
633
1002
}
  0
VERTEX
  5
641
100
AcDbEntity
  8
OGGETTO
  6
CONTINUOUS
100
AcDbVertex
100
AcDb2dVertex
 10
120.684332
 20
64.15039
 30
0.0
  0
VERTEX
  5
642
100
AcDbEntity
  8
OGGETTO
  6
CONTINUOUS
100
AcDbVertex
100
AcDb2dVertex
 10
125.834729
 20
66.042655
 30
0.0
  0
VERTEX
  5
643
100
AcDbEntity
  8
OGGETTO
  6
CONTINUOUS
100
AcDbVertex
100
AcDb2dVertex
 10
132.285567
 20
65.285749
 30
0.0
  0
VERTEX
  5
644
100
AcDbEntity
  8
OGGETTO
  6
CONTINUOUS
100
AcDbVertex
100
AcDb2dVertex
 10
134.1936
 20
65.829766
 30
0.0
  0
SEQEND
  5
645
100
AcDbEntity
  8
OGGETTO
  6
CONTINUOUS
  0
LINE
  5
646
100
AcDbEntity
  8
OGGETTO
  6
CONTINUOUS
100
AcDbLine
 10
119.684332
 20
75.515692
 30
0.0
 11
128.601428
 21
75.515692
 31
0.0
  0
LINE
  5
647
100
AcDbEntity
  8
CENTRO
  6
LINEA-LINEETTEX2
100
AcDbLine
 10
143.669468
 20
50.457145
 30
0.0
 11
106.102798
 21
50.457145
 31
0.0
  0
LINE
  5
648
100
AcDbEntity
  8
OGGETTO
  6
CONTINUOUS
100
AcDbLine
 10
116.684332
 20
15.515692
 30
0.0
 11
124.455721
 21
15.515692
 31
0.0
  0
DIMENSION
  5
649
100
AcDbEntity
  8
QUOTE
  6
CONTINUOUS
100
AcDbDimension
  2
*D13
 10
102.782511
 20
66.515692
 30
0.0
 11
100.752511
 21
71.015692
 31
0.0
 12
41.684332
 22
-144.484308
 32
0.0
  3
ISO-25
100
AcDbAlignedDimension
 13
119.684332
 23
75.515692
 33
0.0
 14
120.684332
 24
66.515692
 34
0.0
 50
90.0
100
AcDbRotatedDimension
1001
ACAD
1000
DSTYLE
1002
{
1070
   140
1040
2.6
1070
    47
1040
0.2
1070
    48
1040
0.2
1070
    73
1070
     0
1070
   272
1070
     2
1070
   147
1040
0.53
1070
    42
1040
0.5261
1070
    44
1040
1.0522
1070
    43
1040
3.1566
1070
   271
1070
     2
1070
   141
1040
2.1044
1070
    41
1040
2.6
1002
}
  0
DIMENSION
  5
64A
100
AcDbEntity
  8
QUOTE
  6
CONTINUOUS
100
AcDbDimension
  2
*D2
 10
102.782462
 20
34.515692
 30
0.0
 11
100.756067
 21
50.515692
 31
0.0
 12
41.684332
 22
-144.484308
 32
0.0
  3
ISO-25
100
AcDbAlignedDimension
 13
120.684332
 23
66.515692
 33
0.0
 14
120.684332
 24
34.515692
 34
0.0
 50
90.0
100
AcDbRotatedDimension
1001
ACAD
1000
DSTYLE
1002
{
1070
   140
1040
2.6
1070
    73
1070
     0
1070
   272
1070
     2
1070
   147
1040
0.5261
1070
    42
1040
0.5261
1070
    44
1040
1.0522
1070
    43
1040
3.1566
1070
   271
1070
     2
1070
   141
1040
2.1044
1070
    41
1040
2.6
1002
}
  0
DIMENSION
  5
64B
100
AcDbEntity
  8
QUOTE
  6
CONTINUOUS
100
AcDbDimension
  2
*D1
 10
102.687599
 20
25.515692
 30
0.0
 11
100.661499
 21
23.515692
 31
0.0
 12
41.684332
 22
-144.484308
 32
0.0
  3
ISO-25
100
AcDbAlignedDimension
 13
116.684332
 23
21.515692
 33
0.0
 14
119.684332
 24
25.515692
 34
0.0
 50
90.0
100
AcDbRotatedDimension
1001
ACAD
1000
DSTYLE
1002
{
1070
   140
1040
2.6
1070
    73
1070
     0
1070
   272
1070
     2
1070
   147
1040
0.5261
1070
    42
1040
0.5261
1070
    44
1040
1.0522
1070
    43
1040
3.1566
1070
   271
1070
     2
1070
   141
1040
2.1044
1070
    41
1040
2.6
1002
}
  0
DIMENSION
  5
64C
100
AcDbEntity
  8
QUOTE
  6
CONTINUOUS
100
AcDbDimension
  2
*D0
 10
102.687599
 20
21.515692
 30
0.0
 11
100.661499
 21
18.515692
 31
0.0
 12
41.684332
 22
-144.484308
 32
0.0
  3
ISO-25
100
AcDbAlignedDimension
 13
116.684332
 23
15.515692
 33
0.0
 14
116.684332
 24
21.515692
 34
0.0
 50
90.0
100
AcDbRotatedDimension
1001
ACAD
1000
DSTYLE
1002
{
1070
   140
1040
2.6
1070
    73
1070
     0
1070
   272
1070
     2
1070
   147
1040
0.5261
1070
    42
1040
0.5261
1070
    44
1040
1.0522
1070
    43
1040
3.1566
1070
   271
1070
     2
1070
   141
1040
2.1044
1070
    41
1040
2.6
1002
}
  0
LINE
  5
64D
100
AcDbEntity
  8
OGGETTO
  6
CONTINUOUS
100
AcDbLine
 10
120.684332
 20
34.515692
 30
0.0
 11
120.684332
 21
66.515692
 31
0.0
1001
ACAD
1000
ASC_BOUNDS
1002
{
1070
    19
1002
}
  0
LINE
  5
64E
100
AcDbEntity
  8
OGGETTO
  6
CONTINUOUS
100
AcDbLine
 10
116.684332
 20
21.515692
 30
0.0
 11
121.684332
 21
21.515692
 31
0.0
  0
LINE
  5
64F
100
AcDbEntity
  8
OGGETTO
  6
CONTINUOUS
100
AcDbLine
 10
116.684332
 20
15.515692
 30
0.0
 11
116.684332
 21
21.515692
 31
0.0
  0
LINE
  5
650
100
AcDbEntity
  8
OGGETTO
  6
CONTINUOUS
100
AcDbLine
 10
121.684332
 20
21.515692
 30
0.0
 11
121.684332
 21
25.515692
 31
0.0
  0
LINE
  5
651
100
AcDbEntity
  8
OGGETTO
  6
CONTINUOUS
100
AcDbLine
 10
121.684332
 20
25.515692
 30
0.0
 11
119.684332
 21
25.515692
 31
0.0
  0
LINE
  5
652
100
AcDbEntity
  8
OGGETTO
  6
CONTINUOUS
100
AcDbLine
 10
120.684332
 20
45.015692
 30
0.0
 11
120.684332
 21
36.901779
 31
0.0
1001
ACAD
1000
ASC_BOUNDS
1002
{
1070
    19
1005
632
1002
}
  0
LINE
  5
653
100
AcDbEntity
  8
OGGETTO
  6
CONTINUOUS
100
AcDbLine
 10
120.684332
 20
34.515692
 30
0.0
 11
119.684332
 21
33.515692
 31
0.0
  0
LINE
  5
654
100
AcDbEntity
  8
OGGETTO
  6
CONTINUOUS
100
AcDbLine
 10
119.684332
 20
25.515692
 30
0.0
 11
119.684332
 21
33.515692
 31
0.0
  0
LINE
  5
655
100
AcDbEntity
  8
OGGETTO
  6
CONTINUOUS
100
AcDbLine
 10
119.684332
 20
75.515692
 30
0.0
 11
119.684332
 21
67.515692
 31
0.0
  0
LINE
  5
656
100
AcDbEntity
  8
OGGETTO
  6
CONTINUOUS
100
AcDbLine
 10
120.684332
 20
64.15039
 30
0.0
 11
120.684332
 21
56.015692
 31
0.0
1001
ACAD
1000
ASC_BOUNDS
1002
{
1070
    19
1005
633
1002
}
  0
LINE
  5
657
100
AcDbEntity
  8
OGGETTO
  6
CONTINUOUS
100
AcDbLine
 10
120.684332
 20
66.515692
 30
0.0
 11
119.684332
 21
67.515692
 31
0.0
  0
DIMENSION
  5
658
100
AcDbEntity
  8
QUOTE
  6
CONTINUOUS
100
AcDbDimension
  2
*D11
 10
149.399121
 20
15.515692
 30
0.0
 11
147.369121
 21
27.515692
 31
0.0
 12
41.684332
 22
-144.484308
 32
0.0
  3
ISO-25
100
AcDbAlignedDimension
 13
136.684332
 23
39.515692
 33
0.0
 14
124.455721
 24
15.515692
 34
0.0
 50
90.0
100
AcDbRotatedDimension
1001
ACAD
1000
DSTYLE
1002
{
1070
   140
1040
2.6
1070
    47
1040
0.2
1070
    73
1070
     0
1070
   272
1070
     2
1070
   147
1040
0.53
1070
    42
1040
0.5261
1070
    44
1040
1.0522
1070
    43
1040
3.1566
1070
   271
1070
     2
1070
   141
1040
2.1044
1070
    41
1040
2.6
1002
}
  0
DIMENSION
  5
659
100
AcDbEntity
  8
QUOTE
  6
CONTINUOUS
100
AcDbDimension
  2
*D7
 10
136.684332
 20
59.015692
 30
0.0
 11
144.515348
 21
70.201301
 31
0.0
 12
41.684332
 22
-144.484308
 32
0.0
 70
     2
  3
ISO-25
100
AcDb2LineAngularDimension
 13
136.684332
 23
61.515692
 33
0.0
 14
128.601428
 24
75.515692
 34
0.0
 15
136.684332
 25
50.515692
 35
0.0
 16
133.377496
 26
70.601148
 36
0.0
1001
ACAD
1000
DSTYLE
1002
{
1070
   140
1040
2.6
1070
    73
1070
     0
1070
   272
1070
     2
1070
   147
1040
0.5261
1070
    42
1040
0.5261
1070
    44
1040
1.0522
1070
    43
1040
3.1566
1070
   271
1070
     2
1070
   141
1040
2.1044
1070
    41
1040
2.6
1002
}
  0
DIMENSION
  5
65A
100
AcDbEntity
  8
QUOTE
  6
CONTINUOUS
100
AcDbDimension
  2
*D6
 10
149.266457
 20
39.515692
 30
0.0
 11
147.240061
 21
50.515692
 31
0.0
 12
41.684332
 22
-144.484308
 32
0.0
  3
ISO-25
100
AcDbAlignedDimension
 13
136.684332
 23
61.515692
 33
0.0
 14
136.684332
 24
39.515692
 34
0.0
 50
90.0
100
AcDbRotatedDimension
1001
ACAD
1000
DSTYLE
1002
{
1070
   140
1040
2.6
1070
    73
1070
     0
1070
   272
1070
     2
1070
   147
1040
0.5261
1070
    42
1040
0.5261
1070
    44
1040
1.0522
1070
    43
1040
3.1566
1070
   271
1070
     2
1070
   141
1040
2.1044
1070
    41
1040
2.6
1002
}
  0
DIMENSION
  5
65B
100
AcDbEntity
  8
QUOTE
  6
CONTINUOUS
100
AcDbDimension
  2
*D5
 10
136.684332
 20
39.515692
 30
0.0
 11
131.30022
 21
17.089252
 31
0.0
 12
41.684332
 22
-144.484308
 32
0.0
 70
     2
  3
ISO-25
100
AcDb2LineAngularDimension
 13
136.684332
 23
39.515692
 33
0.0
 14
124.455721
 24
15.515692
 34
0.0
 15
136.684332
 25
50.515692
 35
0.0
 16
128.93116
 26
15.653882
 36
0.0
1001
ACAD
1000
DSTYLE
1002
{
1070
   140
1040
2.6
1070
    73
1070
     0
1070
   272
1070
     2
1070
   147
1040
0.5261
1070
    42
1040
0.5261
1070
    44
1040
1.0522
1070
    43
1040
3.1566
1070
   271
1070
     2
1070
   141
1040
2.1044
1070
    41
1040
2.6
1002
}
  0
LINE
  5
65C
100
AcDbEntity
  8
OGGETTO
  6
CONTINUOUS
100
AcDbLine
 10
126.184332
 20
42.015692
 30
0.0
 11
136.684332
 21
42.015692
 31
0.0
1001
ACAD
1000
ASC_BOUNDS
1002
{
1070
    19
1005
632
1002
}
  0
LINE
  5
65D
100
AcDbEntity
  8
OGGETTO
  6
CONTINUOUS
100
AcDbLine
 10
126.184332
 20
59.015692
 30
0.0
 11
136.684332
 21
59.015692
 31
0.0
1001
ACAD
1000
ASC_BOUNDS
1002
{
1070
    19
1005
633
1002
}
  0
LINE
  5
65E
100
AcDbEntity
  8
OGGETTO
  6
CONTINUOUS
100
AcDbLine
 10
136.684332
 20
39.515692
 30
0.0
 11
124.455721
 21
15.515692
 31
0.0
  0
LINE
  5
65F
100
AcDbEntity
  8
OGGETTO
  6
CONTINUOUS
100
AcDbLine
 10
136.684332
 20
61.515692
 30
0.0
 11
128.601428
 21
75.515692
 31
0.0
1001
ACAD
1000
ASC_BOUNDS
1002
{
1070
    19
1002
}
  0
LINE
  5
660
100
AcDbEntity
  8
OGGETTO
  6
CONTINUOUS
100
AcDbLine
 10
126.184332
 20
59.015692
 30
0.0
 11
126.184332
 21
42.015692
 31
0.0
1001
ACAD
1000
ASC_BOUNDS
1002
{
1070
    19
1002
}
  0
LINE
  5
661
100
AcDbEntity
  8
OGGETTO
  6
CONTINUOUS
100
AcDbLine
 10
126.184332
 20
45.015692
 30
0.0
 11
126.184332
 21
42.015692
 31
0.0
1001
ACAD
1000
ASC_BOUNDS
1002
{
1070
    19
1005
632
1002
}
  0
LINE
  5
662
100
AcDbEntity
  8
OGGETTO
  6
CONTINUOUS
100
AcDbLine
 10
126.184332
 20
59.015692
 30
0.0
 11
126.184332
 21
56.015692
 31
0.0
1001
ACAD
1000
ASC_BOUNDS
1002
{
1070
    19
1005
633
1002
}
  0
LINE
  5
663
100
AcDbEntity
  8
OGGETTO
  6
CONTINUOUS
100
AcDbLine
 10
136.684332
 20
50.515692
 30
0.0
 11
136.684332
 21
39.515692
 31
0.0
  0
LINE
  5
664
100
AcDbEntity
  8
OGGETTO
  6
CONTINUOUS
100
AcDbLine
 10
134.192889
 20
34.625959
 30
0.0
 11
136.684332
 21
39.515692
 31
0.0
1001
ACAD
1000
ASC_BOUNDS
1002
{
1070
    19
1005
632
1002
}
  0
LINE
  5
665
100
AcDbEntity
  8
OGGETTO
  6
CONTINUOUS
100
AcDbLine
 10
136.684332
 20
39.515692
 30
0.0
 11
136.684332
 21
42.015692
 31
0.0
1001
ACAD
1000
ASC_BOUNDS
1002
{
1070
    19
1005
632
1002
}
  0
LINE
  5
666
100
AcDbEntity
  8
OGGETTO
  6
CONTINUOUS
100
AcDbLine
 10
134.1936
 20
65.829766
 30
0.0
 11
136.684332
 21
61.515692
 31
0.0
1001
ACAD
1000
ASC_BOUNDS
1002
{
1070
    19
1005
633
1002
}
  0
LINE
  5
667
100
AcDbEntity
  8
OGGETTO
  6
CONTINUOUS
100
AcDbLine
 10
136.684332
 20
61.515692
 30
0.0
 11
136.684332
 21
59.015692
 31
0.0
1001
ACAD
1000
ASC_BOUNDS
1002
{
1070
    19
1005
633
1002
}
  0
LINE
  5
668
100
AcDbEntity
  8
OGGETTO
  6
CONTINUOUS
100
AcDbLine
 10
136.684332
 20
61.515692
 30
0.0
 11
136.684332
 21
59.015692
 31
0.0
1001
ACAD
1000
ASC_BOUNDS
1002
{
1070
    19
1002
}
  0
LINE
  5
669
100
AcDbEntity
  8
OGGETTO
  6
CONTINUOUS
100
AcDbLine
 10
136.684332
 20
50.515692
 30
0.0
 11
136.684332
 21
59.015692
 31
0.0
  0
ENDBLK
  5
66B
100
AcDbEntity
  8
OGGETTO
  6
CONTINUOUS
100
AcDbBlockEnd
  0
BLOCK
  5
8A2
100
AcDbEntity
  8
0
100
AcDbBlockBegin
  2
*D23
 70
    65
 10
0.0
 20
0.0
 30
0.0
  3
*D23
  1

  0
LINE
  5
899
100
AcDbEntity
  8
0
  6
BYBLOCK
 62
     0
100
AcDbLine
 10
10.07996
 20
90.407445
 30
0.0
 11
10.07996
 21
101.653708
 31
0.0
  0
LINE
  5
89A
100
AcDbEntity
  8
0
  6
BYBLOCK
 62
     0
100
AcDbLine
 10
35.07996
 20
80.407445
 30
0.0
 11
35.07996
 21
101.653708
 31
0.0
  0
LINE
  5
89B
100
AcDbEntity
  8
0
  6
BYBLOCK
 62
     0
100
AcDbLine
 10
12.67996
 20
100.601508
 30
0.0
 11
32.47996
 21
100.601508
 31
0.0
  0
SOLID
  5
89C
100
AcDbEntity
  8
0
  6
BYBLOCK
 62
     0
100
AcDbTrace
 10
12.67996
 20
101.034841
 30
0.0
 11
12.67996
 21
100.168174
 31
0.0
 12
10.07996
 22
100.601508
 32
0.0
 13
10.07996
 23
100.601508
 33
0.0
  0
SOLID
  5
89D
100
AcDbEntity
  8
0
  6
BYBLOCK
 62
     0
100
AcDbTrace
 10
32.47996
 20
101.034841
 30
0.0
 11
32.47996
 21
100.168174
 31
0.0
 12
35.07996
 22
100.601508
 32
0.0
 13
35.07996
 23
100.601508
 33
0.0
  0
MTEXT
  5
89E
100
AcDbEntity
  8
0
  6
BYBLOCK
 62
     0
100
AcDbMText
 10
22.57996
 20
102.631508
 30
0.0
 40
3.0
 41
0.0
 71
     5
 72
     1
  1
\A1;25
  0
POINT
  5
89F
100
AcDbEntity
  8
DEFPOINTS
  6
BYBLOCK
 62
     0
100
AcDbPoint
 10
10.07996
 20
89.881345
 30
0.0
  0
POINT
  5
8A0
100
AcDbEntity
  8
DEFPOINTS
  6
BYBLOCK
 62
     0
100
AcDbPoint
 10
35.07996
 20
79.881345
 30
0.0
  0
POINT
  5
8A1
100
AcDbEntity
  8
DEFPOINTS
  6
BYBLOCK
 62
     0
100
AcDbPoint
 10
35.07996
 20
100.601508
 30
0.0
  0
ENDBLK
  5
8A3
100
AcDbEntity
  8
0
100
AcDbBlockEnd
  0
BLOCK
  5
8AE
100
AcDbEntity
  8
0
100
AcDbBlockBegin
  2
*D24
 70
    65
 10
0.0
 20
0.0
 30
0.0
  3
*D24
  1

  0
LINE
  5
8A5
100
AcDbEntity
  8
0
  6
BYBLOCK
 62
     0
100
AcDbLine
 10
160.07996
 20
90.407445
 30
0.0
 11
160.07996
 21
101.653708
 31
0.0
  0
LINE
  5
8A6
100
AcDbEntity
  8
0
  6
BYBLOCK
 62
     0
100
AcDbLine
 10
135.07996
 20
80.407445
 30
0.0
 11
135.07996
 21
101.653708
 31
0.0
  0
LINE
  5
8A7
100
AcDbEntity
  8
0
  6
BYBLOCK
 62
     0
100
AcDbLine
 10
157.47996
 20
100.601508
 30
0.0
 11
137.67996
 21
100.601508
 31
0.0
  0
SOLID
  5
8A8
100
AcDbEntity
  8
0
  6
BYBLOCK
 62
     0
100
AcDbTrace
 10
157.47996
 20
101.034841
 30
0.0
 11
157.47996
 21
100.168174
 31
0.0
 12
160.07996
 22
100.601508
 32
0.0
 13
160.07996
 23
100.601508
 33
0.0
  0
SOLID
  5
8A9
100
AcDbEntity
  8
0
  6
BYBLOCK
 62
     0
100
AcDbTrace
 10
137.67996
 20
101.034841
 30
0.0
 11
137.67996
 21
100.168174
 31
0.0
 12
135.07996
 22
100.601508
 32
0.0
 13
135.07996
 23
100.601508
 33
0.0
  0
MTEXT
  5
8AA
100
AcDbEntity
  8
0
  6
BYBLOCK
 62
     0
100
AcDbMText
 10
147.57996
 20
102.631508
 30
0.0
 40
3.0
 41
0.0
 71
     5
 72
     1
  1
\A1;25
  0
POINT
  5
8AB
100
AcDbEntity
  8
DEFPOINTS
  6
BYBLOCK
 62
     0
100
AcDbPoint
 10
160.07996
 20
89.881345
 30
0.0
  0
POINT
  5
8AC
100
AcDbEntity
  8
DEFPOINTS
  6
BYBLOCK
 62
     0
100
AcDbPoint
 10
135.07996
 20
79.881345
 30
0.0
  0
POINT
  5
8AD
100
AcDbEntity
  8
DEFPOINTS
  6
BYBLOCK
 62
     0
100
AcDbPoint
 10
135.07996
 20
100.601508
 30
0.0
  0
ENDBLK
  5
8AF
100
AcDbEntity
  8
0
100
AcDbBlockEnd
  0
BLOCK
  5
8BA
100
AcDbEntity
  8
0
100
AcDbBlockBegin
  2
*D25
 70
    65
 10
0.0
 20
0.0
 30
0.0
  3
*D25
  1

  0
LINE
  5
8B1
100
AcDbEntity
  8
0
  6
BYBLOCK
 62
     0
100
AcDbLine
 10
35.07996
 20
80.407445
 30
0.0
 11
35.07996
 21
101.653708
 31
0.0
  0
LINE
  5
8B2
100
AcDbEntity
  8
0
  6
BYBLOCK
 62
     0
100
AcDbLine
 10
135.07996
 20
80.407445
 30
0.0
 11
135.07996
 21
101.653708
 31
0.0
  0
LINE
  5
8B3
100
AcDbEntity
  8
0
  6
BYBLOCK
 62
     0
100
AcDbLine
 10
37.67996
 20
100.601508
 30
0.0
 11
132.47996
 21
100.601508
 31
0.0
  0
SOLID
  5
8B4
100
AcDbEntity
  8
0
  6
BYBLOCK
 62
     0
100
AcDbTrace
 10
37.67996
 20
101.034841
 30
0.0
 11
37.67996
 21
100.168174
 31
0.0
 12
35.07996
 22
100.601508
 32
0.0
 13
35.07996
 23
100.601508
 33
0.0
  0
SOLID
  5
8B5
100
AcDbEntity
  8
0
  6
BYBLOCK
 62
     0
100
AcDbTrace
 10
132.47996
 20
101.034841
 30
0.0
 11
132.47996
 21
100.168174
 31
0.0
 12
135.07996
 22
100.601508
 32
0.0
 13
135.07996
 23
100.601508
 33
0.0
  0
MTEXT
  5
8B6
100
AcDbEntity
  8
0
  6
BYBLOCK
 62
     0
100
AcDbMText
 10
85.07996
 20
102.631508
 30
0.0
 40
3.0
 41
0.0
 71
     5
 72
     1
  1
\A1;100±0.20
  0
POINT
  5
8B7
100
AcDbEntity
  8
DEFPOINTS
  6
BYBLOCK
 62
     0
100
AcDbPoint
 10
35.07996
 20
79.881345
 30
0.0
  0
POINT
  5
8B8
100
AcDbEntity
  8
DEFPOINTS
  6
BYBLOCK
 62
     0
100
AcDbPoint
 10
135.07996
 20
79.881345
 30
0.0
  0
POINT
  5
8B9
100
AcDbEntity
  8
DEFPOINTS
  6
BYBLOCK
 62
     0
100
AcDbPoint
 10
135.07996
 20
100.601508
 30
0.0
  0
ENDBLK
  5
8BB
100
AcDbEntity
  8
0
100
AcDbBlockEnd
  0
BLOCK
  5
8C6
100
AcDbEntity
  8
0
100
AcDbBlockBegin
  2
*D26
 70
    65
 10
0.0
 20
0.0
 30
0.0
  3
*D26
  1

  0
LINE
  5
8BD
100
AcDbEntity
  8
0
  6
BYBLOCK
 62
     0
100
AcDbLine
 10
160.60606
 20
89.881345
 30
0.0
 11
176.728317
 21
89.881345
 31
0.0
  0
LINE
  5
8BE
100
AcDbEntity
  8
0
  6
BYBLOCK
 62
     0
100
AcDbLine
 10
160.60606
 20
64.881345
 30
0.0
 11
176.728317
 21
64.881345
 31
0.0
  0
LINE
  5
8BF
100
AcDbEntity
  8
0
  6
BYBLOCK
 62
     0
100
AcDbLine
 10
175.676117
 20
87.281345
 30
0.0
 11
175.676117
 21
67.481345
 31
0.0
  0
SOLID
  5
8C0
100
AcDbEntity
  8
0
  6
BYBLOCK
 62
     0
100
AcDbTrace
 10
175.242783
 20
87.281345
 30
0.0
 11
176.10945
 21
87.281345
 31
0.0
 12
175.676117
 22
89.881345
 32
0.0
 13
175.676117
 23
89.881345
 33
0.0
  0
SOLID
  5
8C1
100
AcDbEntity
  8
0
  6
BYBLOCK
 62
     0
100
AcDbTrace
 10
175.242783
 20
67.481345
 30
0.0
 11
176.10945
 21
67.481345
 31
0.0
 12
175.676117
 22
64.881345
 32
0.0
 13
175.676117
 23
64.881345
 33
0.0
  0
MTEXT
  5
8C2
100
AcDbEntity
  8
0
  6
BYBLOCK
 62
     0
100
AcDbMText
 10
173.646117
 20
77.381345
 30
0.0
 40
3.0
 41
0.0
 71
     5
 72
     1
  1
\A1;25±0.20
 11
0.0
 21
1.0
 31
0.0
  0
POINT
  5
8C3
100
AcDbEntity
  8
DEFPOINTS
  6
BYBLOCK
 62
     0
100
AcDbPoint
 10
160.07996
 20
89.881345
 30
0.0
  0
POINT
  5
8C4
100
AcDbEntity
  8
DEFPOINTS
  6
BYBLOCK
 62
     0
100
AcDbPoint
 10
160.07996
 20
64.881345
 30
0.0
  0
POINT
  5
8C5
100
AcDbEntity
  8
DEFPOINTS
  6
BYBLOCK
 62
     0
100
AcDbPoint
 10
175.676117
 20
64.881345
 30
0.0
  0
ENDBLK
  5
8C7
100
AcDbEntity
  8
0
100
AcDbBlockEnd
  0
BLOCK
  5
8D2
100
AcDbEntity
  8
0
100
AcDbBlockBegin
  2
*D27
 70
    65
 10
0.0
 20
0.0
 30
0.0
  3
*D27
  1

  0
LINE
  5
8C9
100
AcDbEntity
  8
0
  6
BYBLOCK
 62
     0
100
AcDbLine
 10
29.57996
 20
64.355245
 30
0.0
 11
29.57996
 21
21.706035
 31
0.0
  0
LINE
  5
8CA
100
AcDbEntity
  8
0
  6
BYBLOCK
 62
     0
100
AcDbLine
 10
40.57996
 20
64.355245
 30
0.0
 11
40.57996
 21
21.706035
 31
0.0
  0
LINE
  5
8CB
100
AcDbEntity
  8
0
  6
BYBLOCK
 62
     0
100
AcDbLine
 10
32.17996
 20
22.758235
 30
0.0
 11
37.97996
 21
22.758235
 31
0.0
  0
SOLID
  5
8CC
100
AcDbEntity
  8
0
  6
BYBLOCK
 62
     0
100
AcDbTrace
 10
32.17996
 20
23.191568
 30
0.0
 11
32.17996
 21
22.324902
 31
0.0
 12
29.57996
 22
22.758235
 32
0.0
 13
29.57996
 23
22.758235
 33
0.0
  0
SOLID
  5
8CD
100
AcDbEntity
  8
0
  6
BYBLOCK
 62
     0
100
AcDbTrace
 10
37.97996
 20
23.191568
 30
0.0
 11
37.97996
 21
22.324902
 31
0.0
 12
40.57996
 22
22.758235
 32
0.0
 13
40.57996
 23
22.758235
 33
0.0
  0
MTEXT
  5
8CE
100
AcDbEntity
  8
0
  6
BYBLOCK
 62
     0
100
AcDbMText
 10
35.07996
 20
24.788235
 30
0.0
 40
3.0
 41
0.0
 71
     5
 72
     1
  1
\A1;11
  0
POINT
  5
8CF
100
AcDbEntity
  8
DEFPOINTS
  6
BYBLOCK
 62
     0
100
AcDbPoint
 10
29.57996
 20
64.881345
 30
0.0
  0
POINT
  5
8D0
100
AcDbEntity
  8
DEFPOINTS
  6
BYBLOCK
 62
     0
100
AcDbPoint
 10
40.57996
 20
64.881345
 30
0.0
  0
POINT
  5
8D1
100
AcDbEntity
  8
DEFPOINTS
  6
BYBLOCK
 62
     0
100
AcDbPoint
 10
40.57996
 20
22.758235
 30
0.0
  0
ENDBLK
  5
8D3
100
AcDbEntity
  8
0
100
AcDbBlockEnd
  0
BLOCK
  5
8DE
100
AcDbEntity
  8
0
100
AcDbBlockBegin
  2
*D28
 70
    65
 10
0.0
 20
0.0
 30
0.0
  3
*D28
  1

  0
LINE
  5
8D5
100
AcDbEntity
  8
0
  6
BYBLOCK
 62
     0
100
AcDbLine
 10
26.57996
 20
64.355245
 30
0.0
 11
26.57996
 21
12.623161
 31
0.0
  0
LINE
  5
8D6
100
AcDbEntity
  8
0
  6
BYBLOCK
 62
     0
100
AcDbLine
 10
43.57996
 20
64.355245
 30
0.0
 11
43.57996
 21
12.623161
 31
0.0
  0
LINE
  5
8D7
100
AcDbEntity
  8
0
  6
BYBLOCK
 62
     0
100
AcDbLine
 10
29.17996
 20
13.675361
 30
0.0
 11
40.97996
 21
13.675361
 31
0.0
  0
SOLID
  5
8D8
100
AcDbEntity
  8
0
  6
BYBLOCK
 62
     0
100
AcDbTrace
 10
29.17996
 20
14.108695
 30
0.0
 11
29.17996
 21
13.242028
 31
0.0
 12
26.57996
 22
13.675361
 32
0.0
 13
26.57996
 23
13.675361
 33
0.0
  0
SOLID
  5
8D9
100
AcDbEntity
  8
0
  6
BYBLOCK
 62
     0
100
AcDbTrace
 10
40.97996
 20
14.108695
 30
0.0
 11
40.97996
 21
13.242028
 31
0.0
 12
43.57996
 22
13.675361
 32
0.0
 13
43.57996
 23
13.675361
 33
0.0
  0
MTEXT
  5
8DA
100
AcDbEntity
  8
0
  6
BYBLOCK
 62
     0
100
AcDbMText
 10
35.07996
 20
15.705361
 30
0.0
 40
3.0
 41
0.0
 71
     5
 72
     1
  1
\A1;17
  0
POINT
  5
8DB
100
AcDbEntity
  8
DEFPOINTS
  6
BYBLOCK
 62
     0
100
AcDbPoint
 10
26.57996
 20
64.881345
 30
0.0
  0
POINT
  5
8DC
100
AcDbEntity
  8
DEFPOINTS
  6
BYBLOCK
 62
     0
100
AcDbPoint
 10
43.57996
 20
64.881345
 30
0.0
  0
POINT
  5
8DD
100
AcDbEntity
  8
DEFPOINTS
  6
BYBLOCK
 62
     0
100
AcDbPoint
 10
43.57996
 20
13.675361
 30
0.0
  0
ENDBLK
  5
8DF
100
AcDbEntity
  8
0
100
AcDbBlockEnd
  0
BLOCK
  5
8EA
100
AcDbEntity
  8
0
100
AcDbBlockBegin
  2
*D29
 70
    65
 10
0.0
 20
0.0
 30
0.0
  3
*D29
  1

  0
LINE
  5
8E1
100
AcDbEntity
  8
0
  6
BYBLOCK
 62
     0
100
AcDbLine
 10
8.827381
 20
104.589307
 30
0.0
 11
8.827381
 21
125.719452
 31
0.0
  0
LINE
  5
8E2
100
AcDbEntity
  8
0
  6
BYBLOCK
 62
     0
100
AcDbLine
 10
158.827381
 20
104.589307
 30
0.0
 11
158.827381
 21
125.719452
 31
0.0
  0
LINE
  5
8E3
100
AcDbEntity
  8
0
  6
BYBLOCK
 62
     0
100
AcDbLine
 10
11.427381
 20
124.667252
 30
0.0
 11
156.227381
 21
124.667252
 31
0.0
  0
SOLID
  5
8E4
100
AcDbEntity
  8
0
  6
BYBLOCK
 62
     0
100
AcDbTrace
 10
11.427381
 20
125.100585
 30
0.0
 11
11.427381
 21
124.233918
 31
0.0
 12
8.827381
 22
124.667252
 32
0.0
 13
8.827381
 23
124.667252
 33
0.0
  0
SOLID
  5
8E5
100
AcDbEntity
  8
0
  6
BYBLOCK
 62
     0
100
AcDbTrace
 10
156.227381
 20
125.100585
 30
0.0
 11
156.227381
 21
124.233918
 31
0.0
 12
158.827381
 22
124.667252
 32
0.0
 13
158.827381
 23
124.667252
 33
0.0
  0
MTEXT
  5
8E6
100
AcDbEntity
  8
0
  6
BYBLOCK
 62
     0
100
AcDbMText
 10
83.827381
 20
126.697252
 30
0.0
 40
3.0
 41
0.0
 71
     5
 72
     1
  1
\A1;150±0.20
  0
POINT
  5
8E7
100
AcDbEntity
  8
DEFPOINTS
  6
BYBLOCK
 62
     0
100
AcDbPoint
 10
8.827381
 20
104.063207
 30
0.0
  0
POINT
  5
8E8
100
AcDbEntity
  8
DEFPOINTS
  6
BYBLOCK
 62
     0
100
AcDbPoint
 10
158.827381
 20
104.063207
 30
0.0
  0
POINT
  5
8E9
100
AcDbEntity
  8
DEFPOINTS
  6
BYBLOCK
 62
     0
100
AcDbPoint
 10
158.827381
 20
124.667252
 30
0.0
  0
ENDBLK
  5
8EB
100
AcDbEntity
  8
0
100
AcDbBlockEnd
  0
BLOCK
  5
8F3
100
AcDbEntity
  8
0
100
AcDbBlockBegin
  2
*D30
 70
    65
 10
0.0
 20
0.0
 30
0.0
  3
*D30
  1

  0
LINE
  5
8ED
100
AcDbEntity
  8
0
  6
BYBLOCK
 62
     0
100
AcDbLine
 10
83.827381
 20
96.604089
 30
0.0
 11
76.482007
 21
89.966658
 31
0.0
  0
LINE
  5
8EE
100
AcDbEntity
  8
0
  6
BYBLOCK
 62
     0
100
AcDbLine
 10
74.552919
 20
88.223494
 30
0.0
 11
65.451181
 21
79.998976
 31
0.0
  0
SOLID
  5
8EF
100
AcDbEntity
  8
0
  6
BYBLOCK
 62
     0
100
AcDbTrace
 10
76.19148
 20
90.288173
 30
0.0
 11
76.772535
 21
89.645143
 31
0.0
 12
74.552919
 22
88.223494
 32
0.0
 13
74.552919
 23
88.223494
 33
0.0
  0
MTEXT
  5
8F0
100
AcDbEntity
  8
0
  6
BYBLOCK
 62
     0
100
AcDbMText
 10
67.534435
 20
84.617455
 30
0.0
 40
3.0
 41
0.0
 71
     5
 72
     1
  1
\A1;R12.5
 11
0.741957
 21
0.670448
 31
0.0
  0
POINT
  5
8F1
100
AcDbEntity
  8
DEFPOINTS
  6
BYBLOCK
 62
     0
100
AcDbPoint
 10
74.552919
 20
88.223494
 30
0.0
  0
POINT
  5
8F2
100
AcDbEntity
  8
DEFPOINTS
  6
BYBLOCK
 62
     0
100
AcDbPoint
 10
83.827381
 20
96.604089
 30
0.0
  0
ENDBLK
  5
8F4
100
AcDbEntity
  8
0
100
AcDbBlockEnd
  0
BLOCK
  5
8FF
100
AcDbEntity
  8
0
100
AcDbBlockBegin
  2
*D31
 70
    65
 10
0.0
 20
0.0
 30
0.0
  3
*D31
  1

  0
LINE
  5
8F6
100
AcDbEntity
  8
0
  6
BYBLOCK
 62
     0
100
AcDbLine
 10
98.827381
 20
84.537107
 30
0.0
 11
98.827381
 21
53.328893
 31
0.0
  0
LINE
  5
8F7
100
AcDbEntity
  8
0
  6
BYBLOCK
 62
     0
100
AcDbLine
 10
158.827381
 20
84.537107
 30
0.0
 11
158.827381
 21
53.328893
 31
0.0
  0
LINE
  5
8F8
100
AcDbEntity
  8
0
  6
BYBLOCK
 62
     0
100
AcDbLine
 10
101.427381
 20
54.381093
 30
0.0
 11
156.227381
 21
54.381093
 31
0.0
  0
SOLID
  5
8F9
100
AcDbEntity
  8
0
  6
BYBLOCK
 62
     0
100
AcDbTrace
 10
101.427381
 20
54.814426
 30
0.0
 11
101.427381
 21
53.94776
 31
0.0
 12
98.827381
 22
54.381093
 32
0.0
 13
98.827381
 23
54.381093
 33
0.0
  0
SOLID
  5
8FA
100
AcDbEntity
  8
0
  6
BYBLOCK
 62
     0
100
AcDbTrace
 10
156.227381
 20
54.814426
 30
0.0
 11
156.227381
 21
53.94776
 31
0.0
 12
158.827381
 22
54.381093
 32
0.0
 13
158.827381
 23
54.381093
 33
0.0
  0
MTEXT
  5
8FB
100
AcDbEntity
  8
0
  6
BYBLOCK
 62
     0
100
AcDbMText
 10
128.827381
 20
56.411093
 30
0.0
 40
3.0
 41
0.0
 71
     5
 72
     1
  1
\A1;60±0.10
  0
POINT
  5
8FC
100
AcDbEntity
  8
DEFPOINTS
  6
BYBLOCK
 62
     0
100
AcDbPoint
 10
98.827381
 20
85.063207
 30
0.0
  0
POINT
  5
8FD
100
AcDbEntity
  8
DEFPOINTS
  6
BYBLOCK
 62
     0
100
AcDbPoint
 10
158.827381
 20
85.063207
 30
0.0
  0
POINT
  5
8FE
100
AcDbEntity
  8
DEFPOINTS
  6
BYBLOCK
 62
     0
100
AcDbPoint
 10
158.827381
 20
54.381093
 30
0.0
  0
ENDBLK
  5
900
100
AcDbEntity
  8
0
100
AcDbBlockEnd
  0
BLOCK
  5
90C
100
AcDbEntity
  8
0
100
AcDbBlockBegin
  2
*D32
 70
    65
 10
0.0
 20
0.0
 30
0.0
  3
*D32
  1

  0
LINE
  5
902
100
AcDbEntity
  8
0
  6
BYBLOCK
 62
     0
100
AcDbLine
 10
99.353481
 20
85.063207
 30
0.0
 11
116.097309
 21
85.063207
 31
0.0
  0
LINE
  5
903
100
AcDbEntity
  8
0
  6
BYBLOCK
 62
     0
100
AcDbLine
 10
99.353481
 20
104.063207
 30
0.0
 11
116.097309
 21
104.063207
 31
0.0
  0
LINE
  5
904
100
AcDbEntity
  8
0
  6
BYBLOCK
 62
     0
100
AcDbLine
 10
115.045109
 20
101.463207
 30
0.0
 11
115.045109
 21
87.663207
 31
0.0
  0
LINE
  5
905
100
AcDbEntity
  8
0
  6
BYBLOCK
 62
     0
100
AcDbLine
 10
115.045109
 20
85.063207
 30
0.0
 11
115.045109
 21
70.28301
 31
0.0
  0
SOLID
  5
906
100
AcDbEntity
  8
0
  6
BYBLOCK
 62
     0
100
AcDbTrace
 10
114.611776
 20
101.463207
 30
0.0
 11
115.478442
 21
101.463207
 31
0.0
 12
115.045109
 22
104.063207
 32
0.0
 13
115.045109
 23
104.063207
 33
0.0
  0
SOLID
  5
907
100
AcDbEntity
  8
0
  6
BYBLOCK
 62
     0
100
AcDbTrace
 10
114.611776
 20
87.663207
 30
0.0
 11
115.478442
 21
87.663207
 31
0.0
 12
115.045109
 22
85.063207
 32
0.0
 13
115.045109
 23
85.063207
 33
0.0
  0
MTEXT
  5
908
100
AcDbEntity
  8
0
  6
BYBLOCK
 62
     0
100
AcDbMText
 10
113.015109
 20
76.520614
 30
0.0
 40
3.0
 41
0.0
 71
     5
 72
     1
  1
\A1;19±0.10
 11
0.0
 21
1.0
 31
0.0
  0
POINT
  5
909
100
AcDbEntity
  8
DEFPOINTS
  6
BYBLOCK
 62
     0
100
AcDbPoint
 10
98.827381
 20
85.063207
 30
0.0
  0
POINT
  5
90A
100
AcDbEntity
  8
DEFPOINTS
  6
BYBLOCK
 62
     0
100
AcDbPoint
 10
98.827381
 20
104.063207
 30
0.0
  0
POINT
  5
90B
100
AcDbEntity
  8
DEFPOINTS
  6
BYBLOCK
 62
     0
100
AcDbPoint
 10
115.045109
 20
104.063207
 30
0.0
  0
ENDBLK
  5
90D
100
AcDbEntity
  8
0
100
AcDbBlockEnd
  0
BLOCK
  5
946
100
AcDbEntity
  8
OGGETTO
  6
CONTINUOUS
100
AcDbBlockBegin
  2
A$C60F0
 70
     0
 10
0.0
 20
0.0
 30
0.0
  3
A$C60F0
  1

  0
DIMENSION
  5
90F
100
AcDbEntity
  8
QUOTE
  6
CONTINUOUS
100
AcDbDimension
  2
*D32
 10
106.360516
 20
77.841232
 30
0.0
 11
106.360516
 21
50.298638
 31
0.0
 12
-8.684593
 22
-26.221976
 32
0.0
 70
   128
  3
ISO-25
100
AcDbAlignedDimension
 13
90.142788
 23
58.841232
 33
0.0
 14
90.142788
 24
77.841232
 34
0.0
 50
90.0
100
AcDbRotatedDimension
1001
ACAD
1000
DSTYLE
1002
{
1070
   140
1040
2.6
1070
    47
1040
0.1
1070
    71
1070
     1
1070
    48
1040
0.1
1070
    73
1070
     0
1070
   272
1070
     2
1070
   147
1040
0.53
1070
    42
1040
0.5261
1070
    44
1040
1.0522
1070
    43
1040
3.1566
1070
   271
1070
     2
1070
   141
1040
2.1044
1070
    41
1040
2.6
1002
}
  0
DIMENSION
  5
910
100
AcDbEntity
  8
QUOTE
  6
CONTINUOUS
100
AcDbDimension
  2
*D31
 10
150.142788
 20
28.159118
 30
0.0
 11
120.142788
 21
30.189118
 31
0.0
 12
-8.684593
 22
-26.221976
 32
0.0
  3
ISO-25
100
AcDbAlignedDimension
 13
90.142788
 23
58.841232
 33
0.0
 14
150.142788
 24
58.841232
 34
0.0
100
AcDbRotatedDimension
1001
ACAD
1000
DSTYLE
1002
{
1070
   140
1040
2.6
1070
    47
1040
0.1
1070
    71
1070
     1
1070
    48
1040
0.1
1070
    73
1070
     0
1070
   272
1070
     2
1070
   147
1040
0.53
1070
    42
1040
0.5261
1070
    44
1040
1.0522
1070
    43
1040
3.1566
1070
   271
1070
     2
1070
   141
1040
2.1044
1070
    41
1040
2.6
1002
}
  0
LINE
  5
911
100
AcDbEntity
  8
QUOTE
  6
CONTINUOUS
100
AcDbLine
 10
88.038388
 20
58.841232
 30
0.0
 11
92.247188
 21
58.841232
 31
0.0
  0
ARC
  5
912
100
AcDbEntity
  8
SEZIONE
  6
CONTINUOUS
100
AcDbCircle
 10
90.142788
 20
58.841232
 30
0.0
 40
2.5
100
AcDbArc
 50
0.0
 51
307.917423
  0
CIRCLE
  5
913
100
AcDbEntity
  8
OGGETTO
  6
CONTINUOUS
100
AcDbCircle
 10
90.142788
 20
58.841232
 30
0.0
 40
2.0
  0
DIMENSION
  5
914
100
AcDbEntity
  8
QUOTE
  6
CONTINUOUS
100
AcDbDimension
  2
*D29
 10
150.142788
 20
98.445276
 30
0.0
 11
75.142788
 21
100.475276
 31
0.0
 12
-8.684593
 22
-26.221976
 32
0.0
  3
ISO-25
100
AcDbAlignedDimension
 13
0.142788
 23
77.841232
 33
0.0
 14
150.142788
 24
77.841232
 34
0.0
100
AcDbRotatedDimension
1001
ACAD
1000
DSTYLE
1002
{
1070
   140
1040
2.6
1070
    47
1040
0.2
1070
    71
1070
     1
1070
    48
1040
0.2
1070
    73
1070
     0
1070
   272
1070
     2
1070
   147
1040
0.53
1070
    42
1040
0.5261
1070
    44
1040
1.0522
1070
    43
1040
3.1566
1070
   271
1070
     2
1070
   141
1040
2.1044
1070
    41
1040
2.6
1002
}
  0
DIMENSION
  5
915
100
AcDbEntity
  8
QUOTE
  6
CONTINUOUS
100
AcDbDimension
  2
*D25
 10
125.142788
 20
88.561395
 30
0.0
 11
75.142788
 21
90.591395
 31
0.0
 12
-9.937172
 22
-12.040113
 32
0.0
  3
ISO-25
100
AcDbAlignedDimension
 13
25.142788
 23
67.841232
 33
0.0
 14
125.142788
 24
67.841232
 34
0.0
100
AcDbRotatedDimension
1001
ACAD
1000
DSTYLE
1002
{
1070
   140
1040
2.6
1070
    47
1040
0.2
1070
    71
1070
     1
1070
    48
1040
0.2
1070
    73
1070
     0
1070
   272
1070
     2
1070
   147
1040
0.53
1070
    42
1040
0.5261
1070
    44
1040
1.0522
1070
    43
1040
3.1566
1070
   271
1070
     2
1070
   141
1040
2.1044
1070
    41
1040
2.6
1002
}
  0
LINE
  5
916
100
AcDbEntity
  8
CENTRO
  6
LINEA-LINEETTEX2
100
AcDbLine
 10
9.439593
 20
52.77051
 30
0.0
 11
160.142788
 21
52.841232
 31
0.0
  0
LINE
  5
917
100
AcDbEntity
  8
OGGETTO
  6
CONTINUOUS
100
AcDbLine
 10
150.142788
 20
63.841232
 30
0.0
 11
85.794871
 21
63.841232
 31
0.0
  0
LINE
  5
918
100
AcDbEntity
  8
OGGETTO
  6
CONTINUOUS
100
AcDbLine
 10
150.142788
 20
41.841232
 30
0.0
 11
0.142788
 21
41.841232
 31
0.0
  0
LINE
  5
919
100
AcDbEntity
  8
OGGETTO
  6
CONTINUOUS
100
AcDbLine
 10
150.142788
 20
17.841232
 30
0.0
 11
0.142788
 21
17.841232
 31
0.0
  0
LINE
  5
91A
100
AcDbEntity
  8
OGGETTO
  6
CONTINUOUS
100
AcDbLine
 10
0.142788
 20
77.841232
 30
0.0
 11
150.142788
 21
77.841232
 31
0.0
  0
LINE
  5
91B
100
AcDbEntity
  8
OGGETTO
  6
CONTINUOUS
100
AcDbLine
 10
64.490705
 20
63.841232
 30
0.0
 11
0.142788
 21
63.841232
 31
0.0
  0
DIMENSION
  5
91C
100
AcDbEntity
  8
QUOTE
  6
CONTINUOUS
100
AcDbDimension
  2
*D28
 10
33.642788
 20
1.635248
 30
0.0
 11
25.142788
 21
3.665248
 31
0.0
 12
-9.937172
 22
-12.040113
 32
0.0
  3
ISO-25
100
AcDbAlignedDimension
 13
16.642788
 23
52.841232
 33
0.0
 14
33.642788
 24
52.841232
 34
0.0
100
AcDbRotatedDimension
1001
ACAD
1000
DSTYLE
1002
{
1070
   140
1040
2.6
1070
    47
1040
0.2
1070
    48
1040
0.2
1070
    73
1070
     0
1070
   272
1070
     2
1070
   147
1040
0.53
1070
    42
1040
0.5261
1070
    44
1040
1.0522
1070
    43
1040
3.1566
1070
   271
1070
     2
1070
   141
1040
2.1044
1070
    41
1040
2.6
1002
}
  0
DIMENSION
  5
91D
100
AcDbEntity
  8
QUOTE
  6
CONTINUOUS
100
AcDbDimension
  2
*D27
 10
30.642788
 20
10.718122
 30
0.0
 11
25.142788
 21
12.748122
 31
0.0
 12
-9.937172
 22
-12.040113
 32
0.0
  3
ISO-25
100
AcDbAlignedDimension
 13
19.642788
 23
52.841232
 33
0.0
 14
30.642788
 24
52.841232
 34
0.0
100
AcDbRotatedDimension
1001
ACAD
1000
DSTYLE
1002
{
1070
   140
1040
2.6
1070
    47
1040
0.2
1070
    48
1040
0.2
1070
    73
1070
     0
1070
   272
1070
     2
1070
   147
1040
0.53
1070
    42
1040
0.5261
1070
    44
1040
1.0522
1070
    43
1040
3.1566
1070
   271
1070
     2
1070
   141
1040
2.1044
1070
    41
1040
2.6
1002
}
  0
CIRCLE
  5
91E
100
AcDbEntity
  8
OGGETTO
  6
CONTINUOUS
100
AcDbCircle
 10
25.142788
 20
52.841232
 30
0.0
 40
8.5
  0
CIRCLE
  5
91F
100
AcDbEntity
  8
OGGETTO
  6
CONTINUOUS
100
AcDbCircle
 10
25.142788
 20
52.841232
 30
0.0
 40
5.5
  0
DIMENSION
  5
920
100
AcDbEntity
  8
QUOTE
  6
CONTINUOUS
100
AcDbDimension
  2
*D23
 10
25.142788
 20
88.561395
 30
0.0
 11
12.642788
 21
90.591395
 31
0.0
 12
-9.937172
 22
-12.040113
 32
0.0
  3
ISO-25
100
AcDbAlignedDimension
 13
0.142788
 23
77.841232
 33
0.0
 14
25.142788
 24
67.841232
 34
0.0
100
AcDbRotatedDimension
1001
ACAD
1000
DSTYLE
1002
{
1070
   140
1040
2.6
1070
    47
1040
0.2
1070
    73
1070
     0
1070
   272
1070
     2
1070
   147
1040
0.53
1070
    42
1040
0.5261
1070
    44
1040
1.0522
1070
    43
1040
3.1566
1070
   271
1070
     2
1070
   141
1040
2.1044
1070
    41
1040
2.6
1002
}
  0
LINE
  5
921
100
AcDbEntity
  8
OGGETTO
  6
CONTINUOUS
100
AcDbLine
 10
0.142788
 20
17.841232
 30
0.0
 11
0.142788
 21
77.841232
 31
0.0
  0
LINE
  5
922
100
AcDbEntity
  8
CENTRO
  6
LINEA-LINEETTEX2
100
AcDbLine
 10
25.142788
 20
37.841232
 30
0.0
 11
25.142788
 21
67.841232
 31
0.0
  0
MTEXT
  5
923
100
AcDbEntity
  8
QUOTE
  6
CONTINUOUS
100
AcDbMText
 10
65.947857
 20
28.652402
 30
0.0
 40
2.6
 41
0.0
 71
     9
 72
     1
  1
{M5 PASSANTE}
  0
LEADER
  5
924
100
AcDbEntity
  8
QUOTE
  6
CONTINUOUS
100
AcDbLeader
  3
ISO-25
 73
     0
 40
2.6
 41
21.32
 76
     3
 10
88.253657
 20
57.203799
 30
0.0
 10
67.655435
 20
28.084722
 30
0.0
 10
66.137588
 20
28.084722
 30
0.0
 77
   256
1001
ACAD
1000
DSTYLE
1002
{
1070
   140
1040
2.6
1070
    47
1040
0.1
1070
    71
1070
     1
1070
    48
1040
0.1
1070
    73
1070
     0
1070
   272
1070
     2
1070
   147
1040
0.53
1070
    42
1040
0.5261
1070
    44
1040
1.0522
1070
    43
1040
3.1566
1070
   271
1070
     2
1070
   141
1040
2.1044
1070
    41
1040
2.6
1002
}
  0
DIMENSION
  5
925
100
AcDbEntity
  8
QUOTE
  6
CONTINUOUS
100
AcDbDimension
  2
*D30
 10
75.142788
 20
70.382113
 30
0.0
 11
60.21085
 21
56.889307
 31
0.0
 12
-8.684593
 22
-26.221976
 32
0.0
 70
   132
  3
ISO-25
100
AcDbRadialDimension
 15
65.868326
 25
62.001519
 35
0.0
 40
0.0
1001
ACAD
1000
DSTYLE
1002
{
1070
   140
1040
2.6
1070
    47
1040
0.2
1070
    48
1040
0.2
1070
    73
1070
     0
1070
   272
1070
     2
1070
   147
1040
0.53
1070
    42
1040
0.5261
1070
    44
1040
1.0522
1070
    43
1040
3.1566
1070
   271
1070
     2
1070
   141
1040
2.1044
1070
    41
1040
2.6
1002
}
  0
TEXT
  5
926
100
AcDbEntity
  8
QUOTE
  6
CONTINUOUS
100
AcDbText
 10
47.025147
 20
85.818465
 30
0.0
 40
3.0
  1
=
100
AcDbText
  0
TEXT
  5
927
100
AcDbEntity
  8
TESTO
  6
CONTINUOUS
100
AcDbText
 10
66.175377
 20
12.512368
 30
0.0
 40
3.0
  1
B
100
AcDbText
  0
LINE
  5
928
100
AcDbEntity
  8
TESTO
  6
CONTINUOUS
100
AcDbLine
 10
71.781229
 20
8.767117
 30
0.0
 11
71.833472
 21
15.837992
 31
0.0
  0
LINE
  5
929
100
AcDbEntity
  8
TESTO
  6
CONTINUOUS
100
AcDbLine
 10
75.342788
 20
12.276434
 30
0.0
 11
71.833472
 21
15.837992
 31
0.0
  0
LINE
  5
92A
100
AcDbEntity
  8
TESTO
  6
CONTINUOUS
100
AcDbLine
 10
75.342788
 20
14.776434
 30
0.0
 11
75.342788
 21
9.776434
 31
0.0
  0
LINE
  5
92B
100
AcDbEntity
  8
TESTO
  6
CONTINUOUS
100
AcDbLine
 10
75.142788
 20
14.776434
 30
0.0
 11
75.142788
 21
9.776434
 31
0.0
  0
LINE
  5
92C
100
AcDbEntity
  8
CENTRO
  6
LINEA-LINEETTEX2
100
AcDbLine
 10
75.142788
 20
88.841232
 30
0.0
 11
75.142788
 21
10.841232
 31
0.0
  0
LINE
  5
92D
100
AcDbEntity
  8
TESTO
  6
CONTINUOUS
100
AcDbLine
 10
75.342788
 20
12.276434
 30
0.0
 11
60.343197
 21
12.387257
 31
0.0
  0
LINE
  5
92E
100
AcDbEntity
  8
TESTO
  6
CONTINUOUS
100
AcDbLine
 10
75.342788
 20
12.276434
 30
0.0
 11
71.781229
 21
8.767117
 31
0.0
  0
LINE
  5
92F
100
AcDbEntity
  8
QUOTE
  6
CONTINUOUS
100
AcDbLine
 10
73.038388
 20
70.882114
 30
0.0
 11
77.247188
 21
70.882114
 31
0.0
  0
ARC
  5
930
100
AcDbEntity
  8
SEZIONE
  6
CONTINUOUS
100
AcDbCircle
 10
75.142788
 20
70.882114
 30
0.0
 40
5.0
100
AcDbArc
 50
360.0
 51
296.065795
  0
CIRCLE
  5
931
100
AcDbEntity
  8
OGGETTO
  6
CONTINUOUS
100
AcDbCircle
 10
75.142788
 20
70.882114
 30
0.0
 40
4.25
  0
ARC
  5
932
100
AcDbEntity
  8
OGGETTO
  6
CONTINUOUS
100
AcDbCircle
 10
75.142788
 20
70.382113
 30
0.0
 40
12.5
100
AcDbArc
 50
177.774309
 51
2.359194
  0
TEXT
  5
933
100
AcDbEntity
  8
TESTO
  6
CONTINUOUS
100
AcDbText
 10
66.934305
 20
83.543559
 30
0.0
 40
3.0
  1
B
100
AcDbText
  0
LINE
  5
934
100
AcDbEntity
  8
TESTO
  6
CONTINUOUS
100
AcDbLine
 10
75.342788
 20
83.322805
 30
0.0
 11
60.342953
 21
83.252474
 31
0.0
  0
LINE
  5
935
100
AcDbEntity
  8
OGGETTO
  6
CONTINUOUS
100
AcDbLine
 10
62.642788
 20
70.382113
 30
0.0
 11
62.642788
 21
77.841232
 31
0.0
  0
LINE
  5
936
100
AcDbEntity
  8
TESTO
  6
CONTINUOUS
100
AcDbLine
 10
75.342788
 20
83.322805
 30
0.0
 11
71.790716
 21
86.841723
 31
0.0
  0
LINE
  5
937
100
AcDbEntity
  8
TESTO
  6
CONTINUOUS
100
AcDbLine
 10
75.342788
 20
83.322805
 30
0.0
 11
71.82387
 21
79.770733
 31
0.0
  0
LINE
  5
938
100
AcDbEntity
  8
TESTO
  6
CONTINUOUS
100
AcDbLine
 10
71.790716
 20
86.841723
 30
0.0
 11
71.82387
 21
79.770733
 31
0.0
  0
LINE
  5
939
100
AcDbEntity
  8
TESTO
  6
CONTINUOUS
100
AcDbLine
 10
75.342788
 20
80.80974
 30
0.0
 11
75.342788
 21
85.83587
 31
0.0
  0
LINE
  5
93A
100
AcDbEntity
  8
TESTO
  6
CONTINUOUS
100
AcDbLine
 10
75.142788
 20
80.831866
 30
0.0
 11
75.142788
 21
85.831866
 31
0.0
  0
LINE
  5
93B
100
AcDbEntity
  8
QUOTE
  6
CONTINUOUS
100
AcDbLine
 10
75.142788
 20
68.777714
 30
0.0
 11
75.142788
 21
72.986514
 31
0.0
  0
LINE
  5
93C
100
AcDbEntity
  8
QUOTE
  6
CONTINUOUS
100
AcDbLine
 10
90.142788
 20
56.736832
 30
0.0
 11
90.142788
 21
60.945632
 31
0.0
  0
LINE
  5
93D
100
AcDbEntity
  8
CENTRO
  6
LINEA-LINEETTEX2
100
AcDbLine
 10
90.142788
 20
62.841232
 30
0.0
 11
90.142788
 21
52.841232
 31
0.0
  0
LINE
  5
93E
100
AcDbEntity
  8
OGGETTO
  6
CONTINUOUS
100
AcDbLine
 10
87.642788
 20
70.382113
 30
0.0
 11
87.642788
 21
77.841232
 31
0.0
  0
DIMENSION
  5
93F
100
AcDbEntity
  8
QUOTE
  6
CONTINUOUS
100
AcDbDimension
  2
*D26
 10
165.738944
 20
52.841232
 30
0.0
 11
163.708944
 21
65.341232
 31
0.0
 12
-9.937172
 22
-12.040113
 32
0.0
  3
ISO-25
100
AcDbAlignedDimension
 13
150.142788
 23
77.841232
 33
0.0
 14
150.142788
 24
52.841232
 34
0.0
 50
90.0
100
AcDbRotatedDimension
1001
ACAD
1000
DSTYLE
1002
{
1070
   140
1040
2.6
1070
    47
1040
0.2
1070
    71
1070
     1
1070
    48
1040
0.2
1070
    73
1070
     0
1070
   272
1070
     2
1070
   147
1040
0.53
1070
    42
1040
0.5261
1070
    44
1040
1.0522
1070
    43
1040
3.1566
1070
   271
1070
     2
1070
   141
1040
2.1044
1070
    41
1040
2.6
1002
}
  0
CIRCLE
  5
940
100
AcDbEntity
  8
OGGETTO
  6
CONTINUOUS
100
AcDbCircle
 10
125.142788
 20
52.841232
 30
0.0
 40
8.5
  0
CIRCLE
  5
941
100
AcDbEntity
  8
OGGETTO
  6
CONTINUOUS
100
AcDbCircle
 10
125.142788
 20
52.841232
 30
0.0
 40
5.5
  0
TEXT
  5
942
100
AcDbEntity
  8
QUOTE
  6
CONTINUOUS
100
AcDbText
 10
104.32381
 20
85.696919
 30
0.0
 40
3.0
  1
=
100
AcDbText
  0
DIMENSION
  5
943
100
AcDbEntity
  8
QUOTE
  6
CONTINUOUS
100
AcDbDimension
  2
*D24
 10
125.142788
 20
88.561395
 30
0.0
 11
137.642788
 21
90.591395
 31
0.0
 12
-9.937172
 22
-12.040113
 32
0.0
  3
ISO-25
100
AcDbAlignedDimension
 13
150.142788
 23
77.841232
 33
0.0
 14
125.142788
 24
67.841232
 34
0.0
100
AcDbRotatedDimension
1001
ACAD
1000
DSTYLE
1002
{
1070
   140
1040
2.6
1070
    47
1040
0.2
1070
    73
1070
     0
1070
   272
1070
     2
1070
   147
1040
0.53
1070
    42
1040
0.5261
1070
    44
1040
1.0522
1070
    43
1040
3.1566
1070
   271
1070
     2
1070
   141
1040
2.1044
1070
    41
1040
2.6
1002
}
  0
LINE
  5
944
100
AcDbEntity
  8
CENTRO
  6
LINEA-LINEETTEX2
100
AcDbLine
 10
125.142788
 20
37.841232
 30
0.0
 11
125.142788
 21
67.841232
 31
0.0
  0
LINE
  5
945
100
AcDbEntity
  8
OGGETTO
  6
CONTINUOUS
100
AcDbLine
 10
150.142788
 20
77.841232
 30
0.0
 11
150.142788
 21
17.841232
 31
0.0
  0
ENDBLK
  5
947
100
AcDbEntity
  8
OGGETTO
  6
CONTINUOUS
100
AcDbBlockEnd
  0
BLOCK
  5
1263
100
AcDbEntity
  8
0
100
AcDbBlockBegin
  2
*D34
 70
    65
 10
0.0
 20
0.0
 30
0.0
  3
*D34
  1

  0
LINE
  5
1259
100
AcDbEntity
  8
0
  6
BYBLOCK
 62
     0
100
AcDbLine
 10
74.336491
 20
85.407229
 30
0.0
 11
74.336491
 21
72.704346
 31
0.0
  0
LINE
  5
125A
100
AcDbEntity
  8
0
  6
BYBLOCK
 62
     0
100
AcDbLine
 10
81.336491
 20
85.407229
 30
0.0
 11
81.336491
 21
72.704346
 31
0.0
  0
LINE
  5
125B
100
AcDbEntity
  8
0
  6
BYBLOCK
 62
     0
100
AcDbLine
 10
76.836491
 20
73.954346
 30
0.0
 11
78.836491
 21
73.954346
 31
0.0
  0
LINE
  5
125C
100
AcDbEntity
  8
0
  6
BYBLOCK
 62
     0
100
AcDbLine
 10
81.336491
 20
73.954346
 30
0.0
 11
96.240491
 21
73.954346
 31
0.0
  0
SOLID
  5
125D
100
AcDbEntity
  8
0
  6
BYBLOCK
 62
     0
100
AcDbTrace
 10
76.836491
 20
74.371013
 30
0.0
 11
76.836491
 21
73.537679
 31
0.0
 12
74.336491
 22
73.954346
 32
0.0
 13
74.336491
 23
73.954346
 33
0.0
  0
SOLID
  5
125E
100
AcDbEntity
  8
0
  6
BYBLOCK
 62
     0
100
AcDbTrace
 10
78.836491
 20
74.371013
 30
0.0
 11
78.836491
 21
73.537679
 31
0.0
 12
81.336491
 22
73.954346
 32
0.0
 13
81.336491
 23
73.954346
 33
0.0
  0
MTEXT
  5
125F
100
AcDbEntity
  8
0
  6
BYBLOCK
 62
     0
100
AcDbMText
 10
90.038491
 20
76.079346
 30
0.0
 40
3.0
 41
0.0
 71
     5
 72
     1
  1
\A2;14{\H2.400000;±0.01}
  0
POINT
  5
1260
100
AcDbEntity
  8
DEFPOINTS
  6
BYBLOCK
 62
     0
100
AcDbPoint
 10
74.336491
 20
86.032229
 30
0.0
  0
POINT
  5
1261
100
AcDbEntity
  8
DEFPOINTS
  6
BYBLOCK
 62
     0
100
AcDbPoint
 10
81.336491
 20
86.032229
 30
0.0
  0
POINT
  5
1262
100
AcDbEntity
  8
DEFPOINTS
  6
BYBLOCK
 62
     0
100
AcDbPoint
 10
81.336491
 20
73.954346
 30
0.0
  0
ENDBLK
  5
1264
100
AcDbEntity
  8
0
100
AcDbBlockEnd
  0
BLOCK
  5
1270
100
AcDbEntity
  8
0
100
AcDbBlockBegin
  2
*D35
 70
    65
 10
0.0
 20
0.0
 30
0.0
  3
*D35
  1

  0
LINE
  5
1266
100
AcDbEntity
  8
0
  6
BYBLOCK
 62
     0
100
AcDbLine
 10
67.836491
 20
161.657229
 30
0.0
 11
67.836491
 21
166.623325
 31
0.0
  0
LINE
  5
1267
100
AcDbEntity
  8
0
  6
BYBLOCK
 62
     0
100
AcDbLine
 10
77.836491
 20
165.648197
 30
0.0
 11
77.836491
 21
164.123325
 31
0.0
  0
LINE
  5
1268
100
AcDbEntity
  8
0
  6
BYBLOCK
 62
     0
100
AcDbLine
 10
70.336491
 20
165.373325
 30
0.0
 11
75.336491
 21
165.373325
 31
0.0
  0
LINE
  5
1269
100
AcDbEntity
  8
0
  6
BYBLOCK
 62
     0
100
AcDbLine
 10
77.836491
 20
165.373325
 30
0.0
 11
91.195491
 21
165.373325
 31
0.0
  0
SOLID
  5
126A
100
AcDbEntity
  8
0
  6
BYBLOCK
 62
     0
100
AcDbTrace
 10
70.336491
 20
165.789991
 30
0.0
 11
70.336491
 21
164.956658
 31
0.0
 12
67.836491
 22
165.373325
 32
0.0
 13
67.836491
 23
165.373325
 33
0.0
  0
SOLID
  5
126B
100
AcDbEntity
  8
0
  6
BYBLOCK
 62
     0
100
AcDbTrace
 10
75.336491
 20
165.789991
 30
0.0
 11
75.336491
 21
164.956658
 31
0.0
 12
77.836491
 22
165.373325
 32
0.0
 13
77.836491
 23
165.373325
 33
0.0
  0
MTEXT
  5
126C
100
AcDbEntity
  8
0
  6
BYBLOCK
 62
     0
100
AcDbMText
 10
84.828491
 20
167.498325
 30
0.0
 40
3.0
 41
0.0
 71
     5
 72
     1
  1
\A2;20{\H2.400000;±0.01}
  0
POINT
  5
126D
100
AcDbEntity
  8
DEFPOINTS
  6
BYBLOCK
 62
     0
100
AcDbPoint
 10
67.836491
 20
161.032229
 30
0.0
  0
POINT
  5
126E
100
AcDbEntity
  8
DEFPOINTS
  6
BYBLOCK
 62
     0
100
AcDbPoint
 10
77.836491
 20
166.273197
 30
0.0
  0
POINT
  5
126F
100
AcDbEntity
  8
DEFPOINTS
  6
BYBLOCK
 62
     0
100
AcDbPoint
 10
77.836491
 20
165.373325
 30
0.0
  0
ENDBLK
  5
1271
100
AcDbEntity
  8
0
100
AcDbBlockEnd
  0
BLOCK
  5
127C
100
AcDbEntity
  8
0
100
AcDbBlockBegin
  2
*D36
 70
    65
 10
0.0
 20
0.0
 30
0.0
  3
*D36
  1

  0
LINE
  5
1273
100
AcDbEntity
  8
0
  6
BYBLOCK
 62
     0
100
AcDbLine
 10
61.336491
 20
161.657229
 30
0.0
 11
61.336491
 21
186.115446
 31
0.0
  0
LINE
  5
1274
100
AcDbEntity
  8
0
  6
BYBLOCK
 62
     0
100
AcDbLine
 10
87.836491
 20
146.657229
 30
0.0
 11
87.836491
 21
186.115446
 31
0.0
  0
LINE
  5
1275
100
AcDbEntity
  8
0
  6
BYBLOCK
 62
     0
100
AcDbLine
 10
63.836491
 20
184.865446
 30
0.0
 11
85.336491
 21
184.865446
 31
0.0
  0
SOLID
  5
1276
100
AcDbEntity
  8
0
  6
BYBLOCK
 62
     0
100
AcDbTrace
 10
63.836491
 20
185.282113
 30
0.0
 11
63.836491
 21
184.44878
 31
0.0
 12
61.336491
 22
184.865446
 32
0.0
 13
61.336491
 23
184.865446
 33
0.0
  0
SOLID
  5
1277
100
AcDbEntity
  8
0
  6
BYBLOCK
 62
     0
100
AcDbTrace
 10
85.336491
 20
185.282113
 30
0.0
 11
85.336491
 21
184.44878
 31
0.0
 12
87.836491
 22
184.865446
 32
0.0
 13
87.836491
 23
184.865446
 33
0.0
  0
MTEXT
  5
1278
100
AcDbEntity
  8
0
  6
BYBLOCK
 62
     0
100
AcDbMText
 10
74.586491
 20
188.231155
 30
0.0
 40
3.0
 41
0.0
 71
     5
 72
     1
  1
\A2;53{\H2.400000;\S+0.02^  0;}
  0
POINT
  5
1279
100
AcDbEntity
  8
DEFPOINTS
  6
BYBLOCK
 62
     0
100
AcDbPoint
 10
61.336491
 20
161.032229
 30
0.0
  0
POINT
  5
127A
100
AcDbEntity
  8
DEFPOINTS
  6
BYBLOCK
 62
     0
100
AcDbPoint
 10
87.836491
 20
146.032229
 30
0.0
  0
POINT
  5
127B
100
AcDbEntity
  8
DEFPOINTS
  6
BYBLOCK
 62
     0
100
AcDbPoint
 10
87.836491
 20
184.865446
 30
0.0
  0
ENDBLK
  5
127D
100
AcDbEntity
  8
0
100
AcDbBlockEnd
  0
BLOCK
  5
1289
100
AcDbEntity
  8
0
100
AcDbBlockBegin
  2
*D37
 70
    65
 10
0.0
 20
0.0
 30
0.0
  3
*D37
  1

  0
LINE
  5
127F
100
AcDbEntity
  8
0
  6
BYBLOCK
 62
     0
100
AcDbLine
 10
61.336491
 20
161.657229
 30
0.0
 11
61.336491
 21
176.33496
 31
0.0
  0
LINE
  5
1280
100
AcDbEntity
  8
0
  6
BYBLOCK
 62
     0
100
AcDbLine
 10
67.836491
 20
161.657229
 30
0.0
 11
67.836491
 21
176.33496
 31
0.0
  0
LINE
  5
1281
100
AcDbEntity
  8
0
  6
BYBLOCK
 62
     0
100
AcDbLine
 10
65.336491
 20
175.08496
 30
0.0
 11
63.836491
 21
175.08496
 31
0.0
  0
LINE
  5
1282
100
AcDbEntity
  8
0
  6
BYBLOCK
 62
     0
100
AcDbLine
 10
61.336491
 20
175.08496
 30
0.0
 11
47.224826
 21
175.08496
 31
0.0
  0
SOLID
  5
1283
100
AcDbEntity
  8
0
  6
BYBLOCK
 62
     0
100
AcDbTrace
 10
65.336491
 20
175.501626
 30
0.0
 11
65.336491
 21
174.668293
 31
0.0
 12
67.836491
 22
175.08496
 32
0.0
 13
67.836491
 23
175.08496
 33
0.0
  0
SOLID
  5
1284
100
AcDbEntity
  8
0
  6
BYBLOCK
 62
     0
100
AcDbTrace
 10
63.836491
 20
175.501626
 30
0.0
 11
63.836491
 21
174.668293
 31
0.0
 12
61.336491
 22
175.08496
 32
0.0
 13
61.336491
 23
175.08496
 33
0.0
  0
MTEXT
  5
1285
100
AcDbEntity
  8
0
  6
BYBLOCK
 62
     0
100
AcDbMText
 10
53.921826
 20
178.450668
 30
0.0
 40
3.0
 41
0.0
 71
     5
 72
     1
  1
\A2;13{\H2.400000;\S+0.02^  0;}
  0
POINT
  5
1286
100
AcDbEntity
  8
DEFPOINTS
  6
BYBLOCK
 62
     0
100
AcDbPoint
 10
61.336491
 20
161.032229
 30
0.0
  0
POINT
  5
1287
100
AcDbEntity
  8
DEFPOINTS
  6
BYBLOCK
 62
     0
100
AcDbPoint
 10
67.836491
 20
161.032229
 30
0.0
  0
POINT
  5
1288
100
AcDbEntity
  8
DEFPOINTS
  6
BYBLOCK
 62
     0
100
AcDbPoint
 10
67.836491
 20
175.08496
 30
0.0
  0
ENDBLK
  5
128A
100
AcDbEntity
  8
0
100
AcDbBlockEnd
  0
BLOCK
  5
1295
100
AcDbEntity
  8
0
100
AcDbBlockBegin
  2
*D38
 70
    65
 10
0.0
 20
0.0
 30
0.0
  3
*D38
  1

  0
LINE
  5
128C
100
AcDbEntity
  8
0
  6
BYBLOCK
 62
     0
100
AcDbLine
 10
67.836491
 20
161.657229
 30
0.0
 11
67.836491
 21
176.344473
 31
0.0
  0
LINE
  5
128D
100
AcDbEntity
  8
0
  6
BYBLOCK
 62
     0
100
AcDbLine
 10
87.836491
 20
146.657229
 30
0.0
 11
87.836491
 21
176.344473
 31
0.0
  0
LINE
  5
128E
100
AcDbEntity
  8
0
  6
BYBLOCK
 62
     0
100
AcDbLine
 10
70.336491
 20
175.094473
 30
0.0
 11
85.336491
 21
175.094473
 31
0.0
  0
SOLID
  5
128F
100
AcDbEntity
  8
0
  6
BYBLOCK
 62
     0
100
AcDbTrace
 10
70.336491
 20
175.511139
 30
0.0
 11
70.336491
 21
174.677806
 31
0.0
 12
67.836491
 22
175.094473
 32
0.0
 13
67.836491
 23
175.094473
 33
0.0
  0
SOLID
  5
1290
100
AcDbEntity
  8
0
  6
BYBLOCK
 62
     0
100
AcDbTrace
 10
85.336491
 20
175.511139
 30
0.0
 11
85.336491
 21
174.677806
 31
0.0
 12
87.836491
 22
175.094473
 32
0.0
 13
87.836491
 23
175.094473
 33
0.0
  0
MTEXT
  5
1291
100
AcDbEntity
  8
0
  6
BYBLOCK
 62
     0
100
AcDbMText
 10
77.836491
 20
177.219473
 30
0.0
 40
3.0
 41
0.0
 71
     5
 72
     1
  1
\A1;40
  0
POINT
  5
1292
100
AcDbEntity
  8
DEFPOINTS
  6
BYBLOCK
 62
     0
100
AcDbPoint
 10
67.836491
 20
161.032229
 30
0.0
  0
POINT
  5
1293
100
AcDbEntity
  8
DEFPOINTS
  6
BYBLOCK
 62
     0
100
AcDbPoint
 10
87.836491
 20
146.032229
 30
0.0
  0
POINT
  5
1294
100
AcDbEntity
  8
DEFPOINTS
  6
BYBLOCK
 62
     0
100
AcDbPoint
 10
87.836491
 20
175.094473
 30
0.0
  0
ENDBLK
  5
1296
100
AcDbEntity
  8
0
100
AcDbBlockEnd
  0
BLOCK
  5
12A1
100
AcDbEntity
  8
0
100
AcDbBlockBegin
  2
*D39
 70
    65
 10
0.0
 20
0.0
 30
0.0
  3
*D39
  1

  0
LINE
  5
1298
100
AcDbEntity
  8
0
  6
BYBLOCK
 62
     0
100
AcDbLine
 10
60.711491
 20
161.032229
 30
0.0
 11
55.77024
 21
161.032229
 31
0.0
  0
LINE
  5
1299
100
AcDbEntity
  8
0
  6
BYBLOCK
 62
     0
100
AcDbLine
 10
60.711491
 20
121.032229
 30
0.0
 11
55.77024
 21
121.032229
 31
0.0
  0
LINE
  5
129A
100
AcDbEntity
  8
0
  6
BYBLOCK
 62
     0
100
AcDbLine
 10
57.02024
 20
158.532229
 30
0.0
 11
57.02024
 21
123.532229
 31
0.0
  0
SOLID
  5
129B
100
AcDbEntity
  8
0
  6
BYBLOCK
 62
     0
100
AcDbTrace
 10
56.603573
 20
158.532229
 30
0.0
 11
57.436907
 21
158.532229
 31
0.0
 12
57.02024
 22
161.032229
 32
0.0
 13
57.02024
 23
161.032229
 33
0.0
  0
SOLID
  5
129C
100
AcDbEntity
  8
0
  6
BYBLOCK
 62
     0
100
AcDbTrace
 10
56.603573
 20
123.532229
 30
0.0
 11
57.436907
 21
123.532229
 31
0.0
 12
57.02024
 22
121.032229
 32
0.0
 13
57.02024
 23
121.032229
 33
0.0
  0
MTEXT
  5
129D
100
AcDbEntity
  8
0
  6
BYBLOCK
 62
     0
100
AcDbMText
 10
54.89524
 20
141.032229
 30
0.0
 40
3.0
 41
0.0
 71
     5
 72
     1
  1
\A1;80
 11
0.0
 21
1.0
 31
0.0
  0
POINT
  5
129E
100
AcDbEntity
  8
DEFPOINTS
  6
BYBLOCK
 62
     0
100
AcDbPoint
 10
61.336491
 20
161.032229
 30
0.0
  0
POINT
  5
129F
100
AcDbEntity
  8
DEFPOINTS
  6
BYBLOCK
 62
     0
100
AcDbPoint
 10
61.336491
 20
121.032229
 30
0.0
  0
POINT
  5
12A0
100
AcDbEntity
  8
DEFPOINTS
  6
BYBLOCK
 62
     0
100
AcDbPoint
 10
57.02024
 20
121.032229
 30
0.0
  0
ENDBLK
  5
12A2
100
AcDbEntity
  8
0
100
AcDbBlockEnd
  0
BLOCK
  5
12AD
100
AcDbEntity
  8
0
100
AcDbBlockBegin
  2
*D40
 70
    65
 10
0.0
 20
0.0
 30
0.0
  3
*D40
  1

  0
LINE
  5
12A4
100
AcDbEntity
  8
0
  6
BYBLOCK
 62
     0
100
AcDbLine
 10
73.711491
 20
86.032229
 30
0.0
 11
55.77024
 21
86.032229
 31
0.0
  0
LINE
  5
12A5
100
AcDbEntity
  8
0
  6
BYBLOCK
 62
     0
100
AcDbLine
 10
60.711491
 20
121.032229
 30
0.0
 11
55.77024
 21
121.032229
 31
0.0
  0
LINE
  5
12A6
100
AcDbEntity
  8
0
  6
BYBLOCK
 62
     0
100
AcDbLine
 10
57.02024
 20
88.532229
 30
0.0
 11
57.02024
 21
118.532229
 31
0.0
  0
SOLID
  5
12A7
100
AcDbEntity
  8
0
  6
BYBLOCK
 62
     0
100
AcDbTrace
 10
56.603573
 20
88.532229
 30
0.0
 11
57.436907
 21
88.532229
 31
0.0
 12
57.02024
 22
86.032229
 32
0.0
 13
57.02024
 23
86.032229
 33
0.0
  0
SOLID
  5
12A8
100
AcDbEntity
  8
0
  6
BYBLOCK
 62
     0
100
AcDbTrace
 10
56.603573
 20
118.532229
 30
0.0
 11
57.436907
 21
118.532229
 31
0.0
 12
57.02024
 22
121.032229
 32
0.0
 13
57.02024
 23
121.032229
 33
0.0
  0
MTEXT
  5
12A9
100
AcDbEntity
  8
0
  6
BYBLOCK
 62
     0
100
AcDbMText
 10
54.89524
 20
103.532229
 30
0.0
 40
3.0
 41
0.0
 71
     5
 72
     1
  1
\A1;70
 11
0.0
 21
1.0
 31
0.0
  0
POINT
  5
12AA
100
AcDbEntity
  8
DEFPOINTS
  6
BYBLOCK
 62
     0
100
AcDbPoint
 10
74.336491
 20
86.032229
 30
0.0
  0
POINT
  5
12AB
100
AcDbEntity
  8
DEFPOINTS
  6
BYBLOCK
 62
     0
100
AcDbPoint
 10
61.336491
 20
121.032229
 30
0.0
  0
POINT
  5
12AC
100
AcDbEntity
  8
DEFPOINTS
  6
BYBLOCK
 62
     0
100
AcDbPoint
 10
57.02024
 20
121.032229
 30
0.0
  0
ENDBLK
  5
12AE
100
AcDbEntity
  8
0
100
AcDbBlockEnd
  0
BLOCK
  5
12B9
100
AcDbEntity
  8
0
100
AcDbBlockBegin
  2
*D41
 70
    65
 10
0.0
 20
0.0
 30
0.0
  3
*D41
  1

  0
LINE
  5
12B0
100
AcDbEntity
  8
0
  6
BYBLOCK
 62
     0
100
AcDbLine
 10
73.711491
 20
86.032229
 30
0.0
 11
62.511847
 21
86.032229
 31
0.0
  0
LINE
  5
12B1
100
AcDbEntity
  8
0
  6
BYBLOCK
 62
     0
100
AcDbLine
 10
67.211491
 20
111.032229
 30
0.0
 11
62.511847
 21
111.032229
 31
0.0
  0
LINE
  5
12B2
100
AcDbEntity
  8
0
  6
BYBLOCK
 62
     0
100
AcDbLine
 10
63.761847
 20
88.532229
 30
0.0
 11
63.761847
 21
108.532229
 31
0.0
  0
SOLID
  5
12B3
100
AcDbEntity
  8
0
  6
BYBLOCK
 62
     0
100
AcDbTrace
 10
63.34518
 20
88.532229
 30
0.0
 11
64.178514
 21
88.532229
 31
0.0
 12
63.761847
 22
86.032229
 32
0.0
 13
63.761847
 23
86.032229
 33
0.0
  0
SOLID
  5
12B4
100
AcDbEntity
  8
0
  6
BYBLOCK
 62
     0
100
AcDbTrace
 10
63.34518
 20
108.532229
 30
0.0
 11
64.178514
 21
108.532229
 31
0.0
 12
63.761847
 22
111.032229
 32
0.0
 13
63.761847
 23
111.032229
 33
0.0
  0
MTEXT
  5
12B5
100
AcDbEntity
  8
0
  6
BYBLOCK
 62
     0
100
AcDbMText
 10
61.636847
 20
98.532229
 30
0.0
 40
3.0
 41
0.0
 71
     5
 72
     1
  1
\A1;50
 11
0.0
 21
1.0
 31
0.0
  0
POINT
  5
12B6
100
AcDbEntity
  8
DEFPOINTS
  6
BYBLOCK
 62
     0
100
AcDbPoint
 10
74.336491
 20
86.032229
 30
0.0
  0
POINT
  5
12B7
100
AcDbEntity
  8
DEFPOINTS
  6
BYBLOCK
 62
     0
100
AcDbPoint
 10
67.836491
 20
111.032229
 30
0.0
  0
POINT
  5
12B8
100
AcDbEntity
  8
DEFPOINTS
  6
BYBLOCK
 62
     0
100
AcDbPoint
 10
63.761847
 20
111.032229
 30
0.0
  0
ENDBLK
  5
12BA
100
AcDbEntity
  8
0
100
AcDbBlockEnd
  0
BLOCK
  5
12C5
100
AcDbEntity
  8
0
100
AcDbBlockBegin
  2
*D42
 70
    65
 10
0.0
 20
0.0
 30
0.0
  3
*D42
  1

  0
LINE
  5
12BC
100
AcDbEntity
  8
0
  6
BYBLOCK
 62
     0
100
AcDbLine
 10
88.461491
 20
137.056863
 30
0.0
 11
103.77609
 21
137.056863
 31
0.0
  0
LINE
  5
12BD
100
AcDbEntity
  8
0
  6
BYBLOCK
 62
     0
100
AcDbLine
 10
81.961491
 20
86.032229
 30
0.0
 11
103.77609
 21
86.032229
 31
0.0
  0
LINE
  5
12BE
100
AcDbEntity
  8
0
  6
BYBLOCK
 62
     0
100
AcDbLine
 10
102.52609
 20
134.556863
 30
0.0
 11
102.52609
 21
88.532229
 31
0.0
  0
SOLID
  5
12BF
100
AcDbEntity
  8
0
  6
BYBLOCK
 62
     0
100
AcDbTrace
 10
102.109423
 20
134.556863
 30
0.0
 11
102.942757
 21
134.556863
 31
0.0
 12
102.52609
 22
137.056863
 32
0.0
 13
102.52609
 23
137.056863
 33
0.0
  0
SOLID
  5
12C0
100
AcDbEntity
  8
0
  6
BYBLOCK
 62
     0
100
AcDbTrace
 10
102.109423
 20
88.532229
 30
0.0
 11
102.942757
 21
88.532229
 31
0.0
 12
102.52609
 22
86.032229
 32
0.0
 13
102.52609
 23
86.032229
 33
0.0
  0
MTEXT
  5
12C1
100
AcDbEntity
  8
0
  6
BYBLOCK
 62
     0
100
AcDbMText
 10
100.40109
 20
111.544546
 30
0.0
 40
3.0
 41
0.0
 71
     5
 72
     1
  1
\A2;102.05{\H2.400000;±0.01}
 11
0.0
 21
1.0
 31
0.0
  0
POINT
  5
12C2
100
AcDbEntity
  8
DEFPOINTS
  6
BYBLOCK
 62
     0
100
AcDbPoint
 10
87.836491
 20
137.056863
 30
0.0
  0
POINT
  5
12C3
100
AcDbEntity
  8
DEFPOINTS
  6
BYBLOCK
 62
     0
100
AcDbPoint
 10
81.336491
 20
86.032229
 30
0.0
  0
POINT
  5
12C4
100
AcDbEntity
  8
DEFPOINTS
  6
BYBLOCK
 62
     0
100
AcDbPoint
 10
102.52609
 20
86.032229
 30
0.0
  0
ENDBLK
  5
12C6
100
AcDbEntity
  8
0
100
AcDbBlockEnd
  0
BLOCK
  5
12CC
100
AcDbEntity
  8
QUOTE
100
AcDbBlockBegin
  2
RUGOSITA
 70
     2
 10
0.0
 20
0.0
 30
0.0
  3
RUGOSITA
  1

  0
ATTDEF
  5
12C8
100
AcDbEntity
  8
QUOTE
100
AcDbText
 10
-1.071886
 20
3.214106
 30
0.0
 40
1.5
  1
0.8
100
AcDbAttributeDefinition
  3
CHE RUGOSITA ?
  2
RUGOSITA
 70
     0
  0
LINE
  5
12C9
100
AcDbEntity
  8
QUOTE
100
AcDbLine
 10
0.0
 20
0.0
 30
0.0
 11
4.0
 21
6.928203
 31
0.0
  0
LINE
  5
12CA
100
AcDbEntity
  8
QUOTE
100
AcDbLine
 10
0.0
 20
0.0
 30
0.0
 11
-1.75
 21
3.031089
 31
0.0
  0
LINE
  5
12CB
100
AcDbEntity
  8
QUOTE
100
AcDbLine
 10
-1.75
 20
3.031089
 30
0.0
 11
1.75
 21
3.031089
 31
0.0
  0
ENDBLK
  5
12CD
100
AcDbEntity
  8
QUOTE
100
AcDbBlockEnd
  0
BLOCK
  5
12D9
100
AcDbEntity
  8
0
100
AcDbBlockBegin
  2
*D44
 70
    65
 10
0.0
 20
0.0
 30
0.0
  3
*D44
  1

  0
LINE
  5
12CF
100
AcDbEntity
  8
0
  6
BYBLOCK
 62
     0
100
AcDbLine
 10
61.336491
 20
153.157229
 30
0.0
 11
61.336491
 21
157.182142
 31
0.0
  0
LINE
  5
12D0
100
AcDbEntity
  8
0
  6
BYBLOCK
 62
     0
100
AcDbLine
 10
63.086491
 20
153.157229
 30
0.0
 11
63.086491
 21
157.182142
 31
0.0
  0
LINE
  5
12D1
100
AcDbEntity
  8
0
  6
BYBLOCK
 62
     0
100
AcDbLine
 10
58.836491
 20
155.932142
 30
0.0
 11
56.336491
 21
155.932142
 31
0.0
  0
LINE
  5
12D2
100
AcDbEntity
  8
0
  6
BYBLOCK
 62
     0
100
AcDbLine
 10
65.586491
 20
155.932142
 30
0.0
 11
74.093182
 21
155.932142
 31
0.0
  0
SOLID
  5
12D3
100
AcDbEntity
  8
0
  6
BYBLOCK
 62
     0
100
AcDbTrace
 10
58.836491
 20
156.348808
 30
0.0
 11
58.836491
 21
155.515475
 31
0.0
 12
61.336491
 22
155.932142
 32
0.0
 13
61.336491
 23
155.932142
 33
0.0
  0
SOLID
  5
12D4
100
AcDbEntity
  8
0
  6
BYBLOCK
 62
     0
100
AcDbTrace
 10
65.586491
 20
156.348808
 30
0.0
 11
65.586491
 21
155.515475
 31
0.0
 12
63.086491
 22
155.932142
 32
0.0
 13
63.086491
 23
155.932142
 33
0.0
  0
MTEXT
  5
12D5
100
AcDbEntity
  8
0
  6
BYBLOCK
 62
     0
100
AcDbMText
 10
71.089837
 20
158.057142
 30
0.0
 40
3.0
 41
0.0
 71
     5
 72
     1
  1
\A1;3.5
  0
POINT
  5
12D6
100
AcDbEntity
  8
DEFPOINTS
  6
BYBLOCK
 62
     0
100
AcDbPoint
 10
61.336491
 20
152.532229
 30
0.0
  0
POINT
  5
12D7
100
AcDbEntity
  8
DEFPOINTS
  6
BYBLOCK
 62
     0
100
AcDbPoint
 10
63.086491
 20
152.532229
 30
0.0
  0
POINT
  5
12D8
100
AcDbEntity
  8
DEFPOINTS
  6
BYBLOCK
 62
     0
100
AcDbPoint
 10
63.086491
 20
155.932142
 30
0.0
  0
ENDBLK
  5
12DA
100
AcDbEntity
  8
0
100
AcDbBlockEnd
  0
BLOCK
  5
1321
100
AcDbEntity
  8
QUOTE
  6
CONTINUOUS
100
AcDbBlockBegin
  2
A$C3111
 70
     0
 10
0.0
 20
0.0
 30
0.0
  3
A$C3111
  1

  0
DIMENSION
  5
12E1
100
AcDbEntity
  8
QUOTE
100
AcDbDimension
  2
*D38
 10
121.056597
 20
154.062882
 30
0.0
 11
111.056597
 21
156.187882
 31
0.0
 12
33.220105
 22
-21.031591
 32
0.0
  3
STANDARD
100
AcDbAlignedDimension
 13
101.056597
 23
140.000638
 33
0.0
 14
121.056597
 24
125.000638
 34
0.0
100
AcDbRotatedDimension
1001
ACAD
1000
DSTYLE
1002
{
1070
   144
1040
2.0
1070
   275
1070
     1
1002
}
  0
DIMENSION
  5
12E2
100
AcDbEntity
  8
QUOTE
100
AcDbDimension
  2
*D36
 10
121.056597
 20
163.833855
 30
0.0
 11
107.806597
 21
167.199564
 31
0.0
 12
33.220105
 22
-21.031591
 32
0.0
  3
TOLL-01
100
AcDbAlignedDimension
 13
94.556597
 23
140.000638
 33
0.0
 14
121.056597
 24
125.000638
 34
0.0
100
AcDbRotatedDimension
1001
ACAD
1000
DSTYLE
1002
{
1070
   144
1040
2.0
1070
   275
1070
     1
1002
}
  0
DIMENSION
  5
12E3
100
AcDbEntity
  8
QUOTE
100
AcDbDimension
  2
*D35
 10
111.056597
 20
144.341734
 30
0.0
 11
118.048597
 21
144.341734
 31
0.0
 12
33.220105
 22
-21.031591
 32
0.0
 70
   128
  3
TOLL-03
100
AcDbAlignedDimension
 13
101.056597
 23
140.000638
 33
0.0
 14
111.056597
 24
145.241606
 34
0.0
100
AcDbRotatedDimension
1001
ACAD
1000
DSTYLE
1002
{
1070
   144
1040
2.0
1070
   275
1070
     1
1002
}
  0
TEXT
  5
12E4
100
AcDbEntity
  8
QUOTE
100
AcDbText
 10
107.8663
 20
50.04669
 30
0.0
 40
2.0
  1
=   =
 41
1.1
100
AcDbText
  0
DIMENSION
  5
12E5
100
AcDbEntity
  8
QUOTE
100
AcDbDimension
  2
*D34
 10
114.556597
 20
52.922755
 30
0.0
 11
123.258597
 21
55.047755
 31
0.0
 12
33.220105
 22
-21.031591
 32
0.0
  3
TOLL-03
100
AcDbAlignedDimension
 13
107.556597
 23
65.000638
 33
0.0
 14
114.556597
 24
65.000638
 34
0.0
100
AcDbRotatedDimension
1001
ACAD
1000
DSTYLE
1002
{
1070
   144
1040
2.0
1070
   275
1070
     1
1002
}
  0
LINE
  5
12E6
100
AcDbEntity
  8
DISEGNO
100
AcDbLine
 10
101.056597
 20
116.025272
 30
0.0
 11
121.056597
 21
116.025272
 31
0.0
  0
LINE
  5
12E7
100
AcDbEntity
  8
DISEGNO
100
AcDbLine
 10
121.056597
 20
125.000638
 30
0.0
 11
101.056597
 21
125.000638
 31
0.0
  0
LINE
  5
12E8
100
AcDbEntity
  8
DISEGNO
100
AcDbLine
 10
107.556597
 20
65.000638
 30
0.0
 11
114.556597
 21
65.000638
 31
0.0
  0
LINE
  5
12E9
100
AcDbEntity
  8
DISEGNO
100
AcDbLine
 10
96.306597
 20
131.500638
 30
0.0
 11
96.306597
 21
127.300638
 31
0.0
  0
LINE
  5
12EA
100
AcDbEntity
  8
QUOTE
100
AcDbLine
 10
96.306597
 20
131.500638
 30
0.0
 11
96.306597
 21
127.300638
 31
0.0
  0
DIMENSION
  5
12EB
100
AcDbEntity
  8
QUOTE
100
AcDbDimension
  2
*D39
 10
90.240345
 20
100.000638
 30
0.0
 11
88.115345
 21
120.000638
 31
0.0
 12
33.220105
 22
-21.031591
 32
0.0
  3
STANDARD
100
AcDbAlignedDimension
 13
94.556597
 23
140.000638
 33
0.0
 14
94.556597
 24
100.000638
 34
0.0
 50
90.0
100
AcDbRotatedDimension
1001
ACAD
1000
DSTYLE
1002
{
1070
   144
1040
2.0
1070
   275
1070
     1
1002
}
  0
LINE
  5
12EC
100
AcDbEntity
  8
ASSI
100
AcDbLine
 10
111.056597
 20
50.000638
 30
0.0
 11
111.056597
 21
145.241606
 31
0.0
  0
LINE
  5
12ED
100
AcDbEntity
  8
DISEGNO
100
AcDbLine
 10
101.056597
 20
125.000638
 30
0.0
 11
101.056597
 21
140.000638
 31
0.0
  0
DIMENSION
  5
12EE
100
AcDbEntity
  8
QUOTE
100
AcDbDimension
  2
*D41
 10
96.981952
 20
90.000638
 30
0.0
 11
94.856952
 21
77.500638
 31
0.0
 12
33.220105
 22
-21.031591
 32
0.0
  3
STANDARD
100
AcDbAlignedDimension
 13
107.556597
 23
65.000638
 33
0.0
 14
101.056597
 24
90.000638
 34
0.0
 50
90.0
100
AcDbRotatedDimension
1001
ACAD
1000
DSTYLE
1002
{
1070
   144
1040
2.0
1070
   275
1070
     1
1002
}
  0
DIMENSION
  5
12EF
100
AcDbEntity
  8
QUOTE
100
AcDbDimension
  2
*D40
 10
90.240345
 20
100.000638
 30
0.0
 11
88.115345
 21
82.500638
 31
0.0
 12
33.220105
 22
-21.031591
 32
0.0
  3
STANDARD
100
AcDbAlignedDimension
 13
107.556597
 23
65.000638
 33
0.0
 14
94.556597
 24
100.000638
 34
0.0
 50
90.0
100
AcDbRotatedDimension
1001
ACAD
1000
DSTYLE
1002
{
1070
   144
1040
2.0
1070
   275
1070
     1
1002
}
  0
LINE
  5
12F0
100
AcDbEntity
  8
DISEGNO
100
AcDbLine
 10
107.556597
 20
90.000638
 30
0.0
 11
107.556597
 21
65.000638
 31
0.0
  0
INSERT
  5
12F1
100
AcDbEntity
  8
QUOTE
100
AcDbBlockReference
 66
     1
  2
RUGOSITA
 10
107.556597
 20
75.674125
 30
0.0
 50
90.0
  0
ATTRIB
  5
12F2
100
AcDbEntity
  8
QUOTE
100
AcDbText
 10
104.342491
 20
74.602238
 30
0.0
 40
1.5
  1
0.8
 50
90.0
100
AcDbAttribute
  2
RUGOSITA
 70
     0
  0
SEQEND
  5
12F3
100
AcDbEntity
  8
QUOTE
  0
LINE
  5
12F4
100
AcDbEntity
  8
DISEGNO
100
AcDbLine
 10
94.556597
 20
127.300638
 30
0.0
 11
94.556597
 21
100.000638
 31
0.0
  0
LINE
  5
12F5
100
AcDbEntity
  8
DISEGNO
100
AcDbLine
 10
101.056597
 20
90.000638
 30
0.0
 11
107.556597
 21
90.000638
 31
0.0
  0
INSERT
  5
12F6
100
AcDbEntity
  8
QUOTE
100
AcDbBlockReference
 66
     1
  2
RUGOSITA
 10
101.056597
 20
94.23375
 30
0.0
 50
90.0
  0
ATTRIB
  5
12F7
100
AcDbEntity
  8
QUOTE
100
AcDbText
 10
97.842491
 20
93.161863
 30
0.0
 40
1.5
  1
0.8
 50
90.0
100
AcDbAttribute
  2
RUGOSITA
 70
     0
  0
SEQEND
  5
12F8
100
AcDbEntity
  8
QUOTE
  0
LINE
  5
12F9
100
AcDbEntity
  8
DISEGNO
100
AcDbLine
 10
101.056597
 20
100.000638
 30
0.0
 11
101.056597
 21
90.000638
 31
0.0
  0
LINE
  5
12FA
100
AcDbEntity
  8
DISEGNO
100
AcDbLine
 10
94.556597
 20
100.000638
 30
0.0
 11
101.056597
 21
100.000638
 31
0.0
  0
LINE
  5
12FB
100
AcDbEntity
  8
DISEGNO
100
AcDbLine
 10
96.306597
 20
127.300638
 30
0.0
 11
94.556597
 21
127.300638
 31
0.0
  0
LINE
  5
12FC
100
AcDbEntity
  8
QUOTE
100
AcDbLine
 10
96.306597
 20
127.300638
 30
0.0
 11
94.556597
 21
127.300638
 31
0.0
  0
INSERT
  5
12FD
100
AcDbEntity
  8
DISEGNO
100
AcDbBlockReference
 66
     1
  2
RUGOSITA
 10
101.056597
 20
120.35146
 30
0.0
 50
90.0
  0
ATTRIB
  5
12FE
100
AcDbEntity
  8
QUOTE
100
AcDbText
 10
97.842491
 20
119.279574
 30
0.0
 40
1.5
  1
0.8
 50
90.0
100
AcDbAttribute
  2
RUGOSITA
 70
     0
  0
SEQEND
  5
12FF
100
AcDbEntity
  8
DISEGNO
  0
LINE
  5
1300
100
AcDbEntity
  8
DISEGNO
100
AcDbLine
 10
101.056597
 20
125.000638
 30
0.0
 11
101.056597
 21
116.025272
 31
0.0
  0
DIMENSION
  5
1301
100
AcDbEntity
  8
QUOTE
100
AcDbDimension
  2
*D44
 10
96.306597
 20
134.900551
 30
0.0
 11
104.309942
 21
137.025551
 31
0.0
 12
33.220105
 22
-21.031591
 32
0.0
  3
STANDARD
100
AcDbAlignedDimension
 13
94.556597
 23
131.500638
 33
0.0
 14
96.306597
 24
131.500638
 34
0.0
100
AcDbRotatedDimension
1001
ACAD
1000
DSTYLE
1002
{
1070
   144
1040
2.0
1070
   275
1070
     1
1002
}
  0
INSERT
  5
1302
100
AcDbEntity
  8
QUOTE
100
AcDbBlockReference
 66
     1
  2
RUGOSITA
 10
94.556597
 20
143.984029
 30
0.0
 50
90.0
  0
ATTRIB
  5
1303
100
AcDbEntity
  8
QUOTE
100
AcDbText
 10
91.342491
 20
142.912143
 30
0.0
 40
1.5
  1
0.8
 50
90.0
100
AcDbAttribute
  2
RUGOSITA
 70
     0
  0
SEQEND
  5
1304
100
AcDbEntity
  8
QUOTE
  0
DIMENSION
  5
1305
100
AcDbEntity
  8
QUOTE
100
AcDbDimension
  2
*D37
 10
101.056597
 20
154.053369
 30
0.0
 11
87.141931
 21
154.053369
 31
0.0
 12
33.220105
 22
-21.031591
 32
0.0
 70
   128
  3
TOLL-01
100
AcDbAlignedDimension
 13
94.556597
 23
140.000638
 33
0.0
 14
101.056597
 24
140.000638
 34
0.0
100
AcDbRotatedDimension
1001
ACAD
1000
DSTYLE
1002
{
1070
   144
1040
2.0
1070
   275
1070
     1
1002
}
  0
INSERT
  5
1306
100
AcDbEntity
  8
QUOTE
100
AcDbBlockReference
 66
     1
  2
RUGOSITA
 10
101.056597
 20
131.854548
 30
0.0
 50
270.0
  0
ATTRIB
  5
1307
100
AcDbEntity
  8
QUOTE
100
AcDbText
 10
104.270702
 20
132.926434
 30
0.0
 40
1.5
  1
0.8
 50
270.0
100
AcDbAttribute
  2
RUGOSITA
 70
     0
  0
SEQEND
  5
1308
100
AcDbEntity
  8
QUOTE
  0
LINE
  5
1309
100
AcDbEntity
  8
DISEGNO
100
AcDbLine
 10
94.556597
 20
140.000638
 30
0.0
 11
94.556597
 21
131.500638
 31
0.0
  0
LINE
  5
130A
100
AcDbEntity
  8
DISEGNO
100
AcDbLine
 10
94.556597
 20
131.500638
 30
0.0
 11
96.306597
 21
131.500638
 31
0.0
  0
LINE
  5
130B
100
AcDbEntity
  8
QUOTE
100
AcDbLine
 10
94.556597
 20
131.500638
 30
0.0
 11
96.306597
 21
131.500638
 31
0.0
  0
LINE
  5
130C
100
AcDbEntity
  8
QUOTE
100
AcDbLine
 10
94.556597
 20
131.500638
 30
0.0
 11
96.306597
 21
131.500638
 31
0.0
  0
LINE
  5
130D
100
AcDbEntity
  8
DISEGNO
100
AcDbLine
 10
101.056597
 20
140.000638
 30
0.0
 11
94.556597
 21
140.000638
 31
0.0
  0
INSERT
  5
130E
100
AcDbEntity
  8
QUOTE
100
AcDbBlockReference
 66
     1
  2
RUGOSITA
 10
114.924824
 20
125.000638
 30
0.0
  0
ATTRIB
  5
130F
100
AcDbEntity
  8
QUOTE
100
AcDbText
 10
113.852938
 20
128.214744
 30
0.0
 40
1.5
  1
0.8
100
AcDbAttribute
  2
RUGOSITA
 70
     0
  0
SEQEND
  5
1310
100
AcDbEntity
  8
QUOTE
  0
DIMENSION
  5
1311
100
AcDbEntity
  8
QUOTE
100
AcDbDimension
  2
*D42
 10
135.746195
 20
65.000638
 30
0.0
 11
133.621195
 21
90.512955
 31
0.0
 12
33.220105
 22
-21.031591
 32
0.0
  3
TOLL-03
100
AcDbAlignedDimension
 13
121.056597
 23
116.025272
 33
0.0
 14
114.556597
 24
65.000638
 34
0.0
 50
90.0
100
AcDbRotatedDimension
1001
ACAD
1000
DSTYLE
1002
{
1070
   144
1040
2.0
1070
   275
1070
     1
1002
}
  0
LINE
  5
1312
100
AcDbEntity
  8
DISEGNO
100
AcDbLine
 10
114.556597
 20
65.000638
 30
0.0
 11
114.556597
 21
90.000638
 31
0.0
  0
INSERT
  5
1313
100
AcDbEntity
  8
QUOTE
100
AcDbBlockReference
 66
     1
  2
RUGOSITA
 10
120.510228
 20
65.000638
 30
0.0
 50
180.0
  0
ATTRIB
  5
1314
100
AcDbEntity
  8
QUOTE
100
AcDbText
 10
121.582114
 20
61.786532
 30
0.0
 40
1.5
  1
1.6
 50
180.0
100
AcDbAttribute
  2
RUGOSITA
 70
     0
  0
SEQEND
  5
1315
100
AcDbEntity
  8
QUOTE
  0
INSERT
  5
1316
100
AcDbEntity
  8
QUOTE
100
AcDbBlockReference
 66
     1
  2
RUGOSITA
 10
114.556597
 20
75.674125
 30
0.0
 50
270.0
  0
ATTRIB
  5
1317
100
AcDbEntity
  8
QUOTE
100
AcDbText
 10
117.770702
 20
76.746011
 30
0.0
 40
1.5
  1
0.8
 50
270.0
100
AcDbAttribute
  2
RUGOSITA
 70
     0
  0
SEQEND
  5
1318
100
AcDbEntity
  8
QUOTE
  0
LINE
  5
1319
100
AcDbEntity
  8
DISEGNO
100
AcDbLine
 10
121.056597
 20
90.000638
 30
0.0
 11
121.056597
 21
125.000638
 31
0.0
  0
INSERT
  5
131A
100
AcDbEntity
  8
QUOTE
100
AcDbBlockReference
 66
     1
  2
RUGOSITA
 10
121.056597
 20
94.570682
 30
0.0
 50
270.0
  0
ATTRIB
  5
131B
100
AcDbEntity
  8
QUOTE
100
AcDbText
 10
124.270702
 20
95.642568
 30
0.0
 40
1.5
  1
0.8
 50
270.0
100
AcDbAttribute
  2
RUGOSITA
 70
     0
  0
SEQEND
  5
131C
100
AcDbEntity
  8
QUOTE
  0
LINE
  5
131D
100
AcDbEntity
  8
DISEGNO
100
AcDbLine
 10
114.556597
 20
90.000638
 30
0.0
 11
121.056597
 21
90.000638
 31
0.0
  0
INSERT
  5
131E
100
AcDbEntity
  8
QUOTE
100
AcDbBlockReference
 66
     1
  2
RUGOSITA
 10
121.056597
 20
120.225416
 30
0.0
 50
270.0
  0
ATTRIB
  5
131F
100
AcDbEntity
  8
QUOTE
100
AcDbText
 10
124.270702
 20
121.297302
 30
0.0
 40
1.5
  1
1.6
 50
270.0
100
AcDbAttribute
  2
RUGOSITA
 70
     0
  0
SEQEND
  5
1320
100
AcDbEntity
  8
QUOTE
  0
ENDBLK
  5
1322
100
AcDbEntity
  8
QUOTE
  6
CONTINUOUS
100
AcDbBlockEnd
  0
BLOCK
  5
1580
100
AcDbEntity
  8
0
100
AcDbBlockBegin
  2
*D46
 70
    65
 10
0.0
 20
0.0
 30
0.0
  3
*D46
  1

  0
LINE
  5
1581
100
AcDbEntity
  8
0
  6
BYBLOCK
 62
     0
100
AcDbLine
 10
212.99671
 20
176.451304
 30
0.0
 11
212.99671
 21
186.481726
 31
0.0
  0
LINE
  5
1582
100
AcDbEntity
  8
0
  6
BYBLOCK
 62
     0
100
AcDbLine
 10
222.99671
 20
171.451304
 30
0.0
 11
222.99671
 21
186.481726
 31
0.0
  0
LINE
  5
1583
100
AcDbEntity
  8
0
  6
BYBLOCK
 62
     0
100
AcDbLine
 10
210.39671
 20
185.429526
 30
0.0
 11
207.79671
 21
185.429526
 31
0.0
  0
LINE
  5
1584
100
AcDbEntity
  8
0
  6
BYBLOCK
 62
     0
100
AcDbLine
 10
225.59671
 20
185.429526
 30
0.0
 11
228.19671
 21
185.429526
 31
0.0
  0
LINE
  5
1585
100
AcDbEntity
  8
0
  6
BYBLOCK
 62
     0
100
AcDbLine
 10
212.99671
 20
185.429526
 30
0.0
 11
222.99671
 21
185.429526
 31
0.0
  0
SOLID
  5
1586
100
AcDbEntity
  8
0
  6
BYBLOCK
 62
     0
100
AcDbTrace
 10
210.39671
 20
185.86286
 30
0.0
 11
210.39671
 21
184.996193
 31
0.0
 12
212.99671
 22
185.429526
 32
0.0
 13
212.99671
 23
185.429526
 33
0.0
  0
SOLID
  5
1587
100
AcDbEntity
  8
0
  6
BYBLOCK
 62
     0
100
AcDbTrace
 10
225.59671
 20
185.86286
 30
0.0
 11
225.59671
 21
184.996193
 31
0.0
 12
222.99671
 22
185.429526
 32
0.0
 13
222.99671
 23
185.429526
 33
0.0
  0
MTEXT
  5
1588
100
AcDbEntity
  8
0
  6
BYBLOCK
 62
     0
100
AcDbMText
 10
217.99671
 20
188.459526
 30
0.0
 40
5.0
 41
0.0
 71
     5
 72
     1
  1
\A1;10
  0
POINT
  5
1589
100
AcDbEntity
  8
DEFPOINTS
  6
BYBLOCK
 62
     0
100
AcDbPoint
 10
212.99671
 20
175.925204
 30
0.0
  0
POINT
  5
158A
100
AcDbEntity
  8
DEFPOINTS
  6
BYBLOCK
 62
     0
100
AcDbPoint
 10
222.99671
 20
170.925204
 30
0.0
  0
POINT
  5
158B
100
AcDbEntity
  8
DEFPOINTS
  6
BYBLOCK
 62
     0
100
AcDbPoint
 10
222.99671
 20
185.429526
 30
0.0
  0
ENDBLK
  5
158C
100
AcDbEntity
  8
0
100
AcDbBlockEnd
  0
BLOCK
  5
158F
100
AcDbEntity
  8
0
100
AcDbBlockBegin
  2
*D47
 70
    65
 10
0.0
 20
0.0
 30
0.0
  3
*D47
  1

  0
LINE
  5
1590
100
AcDbEntity
  8
0
  6
BYBLOCK
 62
     0
100
AcDbLine
 10
212.99671
 20
176.451304
 30
0.0
 11
212.99671
 21
196.801875
 31
0.0
  0
LINE
  5
1591
100
AcDbEntity
  8
0
  6
BYBLOCK
 62
     0
100
AcDbLine
 10
225.99671
 20
176.451304
 30
0.0
 11
225.99671
 21
196.801875
 31
0.0
  0
LINE
  5
1592
100
AcDbEntity
  8
0
  6
BYBLOCK
 62
     0
100
AcDbLine
 10
215.59671
 20
195.749675
 30
0.0
 11
223.39671
 21
195.749675
 31
0.0
  0
SOLID
  5
1593
100
AcDbEntity
  8
0
  6
BYBLOCK
 62
     0
100
AcDbTrace
 10
215.59671
 20
196.183008
 30
0.0
 11
215.59671
 21
195.316341
 31
0.0
 12
212.99671
 22
195.749675
 32
0.0
 13
212.99671
 23
195.749675
 33
0.0
  0
SOLID
  5
1594
100
AcDbEntity
  8
0
  6
BYBLOCK
 62
     0
100
AcDbTrace
 10
223.39671
 20
196.183008
 30
0.0
 11
223.39671
 21
195.316341
 31
0.0
 12
225.99671
 22
195.749675
 32
0.0
 13
225.99671
 23
195.749675
 33
0.0
  0
MTEXT
  5
1595
100
AcDbEntity
  8
0
  6
BYBLOCK
 62
     0
100
AcDbMText
 10
219.49671
 20
198.779675
 30
0.0
 40
5.0
 41
0.0
 71
     5
 72
     1
  1
\A1;13
  0
POINT
  5
1596
100
AcDbEntity
  8
DEFPOINTS
  6
BYBLOCK
 62
     0
100
AcDbPoint
 10
212.99671
 20
175.925204
 30
0.0
  0
POINT
  5
1597
100
AcDbEntity
  8
DEFPOINTS
  6
BYBLOCK
 62
     0
100
AcDbPoint
 10
225.99671
 20
175.925204
 30
0.0
  0
POINT
  5
1598
100
AcDbEntity
  8
DEFPOINTS
  6
BYBLOCK
 62
     0
100
AcDbPoint
 10
225.99671
 20
195.749675
 30
0.0
  0
ENDBLK
  5
1599
100
AcDbEntity
  8
0
100
AcDbBlockEnd
  0
BLOCK
  5
159C
100
AcDbEntity
  8
0
100
AcDbBlockBegin
  2
*D48
 70
    65
 10
0.0
 20
0.0
 30
0.0
  3
*D48
  1

  0
LINE
  5
159D
100
AcDbEntity
  8
0
  6
BYBLOCK
 62
     0
100
AcDbLine
 10
226.52281
 20
175.925204
 30
0.0
 11
252.902215
 21
175.925204
 31
0.0
  0
LINE
  5
159E
100
AcDbEntity
  8
0
  6
BYBLOCK
 62
     0
100
AcDbLine
 10
226.52281
 20
170.925204
 30
0.0
 11
252.902215
 21
170.925204
 31
0.0
  0
LINE
  5
159F
100
AcDbEntity
  8
0
  6
BYBLOCK
 62
     0
100
AcDbLine
 10
251.850015
 20
178.525204
 30
0.0
 11
251.850015
 21
181.125204
 31
0.0
  0
LINE
  5
15A0
100
AcDbEntity
  8
0
  6
BYBLOCK
 62
     0
100
AcDbLine
 10
251.850015
 20
168.325204
 30
0.0
 11
251.850015
 21
165.725204
 31
0.0
  0
LINE
  5
15A1
100
AcDbEntity
  8
0
  6
BYBLOCK
 62
     0
100
AcDbLine
 10
251.850015
 20
175.925204
 30
0.0
 11
251.850015
 21
170.925204
 31
0.0
  0
SOLID
  5
15A2
100
AcDbEntity
  8
0
  6
BYBLOCK
 62
     0
100
AcDbTrace
 10
251.416681
 20
178.525204
 30
0.0
 11
252.283348
 21
178.525204
 31
0.0
 12
251.850015
 22
175.925204
 32
0.0
 13
251.850015
 23
175.925204
 33
0.0
  0
SOLID
  5
15A3
100
AcDbEntity
  8
0
  6
BYBLOCK
 62
     0
100
AcDbTrace
 10
251.416681
 20
168.325204
 30
0.0
 11
252.283348
 21
168.325204
 31
0.0
 12
251.850015
 22
170.925204
 32
0.0
 13
251.850015
 23
170.925204
 33
0.0
  0
MTEXT
  5
15A4
100
AcDbEntity
  8
0
  6
BYBLOCK
 62
     0
100
AcDbMText
 10
248.820015
 20
173.425204
 30
0.0
 40
5.0
 41
0.0
 71
     5
 72
     1
  1
\A1;5
 11
0.0
 21
1.0
 31
0.0
  0
POINT
  5
15A5
100
AcDbEntity
  8
DEFPOINTS
  6
BYBLOCK
 62
     0
100
AcDbPoint
 10
225.99671
 20
175.925204
 30
0.0
  0
POINT
  5
15A6
100
AcDbEntity
  8
DEFPOINTS
  6
BYBLOCK
 62
     0
100
AcDbPoint
 10
225.99671
 20
170.925204
 30
0.0
  0
POINT
  5
15A7
100
AcDbEntity
  8
DEFPOINTS
  6
BYBLOCK
 62
     0
100
AcDbPoint
 10
251.850015
 20
170.925204
 30
0.0
  0
ENDBLK
  5
15A8
100
AcDbEntity
  8
0
100
AcDbBlockEnd
  0
BLOCK
  5
15AB
100
AcDbEntity
  8
0
100
AcDbBlockBegin
  2
*D49
 70
    65
 10
0.0
 20
0.0
 30
0.0
  3
*D49
  1

  0
LINE
  5
15AC
100
AcDbEntity
  8
0
  6
BYBLOCK
 62
     0
100
AcDbLine
 10
226.52281
 20
170.925204
 30
0.0
 11
252.902215
 21
170.925204
 31
0.0
  0
LINE
  5
15AD
100
AcDbEntity
  8
0
  6
BYBLOCK
 62
     0
100
AcDbLine
 10
238.52281
 20
153.925204
 30
0.0
 11
252.902215
 21
153.925204
 31
0.0
  0
LINE
  5
15AE
100
AcDbEntity
  8
0
  6
BYBLOCK
 62
     0
100
AcDbLine
 10
251.850015
 20
168.325204
 30
0.0
 11
251.850015
 21
156.525204
 31
0.0
  0
SOLID
  5
15AF
100
AcDbEntity
  8
0
  6
BYBLOCK
 62
     0
100
AcDbTrace
 10
251.416681
 20
168.325204
 30
0.0
 11
252.283348
 21
168.325204
 31
0.0
 12
251.850015
 22
170.925204
 32
0.0
 13
251.850015
 23
170.925204
 33
0.0
  0
SOLID
  5
15B0
100
AcDbEntity
  8
0
  6
BYBLOCK
 62
     0
100
AcDbTrace
 10
251.416681
 20
156.525204
 30
0.0
 11
252.283348
 21
156.525204
 31
0.0
 12
251.850015
 22
153.925204
 32
0.0
 13
251.850015
 23
153.925204
 33
0.0
  0
MTEXT
  5
15B1
100
AcDbEntity
  8
0
  6
BYBLOCK
 62
     0
100
AcDbMText
 10
248.820015
 20
162.425204
 30
0.0
 40
5.0
 41
0.0
 71
     5
 72
     1
  1
\A1;17
 11
0.0
 21
1.0
 31
0.0
  0
POINT
  5
15B2
100
AcDbEntity
  8
DEFPOINTS
  6
BYBLOCK
 62
     0
100
AcDbPoint
 10
225.99671
 20
170.925204
 30
0.0
  0
POINT
  5
15B3
100
AcDbEntity
  8
DEFPOINTS
  6
BYBLOCK
 62
     0
100
AcDbPoint
 10
237.99671
 20
153.925204
 30
0.0
  0
POINT
  5
15B4
100
AcDbEntity
  8
DEFPOINTS
  6
BYBLOCK
 62
     0
100
AcDbPoint
 10
251.850015
 20
153.925204
 30
0.0
  0
ENDBLK
  5
15B5
100
AcDbEntity
  8
0
100
AcDbBlockEnd
  0
BLOCK
  5
15DE
100
AcDbEntity
  8
0
100
AcDbBlockBegin
  2
*D50
 70
    65
 10
0.0
 20
0.0
 30
0.0
  3
*D50
  1

  0
LINE
  5
15DF
100
AcDbEntity
  8
0
  6
BYBLOCK
 62
     0
100
AcDbLine
 10
226.52281
 20
175.925204
 30
0.0
 11
266.072457
 21
175.925204
 31
0.0
  0
LINE
  5
15E0
100
AcDbEntity
  8
0
  6
BYBLOCK
 62
     0
100
AcDbLine
 10
238.52281
 20
153.925204
 30
0.0
 11
266.072457
 21
153.925204
 31
0.0
  0
LINE
  5
15E1
100
AcDbEntity
  8
0
  6
BYBLOCK
 62
     0
100
AcDbLine
 10
265.020257
 20
173.325204
 30
0.0
 11
265.020257
 21
156.525204
 31
0.0
  0
SOLID
  5
15E2
100
AcDbEntity
  8
0
  6
BYBLOCK
 62
     0
100
AcDbTrace
 10
264.586924
 20
173.325204
 30
0.0
 11
265.45359
 21
173.325204
 31
0.0
 12
265.020257
 22
175.925204
 32
0.0
 13
265.020257
 23
175.925204
 33
0.0
  0
SOLID
  5
15E3
100
AcDbEntity
  8
0
  6
BYBLOCK
 62
     0
100
AcDbTrace
 10
264.586924
 20
156.525204
 30
0.0
 11
265.45359
 21
156.525204
 31
0.0
 12
265.020257
 22
153.925204
 32
0.0
 13
265.020257
 23
153.925204
 33
0.0
  0
MTEXT
  5
15E4
100
AcDbEntity
  8
0
  6
BYBLOCK
 62
     0
100
AcDbMText
 10
261.989765
 20
164.925204
 30
0.0
 40
5.0
 41
0.0
 71
     5
 72
     1
  1
\A1;22
 11
0.0
 21
1.0
 31
0.0
  0
POINT
  5
15E5
100
AcDbEntity
  8
DEFPOINTS
  6
BYBLOCK
 62
     0
100
AcDbPoint
 10
225.99671
 20
175.925204
 30
0.0
  0
POINT
  5
15E6
100
AcDbEntity
  8
DEFPOINTS
  6
BYBLOCK
 62
     0
100
AcDbPoint
 10
237.99671
 20
153.925204
 30
0.0
  0
POINT
  5
15E7
100
AcDbEntity
  8
DEFPOINTS
  6
BYBLOCK
 62
     0
100
AcDbPoint
 10
265.020257
 20
153.925204
 30
0.0
  0
ENDBLK
  5
15E8
100
AcDbEntity
  8
0
100
AcDbBlockEnd
  0
BLOCK
  5
15C5
100
AcDbEntity
  8
0
100
AcDbBlockBegin
  2
*D51
 70
    65
 10
0.0
 20
0.0
 30
0.0
  3
*D51
  1

  0
LINE
  5
15C6
100
AcDbEntity
  8
0
  6
BYBLOCK
 62
     0
100
AcDbLine
 10
238.52281
 20
153.925204
 30
0.0
 11
252.830092
 21
153.925204
 31
0.0
  0
LINE
  5
15C7
100
AcDbEntity
  8
0
  6
BYBLOCK
 62
     0
100
AcDbLine
 10
238.52281
 20
104.925204
 30
0.0
 11
252.830092
 21
104.925204
 31
0.0
  0
LINE
  5
15C8
100
AcDbEntity
  8
0
  6
BYBLOCK
 62
     0
100
AcDbLine
 10
251.777892
 20
151.325204
 30
0.0
 11
251.777892
 21
107.525204
 31
0.0
  0
SOLID
  5
15C9
100
AcDbEntity
  8
0
  6
BYBLOCK
 62
     0
100
AcDbTrace
 10
251.344559
 20
151.325204
 30
0.0
 11
252.211226
 21
151.325204
 31
0.0
 12
251.777892
 22
153.925204
 32
0.0
 13
251.777892
 23
153.925204
 33
0.0
  0
SOLID
  5
15CA
100
AcDbEntity
  8
0
  6
BYBLOCK
 62
     0
100
AcDbTrace
 10
251.344559
 20
107.525204
 30
0.0
 11
252.211226
 21
107.525204
 31
0.0
 12
251.777892
 22
104.925204
 32
0.0
 13
251.777892
 23
104.925204
 33
0.0
  0
MTEXT
  5
15CB
100
AcDbEntity
  8
0
  6
BYBLOCK
 62
     0
100
AcDbMText
 10
248.747892
 20
129.425204
 30
0.0
 40
5.0
 41
0.0
 71
     5
 72
     1
  1
\A1;49
 11
0.0
 21
1.0
 31
0.0
  0
POINT
  5
15CC
100
AcDbEntity
  8
DEFPOINTS
  6
BYBLOCK
 62
     0
100
AcDbPoint
 10
237.99671
 20
153.925204
 30
0.0
  0
POINT
  5
15CD
100
AcDbEntity
  8
DEFPOINTS
  6
BYBLOCK
 62
     0
100
AcDbPoint
 10
237.99671
 20
104.925204
 30
0.0
  0
POINT
  5
15CE
100
AcDbEntity
  8
DEFPOINTS
  6
BYBLOCK
 62
     0
100
AcDbPoint
 10
251.777892
 20
104.925204
 30
0.0
  0
ENDBLK
  5
15CF
100
AcDbEntity
  8
0
100
AcDbBlockEnd
  0
BLOCK
  5
15D2
100
AcDbEntity
  8
0
100
AcDbBlockBegin
  2
*D52
 70
    65
 10
0.0
 20
0.0
 30
0.0
  3
*D52
  1

  0
LINE
  5
15D3
100
AcDbEntity
  8
0
  6
BYBLOCK
 62
     0
100
AcDbLine
 10
238.52281
 20
104.925204
 30
0.0
 11
252.830092
 21
104.925204
 31
0.0
  0
LINE
  5
15D4
100
AcDbEntity
  8
0
  6
BYBLOCK
 62
     0
100
AcDbLine
 10
225.52281
 20
73.925204
 30
0.0
 11
252.830092
 21
73.925204
 31
0.0
  0
LINE
  5
15D5
100
AcDbEntity
  8
0
  6
BYBLOCK
 62
     0
100
AcDbLine
 10
251.777892
 20
102.325204
 30
0.0
 11
251.777892
 21
76.525204
 31
0.0
  0
SOLID
  5
15D6
100
AcDbEntity
  8
0
  6
BYBLOCK
 62
     0
100
AcDbTrace
 10
251.344559
 20
102.325204
 30
0.0
 11
252.211226
 21
102.325204
 31
0.0
 12
251.777892
 22
104.925204
 32
0.0
 13
251.777892
 23
104.925204
 33
0.0
  0
SOLID
  5
15D7
100
AcDbEntity
  8
0
  6
BYBLOCK
 62
     0
100
AcDbTrace
 10
251.344559
 20
76.525204
 30
0.0
 11
252.211226
 21
76.525204
 31
0.0
 12
251.777892
 22
73.925204
 32
0.0
 13
251.777892
 23
73.925204
 33
0.0
  0
MTEXT
  5
15D8
100
AcDbEntity
  8
0
  6
BYBLOCK
 62
     0
100
AcDbMText
 10
248.747892
 20
89.425204
 30
0.0
 40
5.0
 41
0.0
 71
     5
 72
     1
  1
\A1;31
 11
0.0
 21
1.0
 31
0.0
  0
POINT
  5
15D9
100
AcDbEntity
  8
DEFPOINTS
  6
BYBLOCK
 62
     0
100
AcDbPoint
 10
237.99671
 20
104.925204
 30
0.0
  0
POINT
  5
15DA
100
AcDbEntity
  8
DEFPOINTS
  6
BYBLOCK
 62
     0
100
AcDbPoint
 10
224.99671
 20
73.925204
 30
0.0
  0
POINT
  5
15DB
100
AcDbEntity
  8
DEFPOINTS
  6
BYBLOCK
 62
     0
100
AcDbPoint
 10
251.777892
 20
73.925204
 30
0.0
  0
ENDBLK
  5
15DC
100
AcDbEntity
  8
0
100
AcDbBlockEnd
  0
BLOCK
  5
15EA
100
AcDbEntity
  8
0
100
AcDbBlockBegin
  2
*D53
 70
    65
 10
0.0
 20
0.0
 30
0.0
  3
*D53
  1

  0
LINE
  5
15EB
100
AcDbEntity
  8
0
  6
BYBLOCK
 62
     0
100
AcDbLine
 10
238.52281
 20
153.925204
 30
0.0
 11
266.072457
 21
153.925204
 31
0.0
  0
LINE
  5
15EC
100
AcDbEntity
  8
0
  6
BYBLOCK
 62
     0
100
AcDbLine
 10
225.52281
 20
73.925204
 30
0.0
 11
266.072457
 21
73.925204
 31
0.0
  0
LINE
  5
15ED
100
AcDbEntity
  8
0
  6
BYBLOCK
 62
     0
100
AcDbLine
 10
265.020257
 20
151.325204
 30
0.0
 11
265.020257
 21
76.525204
 31
0.0
  0
SOLID
  5
15EE
100
AcDbEntity
  8
0
  6
BYBLOCK
 62
     0
100
AcDbTrace
 10
264.586924
 20
151.325204
 30
0.0
 11
265.45359
 21
151.325204
 31
0.0
 12
265.020257
 22
153.925204
 32
0.0
 13
265.020257
 23
153.925204
 33
0.0
  0
SOLID
  5
15EF
100
AcDbEntity
  8
0
  6
BYBLOCK
 62
     0
100
AcDbTrace
 10
264.586924
 20
76.525204
 30
0.0
 11
265.45359
 21
76.525204
 31
0.0
 12
265.020257
 22
73.925204
 32
0.0
 13
265.020257
 23
73.925204
 33
0.0
  0
MTEXT
  5
15F0
100
AcDbEntity
  8
0
  6
BYBLOCK
 62
     0
100
AcDbMText
 10
261.990257
 20
113.925204
 30
0.0
 40
5.0
 41
0.0
 71
     5
 72
     1
  1
\A1;80
 11
0.0
 21
1.0
 31
0.0
  0
POINT
  5
15F1
100
AcDbEntity
  8
DEFPOINTS
  6
BYBLOCK
 62
     0
100
AcDbPoint
 10
237.99671
 20
153.925204
 30
0.0
  0
POINT
  5
15F2
100
AcDbEntity
  8
DEFPOINTS
  6
BYBLOCK
 62
     0
100
AcDbPoint
 10
224.99671
 20
73.925204
 30
0.0
  0
POINT
  5
15F3
100
AcDbEntity
  8
DEFPOINTS
  6
BYBLOCK
 62
     0
100
AcDbPoint
 10
265.020257
 20
73.925204
 30
0.0
  0
ENDBLK
  5
15F4
100
AcDbEntity
  8
0
100
AcDbBlockEnd
  0
BLOCK
  5
15F7
100
AcDbEntity
  8
0
100
AcDbBlockBegin
  2
*D54
 70
    65
 10
0.0
 20
0.0
 30
0.0
  3
*D54
  1

  0
LINE
  5
15F8
100
AcDbEntity
  8
0
  6
BYBLOCK
 62
     0
100
AcDbLine
 10
226.52281
 20
175.925204
 30
0.0
 11
278.991837
 21
175.925204
 31
0.0
  0
LINE
  5
15F9
100
AcDbEntity
  8
0
  6
BYBLOCK
 62
     0
100
AcDbLine
 10
225.52281
 20
73.925204
 30
0.0
 11
278.991837
 21
73.925204
 31
0.0
  0
LINE
  5
15FA
100
AcDbEntity
  8
0
  6
BYBLOCK
 62
     0
100
AcDbLine
 10
277.939637
 20
173.325204
 30
0.0
 11
277.939637
 21
76.525204
 31
0.0
  0
SOLID
  5
15FB
100
AcDbEntity
  8
0
  6
BYBLOCK
 62
     0
100
AcDbTrace
 10
277.506303
 20
173.325204
 30
0.0
 11
278.37297
 21
173.325204
 31
0.0
 12
277.939637
 22
175.925204
 32
0.0
 13
277.939637
 23
175.925204
 33
0.0
  0
SOLID
  5
15FC
100
AcDbEntity
  8
0
  6
BYBLOCK
 62
     0
100
AcDbTrace
 10
277.506303
 20
76.525204
 30
0.0
 11
278.37297
 21
76.525204
 31
0.0
 12
277.939637
 22
73.925204
 32
0.0
 13
277.939637
 23
73.925204
 33
0.0
  0
MTEXT
  5
15FD
100
AcDbEntity
  8
0
  6
BYBLOCK
 62
     0
100
AcDbMText
 10
274.909145
 20
124.925204
 30
0.0
 40
5.0
 41
0.0
 71
     5
 72
     1
  1
\A1;102
 11
0.0
 21
1.0
 31
0.0
  0
POINT
  5
15FE
100
AcDbEntity
  8
DEFPOINTS
  6
BYBLOCK
 62
     0
100
AcDbPoint
 10
225.99671
 20
175.925204
 30
0.0
  0
POINT
  5
15FF
100
AcDbEntity
  8
DEFPOINTS
  6
BYBLOCK
 62
     0
100
AcDbPoint
 10
224.99671
 20
73.925204
 30
0.0
  0
POINT
  5
1600
100
AcDbEntity
  8
DEFPOINTS
  6
BYBLOCK
 62
     0
100
AcDbPoint
 10
277.939637
 20
73.925204
 30
0.0
  0
ENDBLK
  5
1601
100
AcDbEntity
  8
0
100
AcDbBlockEnd
  0
BLOCK
  5
1604
100
AcDbEntity
  8
0
100
AcDbBlockBegin
  2
*D55
 70
    65
 10
0.0
 20
0.0
 30
0.0
  3
*D55
  1

  0
LINE
  5
1605
100
AcDbEntity
  8
0
  6
BYBLOCK
 62
     0
100
AcDbLine
 10
210.99671
 20
73.399104
 30
0.0
 11
210.99671
 21
58.538549
 31
0.0
  0
LINE
  5
1606
100
AcDbEntity
  8
0
  6
BYBLOCK
 62
     0
100
AcDbLine
 10
224.99671
 20
73.399104
 30
0.0
 11
224.99671
 21
58.538549
 31
0.0
  0
LINE
  5
1607
100
AcDbEntity
  8
0
  6
BYBLOCK
 62
     0
100
AcDbLine
 10
213.59671
 20
59.590749
 30
0.0
 11
222.39671
 21
59.590749
 31
0.0
  0
SOLID
  5
1608
100
AcDbEntity
  8
0
  6
BYBLOCK
 62
     0
100
AcDbTrace
 10
213.59671
 20
60.024082
 30
0.0
 11
213.59671
 21
59.157415
 31
0.0
 12
210.99671
 22
59.590749
 32
0.0
 13
210.99671
 23
59.590749
 33
0.0
  0
SOLID
  5
1609
100
AcDbEntity
  8
0
  6
BYBLOCK
 62
     0
100
AcDbTrace
 10
222.39671
 20
60.024082
 30
0.0
 11
222.39671
 21
59.157415
 31
0.0
 12
224.99671
 22
59.590749
 32
0.0
 13
224.99671
 23
59.590749
 33
0.0
  0
MTEXT
  5
160A
100
AcDbEntity
  8
0
  6
BYBLOCK
 62
     0
100
AcDbMText
 10
217.99671
 20
62.620749
 30
0.0
 40
5.0
 41
0.0
 71
     5
 72
     1
  1
\A1;14
  0
POINT
  5
160B
100
AcDbEntity
  8
DEFPOINTS
  6
BYBLOCK
 62
     0
100
AcDbPoint
 10
210.99671
 20
73.925204
 30
0.0
  0
POINT
  5
160C
100
AcDbEntity
  8
DEFPOINTS
  6
BYBLOCK
 62
     0
100
AcDbPoint
 10
224.99671
 20
73.925204
 30
0.0
  0
POINT
  5
160D
100
AcDbEntity
  8
DEFPOINTS
  6
BYBLOCK
 62
     0
100
AcDbPoint
 10
224.99671
 20
59.590749
 30
0.0
  0
ENDBLK
  5
160E
100
AcDbEntity
  8
0
100
AcDbBlockEnd
  0
BLOCK
  5
1611
100
AcDbEntity
  8
0
100
AcDbBlockBegin
  2
*D56
 70
    65
 10
0.0
 20
0.0
 30
0.0
  3
*D56
  1

  0
LINE
  5
1612
100
AcDbEntity
  8
0
  6
BYBLOCK
 62
     0
100
AcDbLine
 10
197.99671
 20
104.399104
 30
0.0
 11
197.99671
 21
47.895894
 31
0.0
  0
LINE
  5
1613
100
AcDbEntity
  8
0
  6
BYBLOCK
 62
     0
100
AcDbLine
 10
237.99671
 20
104.399104
 30
0.0
 11
237.99671
 21
47.895894
 31
0.0
  0
LINE
  5
1614
100
AcDbEntity
  8
0
  6
BYBLOCK
 62
     0
100
AcDbLine
 10
200.59671
 20
48.948094
 30
0.0
 11
235.39671
 21
48.948094
 31
0.0
  0
SOLID
  5
1615
100
AcDbEntity
  8
0
  6
BYBLOCK
 62
     0
100
AcDbTrace
 10
200.59671
 20
49.381427
 30
0.0
 11
200.59671
 21
48.514761
 31
0.0
 12
197.99671
 22
48.948094
 32
0.0
 13
197.99671
 23
48.948094
 33
0.0
  0
SOLID
  5
1616
100
AcDbEntity
  8
0
  6
BYBLOCK
 62
     0
100
AcDbTrace
 10
235.39671
 20
49.381427
 30
0.0
 11
235.39671
 21
48.514761
 31
0.0
 12
237.99671
 22
48.948094
 32
0.0
 13
237.99671
 23
48.948094
 33
0.0
  0
MTEXT
  5
1617
100
AcDbEntity
  8
0
  6
BYBLOCK
 62
     0
100
AcDbMText
 10
217.99671
 20
51.978094
 30
0.0
 40
5.0
 41
0.0
 71
     5
 72
     1
  1
\A1;40
  0
POINT
  5
1618
100
AcDbEntity
  8
DEFPOINTS
  6
BYBLOCK
 62
     0
100
AcDbPoint
 10
197.99671
 20
104.925204
 30
0.0
  0
POINT
  5
1619
100
AcDbEntity
  8
DEFPOINTS
  6
BYBLOCK
 62
     0
100
AcDbPoint
 10
237.99671
 20
104.925204
 30
0.0
  0
POINT
  5
161A
100
AcDbEntity
  8
DEFPOINTS
  6
BYBLOCK
 62
     0
100
AcDbPoint
 10
237.99671
 20
48.948094
 30
0.0
  0
ENDBLK
  5
161B
100
AcDbEntity
  8
0
100
AcDbBlockEnd
  0
BLOCK
  5
1628
100
AcDbEntity
  8
0
100
AcDbBlockBegin
  2
*X57
 70
    65
 10
0.0
 20
0.0
 30
0.0
  3
*X57
  1

  0
LINE
  5
1623
100
AcDbEntity
  8
0
  6
CONTINUOUS
 62
     0
100
AcDbLine
 10
133.148079
 20
200.5
 30
0.0
 11
134.5
 21
201.851921
 31
0.0
  0
LINE
  5
1624
100
AcDbEntity
  8
0
  6
CONTINUOUS
 62
     0
100
AcDbLine
 10
136.148079
 20
203.5
 30
0.0
 11
142.675036
 21
210.026956
 31
0.0
  0
LINE
  5
1625
100
AcDbEntity
  8
0
  6
CONTINUOUS
 62
     0
100
AcDbLine
 10
129.0
 20
200.842049
 30
0.0
 11
138.208731
 21
210.05078
 31
0.0
  0
LINE
  5
1626
100
AcDbEntity
  8
0
  6
CONTINUOUS
 62
     0
100
AcDbLine
 10
129.0
 20
205.332177
 30
0.0
 11
134.190125
 21
210.522302
 31
0.0
  0
LINE
  5
1627
100
AcDbEntity
  8
0
  6
CONTINUOUS
 62
     0
100
AcDbLine
 10
140.638207
 20
203.5
 30
0.0
 11
144.318537
 21
207.180329
 31
0.0
  0
ENDBLK
  5
1629
100
AcDbEntity
  8
0
100
AcDbBlockEnd
  0
BLOCK
  5
1630
100
AcDbEntity
  8
0
100
AcDbBlockBegin
  2
*X58
 70
    65
 10
0.0
 20
0.0
 30
0.0
  3
*X58
  1

  0
LINE
  5
162B
100
AcDbEntity
  8
0
  6
CONTINUOUS
 62
     0
100
AcDbLine
 10
134.439969
 20
179.34125
 30
0.0
 11
141.598719
 21
186.5
 31
0.0
  0
LINE
  5
162C
100
AcDbEntity
  8
0
  6
CONTINUOUS
 62
     0
100
AcDbLine
 10
131.176537
 20
180.567946
 30
0.0
 11
137.108591
 21
186.5
 31
0.0
  0
LINE
  5
162D
100
AcDbEntity
  8
0
  6
CONTINUOUS
 62
     0
100
AcDbLine
 10
129.0
 20
182.881537
 30
0.0
 11
134.5
 21
188.381537
 31
0.0
  0
LINE
  5
162E
100
AcDbEntity
  8
0
  6
CONTINUOUS
 62
     0
100
AcDbLine
 10
129.0
 20
187.371665
 30
0.0
 11
131.128335
 21
189.5
 31
0.0
  0
LINE
  5
162F
100
AcDbEntity
  8
0
  6
CONTINUOUS
 62
     0
100
AcDbLine
 10
139.082431
 20
179.493584
 30
0.0
 11
145.0
 21
185.411153
 31
0.0
  0
ENDBLK
  5
1631
100
AcDbEntity
  8
0
100
AcDbBlockEnd
  0
BLOCK
  5
165A
100
AcDbEntity
  8
QUOTE
  6
CONTINUOUS
100
AcDbBlockBegin
  2
A$C7351
 70
     0
 10
0.0
 20
0.0
 30
0.0
  3
A$C7351
  1

  0
LINE
  5
1633
100
AcDbEntity
  8
OGGETTO
  6
CONTINUOUS
100
AcDbLine
 10
3.099903
 20
60.309805
 30
0.0
 11
3.099903
 21
52.309805
 31
0.0
1001
ACAD
1000
ASC_BOUNDS
1002
{
1070
    19
1002
}
  0
LINE
  5
1634
100
AcDbEntity
  8
OGGETTO
  6
CONTINUOUS
100
AcDbLine
 10
20.099903
 20
46.309805
 30
0.0
 11
12.016999
 21
60.309805
 31
0.0
  0
LINE
  5
1635
100
AcDbEntity
  8
OGGETTO
  6
CONTINUOUS
100
AcDbLine
 10
9.599903
 20
43.868351
 30
0.0
 11
20.099903
 21
43.868351
 31
0.0
1001
ACAD
1000
ASC_BOUNDS
1002
{
1070
    19
1002
}
  0
LINE
  5
1636
100
AcDbEntity
  8
OGGETTO
  6
CONTINUOUS
100
AcDbLine
 10
9.599903
 20
26.868351
 30
0.0
 11
20.099903
 21
26.868351
 31
0.0
1001
ACAD
1000
ASC_BOUNDS
1002
{
1070
    19
1002
}
  0
INSERT
  5
1637
100
AcDbEntity
  8
SEZIONE
  6
CONTINUOUS
100
AcDbBlockReference
  2
*X57
 10
-124.900097
 20
-159.631649
 30
0.0
1001
ACAD
1000
HATCH
1002
{
1070
    19
1000
ANSI31
1040
1.0
1040
0.0
1002
}
  0
INSERT
  5
1638
100
AcDbEntity
  8
SEZIONE
  6
CONTINUOUS
100
AcDbBlockReference
  2
*X58
 10
-124.900097
 20
-159.631649
 30
0.0
1001
ACAD
1000
HATCH
1002
{
1070
    19
1000
ANSI31
1040
1.0
1040
0.0
1002
}
  0
LINE
  5
1639
100
AcDbEntity
  8
OGGETTO
  6
CONTINUOUS
100
AcDbLine
 10
20.099903
 20
24.309805
 30
0.0
 11
7.871292
 21
0.309805
 31
0.0
1001
ACAD
1000
ASC_BOUNDS
1002
{
1070
    19
1002
}
  0
POLYLINE
  5
163A
100
AcDbEntity
  8
OGGETTO
  6
CONTINUOUS
100
AcDb2dPolyline
 66
     1
 10
0.0
 20
0.0
 30
0.0
1001
ACAD
1000
ASC_BOUNDS
1002
{
1070
    19
1002
}
  0
VERTEX
  5
163B
100
AcDbEntity
  8
OGGETTO
  6
CONTINUOUS
100
AcDbVertex
100
AcDb2dVertex
 10
4.099903
 20
21.754439
 30
0.0
  0
VERTEX
  5
163C
100
AcDbEntity
  8
OGGETTO
  6
CONTINUOUS
100
AcDbVertex
100
AcDb2dVertex
 10
11.147605
 20
19.105268
 30
0.0
  0
VERTEX
  5
163D
100
AcDbEntity
  8
OGGETTO
  6
CONTINUOUS
100
AcDbVertex
100
AcDb2dVertex
 10
15.701138
 20
20.240627
 30
0.0
  0
VERTEX
  5
163E
100
AcDbEntity
  8
OGGETTO
  6
CONTINUOUS
100
AcDbVertex
100
AcDb2dVertex
 10
17.60846
 20
19.478619
 30
0.0
  0
SEQEND
  5
163F
100
AcDbEntity
  8
OGGETTO
  6
CONTINUOUS
  0
LINE
  5
1640
100
AcDbEntity
  8
OGGETTO
  6
CONTINUOUS
100
AcDbLine
 10
4.099903
 20
19.309805
 30
0.0
 11
4.099903
 21
51.309805
 31
0.0
1001
ACAD
1000
ASC_BOUNDS
1002
{
1070
    19
1002
}
  0
LINE
  5
1641
100
AcDbEntity
  8
OGGETTO
  6
CONTINUOUS
100
AcDbLine
 10
4.099903
 20
49.059805
 30
0.0
 11
4.099903
 21
19.309805
 31
0.0
1001
ACAD
1000
ASC_BOUNDS
1002
{
1070
    19
1002
}
  0
LINE
  5
1642
100
AcDbEntity
  8
OGGETTO
  6
CONTINUOUS
100
AcDbLine
 10
0.099903
 20
0.309805
 30
0.0
 11
7.871292
 21
0.309805
 31
0.0
1001
ACAD
1000
ASC_BOUNDS
1002
{
1070
    19
1002
}
  0
LINE
  5
1643
100
AcDbEntity
  8
OGGETTO
  6
CONTINUOUS
100
AcDbLine
 10
0.099903
 20
0.309805
 30
0.0
 11
0.099903
 21
6.309805
 31
0.0
1001
ACAD
1000
ASC_BOUNDS
1002
{
1070
    19
1002
}
  0
LINE
  5
1644
100
AcDbEntity
  8
OGGETTO
  6
CONTINUOUS
100
AcDbLine
 10
0.099903
 20
6.309805
 30
0.0
 11
5.099903
 21
6.309805
 31
0.0
1001
ACAD
1000
ASC_BOUNDS
1002
{
1070
    19
1002
}
  0
LINE
  5
1645
100
AcDbEntity
  8
OGGETTO
  6
CONTINUOUS
100
AcDbLine
 10
3.099903
 20
10.309805
 30
0.0
 11
3.099903
 21
18.309805
 31
0.0
1001
ACAD
1000
ASC_BOUNDS
1002
{
1070
    19
1002
}
  0
LINE
  5
1646
100
AcDbEntity
  8
OGGETTO
  6
CONTINUOUS
100
AcDbLine
 10
5.099903
 20
10.309805
 30
0.0
 11
3.099903
 21
10.309805
 31
0.0
1001
ACAD
1000
ASC_BOUNDS
1002
{
1070
    19
1002
}
  0
LINE
  5
1647
100
AcDbEntity
  8
OGGETTO
  6
CONTINUOUS
100
AcDbLine
 10
5.099903
 20
6.309805
 30
0.0
 11
5.099903
 21
10.309805
 31
0.0
1001
ACAD
1000
ASC_BOUNDS
1002
{
1070
    19
1002
}
  0
LINE
  5
1648
100
AcDbEntity
  8
OGGETTO
  6
CONTINUOUS
100
AcDbLine
 10
4.099903
 20
19.309805
 30
0.0
 11
3.099903
 21
18.309805
 31
0.0
1001
ACAD
1000
ASC_BOUNDS
1002
{
1070
    19
1002
}
  0
POLYLINE
  5
1649
100
AcDbEntity
  8
OGGETTO
  6
CONTINUOUS
100
AcDb2dPolyline
 66
     1
 10
0.0
 20
0.0
 30
0.0
1001
ACAD
1000
ASC_BOUNDS
1002
{
1070
    19
1002
}
  0
VERTEX
  5
164A
100
AcDbEntity
  8
OGGETTO
  6
CONTINUOUS
100
AcDbVertex
100
AcDb2dVertex
 10
4.099903
 20
49.00305
 30
0.0
  0
VERTEX
  5
164B
100
AcDbEntity
  8
OGGETTO
  6
CONTINUOUS
100
AcDbVertex
100
AcDb2dVertex
 10
9.2503
 20
50.895314
 30
0.0
  0
VERTEX
  5
164C
100
AcDbEntity
  8
OGGETTO
  6
CONTINUOUS
100
AcDbVertex
100
AcDb2dVertex
 10
15.701138
 20
50.138408
 30
0.0
  0
VERTEX
  5
164D
100
AcDbEntity
  8
OGGETTO
  6
CONTINUOUS
100
AcDbVertex
100
AcDb2dVertex
 10
17.609171
 20
50.682425
 30
0.0
  0
SEQEND
  5
164E
100
AcDbEntity
  8
OGGETTO
  6
CONTINUOUS
  0
LINE
  5
164F
100
AcDbEntity
  8
OGGETTO
  6
CONTINUOUS
100
AcDbLine
 10
4.099903
 20
40.868351
 30
0.0
 11
9.599903
 21
40.868351
 31
0.0
1001
ACAD
1000
ASC_BOUNDS
1002
{
1070
    19
1002
}
  0
LINE
  5
1650
100
AcDbEntity
  8
OGGETTO
  6
CONTINUOUS
100
AcDbLine
 10
4.099903
 20
29.868351
 30
0.0
 11
9.599903
 21
29.868351
 31
0.0
1001
ACAD
1000
ASC_BOUNDS
1002
{
1070
    19
1002
}
  0
LINE
  5
1651
100
AcDbEntity
  8
OGGETTO
  6
CONTINUOUS
100
AcDbLine
 10
4.099903
 20
51.309805
 30
0.0
 11
3.099903
 21
52.309805
 31
0.0
1001
ACAD
1000
ASC_BOUNDS
1002
{
1070
    19
1002
}
  0
LINE
  5
1652
100
AcDbEntity
  8
OGGETTO
  6
CONTINUOUS
100
AcDbLine
 10
9.599903
 20
43.868351
 30
0.0
 11
9.599903
 21
26.868351
 31
0.0
1001
ACAD
1000
ASC_BOUNDS
1002
{
1070
    19
1002
}
  0
LINE
  5
1653
100
AcDbEntity
  8
OGGETTO
  6
CONTINUOUS
100
AcDbLine
 10
20.099903
 20
35.309805
 30
0.0
 11
20.099903
 21
46.309805
 31
0.0
1001
ACAD
1000
ASC_BOUNDS
1002
{
1070
    19
1002
}
  0
LINE
  5
1654
100
AcDbEntity
  8
OGGETTO
  6
CONTINUOUS
100
AcDbLine
 10
20.099903
 20
40.309805
 30
0.0
 11
20.099903
 21
24.309805
 31
0.0
1001
ACAD
1000
ASC_BOUNDS
1002
{
1070
    19
1002
}
  0
LINE
  5
1655
100
AcDbEntity
  8
OGGETTO
  6
CONTINUOUS
100
AcDbLine
 10
20.099903
 20
35.309805
 30
0.0
 11
20.099903
 21
24.309805
 31
0.0
1001
ACAD
1000
ASC_BOUNDS
1002
{
1070
    19
1002
}
  0
LINE
  5
1656
100
AcDbEntity
  8
OGGETTO
  6
CONTINUOUS
100
AcDbLine
 10
3.099903
 20
60.309805
 30
0.0
 11
12.016999
 21
60.309805
 31
0.0
1001
ACAD
1000
ASC_BOUNDS
1002
{
1070
    19
1002
}
  0
LINE
  5
1657
100
AcDbEntity
  8
OGGETTO
  6
CONTINUOUS
100
AcDbLine
 10
12.016999
 20
60.309805
 30
0.0
 11
3.099903
 21
60.309805
 31
0.0
1001
ACAD
1000
ASC_BOUNDS
1002
{
1070
    19
1002
}
  0
LINE
  5
1658
100
AcDbEntity
  8
OGGETTO
  6
CONTINUOUS
100
AcDbLine
 10
3.099903
 20
60.309805
 30
0.0
 11
3.099903
 21
57.559805
 31
0.0
1001
ACAD
1000
ASC_BOUNDS
1002
{
1070
    19
1002
}
  0
LINE
  5
1659
100
AcDbEntity
  8
OGGETTO
  6
CONTINUOUS
100
AcDbLine
 10
12.099903
 20
60.166211
 30
0.0
 11
12.016999
 21
60.309805
 31
0.0
1001
ACAD
1000
ASC_BOUNDS
1002
{
1070
    19
1002
}
  0
ENDBLK
  5
165B
100
AcDbEntity
  8
QUOTE
  6
CONTINUOUS
100
AcDbBlockEnd
  0
BLOCK
  5
16AC
100
AcDbEntity
  8
QUOTE
  6
CONTINUOUS
100
AcDbBlockBegin
  2
A$C9342
 70
     0
 10
0.0
 20
0.0
 30
0.0
  3
A$C9342
  1

  0
LINE
  5
168C
100
AcDbEntity
  8
FOGLIO
  6
TRATTEGGIATAX2
100
AcDbLine
 10
0.11303
 20
77.714397
 30
0.0
 11
0.11303
 21
81.714397
 31
0.0
1001
ACAD
1000
ASC_BOUNDS
1002
{
1070
    19
1002
}
  0
LINE
  5
168D
100
AcDbEntity
  8
FOGLIO
  6
TRATTEGGIATAX2
 48
2.0
100
AcDbLine
 10
5.665651
 20
79.688414
 30
0.0
 11
5.665651
 21
71.288414
 31
0.0
  0
LINE
  5
168E
100
AcDbEntity
  8
FOGLIO
  6
TRATTEGGIATAX2
 48
2.0
100
AcDbLine
 10
15.165651
 20
95.718414
 30
0.0
 11
15.165651
 21
66.718414
 31
0.0
  0
LINE
  5
168F
100
AcDbEntity
  8
FOGLIO
  6
TRATTEGGIATAX2
100
AcDbLine
 10
15.589558
 20
8.434456
 30
0.0
 11
2.165651
 21
21.858363
 31
0.0
  0
ARC
  5
1690
100
AcDbEntity
  8
FOGLIO
  6
TRATTEGGIATAX2
100
AcDbCircle
 10
46.165651
 20
23.718414
 30
0.0
 40
25.0
100
AcDbArc
 50
136.05448
 51
223.94552
  0
LINE
  5
1691
100
AcDbEntity
  8
FOGLIO
  6
TRATTEGGIATAX2
100
AcDbLine
 10
21.599966
 20
0.302728
 30
0.0
 11
15.589558
 21
6.313136
 31
0.0
1001
ACAD
1000
ASC_BOUNDS
1002
{
1070
    19
1002
}
  0
LINE
  5
1692
100
AcDbEntity
  8
FOGLIO
  6
TRATTEGGIATAX2
100
AcDbLine
 10
21.599966
 20
0.302728
 30
0.0
 11
15.589558
 21
6.313136
 31
0.0
  0
LINE
  5
1693
100
AcDbEntity
  8
FOGLIO
  6
TRATTEGGIATAX2
100
AcDbLine
 10
15.589558
 20
6.313136
 30
0.0
 11
15.589558
 21
8.434456
 31
0.0
  0
LINE
  5
1694
100
AcDbEntity
  8
FOGLIO
  6
TRATTEGGIATAX2
100
AcDbLine
 10
22.731337
 20
0.302728
 30
0.0
 11
28.165651
 21
5.737043
 31
0.0
1001
ACAD
1000
ASC_BOUNDS
1002
{
1070
    19
1002
}
  0
ARC
  5
1695
100
AcDbEntity
  8
FOGLIO
  6
TRATTEGGIATAX2
100
AcDbCircle
 10
22.165651
 20
0.868414
 30
0.0
 40
0.8
100
AcDbArc
 50
225.0
 51
315.0
1001
ACAD
1000
ASC_BOUNDS
1002
{
1070
    19
1005
0
1002
}
  0
LINE
  5
1696
100
AcDbEntity
  8
FOGLIO
  6
TRATTEGGIATAX2
100
AcDbLine
 10
28.165651
 20
6.369062
 30
0.0
 11
28.165651
 21
5.737043
 31
0.0
  0
LINE
  5
1697
100
AcDbEntity
  8
FOGLIO
  6
TRATTEGGIATAX2
100
AcDbLine
 10
2.165651
 20
66.688414
 30
0.0
 11
2.165651
 21
21.858363
 31
0.0
  0
LINE
  5
1698
100
AcDbEntity
  8
FOGLIO
  6
TRATTEGGIATAX2
100
AcDbLine
 10
28.165651
 20
65.718414
 30
0.0
 11
28.165651
 21
41.067765
 31
0.0
  0
LINE
  5
1699
100
AcDbEntity
  8
FOGLIO
  6
TRATTEGGIATAX2
 48
2.0
100
AcDbLine
 10
27.165651
 20
66.718414
 30
0.0
 11
15.165651
 21
66.718414
 31
0.0
  0
LINE
  5
169A
100
AcDbEntity
  8
FOGLIO
  6
TRATTEGGIATAX2
100
AcDbLine
 10
16.165651
 20
66.718414
 30
0.0
 11
28.165651
 21
66.718414
 31
0.0
  0
LINE
  5
169B
100
AcDbEntity
  8
FOGLIO
  6
TRATTEGGIATAX2
100
AcDbLine
 10
5.11303
 20
77.714397
 30
0.0
 11
0.11303
 21
77.714397
 31
0.0
1001
ACAD
1000
ASC_BOUNDS
1002
{
1070
    19
1002
}
  0
LINE
  5
169C
100
AcDbEntity
  8
FOGLIO
  6
TRATTEGGIATAX2
100
AcDbLine
 10
2.165651
 20
70.988414
 30
0.0
 11
2.165651
 21
66.688414
 31
0.0
  0
LINE
  5
169D
100
AcDbEntity
  8
FOGLIO
  6
TRATTEGGIATAX2
100
AcDbLine
 10
16.165651
 20
66.718414
 30
0.0
 11
15.165651
 21
67.718414
 31
0.0
  0
LINE
  5
169E
100
AcDbEntity
  8
FOGLIO
  6
TRATTEGGIATAX2
100
AcDbLine
 10
5.11303
 20
71.714397
 30
0.0
 11
5.11303
 21
77.714397
 31
0.0
1001
ACAD
1000
ASC_BOUNDS
1002
{
1070
    19
1002
}
  0
LINE
  5
169F
100
AcDbEntity
  8
FOGLIO
  6
TRATTEGGIATAX2
 48
2.0
100
AcDbLine
 10
5.665651
 20
71.288414
 30
0.0
 11
2.465651
 21
71.288414
 31
0.0
  0
LINE
  5
16A0
100
AcDbEntity
  8
FOGLIO
  6
TRATTEGGIATAX2
100
AcDbLine
 10
2.465651
 20
71.288414
 30
0.0
 11
2.165651
 21
70.988414
 31
0.0
  0
LINE
  5
16A1
100
AcDbEntity
  8
FOGLIO
  6
TRATTEGGIATAX2
100
AcDbLine
 10
27.165651
 20
66.718414
 30
0.0
 11
28.165651
 21
65.718414
 31
0.0
  0
LINE
  5
16A2
100
AcDbEntity
  8
FOGLIO
  6
TRATTEGGIATAX2
100
AcDbLine
 10
29.165651
 20
67.718414
 30
0.0
 11
28.165651
 21
66.718414
 31
0.0
  0
LINE
  5
16A3
100
AcDbEntity
  8
FOGLIO
  6
TRATTEGGIATAX2
 48
2.0
100
AcDbLine
 10
2.165651
 20
95.718414
 30
0.0
 11
2.165651
 21
79.988414
 31
0.0
  0
LINE
  5
16A4
100
AcDbEntity
  8
FOGLIO
  6
TRATTEGGIATAX2
100
AcDbLine
 10
1.11303
 20
90.714397
 30
0.0
 11
2.11303
 21
89.714397
 31
0.0
1001
ACAD
1000
ASC_BOUNDS
1002
{
1070
    19
1002
}
  0
LINE
  5
16A5
100
AcDbEntity
  8
FOGLIO
  6
TRATTEGGIATAX2
100
AcDbLine
 10
0.11303
 20
81.714397
 30
0.0
 11
2.11303
 21
81.714397
 31
0.0
1001
ACAD
1000
ASC_BOUNDS
1002
{
1070
    19
1002
}
  0
LINE
  5
16A6
100
AcDbEntity
  8
FOGLIO
  6
TRATTEGGIATAX2
100
AcDbLine
 10
2.11303
 20
81.714397
 30
0.0
 11
2.11303
 21
89.714397
 31
0.0
1001
ACAD
1000
ASC_BOUNDS
1002
{
1070
    19
1002
}
  0
LINE
  5
16A7
100
AcDbEntity
  8
FOGLIO
  6
TRATTEGGIATAX2
 48
2.0
100
AcDbLine
 10
2.465651
 20
79.688414
 30
0.0
 11
5.665651
 21
79.688414
 31
0.0
  0
LINE
  5
16A8
100
AcDbEntity
  8
FOGLIO
  6
TRATTEGGIATAX2
 48
2.0
100
AcDbLine
 10
2.465651
 20
79.688414
 30
0.0
 11
2.165651
 21
79.988414
 31
0.0
  0
LINE
  5
16A9
100
AcDbEntity
  8
FOGLIO
  6
TRATTEGGIATAX2
 48
2.0
100
AcDbLine
 10
14.165651
 20
96.718414
 30
0.0
 11
3.165651
 21
96.718414
 31
0.0
  0
LINE
  5
16AA
100
AcDbEntity
  8
FOGLIO
  6
TRATTEGGIATAX2
 48
2.0
100
AcDbLine
 10
3.165651
 20
96.718414
 30
0.0
 11
2.165651
 21
95.718414
 31
0.0
  0
LINE
  5
16AB
100
AcDbEntity
  8
FOGLIO
  6
TRATTEGGIATAX2
 48
2.0
100
AcDbLine
 10
14.165651
 20
96.718414
 30
0.0
 11
15.165651
 21
95.718414
 31
0.0
  0
ENDBLK
  5
16AD
100
AcDbEntity
  8
QUOTE
  6
CONTINUOUS
100
AcDbBlockEnd
  0
BLOCK
  5
1753
100
AcDbEntity
  8
QUOTE
  6
CONTINUOUS
100
AcDbBlockBegin
  2
A$CC101
 70
     0
 10
0.0
 20
0.0
 30
0.0
  3
A$CC101
  1

  0
LINE
  5
16D5
100
AcDbEntity
  8
FOGLIO
  6
TRATTEGGIATAX2
100
AcDbLine
 10
15.550222
 20
78.23473
 30
0.0
 11
15.550222
 21
82.23473
 31
0.0
1001
ACAD
1000
ASC_BOUNDS
1002
{
1070
    19
1002
}
  0
LINE
  5
16D6
100
AcDbEntity
  8
FOGLIO
  6
TRATTEGGIATAX2
100
AcDbLine
 10
0.550222
 20
96.23473
 30
0.0
 11
12.778833
 21
72.23473
 31
0.0
1001
ACAD
1000
ASC_BOUNDS
1002
{
1070
    19
1002
}
  0
LINE
  5
16D7
100
AcDbEntity
  8
FOGLIO
  6
TRATTEGGIATAX2
 48
2.0
100
AcDbLine
 10
21.102844
 20
80.208746
 30
0.0
 11
21.102844
 21
71.808746
 31
0.0
  0
LINE
  5
16D8
100
AcDbEntity
  8
FOGLIO
  6
TRATTEGGIATAX2
100
AcDbLine
 10
20.550222
 20
72.23473
 30
0.0
 11
12.778833
 21
72.23473
 31
0.0
1001
ACAD
1000
ASC_BOUNDS
1002
{
1070
    19
1002
}
  0
LINE
  5
16D9
100
AcDbEntity
  8
FOGLIO
  6
TRATTEGGIATAX2
100
AcDbLine
 10
20.550222
 20
78.23473
 30
0.0
 11
15.550222
 21
78.23473
 31
0.0
1001
ACAD
1000
ASC_BOUNDS
1002
{
1070
    19
1002
}
  0
LINE
  5
16DA
100
AcDbEntity
  8
FOGLIO
  6
TRATTEGGIATAX2
100
AcDbLine
 10
17.602844
 20
71.508746
 30
0.0
 11
17.602844
 21
67.208746
 31
0.0
  0
LINE
  5
16DB
100
AcDbEntity
  8
FOGLIO
  6
TRATTEGGIATAX2
100
AcDbLine
 10
20.550222
 20
72.23473
 30
0.0
 11
20.550222
 21
78.23473
 31
0.0
1001
ACAD
1000
ASC_BOUNDS
1002
{
1070
    19
1002
}
  0
LINE
  5
16DC
100
AcDbEntity
  8
FOGLIO
  6
TRATTEGGIATAX2
 48
2.0
100
AcDbLine
 10
21.102844
 20
71.808746
 30
0.0
 11
17.902844
 21
71.808746
 31
0.0
  0
LINE
  5
16DD
100
AcDbEntity
  8
FOGLIO
  6
TRATTEGGIATAX2
100
AcDbLine
 10
17.902844
 20
71.808746
 30
0.0
 11
17.602844
 21
71.508746
 31
0.0
  0
LINE
  5
16DE
100
AcDbEntity
  8
FOGLIO
  6
TRATTEGGIATAX2
100
AcDbLine
 10
0.550222
 20
115.73473
 30
0.0
 11
11.050222
 21
115.73473
 31
0.0
1001
ACAD
1000
ASC_BOUNDS
1002
{
1070
    19
1002
}
  0
LINE
  5
16DF
100
AcDbEntity
  8
FOGLIO
  6
TRATTEGGIATAX2
100
AcDbLine
 10
11.050222
 20
98.73473
 30
0.0
 11
0.550222
 21
98.73473
 31
0.0
1001
ACAD
1000
ASC_BOUNDS
1002
{
1070
    19
1002
}
  0
LINE
  5
16E0
100
AcDbEntity
  8
FOGLIO
  6
TRATTEGGIATAX2
100
AcDbLine
 10
0.550222
 20
118.23473
 30
0.0
 11
8.633126
 21
132.23473
 31
0.0
1001
ACAD
1000
ASC_BOUNDS
1002
{
1070
    19
1002
}
  0
LINE
  5
16E1
100
AcDbEntity
  8
DISEGNO
100
AcDbLine
 10
2.050222
 20
115.23473
 30
0.0
 11
1.050222
 21
114.23473
 31
0.0
  0
LINE
  5
16E2
100
AcDbEntity
  8
DISEGNO
100
AcDbLine
 10
2.050222
 20
99.23473
 30
0.0
 11
1.050222
 21
100.23473
 31
0.0
  0
LINE
  5
16E3
100
AcDbEntity
  8
FOGLIO
  6
TRATTEGGIATAX2
100
AcDbLine
 10
0.550222
 20
107.23473
 30
0.0
 11
0.550222
 21
118.23473
 31
0.0
1001
ACAD
1000
ASC_BOUNDS
1002
{
1070
    19
1002
}
  0
LINE
  5
16E4
100
AcDbEntity
  8
FOGLIO
  6
TRATTEGGIATAX2
100
AcDbLine
 10
0.550222
 20
112.23473
 30
0.0
 11
0.550222
 21
96.23473
 31
0.0
1001
ACAD
1000
ASC_BOUNDS
1002
{
1070
    19
1002
}
  0
LINE
  5
16E5
100
AcDbEntity
  8
DISEGNO
100
AcDbLine
 10
1.050222
 20
114.23473
 30
0.0
 11
1.050222
 21
100.23473
 31
0.0
  0
LINE
  5
16E6
100
AcDbEntity
  8
FOGLIO
  6
TRATTEGGIATAX2
100
AcDbLine
 10
0.550222
 20
107.23473
 30
0.0
 11
0.550222
 21
96.23473
 31
0.0
1001
ACAD
1000
ASC_BOUNDS
1002
{
1070
    19
1002
}
  0
LINE
  5
16E7
100
AcDbEntity
  8
FOGLIO
  6
TRATTEGGIATAX2
100
AcDbLine
 10
16.550222
 20
111.23473
 30
0.0
 11
16.550222
 21
123.23473
 31
0.0
1001
ACAD
1000
ASC_BOUNDS
1002
{
1070
    19
1002
}
  0
LINE
  5
16E8
100
AcDbEntity
  8
FOGLIO
  6
TRATTEGGIATAX2
100
AcDbLine
 10
16.550222
 20
120.98473
 30
0.0
 11
16.550222
 21
111.23473
 31
0.0
1001
ACAD
1000
ASC_BOUNDS
1002
{
1070
    19
1002
}
  0
LINE
  5
16E9
100
AcDbEntity
  8
DISEGNO
100
AcDbLine
 10
2.050222
 20
115.23473
 30
0.0
 11
2.050222
 21
99.23473
 31
0.0
  0
LINE
  5
16EA
100
AcDbEntity
  8
DISEGNO
100
AcDbLine
 10
11.050222
 20
115.23473
 30
0.0
 11
11.050222
 21
99.23473
 31
0.0
  0
LINE
  5
16EB
100
AcDbEntity
  8
FOGLIO
  6
TRATTEGGIATAX2
100
AcDbLine
 10
20.893942
 20
111.23473
 30
0.0
 11
21.355427
 21
113.851938
 31
0.0
  0
LINE
  5
16EC
100
AcDbEntity
  8
FOGLIO
  6
TRATTEGGIATAX2
100
AcDbLine
 10
20.424795
 20
111.23473
 30
0.0
 11
20.825042
 21
113.504642
 31
0.0
  0
LINE
  5
16ED
100
AcDbEntity
  8
FOGLIO
  6
TRATTEGGIATAX2
100
AcDbLine
 10
18.393942
 20
111.23473
 30
0.0
 11
18.855427
 21
113.851938
 31
0.0
  0
LINE
  5
16EE
100
AcDbEntity
  8
FOGLIO
  6
TRATTEGGIATAX2
100
AcDbLine
 10
20.860299
 20
111.23473
 30
0.0
 11
20.825042
 21
113.504642
 31
0.0
  0
LINE
  5
16EF
100
AcDbEntity
  8
FOGLIO
  6
TRATTEGGIATAX2
100
AcDbLine
 10
16.542626
 20
113.647906
 30
0.0
 11
16.545484
 21
111.23473
 31
0.0
  0
LINE
  5
16F0
100
AcDbEntity
  8
FOGLIO
  6
TRATTEGGIATAX2
100
AcDbLine
 10
16.550222
 20
103.23473
 30
0.0
 11
16.550222
 21
91.23473
 31
0.0
1001
ACAD
1000
ASC_BOUNDS
1002
{
1070
    19
1002
}
  0
LINE
  5
16F1
100
AcDbEntity
  8
FOGLIO
  6
TRATTEGGIATAX2
100
AcDbLine
 10
16.550222
 20
91.23473
 30
0.0
 11
16.550222
 21
103.23473
 31
0.0
1001
ACAD
1000
ASC_BOUNDS
1002
{
1070
    19
1002
}
  0
LINE
  5
16F2
100
AcDbEntity
  8
FOGLIO
  6
TRATTEGGIATAX2
 48
2.0
100
AcDbLine
 10
17.602844
 20
96.238746
 30
0.0
 11
17.602844
 21
80.508746
 31
0.0
  0
LINE
  5
16F3
100
AcDbEntity
  8
FOGLIO
  6
TRATTEGGIATAX2
100
AcDbLine
 10
16.550222
 20
91.23473
 30
0.0
 11
17.550222
 21
90.23473
 31
0.0
1001
ACAD
1000
ASC_BOUNDS
1002
{
1070
    19
1002
}
  0
LINE
  5
16F4
100
AcDbEntity
  8
FOGLIO
  6
TRATTEGGIATAX2
100
AcDbLine
 10
15.550222
 20
82.23473
 30
0.0
 11
17.550222
 21
82.23473
 31
0.0
1001
ACAD
1000
ASC_BOUNDS
1002
{
1070
    19
1002
}
  0
LINE
  5
16F5
100
AcDbEntity
  8
FOGLIO
  6
TRATTEGGIATAX2
100
AcDbLine
 10
17.550222
 20
82.23473
 30
0.0
 11
17.550222
 21
90.23473
 31
0.0
1001
ACAD
1000
ASC_BOUNDS
1002
{
1070
    19
1002
}
  0
LINE
  5
16F6
100
AcDbEntity
  8
FOGLIO
  6
TRATTEGGIATAX2
 48
2.0
100
AcDbLine
 10
17.902844
 20
80.208746
 30
0.0
 11
21.102844
 21
80.208746
 31
0.0
  0
LINE
  5
16F7
100
AcDbEntity
  8
FOGLIO
  6
TRATTEGGIATAX2
 48
2.0
100
AcDbLine
 10
17.902844
 20
80.208746
 30
0.0
 11
17.602844
 21
80.508746
 31
0.0
  0
LINE
  5
16F8
100
AcDbEntity
  8
FOGLIO
  6
TRATTEGGIATAX2
100
AcDbLine
 10
16.557818
 20
100.821554
 30
0.0
 11
16.983326
 21
103.23473
 31
0.0
  0
ARC
  5
16F9
100
AcDbEntity
  8
FOGLIO
  6
TRATTEGGIATAX2
100
AcDbCircle
 10
17.542626
 20
100.647906
 30
0.0
 40
1.0
100
AcDbArc
 50
170.0
 51
350.0
  0
LINE
  5
16FA
100
AcDbEntity
  8
DISEGNO
100
AcDbLine
 10
12.34926
 20
111.23473
 30
0.0
 11
12.34926
 21
103.23473
 31
0.0
  0
LINE
  5
16FB
100
AcDbEntity
  8
DISEGNO
100
AcDbLine
 10
12.34926
 20
103.98473
 30
0.0
 11
11.050222
 21
103.23473
 31
0.0
  0
LINE
  5
16FC
100
AcDbEntity
  8
DISEGNO
100
AcDbLine
 10
2.050222
 20
99.23473
 30
0.0
 11
11.050222
 21
99.23473
 31
0.0
  0
LINE
  5
16FD
100
AcDbEntity
  8
OGGETTO
  6
CONTINUOUS
100
AcDbLine
 10
11.050222
 20
101.73473
 30
0.0
 11
11.050222
 21
98.73473
 31
0.0
1001
ACAD
1000
ASC_BOUNDS
1002
{
1070
    19
1002
}
  0
LINE
  5
16FE
100
AcDbEntity
  8
OGGETTO
  6
CONTINUOUS
100
AcDbLine
 10
11.050222
 20
98.73473
 30
0.0
 11
11.050222
 21
101.73473
 31
0.0
  0
LINE
  5
16FF
100
AcDbEntity
  8
FOGLIO
  6
TRATTEGGIATAX2
100
AcDbLine
 10
11.050222
 20
101.73473
 30
0.0
 11
16.550222
 21
101.73473
 31
0.0
1001
ACAD
1000
ASC_BOUNDS
1002
{
1070
    19
1002
}
  0
LINE
  5
1700
100
AcDbEntity
  8
FOGLIO
  6
TRATTEGGIATAX2
100
AcDbLine
 10
16.55496
 20
103.23473
 30
0.0
 11
16.557818
 21
100.821554
 31
0.0
  0
LINE
  5
1701
100
AcDbEntity
  8
DISEGNO
100
AcDbLine
 10
11.050222
 20
111.23473
 30
0.0
 11
12.34926
 21
110.48473
 31
0.0
  0
LINE
  5
1702
100
AcDbEntity
  8
FOGLIO
  6
TRATTEGGIATAX2
 48
2.0
100
AcDbLine
 10
18.602844
 20
97.238746
 30
0.0
 11
17.602844
 21
96.238746
 31
0.0
  0
LINE
  5
1703
100
AcDbEntity
  8
FOGLIO
  6
TRATTEGGIATAX2
100
AcDbLine
 10
22.716274
 20
99.663098
 30
0.0
 11
22.368978
 21
99.663098
 31
0.0
  0
LINE
  5
1704
100
AcDbEntity
  8
FOGLIO
  6
TRATTEGGIATAX2
100
AcDbLine
 10
21.557818
 20
100.821554
 30
0.0
 11
21.520336
 21
103.23473
 31
0.0
  0
LINE
  5
1705
100
AcDbEntity
  8
FOGLIO
  6
TRATTEGGIATAX2
100
AcDbLine
 10
21.027434
 20
100.474258
 30
0.0
 11
21.51418
 21
103.23473
 31
0.0
  0
LINE
  5
1706
100
AcDbEntity
  8
FOGLIO
  6
TRATTEGGIATAX2
100
AcDbLine
 10
21.557818
 20
100.821554
 30
0.0
 11
21.983326
 21
103.23473
 31
0.0
  0
LINE
  5
1707
100
AcDbEntity
  8
FOGLIO
  6
TRATTEGGIATAX2
100
AcDbLine
 10
19.057818
 20
100.821554
 30
0.0
 11
19.020336
 21
103.23473
 31
0.0
  0
LINE
  5
1708
100
AcDbEntity
  8
FOGLIO
  6
TRATTEGGIATAX2
100
AcDbLine
 10
18.527434
 20
100.474258
 30
0.0
 11
19.01418
 21
103.23473
 31
0.0
  0
LINE
  5
1709
100
AcDbEntity
  8
FOGLIO
  6
TRATTEGGIATAX2
100
AcDbLine
 10
19.057818
 20
100.821554
 30
0.0
 11
19.483326
 21
103.23473
 31
0.0
  0
ARC
  5
170A
100
AcDbEntity
  8
FOGLIO
  6
TRATTEGGIATAX2
100
AcDbCircle
 10
20.042626
 20
100.647906
 30
0.0
 40
1.0
100
AcDbArc
 50
170.0
 51
350.0
  0
LINE
  5
170B
100
AcDbEntity
  8
FOGLIO
  6
TRATTEGGIATAX2
100
AcDbLine
 10
17.550222
 20
132.23473
 30
0.0
 11
17.550222
 21
124.23473
 31
0.0
1001
ACAD
1000
ASC_BOUNDS
1002
{
1070
    19
1002
}
  0
LINE
  5
170C
100
AcDbEntity
  8
FOGLIO
  6
TRATTEGGIATAX2
100
AcDbLine
 10
17.550222
 20
132.23473
 30
0.0
 11
17.550222
 21
123.23473
 31
0.0
  0
LINE
  5
170D
100
AcDbEntity
  8
FOGLIO
  6
TRATTEGGIATAX2
100
AcDbLine
 10
16.550222
 20
123.23473
 30
0.0
 11
17.550222
 21
124.23473
 31
0.0
1001
ACAD
1000
ASC_BOUNDS
1002
{
1070
    19
1002
}
  0
CIRCLE
  5
170E
100
AcDbEntity
  8
FOGLIO
  6
TRATTEGGIATAX2
100
AcDbCircle
 10
17.542626
 20
113.647906
 30
0.0
 40
1.0
  0
LINE
  5
170F
100
AcDbEntity
  8
DISEGNO
100
AcDbLine
 10
2.050222
 20
115.23473
 30
0.0
 11
11.050222
 21
115.23473
 31
0.0
  0
LINE
  5
1710
100
AcDbEntity
  8
FOGLIO
  6
TRATTEGGIATAX2
100
AcDbLine
 10
11.050222
 20
112.73473
 30
0.0
 11
16.550222
 21
112.73473
 31
0.0
1001
ACAD
1000
ASC_BOUNDS
1002
{
1070
    19
1002
}
  0
LINE
  5
1711
100
AcDbEntity
  8
OGGETTO
  6
CONTINUOUS
100
AcDbLine
 10
11.050222
 20
112.73473
 30
0.0
 11
11.050222
 21
115.73473
 31
0.0
1001
ACAD
1000
ASC_BOUNDS
1002
{
1070
    19
1002
}
  0
LINE
  5
1712
100
AcDbEntity
  8
FOGLIO
  6
TRATTEGGIATAX2
100
AcDbLine
 10
18.602844
 20
117.238746
 30
0.0
 11
17.602844
 21
118.238746
 31
0.0
  0
LINE
  5
1713
100
AcDbEntity
  8
FOGLIO
  6
TRATTEGGIATAX2
100
AcDbLine
 10
18.542626
 20
113.647906
 30
0.0
 11
18.540804
 21
112.067623
 31
0.0
  0
ARC
  5
1714
100
AcDbEntity
  8
FOGLIO
  6
TRATTEGGIATAX2
100
AcDbCircle
 10
19.840234
 20
113.67829
 30
0.0
 40
1.0
100
AcDbArc
 50
350.0
 51
170.0
  0
LINE
  5
1715
100
AcDbEntity
  8
FOGLIO
  6
TRATTEGGIATAX2
100
AcDbLine
 10
17.550222
 20
132.23473
 30
0.0
 11
8.633126
 21
132.23473
 31
0.0
1001
ACAD
1000
ASC_BOUNDS
1002
{
1070
    19
1002
}
  0
LINE
  5
1716
100
AcDbEntity
  8
FOGLIO
  6
TRATTEGGIATAX2
100
AcDbLine
 10
8.633126
 20
132.23473
 30
0.0
 11
17.550222
 21
132.23473
 31
0.0
1001
ACAD
1000
ASC_BOUNDS
1002
{
1070
    19
1002
}
  0
LINE
  5
1717
100
AcDbEntity
  8
FOGLIO
  6
TRATTEGGIATAX2
100
AcDbLine
 10
8.550222
 20
132.091136
 30
0.0
 11
8.633126
 21
132.23473
 31
0.0
1001
ACAD
1000
ASC_BOUNDS
1002
{
1070
    19
1002
}
  0
LINE
  5
1718
100
AcDbEntity
  8
FOGLIO
  6
TRATTEGGIATAX2
100
AcDbLine
 10
17.550222
 20
132.23473
 30
0.0
 11
17.550222
 21
129.48473
 31
0.0
1001
ACAD
1000
ASC_BOUNDS
1002
{
1070
    19
1002
}
  0
LINE
  5
1719
100
AcDbEntity
  8
FOGLIO
  6
TRATTEGGIATAX2
 48
2.0
100
AcDbLine
 10
30.602844
 20
96.238746
 30
0.0
 11
30.602844
 21
67.238746
 31
0.0
  0
LINE
  5
171A
100
AcDbEntity
  8
FOGLIO
  6
TRATTEGGIATAX2
100
AcDbLine
 10
44.602844
 20
68.238746
 30
0.0
 11
44.602844
 21
103.23473
 31
0.0
  0
LINE
  5
171B
100
AcDbEntity
  8
FOGLIO
  6
TRATTEGGIATAX2
100
AcDbLine
 10
30.602844
 20
103.23473
 30
0.0
 11
30.602844
 21
68.238746
 31
0.0
  0
LINE
  5
171C
100
AcDbEntity
  8
FOGLIO
  6
TRATTEGGIATAX2
100
AcDbLine
 10
31.026751
 20
8.954789
 30
0.0
 11
17.602844
 21
22.378696
 31
0.0
  0
ARC
  5
171D
100
AcDbEntity
  8
FOGLIO
  6
TRATTEGGIATAX2
100
AcDbCircle
 10
61.602844
 20
24.238746
 30
0.0
 40
25.0
100
AcDbArc
 50
136.05448
 51
223.94552
  0
LINE
  5
171E
100
AcDbEntity
  8
FOGLIO
  6
TRATTEGGIATAX2
100
AcDbLine
 10
37.037159
 20
0.823061
 30
0.0
 11
31.026751
 21
6.833469
 31
0.0
1001
ACAD
1000
ASC_BOUNDS
1002
{
1070
    19
1002
}
  0
LINE
  5
171F
100
AcDbEntity
  8
FOGLIO
  6
TRATTEGGIATAX2
100
AcDbLine
 10
37.037159
 20
0.823061
 30
0.0
 11
31.026751
 21
6.833469
 31
0.0
  0
LINE
  5
1720
100
AcDbEntity
  8
FOGLIO
  6
TRATTEGGIATAX2
100
AcDbLine
 10
31.026751
 20
6.833469
 30
0.0
 11
31.026751
 21
8.954789
 31
0.0
  0
LINE
  5
1721
100
AcDbEntity
  8
FOGLIO
  6
TRATTEGGIATAX2
100
AcDbLine
 10
38.168529
 20
0.823061
 30
0.0
 11
43.602844
 21
6.257376
 31
0.0
1001
ACAD
1000
ASC_BOUNDS
1002
{
1070
    19
1002
}
  0
ARC
  5
1722
100
AcDbEntity
  8
FOGLIO
  6
TRATTEGGIATAX2
100
AcDbCircle
 10
37.602844
 20
1.388746
 30
0.0
 40
0.8
100
AcDbArc
 50
225.0
 51
315.0
1001
ACAD
1000
ASC_BOUNDS
1002
{
1070
    19
1005
0
1002
}
  0
LINE
  5
1723
100
AcDbEntity
  8
FOGLIO
  6
TRATTEGGIATAX2
100
AcDbLine
 10
43.602844
 20
6.889395
 30
0.0
 11
43.602844
 21
6.257376
 31
0.0
  0
LINE
  5
1724
100
AcDbEntity
  8
FOGLIO
  6
TRATTEGGIATAX2
100
AcDbLine
 10
17.602844
 20
67.208746
 30
0.0
 11
17.602844
 21
22.378696
 31
0.0
  0
LINE
  5
1725
100
AcDbEntity
  8
FOGLIO
  6
TRATTEGGIATAX2
100
AcDbLine
 10
43.602844
 20
66.238746
 30
0.0
 11
43.602844
 21
41.588098
 31
0.0
  0
LINE
  5
1726
100
AcDbEntity
  8
FOGLIO
  6
TRATTEGGIATAX2
 48
2.0
100
AcDbLine
 10
42.602844
 20
67.238746
 30
0.0
 11
30.602844
 21
67.238746
 31
0.0
  0
LINE
  5
1727
100
AcDbEntity
  8
FOGLIO
  6
TRATTEGGIATAX2
100
AcDbLine
 10
31.602844
 20
67.238746
 30
0.0
 11
43.602844
 21
67.238746
 31
0.0
  0
LINE
  5
1728
100
AcDbEntity
  8
FOGLIO
  6
TRATTEGGIATAX2
100
AcDbLine
 10
31.602844
 20
67.238746
 30
0.0
 11
30.602844
 21
68.238746
 31
0.0
  0
LINE
  5
1729
100
AcDbEntity
  8
FOGLIO
  6
TRATTEGGIATAX2
100
AcDbLine
 10
42.602844
 20
67.238746
 30
0.0
 11
43.602844
 21
66.238746
 31
0.0
  0
LINE
  5
172A
100
AcDbEntity
  8
FOGLIO
  6
TRATTEGGIATAX2
100
AcDbLine
 10
44.602844
 20
68.238746
 30
0.0
 11
43.602844
 21
67.238746
 31
0.0
  0
LINE
  5
172B
100
AcDbEntity
  8
FOGLIO
  6
TRATTEGGIATAX2
 48
2.0
100
AcDbLine
 10
29.602844
 20
97.238746
 30
0.0
 11
18.602844
 21
97.238746
 31
0.0
  0
ARC
  5
172C
100
AcDbEntity
  8
FOGLIO
  6
TRATTEGGIATAX2
100
AcDbCircle
 10
25.042626
 20
100.647906
 30
0.0
 40
1.0
100
AcDbArc
 50
170.0
 51
350.0
  0
LINE
  5
172D
100
AcDbEntity
  8
FOGLIO
  6
TRATTEGGIATAX2
100
AcDbLine
 10
24.057818
 20
100.821554
 30
0.0
 11
24.020336
 21
103.23473
 31
0.0
  0
ARC
  5
172E
100
AcDbEntity
  8
FOGLIO
  6
TRATTEGGIATAX2
100
AcDbCircle
 10
22.542626
 20
100.647906
 30
0.0
 40
1.0
100
AcDbArc
 50
170.0
 51
350.0
  0
LINE
  5
172F
100
AcDbEntity
  8
FOGLIO
  6
TRATTEGGIATAX2
100
AcDbLine
 10
23.527434
 20
100.474258
 30
0.0
 11
24.01418
 21
103.23473
 31
0.0
  0
LINE
  5
1730
100
AcDbEntity
  8
FOGLIO
  6
TRATTEGGIATAX2
100
AcDbLine
 10
24.057818
 20
100.821554
 30
0.0
 11
24.483326
 21
103.23473
 31
0.0
  0
LINE
  5
1731
100
AcDbEntity
  8
FOGLIO
  6
TRATTEGGIATAX2
 48
2.0
100
AcDbLine
 10
29.602844
 20
97.238746
 30
0.0
 11
30.602844
 21
96.238746
 31
0.0
  0
LINE
  5
1732
100
AcDbEntity
  8
FOGLIO
  6
TRATTEGGIATAX2
100
AcDbLine
 10
30.216274
 20
99.663098
 30
0.0
 11
29.868978
 21
99.663098
 31
0.0
  0
LINE
  5
1733
100
AcDbEntity
  8
FOGLIO
  6
TRATTEGGIATAX2
100
AcDbLine
 10
29.057818
 20
100.821554
 30
0.0
 11
29.020336
 21
103.23473
 31
0.0
  0
LINE
  5
1734
100
AcDbEntity
  8
FOGLIO
  6
TRATTEGGIATAX2
100
AcDbLine
 10
29.057818
 20
100.821554
 30
0.0
 11
29.483326
 21
103.23473
 31
0.0
  0
ARC
  5
1735
100
AcDbEntity
  8
FOGLIO
  6
TRATTEGGIATAX2
100
AcDbCircle
 10
27.542626
 20
100.647906
 30
0.0
 40
1.0
100
AcDbArc
 50
170.0
 51
350.0
  0
LINE
  5
1736
100
AcDbEntity
  8
FOGLIO
  6
TRATTEGGIATAX2
100
AcDbLine
 10
27.716274
 20
99.663098
 30
0.0
 11
27.368978
 21
99.663098
 31
0.0
  0
LINE
  5
1737
100
AcDbEntity
  8
FOGLIO
  6
TRATTEGGIATAX2
100
AcDbLine
 10
26.557818
 20
100.821554
 30
0.0
 11
26.520336
 21
103.23473
 31
0.0
  0
LINE
  5
1738
100
AcDbEntity
  8
FOGLIO
  6
TRATTEGGIATAX2
100
AcDbLine
 10
25.216274
 20
99.663098
 30
0.0
 11
24.868978
 21
99.663098
 31
0.0
  0
LINE
  5
1739
100
AcDbEntity
  8
FOGLIO
  6
TRATTEGGIATAX2
100
AcDbLine
 10
26.027434
 20
100.474258
 30
0.0
 11
26.51418
 21
103.23473
 31
0.0
  0
LINE
  5
173A
100
AcDbEntity
  8
FOGLIO
  6
TRATTEGGIATAX2
100
AcDbLine
 10
26.557818
 20
100.821554
 30
0.0
 11
26.983326
 21
103.23473
 31
0.0
  0
ARC
  5
173B
100
AcDbEntity
  8
FOGLIO
  6
TRATTEGGIATAX2
100
AcDbCircle
 10
30.042626
 20
100.647906
 30
0.0
 40
1.0
100
AcDbArc
 50
170.0
 51
304.070869
  0
LINE
  5
173C
100
AcDbEntity
  8
FOGLIO
  6
TRATTEGGIATAX2
100
AcDbLine
 10
28.527434
 20
100.474258
 30
0.0
 11
29.01418
 21
103.23473
 31
0.0
  0
ARC
  5
173D
100
AcDbEntity
  8
DISEGNO
100
AcDbCircle
 10
48.095248
 20
100.647906
 30
0.0
 40
1.0
100
AcDbArc
 50
170.0
 51
350.0
  0
LINE
  5
173E
100
AcDbEntity
  8
DISEGNO
100
AcDbLine
 10
47.11044
 20
100.821554
 30
0.0
 11
47.535948
 21
103.23473
 31
0.0
  0
LINE
  5
173F
100
AcDbEntity
  8
DISEGNO
100
AcDbLine
 10
46.580056
 20
100.474258
 30
0.0
 11
47.066801
 21
103.23473
 31
0.0
  0
LINE
  5
1740
100
AcDbEntity
  8
DISEGNO
100
AcDbLine
 10
47.11044
 20
100.821554
 30
0.0
 11
47.072958
 21
103.23473
 31
0.0
  0
LINE
  5
1741
100
AcDbEntity
  8
DISEGNO
100
AcDbLine
 10
44.61044
 20
100.821554
 30
0.0
 11
45.035948
 21
103.23473
 31
0.0
  0
LINE
  5
1742
100
AcDbEntity
  8
DISEGNO
100
AcDbLine
 10
44.607582
 20
103.23473
 30
0.0
 11
44.61044
 21
100.821554
 31
0.0
  0
ARC
  5
1743
100
AcDbEntity
  8
DISEGNO
100
AcDbCircle
 10
45.595248
 20
100.647906
 30
0.0
 40
1.0
100
AcDbArc
 50
170.0
 51
350.0
  0
LINE
  5
1744
100
AcDbEntity
  8
DISEGNO
100
AcDbLine
 10
54.61044
 20
100.821554
 30
0.0
 11
55.035948
 21
103.23473
 31
0.0
  0
LINE
  5
1745
100
AcDbEntity
  8
DISEGNO
100
AcDbLine
 10
54.080056
 20
100.474258
 30
0.0
 11
54.566801
 21
103.23473
 31
0.0
  0
LINE
  5
1746
100
AcDbEntity
  8
DISEGNO
100
AcDbLine
 10
54.61044
 20
100.821554
 30
0.0
 11
54.572958
 21
103.23473
 31
0.0
  0
LINE
  5
1747
100
AcDbEntity
  8
DISEGNO
100
AcDbLine
 10
55.768896
 20
99.663098
 30
0.0
 11
55.4216
 21
99.663098
 31
0.0
  0
LINE
  5
1748
100
AcDbEntity
  8
DISEGNO
100
AcDbLine
 10
52.11044
 20
100.821554
 30
0.0
 11
52.535948
 21
103.23473
 31
0.0
  0
LINE
  5
1749
100
AcDbEntity
  8
DISEGNO
100
AcDbLine
 10
49.61044
 20
100.821554
 30
0.0
 11
50.035948
 21
103.23473
 31
0.0
  0
LINE
  5
174A
100
AcDbEntity
  8
DISEGNO
100
AcDbLine
 10
51.580056
 20
100.474258
 30
0.0
 11
52.066801
 21
103.23473
 31
0.0
  0
LINE
  5
174B
100
AcDbEntity
  8
DISEGNO
100
AcDbLine
 10
49.080056
 20
100.474258
 30
0.0
 11
49.566801
 21
103.23473
 31
0.0
  0
ARC
  5
174C
100
AcDbEntity
  8
DISEGNO
100
AcDbCircle
 10
50.595248
 20
100.647906
 30
0.0
 40
1.0
100
AcDbArc
 50
170.0
 51
350.0
  0
LINE
  5
174D
100
AcDbEntity
  8
DISEGNO
100
AcDbLine
 10
49.61044
 20
100.821554
 30
0.0
 11
49.572958
 21
103.23473
 31
0.0
  0
LINE
  5
174E
100
AcDbEntity
  8
DISEGNO
100
AcDbLine
 10
50.768896
 20
99.663098
 30
0.0
 11
50.4216
 21
99.663098
 31
0.0
  0
LINE
  5
174F
100
AcDbEntity
  8
DISEGNO
100
AcDbLine
 10
52.11044
 20
100.821554
 30
0.0
 11
52.072958
 21
103.23473
 31
0.0
  0
LINE
  5
1750
100
AcDbEntity
  8
DISEGNO
100
AcDbLine
 10
53.268896
 20
99.663098
 30
0.0
 11
52.9216
 21
99.663098
 31
0.0
  0
ARC
  5
1751
100
AcDbEntity
  8
DISEGNO
100
AcDbCircle
 10
53.095248
 20
100.647906
 30
0.0
 40
1.0
100
AcDbArc
 50
170.0
 51
350.0
  0
LINE
  5
1752
100
AcDbEntity
  8
CENTRO
  6
TRATTO-PUNTO
 48
10.0
100
AcDbLine
 10
1.130642
 20
107.23473
 30
0.0
 11
84.633943
 21
107.23473
 31
0.0
  0
ENDBLK
  5
1754
100
AcDbEntity
  8
QUOTE
  6
CONTINUOUS
100
AcDbBlockEnd
  0
ENDSEC
  0
SECTION
  2
ENTITIES
  0
LINE
  5
156B
100
AcDbEntity
  8
OGGETTO
  6
CONTINUOUS
100
AcDbLine
 10
225.99671
 20
175.925204
 30
0.0
 11
225.99671
 21
170.925204
 31
0.0
  0
LINE
  5
156C
100
AcDbEntity
  8
OGGETTO
  6
CONTINUOUS
100
AcDbLine
 10
225.99671
 20
170.925204
 30
0.0
 11
222.99671
 21
170.925204
 31
0.0
  0
LINE
  5
156D
100
AcDbEntity
  8
OGGETTO
  6
CONTINUOUS
100
AcDbLine
 10
222.99671
 20
170.925204
 30
0.0
 11
222.99671
 21
153.925204
 31
0.0
  0
LINE
  5
156E
100
AcDbEntity
  8
OGGETTO
  6
CONTINUOUS
100
AcDbLine
 10
222.99671
 20
153.925204
 30
0.0
 11
237.99671
 21
153.925204
 31
0.0
  0
LINE
  5
156F
100
AcDbEntity
  8
OGGETTO
  6
CONTINUOUS
100
AcDbLine
 10
225.99671
 20
175.925204
 30
0.0
 11
212.99671
 21
175.925204
 31
0.0
  0
LINE
  5
1570
100
AcDbEntity
  8
OGGETTO
  6
CONTINUOUS
100
AcDbLine
 10
212.99671
 20
175.925204
 30
0.0
 11
212.99671
 21
153.925204
 31
0.0
  0
LINE
  5
1571
100
AcDbEntity
  8
OGGETTO
  6
CONTINUOUS
100
AcDbLine
 10
212.99671
 20
153.925204
 30
0.0
 11
197.99671
 21
153.925204
 31
0.0
  0
LINE
  5
1572
100
AcDbEntity
  8
OGGETTO
  6
CONTINUOUS
100
AcDbLine
 10
224.99671
 20
104.925204
 30
0.0
 11
237.99671
 21
104.925204
 31
0.0
  0
LINE
  5
1573
100
AcDbEntity
  8
OGGETTO
  6
CONTINUOUS
100
AcDbLine
 10
210.99671
 20
104.925204
 30
0.0
 11
197.99671
 21
104.925204
 31
0.0
  0
LINE
  5
1577
100
AcDbEntity
  8
OGGETTO
  6
CONTINUOUS
100
AcDbLine
 10
224.99671
 20
73.925204
 30
0.0
 11
210.99671
 21
73.925204
 31
0.0
  0
LINE
  5
157A
100
AcDbEntity
  8
OGGETTO
  6
CONTINUOUS
100
AcDbLine
 10
224.99671
 20
73.925204
 30
0.0
 11
224.99671
 21
104.925204
 31
0.0
  0
LINE
  5
157B
100
AcDbEntity
  8
OGGETTO
  6
CONTINUOUS
100
AcDbLine
 10
210.99671
 20
73.925204
 30
0.0
 11
210.99671
 21
104.925204
 31
0.0
  0
LINE
  5
157C
100
AcDbEntity
  8
OGGETTO
  6
CONTINUOUS
100
AcDbLine
 10
197.99671
 20
104.925204
 30
0.0
 11
197.99671
 21
153.925204
 31
0.0
  0
LINE
  5
157D
100
AcDbEntity
  8
OGGETTO
  6
CONTINUOUS
100
AcDbLine
 10
237.99671
 20
104.925204
 30
0.0
 11
237.99671
 21
153.925204
 31
0.0
  0
VIEWPORT
  5
22
100
AcDbEntity
 67
     1
  8
0
100
AcDbViewport
 10
261.517699
 20
154.724298
 30
0.0
 40
523.035398
 41
309.448596
 68
    -1
 69
     1
1001
ACAD
1000
MVIEW
1002
{
1070
    16
1010
0.0
1020
0.0
1030
0.0
1010
0.0
1020
0.0
1030
1.0
1040
0.0
1040
309.448596
1040
261.517699
1040
154.724298
1040
50.0
1040
0.0
1040
0.0
1070
     0
1070
   100
1070
     1
1070
     0
1070
     0
1070
     0
1070
     0
1070
     0
1040
0.0
1040
0.0
1040
0.0
1040
1.0
1040
1.0
1040
10.0
1040
10.0
1070
     0
1002
{
1002
}
1002
}
  0
ENDSEC
  0
SECTION
  2
OBJECTS
  0
DICTIONARY
  5
C
100
AcDbDictionary
  3
ACAD_GROUP
350
D
  3
ACAD_MLINESTYLE
350
E
  0
DICTIONARY
  5
D
102
{ACAD_REACTORS
330
C
102
}
100
AcDbDictionary
  0
DICTIONARY
  5
E
102
{ACAD_REACTORS
330
C
102
}
100
AcDbDictionary
  3
STANDARD
350
13
  0
MLINESTYLE
  5
13
102
{ACAD_REACTORS
330
E
102
}
100
AcDbMlineStyle
  2
STANDARD
 70
     0
  3

 62
     0
 51
90.0
 52
90.0
 71
     2
 49
0.5
 62
   256
  6
BYLAYER
 49
-0.5
 62
   256
  6
BYLAYER
  0
ENDSEC
  0
EOF
