  0
SECTION
  2
HEADER
  9
$ACADVER
  1
AC1012
  9
$DWGCODEPAGE
  3
iso8859-1
  9
$INSBASE
 10
0.0
 20
0.0
 30
0.0
  9
$EXTMIN
 10
22.988205
 20
189.461525
 30
0.0
  9
$EXTMAX
 10
212.576233
 20
272.5359
 30
0.0
  9
$LIMMIN
 10
0.0
 20
0.0
  9
$LIMMAX
 10
210.0
 20
297.0
  9
$ORTHOMODE
 70
     0
  9
$REGENMODE
 70
     1
  9
$FILLMODE
 70
     1
  9
$QTEXTMODE
 70
     0
  9
$MIRRTEXT
 70
     1
  9
$DRAGMODE
 70
     2
  9
$LTSCALE
 40
1.0
  9
$OSMODE
 70
     0
  9
$ATTMODE
 70
     1
  9
$TEXTSIZE
 40
1.6
  9
$TRACEWID
 40
0.05
  9
$TEXTSTYLE
  7
STANDARD
  9
$CLAYER
  8
OGGETTO
  9
$CELTYPE
  6
BYLAYER
  9
$CECOLOR
 62
   256
  9
$CELTSCALE
 40
1.0
  9
$DELOBJ
 70
     1
  9
$DISPSILH
 70
     0
  9
$DIMSCALE
 40
1.0
  9
$DIMASZ
 40
2.5
  9
$DIMEXO
 40
0.625
  9
$DIMDLI
 40
3.75
  9
$DIMRND
 40
0.0
  9
$DIMDLE
 40
0.0
  9
$DIMEXE
 40
1.25
  9
$DIMTP
 40
0.0
  9
$DIMTM
 40
0.0
  9
$DIMTXT
 40
5.0
  9
$DIMCEN
 40
0.0
  9
$DIMTSZ
 40
0.0
  9
$DIMTOL
 70
     0
  9
$DIMLIM
 70
     0
  9
$DIMTIH
 70
     0
  9
$DIMTOH
 70
     0
  9
$DIMSE1
 70
     0
  9
$DIMSE2
 70
     0
  9
$DIMTAD
 70
     1
  9
$DIMZIN
 70
     8
  9
$DIMBLK
  1

  9
$DIMASO
 70
     1
  9
$DIMSHO
 70
     1
  9
$DIMPOST
  1

  9
$DIMAPOST
  1

  9
$DIMALT
 70
     0
  9
$DIMALTD
 70
     2
  9
$DIMALTF
 40
0.03937
  9
$DIMLFAC
 40
1.0
  9
$DIMTOFL
 70
     0
  9
$DIMTVP
 40
0.0
  9
$DIMTIX
 70
     0
  9
$DIMSOXD
 70
     0
  9
$DIMSAH
 70
     0
  9
$DIMBLK1
  1

  9
$DIMBLK2
  1

  9
$DIMSTYLE
  2
STANDARD
  9
$DIMCLRD
 70
     0
  9
$DIMCLRE
 70
     0
  9
$DIMCLRT
 70
     0
  9
$DIMTFAC
 40
1.0
  9
$DIMGAP
 40
0.53
  9
$DIMJUST
 70
     0
  9
$DIMSD1
 70
     0
  9
$DIMSD2
 70
     0
  9
$DIMTOLJ
 70
     1
  9
$DIMTZIN
 70
     8
  9
$DIMALTZ
 70
     0
  9
$DIMALTTZ
 70
     0
  9
$DIMFIT
 70
     3
  9
$DIMUPT
 70
     0
  9
$DIMUNIT
 70
     2
  9
$DIMDEC
 70
     2
  9
$DIMTDEC
 70
     2
  9
$DIMALTU
 70
     2
  9
$DIMALTTD
 70
     2
  9
$DIMTXSTY
  7
STANDARD
  9
$DIMAUNIT
 70
     0
  9
$LUNITS
 70
     2
  9
$LUPREC
 70
     4
  9
$SKETCHINC
 40
0.1
  9
$FILLETRAD
 40
0.6
  9
$AUNITS
 70
     0
  9
$AUPREC
 70
     0
  9
$MENU
  1
acad
  9
$ELEVATION
 40
0.0
  9
$PELEVATION
 40
0.0
  9
$THICKNESS
 40
0.0
  9
$LIMCHECK
 70
     0
  9
$BLIPMODE
 70
     1
  9
$CHAMFERA
 40
0.0
  9
$CHAMFERB
 40
0.0
  9
$CHAMFERC
 40
20.0
  9
$CHAMFERD
 40
0.0
  9
$SKPOLY
 70
     0
  9
$TDCREATE
 40
2451765.372719675
  9
$TDUPDATE
 40
2451773.681649421
  9
$TDINDWG
 40
0.1348815972
  9
$TDUSRTIMER
 40
0.1348815972
  9
$USRTIMER
 70
     1
  9
$ANGBASE
 50
0.0
  9
$ANGDIR
 70
     0
  9
$PDMODE
 70
     0
  9
$PDSIZE
 40
0.0
  9
$PLINEWID
 40
0.0
  9
$COORDS
 70
     1
  9
$SPLFRAME
 70
     0
  9
$SPLINETYPE
 70
     6
  9
$SPLINESEGS
 70
     8
  9
$ATTDIA
 70
     0
  9
$ATTREQ
 70
     1
  9
$HANDLING
 70
     1
  9
$HANDSEED
  5
1450
  9
$SURFTAB1
 70
     6
  9
$SURFTAB2
 70
     6
  9
$SURFTYPE
 70
     6
  9
$SURFU
 70
     6
  9
$SURFV
 70
     6
  9
$UCSNAME
  2

  9
$UCSORG
 10
0.0
 20
0.0
 30
0.0
  9
$UCSXDIR
 10
1.0
 20
0.0
 30
0.0
  9
$UCSYDIR
 10
0.0
 20
1.0
 30
0.0
  9
$PUCSNAME
  2

  9
$PUCSORG
 10
0.0
 20
0.0
 30
0.0
  9
$PUCSXDIR
 10
1.0
 20
0.0
 30
0.0
  9
$PUCSYDIR
 10
0.0
 20
1.0
 30
0.0
  9
$USERI1
 70
     0
  9
$USERI2
 70
     0
  9
$USERI3
 70
     0
  9
$USERI4
 70
     0
  9
$USERI5
 70
     0
  9
$USERR1
 40
0.0
  9
$USERR2
 40
0.0
  9
$USERR3
 40
0.0
  9
$USERR4
 40
0.0
  9
$USERR5
 40
0.0
  9
$WORLDVIEW
 70
     1
  9
$SHADEDGE
 70
     3
  9
$SHADEDIF
 70
    70
  9
$TILEMODE
 70
     1
  9
$MAXACTVP
 70
    16
  9
$PINSBASE
 10
0.0
 20
0.0
 30
0.0
  9
$PLIMCHECK
 70
     0
  9
$PEXTMIN
 10
1.000000E+20
 20
1.000000E+20
 30
1.000000E+20
  9
$PEXTMAX
 10
-1.000000E+20
 20
-1.000000E+20
 30
-1.000000E+20
  9
$PLIMMIN
 10
0.0
 20
0.0
  9
$PLIMMAX
 10
12.0
 20
9.0
  9
$UNITMODE
 70
     0
  9
$VISRETAIN
 70
     0
  9
$PLINEGEN
 70
     0
  9
$PSLTSCALE
 70
     1
  9
$TREEDEPTH
 70
  3020
  9
$PICKSTYLE
 70
     1
  9
$CMLSTYLE
  2
STANDARD
  9
$CMLJUST
 70
     0
  9
$CMLSCALE
 40
20.0
  9
$SAVEIMAGES
 70
     0
  0
ENDSEC
  0
SECTION
  2
CLASSES
  0
ENDSEC
  0
SECTION
  2
TABLES
  0
TABLE
  2
VPORT
  5
8
100
AcDbSymbolTable
 70
     2
  0
VPORT
  5
144F
100
AcDbSymbolTableRecord
100
AcDbViewportTableRecord
  2
*ACTIVE
 70
     0
 10
0.0
 20
0.0
 11
1.0
 21
1.0
 12
74.77727
 22
232.230204
 13
0.0
 23
0.0
 14
10.0
 24
10.0
 15
10.0
 25
10.0
 16
0.0
 26
0.0
 36
1.0
 17
0.0
 27
0.0
 37
0.0
 40
638.226285
 41
1.650113
 42
50.0
 43
0.0
 44
0.0
 50
0.0
 51
0.0
 71
     0
 72
   100
 73
     1
 74
     0
 75
     0
 76
     0
 77
     0
 78
     0
  0
ENDTAB
  0
TABLE
  2
LTYPE
  5
5
100
AcDbSymbolTable
 70
     5
  0
LTYPE
  5
13
100
AcDbSymbolTableRecord
100
AcDbLinetypeTableRecord
  2
BYBLOCK
 70
     0
  3

 72
    65
 73
     0
 40
0.0
  0
LTYPE
  5
14
100
AcDbSymbolTableRecord
100
AcDbLinetypeTableRecord
  2
BYLAYER
 70
     0
  3

 72
    65
 73
     0
 40
0.0
  0
LTYPE
  5
15
100
AcDbSymbolTableRecord
100
AcDbLinetypeTableRecord
  2
CONTINUOUS
 70
    64
  3
Solid line
 72
    65
 73
     0
 40
0.0
  0
LTYPE
  5
94
100
AcDbSymbolTableRecord
100
AcDbLinetypeTableRecord
  2
ACAD_ISO04W100
 70
    64
  3
____ . ____ . ____ . ____ . ____ . ____ . ____ 
 72
    65
 73
     4
 40
30.5
 49
24.0
 74
     0
 49
-3.0
 74
     0
 49
0.5
 74
     0
 49
-3.0
 74
     0
  0
LTYPE
  5
225
100
AcDbSymbolTableRecord
100
AcDbLinetypeTableRecord
  2
TRATTEGGIATAX2
 70
    64
  3
____  ____  ____  ____  ____  ____  ____  ____ 
 72
    65
 73
     2
 40
1.5
 49
1.0
 74
     0
 49
-0.5
 74
     0
  0
LTYPE
  5
226
100
AcDbSymbolTableRecord
100
AcDbLinetypeTableRecord
  2
NASCOSTA
 70
    64
  3
__ __ __ __ __ __ __ __ __ __ __ __ __ __ __ __
 72
    65
 73
     2
 40
0.375
 49
0.25
 74
     0
 49
-0.125
 74
     0
  0
LTYPE
  5
424
100
AcDbSymbolTableRecord
100
AcDbLinetypeTableRecord
  2
LINEA-LINEETTEX2
 70
    64
  3
____________    ____    ____    ____________   
 72
    65
 73
     6
 40
5.0
 49
2.5
 74
     0
 49
-0.5
 74
     0
 49
0.5
 74
     0
 49
-0.5
 74
     0
 49
0.5
 74
     0
 49
-0.5
 74
     0
  0
ENDTAB
  0
TABLE
  2
LAYER
  5
2
100
AcDbSymbolTable
 70
    12
  0
LAYER
  5
F
100
AcDbSymbolTableRecord
100
AcDbLayerTableRecord
  2
0
 70
     0
 62
     7
  6
CONTINUOUS
  0
LAYER
  5
95
100
AcDbSymbolTableRecord
100
AcDbLayerTableRecord
  2
DISEGNO
 70
    64
 62
     7
  6
CONTINUOUS
  0
LAYER
  5
96
100
AcDbSymbolTableRecord
100
AcDbLayerTableRecord
  2
ASSI
 70
    64
 62
    -3
  6
ACAD_ISO04W100
  0
LAYER
  5
97
100
AcDbSymbolTableRecord
100
AcDbLayerTableRecord
  2
SEZIONE
 70
    64
 62
    -3
  6
CONTINUOUS
  0
LAYER
  5
98
100
AcDbSymbolTableRecord
100
AcDbLayerTableRecord
  2
TEMPRA
 70
    64
 62
     7
  6
CONTINUOUS
  0
LAYER
  5
99
100
AcDbSymbolTableRecord
100
AcDbLayerTableRecord
  2
QUOTE
 70
    64
 62
    -1
  6
CONTINUOUS
  0
LAYER
  5
9A
100
AcDbSymbolTableRecord
100
AcDbLayerTableRecord
  2
FOGLIO
 70
    64
 62
     8
  6
CONTINUOUS
  0
LAYER
  5
1A3
100
AcDbSymbolTableRecord
100
AcDbLayerTableRecord
  2
TRATTO
 70
    64
 62
     6
  6
NASCOSTA
  0
LAYER
  5
28D
100
AcDbSymbolTableRecord
100
AcDbLayerTableRecord
  2
DEFPOINTS
 70
    64
 62
     7
  6
CONTINUOUS
  0
LAYER
  5
425
100
AcDbSymbolTableRecord
100
AcDbLayerTableRecord
  2
OGGETTO
 70
    64
 62
   250
  6
CONTINUOUS
  0
LAYER
  5
426
100
AcDbSymbolTableRecord
100
AcDbLayerTableRecord
  2
CENTRO
 70
    64
 62
    -3
  6
LINEA-LINEETTEX2
  0
LAYER
  5
427
100
AcDbSymbolTableRecord
100
AcDbLayerTableRecord
  2
TESTO
 70
    64
 62
     6
  6
CONTINUOUS
  0
ENDTAB
  0
TABLE
  2
STYLE
  5
3
100
AcDbSymbolTable
 70
     2
  0
STYLE
  5
10
100
AcDbSymbolTableRecord
100
AcDbTextStyleTableRecord
  2
STANDARD
 70
    64
 40
5.0
 41
1.0
 50
0.0
 71
     0
 42
1.6
  3
C:\Programmi\AutoCAD LT\isocp.shx
  4

  0
STYLE
  5
B0
100
AcDbSymbolTableRecord
100
AcDbTextStyleTableRecord
  2
STYLE3
 70
    64
 40
0.0
 41
1.5
 50
0.0
 71
     0
 42
4.0
  3
C:\Programmi\AutoCAD LT\isocp3.shx
  4

  0
ENDTAB
  0
TABLE
  2
VIEW
  5
6
100
AcDbSymbolTable
 70
     0
  0
ENDTAB
  0
TABLE
  2
UCS
  5
7
100
AcDbSymbolTable
 70
     0
  0
ENDTAB
  0
TABLE
  2
APPID
  5
9
100
AcDbSymbolTable
 70
     1
  0
APPID
  5
11
100
AcDbSymbolTableRecord
100
AcDbRegAppTableRecord
  2
ACAD
 70
     0
  0
ENDTAB
  0
TABLE
  2
DIMSTYLE
  5
A
100
AcDbSymbolTable
 70
    13
  0
DIMSTYLE
105
1D
100
AcDbSymbolTableRecord
100
AcDbDimStyleTableRecord
  2
STANDARD
 70
     0
  3

  4

  5

  6

  7

 40
1.0
 41
2.5
 42
0.625
 43
3.75
 44
1.25
 45
0.0
 46
0.0
 47
0.0
 48
0.0
140
5.0
141
2.5
142
0.0
143
0.03937
144
1.0
145
0.0
146
1.0
147
0.53
 71
     0
 72
     0
 73
     0
 74
     0
 75
     0
 76
     0
 77
     1
 78
     8
170
     0
171
     2
172
     0
173
     0
174
     0
175
     0
176
     0
177
     0
178
     0
270
     2
271
     2
272
     2
273
     2
274
     2
340
10
275
     0
280
     0
281
     0
282
     0
283
     1
284
     8
285
     0
286
     0
287
     3
288
     0
  0
DIMSTYLE
105
198
100
AcDbSymbolTableRecord
100
AcDbDimStyleTableRecord
  2
TOLL-06
 70
     0
  3

  4

  5

  6

  7

 40
1.0
 41
2.5
 42
0.625
 43
3.75
 44
1.25
 45
0.0
 46
0.0
 47
-0.05
 48
0.0
140
3.0
141
2.5
142
0.0
143
0.03937
144
1.0
145
0.0
146
0.8
147
0.625
 71
     1
 72
     0
 73
     0
 74
     0
 75
     0
 76
     0
 77
     1
 78
     8
170
     0
171
     2
172
     0
173
     0
174
     0
175
     0
176
     0
177
     0
178
     0
270
     2
271
     2
272
     2
273
     2
274
     2
340
10
275
     0
280
     0
281
     0
282
     0
283
     2
284
     8
285
     0
286
     0
287
     3
288
     0
  0
DIMSTYLE
105
20B
100
AcDbSymbolTableRecord
100
AcDbDimStyleTableRecord
  2
TOLL-01
 70
     0
  3

  4

  5

  6

  7

 40
1.0
 41
2.5
 42
0.625
 43
3.75
 44
1.25
 45
0.0
 46
0.0
 47
0.02
 48
0.0
140
3.0
141
2.5
142
0.0
143
0.03937
144
1.0
145
0.0
146
0.8
147
0.625
 71
     1
 72
     0
 73
     0
 74
     0
 75
     0
 76
     0
 77
     1
 78
     8
170
     0
171
     2
172
     0
173
     0
174
     0
175
     0
176
     0
177
     0
178
     0
270
     2
271
     2
272
     2
273
     2
274
     2
340
10
275
     0
280
     0
281
     0
282
     0
283
     2
284
     8
285
     0
286
     0
287
     3
288
     0
  0
DIMSTYLE
105
232
100
AcDbSymbolTableRecord
100
AcDbDimStyleTableRecord
  2
TOLL-02
 70
     0
  3

  4

  5

  6

  7

 40
1.0
 41
2.5
 42
0.625
 43
3.75
 44
1.25
 45
0.0
 46
0.0
 47
-0.02
 48
0.0
140
3.0
141
2.5
142
0.0
143
0.03937
144
1.0
145
0.0
146
0.8
147
0.625
 71
     1
 72
     0
 73
     0
 74
     0
 75
     0
 76
     0
 77
     1
 78
     8
170
     0
171
     2
172
     0
173
     0
174
     0
175
     0
176
     0
177
     0
178
     0
270
     2
271
     2
272
     2
273
     2
274
     2
340
10
275
     0
280
     0
281
     0
282
     0
283
     2
284
     8
285
     0
286
     0
287
     3
288
     0
  0
DIMSTYLE
105
233
100
AcDbSymbolTableRecord
100
AcDbDimStyleTableRecord
  2
TOLL-03
 70
     0
  3

  4

  5

  6

  7

 40
1.0
 41
2.5
 42
0.625
 43
3.75
 44
1.25
 45
0.0
 46
0.0
 47
0.01
 48
0.01
140
3.0
141
2.5
142
0.0
143
0.03937
144
1.0
145
0.0
146
0.8
147
0.625
 71
     1
 72
     0
 73
     0
 74
     0
 75
     0
 76
     0
 77
     1
 78
     8
170
     0
171
     2
172
     0
173
     0
174
     0
175
     0
176
     0
177
     0
178
     0
270
     2
271
     2
272
     2
273
     2
274
     2
340
10
275
     0
280
     0
281
     0
282
     0
283
     2
284
     8
285
     0
286
     0
287
     3
288
     0
  0
DIMSTYLE
105
234
100
AcDbSymbolTableRecord
100
AcDbDimStyleTableRecord
  2
TOLL-04
 70
     0
  3

  4

  5

  6

  7

 40
1.0
 41
2.5
 42
0.625
 43
3.75
 44
1.25
 45
0.0
 46
0.0
 47
0.05
 48
0.05
140
3.0
141
2.5
142
0.0
143
0.03937
144
1.0
145
0.0
146
0.8
147
0.625
 71
     1
 72
     0
 73
     0
 74
     0
 75
     0
 76
     0
 77
     1
 78
     8
170
     0
171
     2
172
     0
173
     0
174
     0
175
     0
176
     0
177
     0
178
     0
270
     2
271
     2
272
     2
273
     2
274
     2
340
10
275
     0
280
     0
281
     0
282
     0
283
     2
284
     8
285
     0
286
     0
287
     3
288
     0
  0
DIMSTYLE
105
235
100
AcDbSymbolTableRecord
100
AcDbDimStyleTableRecord
  2
TOLL-05
 70
     0
  3

  4

  5

  6

  7

 40
1.0
 41
2.5
 42
0.625
 43
3.75
 44
1.25
 45
0.0
 46
0.0
 47
0.05
 48
0.0
140
3.0
141
2.5
142
0.0
143
0.03937
144
1.0
145
0.0
146
0.8
147
0.625
 71
     1
 72
     0
 73
     0
 74
     0
 75
     0
 76
     0
 77
     1
 78
     8
170
     0
171
     2
172
     0
173
     0
174
     0
175
     0
176
     0
177
     0
178
     0
270
     2
271
     2
272
     2
273
     2
274
     2
340
10
275
     0
280
     0
281
     0
282
     0
283
     2
284
     8
285
     0
286
     0
287
     3
288
     0
  0
DIMSTYLE
105
247
100
AcDbSymbolTableRecord
100
AcDbDimStyleTableRecord
  2
TOLL-07
 70
     0
  3

  4

  5

  6

  7

 40
1.0
 41
2.5
 42
0.625
 43
3.75
 44
1.25
 45
0.0
 46
0.0
 47
0.1
 48
0.1
140
3.0
141
2.5
142
0.0
143
0.03937
144
1.0
145
0.0
146
1.0
147
0.625
 71
     1
 72
     0
 73
     0
 74
     0
 75
     0
 76
     0
 77
     1
 78
     8
170
     0
171
     2
172
     0
173
     0
174
     0
175
     0
176
     0
177
     0
178
     0
270
     2
271
     2
272
     2
273
     2
274
     2
340
10
275
     0
280
     0
281
     0
282
     0
283
     1
284
     8
285
     0
286
     0
287
     3
288
     0
  0
DIMSTYLE
105
251
100
AcDbSymbolTableRecord
100
AcDbDimStyleTableRecord
  2
TOLL-08
 70
     0
  3

  4

  5

  6

  7

 40
1.0
 41
2.5
 42
0.625
 43
3.75
 44
1.25
 45
0.0
 46
0.0
 47
0.1
 48
0.0
140
3.0
141
2.5
142
0.0
143
0.03937
144
1.0
145
0.0
146
1.0
147
0.625
 71
     1
 72
     0
 73
     0
 74
     0
 75
     0
 76
     0
 77
     1
 78
     8
170
     0
171
     2
172
     0
173
     0
174
     0
175
     0
176
     0
177
     0
178
     0
270
     2
271
     2
272
     2
273
     2
274
     2
340
10
275
     0
280
     0
281
     0
282
     0
283
     1
284
     8
285
     0
286
     0
287
     3
288
     0
  0
DIMSTYLE
105
257
100
AcDbSymbolTableRecord
100
AcDbDimStyleTableRecord
  2
TOLL-09
 70
     0
  3

  4

  5

  6

  7

 40
1.0
 41
2.5
 42
0.625
 43
3.75
 44
1.25
 45
0.0
 46
0.0
 47
-0.1
 48
0.0
140
3.0
141
2.5
142
0.0
143
0.03937
144
1.0
145
0.0
146
1.0
147
0.625
 71
     1
 72
     0
 73
     0
 74
     0
 75
     0
 76
     0
 77
     1
 78
     8
170
     0
171
     2
172
     0
173
     0
174
     0
175
     0
176
     0
177
     0
178
     0
270
     2
271
     2
272
     2
273
     2
274
     2
340
10
275
     0
280
     0
281
     0
282
     0
283
     1
284
     8
285
     0
286
     0
287
     3
288
     0
  0
DIMSTYLE
105
258
100
AcDbSymbolTableRecord
100
AcDbDimStyleTableRecord
  2
TOLL-10
 70
     0
  3

  4

  5

  6

  7

 40
1.0
 41
2.5
 42
0.625
 43
3.75
 44
1.25
 45
0.0
 46
0.0
 47
0.2
 48
0.2
140
3.0
141
2.5
142
0.0
143
0.03937
144
1.0
145
0.0
146
1.0
147
0.625
 71
     1
 72
     0
 73
     0
 74
     0
 75
     0
 76
     0
 77
     1
 78
     8
170
     0
171
     2
172
     0
173
     0
174
     0
175
     0
176
     0
177
     0
178
     0
270
     2
271
     2
272
     2
273
     2
274
     2
340
10
275
     0
280
     0
281
     0
282
     0
283
     1
284
     8
285
     0
286
     0
287
     3
288
     0
  0
DIMSTYLE
105
259
100
AcDbSymbolTableRecord
100
AcDbDimStyleTableRecord
  2
TOLL-11
 70
     0
  3

  4

  5

  6

  7

 40
1.0
 41
2.5
 42
0.625
 43
3.75
 44
1.25
 45
0.0
 46
0.0
 47
0.2
 48
0.0
140
3.0
141
2.5
142
0.0
143
0.03937
144
1.0
145
0.0
146
1.0
147
0.625
 71
     1
 72
     0
 73
     0
 74
     0
 75
     0
 76
     0
 77
     1
 78
     8
170
     0
171
     2
172
     0
173
     0
174
     0
175
     0
176
     0
177
     0
178
     0
270
     2
271
     2
272
     2
273
     2
274
     2
340
10
275
     0
280
     0
281
     0
282
     0
283
     1
284
     8
285
     0
286
     0
287
     3
288
     0
  0
DIMSTYLE
105
428
100
AcDbSymbolTableRecord
100
AcDbDimStyleTableRecord
  2
ISO-25
 70
     0
  3

  4

  5

  6

  7

 40
1.0
 41
2.5
 42
0.625
 43
3.75
 44
1.25
 45
0.0
 46
0.0
 47
0.0
 48
0.0
140
2.5
141
2.5
142
0.0
143
0.0394
144
1.0
145
1.0
146
1.0
147
0.625
 71
     0
 72
     0
 73
     1
 74
     0
 75
     0
 76
     0
 77
     1
 78
     8
170
     0
171
     2
172
     1
173
     0
174
     0
175
     0
176
     0
177
     0
178
     0
270
     2
271
     4
272
     4
273
     2
274
     2
340
10
275
     0
280
     0
281
     0
282
     0
283
     1
284
     0
285
     0
286
     0
287
     3
288
     0
  0
ENDTAB
  0
TABLE
  2
BLOCK_RECORD
  5
1
100
AcDbSymbolTable
 70
    22
  0
BLOCK_RECORD
  5
19
100
AcDbSymbolTableRecord
100
AcDbBlockTableRecord
  2
*MODEL_SPACE
  0
BLOCK_RECORD
  5
16
100
AcDbSymbolTableRecord
100
AcDbBlockTableRecord
  2
*PAPER_SPACE
  0
BLOCK_RECORD
  5
373
100
AcDbSymbolTableRecord
100
AcDbBlockTableRecord
  2
*D0
  0
BLOCK_RECORD
  5
380
100
AcDbSymbolTableRecord
100
AcDbBlockTableRecord
  2
*D1
  0
BLOCK_RECORD
  5
3DC
100
AcDbSymbolTableRecord
100
AcDbBlockTableRecord
  2
*D2
  0
BLOCK_RECORD
  5
3E8
100
AcDbSymbolTableRecord
100
AcDbBlockTableRecord
  2
*D3
  0
BLOCK_RECORD
  5
3F4
100
AcDbSymbolTableRecord
100
AcDbBlockTableRecord
  2
*D4
  0
BLOCK_RECORD
  5
400
100
AcDbSymbolTableRecord
100
AcDbBlockTableRecord
  2
*D5
  0
BLOCK_RECORD
  5
40C
100
AcDbSymbolTableRecord
100
AcDbBlockTableRecord
  2
*D6
  0
BLOCK_RECORD
  5
418
100
AcDbSymbolTableRecord
100
AcDbBlockTableRecord
  2
*D7
  0
BLOCK_RECORD
  5
429
100
AcDbSymbolTableRecord
100
AcDbBlockTableRecord
  2
A$C5
  0
BLOCK_RECORD
  5
73E
100
AcDbSymbolTableRecord
100
AcDbBlockTableRecord
  2
RUGOSITA
  0
BLOCK_RECORD
  5
CDE
100
AcDbSymbolTableRecord
100
AcDbBlockTableRecord
  2
*D10
  0
BLOCK_RECORD
  5
108E
100
AcDbSymbolTableRecord
100
AcDbBlockTableRecord
  2
*D14
  0
BLOCK_RECORD
  5
11AE
100
AcDbSymbolTableRecord
100
AcDbBlockTableRecord
  2
A$CB0E1
  0
BLOCK_RECORD
  5
129D
100
AcDbSymbolTableRecord
100
AcDbBlockTableRecord
  2
*D16
  0
BLOCK_RECORD
  5
12B9
100
AcDbSymbolTableRecord
100
AcDbBlockTableRecord
  2
*D17
  0
BLOCK_RECORD
  5
12C2
100
AcDbSymbolTableRecord
100
AcDbBlockTableRecord
  2
*D18
  0
BLOCK_RECORD
  5
130D
100
AcDbSymbolTableRecord
100
AcDbBlockTableRecord
  2
*D19
  0
BLOCK_RECORD
  5
131C
100
AcDbSymbolTableRecord
100
AcDbBlockTableRecord
  2
*D20
  0
BLOCK_RECORD
  5
1365
100
AcDbSymbolTableRecord
100
AcDbBlockTableRecord
  2
*X21
  0
ENDTAB
  0
ENDSEC
  0
SECTION
  2
BLOCKS
  0
BLOCK
  5
1A
100
AcDbEntity
  8
0
100
AcDbBlockBegin
  2
*MODEL_SPACE
 70
     0
 10
0.0
 20
0.0
 30
0.0
  3
*MODEL_SPACE
  1

  0
ENDBLK
  5
1B
100
AcDbEntity
  8
0
100
AcDbBlockEnd
  0
BLOCK
  5
17
100
AcDbEntity
 67
     1
  8
0
100
AcDbBlockBegin
  2
*PAPER_SPACE
 70
     0
 10
0.0
 20
0.0
 30
0.0
  3
*PAPER_SPACE
  1

  0
ENDBLK
  5
18
100
AcDbEntity
 67
     1
  8
0
100
AcDbBlockEnd
  0
BLOCK
  5
121A
100
AcDbEntity
  8
0
100
AcDbBlockBegin
  2
*D0
 70
    65
 10
0.0
 20
0.0
 30
0.0
  3
*D0
  1

  0
LINE
  5
121B
100
AcDbEntity
  8
0
  6
BYBLOCK
 62
     0
100
AcDbLine
 10
45.113449
 20
209.852667
 30
0.0
 11
45.113449
 21
189.461525
 31
0.0
  0
LINE
  5
121C
100
AcDbEntity
  8
0
  6
BYBLOCK
 62
     0
100
AcDbLine
 10
100.113449
 20
209.852667
 30
0.0
 11
100.113449
 21
189.461525
 31
0.0
  0
LINE
  5
121D
100
AcDbEntity
  8
0
  6
BYBLOCK
 62
     0
100
AcDbLine
 10
47.613449
 20
190.711525
 30
0.0
 11
97.613449
 21
190.711525
 31
0.0
  0
SOLID
  5
121E
100
AcDbEntity
  8
0
  6
BYBLOCK
 62
     0
100
AcDbTrace
 10
47.613449
 20
191.128192
 30
0.0
 11
47.613449
 21
190.294859
 31
0.0
 12
45.113449
 22
190.711525
 32
0.0
 13
45.113449
 23
190.711525
 33
0.0
  0
SOLID
  5
121F
100
AcDbEntity
  8
0
  6
BYBLOCK
 62
     0
100
AcDbTrace
 10
97.613449
 20
191.128192
 30
0.0
 11
97.613449
 21
190.294859
 31
0.0
 12
100.113449
 22
190.711525
 32
0.0
 13
100.113449
 23
190.711525
 33
0.0
  0
MTEXT
  5
1220
100
AcDbEntity
  8
0
  6
BYBLOCK
 62
     0
100
AcDbMText
 10
72.613449
 20
193.741525
 30
0.0
 40
5.0
 41
0.0
 71
     5
 72
     1
  1
\A1;55
  0
POINT
  5
1221
100
AcDbEntity
  8
DEFPOINTS
  6
BYBLOCK
 62
     0
100
AcDbPoint
 10
45.113449
 20
210.477667
 30
0.0
  0
POINT
  5
1222
100
AcDbEntity
  8
DEFPOINTS
  6
BYBLOCK
 62
     0
100
AcDbPoint
 10
100.113449
 20
210.477667
 30
0.0
  0
POINT
  5
1223
100
AcDbEntity
  8
DEFPOINTS
  6
BYBLOCK
 62
     0
100
AcDbPoint
 10
100.113449
 20
190.711525
 30
0.0
  0
ENDBLK
  5
1224
100
AcDbEntity
  8
0
100
AcDbBlockEnd
  0
BLOCK
  5
1225
100
AcDbEntity
  8
0
100
AcDbBlockBegin
  2
*D1
 70
    65
 10
0.0
 20
0.0
 30
0.0
  3
*D1
  1

  0
LINE
  5
1226
100
AcDbEntity
  8
0
  6
BYBLOCK
 62
     0
100
AcDbLine
 10
45.488449
 20
235.477667
 30
0.0
 11
27.268205
 21
235.477667
 31
0.0
  0
LINE
  5
1227
100
AcDbEntity
  8
0
  6
BYBLOCK
 62
     0
100
AcDbLine
 10
45.488449
 20
209.477667
 30
0.0
 11
27.268205
 21
209.477667
 31
0.0
  0
LINE
  5
1228
100
AcDbEntity
  8
0
  6
BYBLOCK
 62
     0
100
AcDbLine
 10
28.518205
 20
232.977667
 30
0.0
 11
28.518205
 21
211.977667
 31
0.0
  0
SOLID
  5
1229
100
AcDbEntity
  8
0
  6
BYBLOCK
 62
     0
100
AcDbTrace
 10
28.101538
 20
232.977667
 30
0.0
 11
28.934871
 21
232.977667
 31
0.0
 12
28.518205
 22
235.477667
 32
0.0
 13
28.518205
 23
235.477667
 33
0.0
  0
SOLID
  5
122A
100
AcDbEntity
  8
0
  6
BYBLOCK
 62
     0
100
AcDbTrace
 10
28.101538
 20
211.977667
 30
0.0
 11
28.934871
 21
211.977667
 31
0.0
 12
28.518205
 22
209.477667
 32
0.0
 13
28.518205
 23
209.477667
 33
0.0
  0
MTEXT
  5
122B
100
AcDbEntity
  8
0
  6
BYBLOCK
 62
     0
100
AcDbMText
 10
25.488205
 20
222.477667
 30
0.0
 40
5.0
 41
0.0
 71
     5
 72
     1
  1
\A1;26
 11
0.0
 21
1.0
 31
0.0
  0
POINT
  5
122C
100
AcDbEntity
  8
DEFPOINTS
  6
BYBLOCK
 62
     0
100
AcDbPoint
 10
46.113449
 20
235.477667
 30
0.0
  0
POINT
  5
122D
100
AcDbEntity
  8
DEFPOINTS
  6
BYBLOCK
 62
     0
100
AcDbPoint
 10
46.113449
 20
209.477667
 30
0.0
  0
POINT
  5
122E
100
AcDbEntity
  8
DEFPOINTS
  6
BYBLOCK
 62
     0
100
AcDbPoint
 10
28.518205
 20
209.477667
 30
0.0
  0
ENDBLK
  5
122F
100
AcDbEntity
  8
0
100
AcDbBlockEnd
  0
BLOCK
  5
3E6
100
AcDbEntity
  8
0
100
AcDbBlockBegin
  2
*D2
 70
    65
 10
0.0
 20
0.0
 30
0.0
  3
*D2
  1

  0
LINE
  5
3DD
100
AcDbEntity
  8
0
  6
BYBLOCK
 62
     0
100
AcDbLine
 10
45.055909
 20
68.536088
 30
0.0
 11
45.055909
 21
77.639304
 31
0.0
  0
LINE
  5
3DE
100
AcDbEntity
  8
0
  6
BYBLOCK
 62
     0
100
AcDbLine
 10
65.855909
 20
68.536088
 30
0.0
 11
65.855909
 21
77.639304
 31
0.0
  0
LINE
  5
3DF
100
AcDbEntity
  8
0
  6
BYBLOCK
 62
     0
100
AcDbLine
 10
47.655909
 20
76.587104
 30
0.0
 11
63.255909
 21
76.587104
 31
0.0
  0
SOLID
  5
3E0
100
AcDbEntity
  8
0
  6
BYBLOCK
 62
     0
100
AcDbTrace
 10
47.655909
 20
77.020438
 30
0.0
 11
47.655909
 21
76.153771
 31
0.0
 12
45.055909
 22
76.587104
 32
0.0
 13
45.055909
 23
76.587104
 33
0.0
  0
SOLID
  5
3E1
100
AcDbEntity
  8
0
  6
BYBLOCK
 62
     0
100
AcDbTrace
 10
63.255909
 20
77.020438
 30
0.0
 11
63.255909
 21
76.153771
 31
0.0
 12
65.855909
 22
76.587104
 32
0.0
 13
65.855909
 23
76.587104
 33
0.0
  0
MTEXT
  5
3E2
100
AcDbEntity
  8
0
  6
BYBLOCK
 62
     0
100
AcDbMText
 10
55.455909
 20
78.617104
 30
0.0
 40
3.0
 41
0.0
 71
     5
 72
     1
  1
\A1;{104}
  0
POINT
  5
3E3
100
AcDbEntity
  8
DEFPOINTS
  6
BYBLOCK
 62
     0
100
AcDbPoint
 10
45.055909
 20
68.009988
 30
0.0
  0
POINT
  5
3E4
100
AcDbEntity
  8
DEFPOINTS
  6
BYBLOCK
 62
     0
100
AcDbPoint
 10
65.855909
 20
68.009988
 30
0.0
  0
POINT
  5
3E5
100
AcDbEntity
  8
DEFPOINTS
  6
BYBLOCK
 62
     0
100
AcDbPoint
 10
65.855909
 20
76.587104
 30
0.0
  0
ENDBLK
  5
3E7
100
AcDbEntity
  8
0
100
AcDbBlockEnd
  0
BLOCK
  5
3F2
100
AcDbEntity
  8
0
100
AcDbBlockBegin
  2
*D3
 70
    65
 10
0.0
 20
0.0
 30
0.0
  3
*D3
  1

  0
LINE
  5
3E9
100
AcDbEntity
  8
0
  6
BYBLOCK
 62
     0
100
AcDbLine
 10
65.855909
 20
68.536088
 30
0.0
 11
65.855909
 21
77.639304
 31
0.0
  0
LINE
  5
3EA
100
AcDbEntity
  8
0
  6
BYBLOCK
 62
     0
100
AcDbLine
 10
107.655909
 20
68.536088
 30
0.0
 11
107.655909
 21
77.639304
 31
0.0
  0
LINE
  5
3EB
100
AcDbEntity
  8
0
  6
BYBLOCK
 62
     0
100
AcDbLine
 10
68.455909
 20
76.587104
 30
0.0
 11
105.055909
 21
76.587104
 31
0.0
  0
SOLID
  5
3EC
100
AcDbEntity
  8
0
  6
BYBLOCK
 62
     0
100
AcDbTrace
 10
68.455909
 20
77.020438
 30
0.0
 11
68.455909
 21
76.153771
 31
0.0
 12
65.855909
 22
76.587104
 32
0.0
 13
65.855909
 23
76.587104
 33
0.0
  0
SOLID
  5
3ED
100
AcDbEntity
  8
0
  6
BYBLOCK
 62
     0
100
AcDbTrace
 10
105.055909
 20
77.020438
 30
0.0
 11
105.055909
 21
76.153771
 31
0.0
 12
107.655909
 22
76.587104
 32
0.0
 13
107.655909
 23
76.587104
 33
0.0
  0
MTEXT
  5
3EE
100
AcDbEntity
  8
0
  6
BYBLOCK
 62
     0
100
AcDbMText
 10
86.755909
 20
78.617104
 30
0.0
 40
3.0
 41
0.0
 71
     5
 72
     1
  1
\A1;{209}
  0
POINT
  5
3EF
100
AcDbEntity
  8
DEFPOINTS
  6
BYBLOCK
 62
     0
100
AcDbPoint
 10
65.855909
 20
68.009988
 30
0.0
  0
POINT
  5
3F0
100
AcDbEntity
  8
DEFPOINTS
  6
BYBLOCK
 62
     0
100
AcDbPoint
 10
107.655909
 20
68.009988
 30
0.0
  0
POINT
  5
3F1
100
AcDbEntity
  8
DEFPOINTS
  6
BYBLOCK
 62
     0
100
AcDbPoint
 10
107.655909
 20
76.587104
 30
0.0
  0
ENDBLK
  5
3F3
100
AcDbEntity
  8
0
100
AcDbBlockEnd
  0
BLOCK
  5
3FE
100
AcDbEntity
  8
0
100
AcDbBlockBegin
  2
*D4
 70
    65
 10
0.0
 20
0.0
 30
0.0
  3
*D4
  1

  0
LINE
  5
3F5
100
AcDbEntity
  8
0
  6
BYBLOCK
 62
     0
100
AcDbLine
 10
107.655909
 20
68.536088
 30
0.0
 11
107.655909
 21
77.639304
 31
0.0
  0
LINE
  5
3F6
100
AcDbEntity
  8
0
  6
BYBLOCK
 62
     0
100
AcDbLine
 10
149.455909
 20
68.536088
 30
0.0
 11
149.455909
 21
77.639304
 31
0.0
  0
LINE
  5
3F7
100
AcDbEntity
  8
0
  6
BYBLOCK
 62
     0
100
AcDbLine
 10
110.255909
 20
76.587104
 30
0.0
 11
146.855909
 21
76.587104
 31
0.0
  0
SOLID
  5
3F8
100
AcDbEntity
  8
0
  6
BYBLOCK
 62
     0
100
AcDbTrace
 10
110.255909
 20
77.020438
 30
0.0
 11
110.255909
 21
76.153771
 31
0.0
 12
107.655909
 22
76.587104
 32
0.0
 13
107.655909
 23
76.587104
 33
0.0
  0
SOLID
  5
3F9
100
AcDbEntity
  8
0
  6
BYBLOCK
 62
     0
100
AcDbTrace
 10
146.855909
 20
77.020438
 30
0.0
 11
146.855909
 21
76.153771
 31
0.0
 12
149.455909
 22
76.587104
 32
0.0
 13
149.455909
 23
76.587104
 33
0.0
  0
MTEXT
  5
3FA
100
AcDbEntity
  8
0
  6
BYBLOCK
 62
     0
100
AcDbMText
 10
128.555909
 20
78.617104
 30
0.0
 40
3.0
 41
0.0
 71
     5
 72
     1
  1
\A1;{209}
  0
POINT
  5
3FB
100
AcDbEntity
  8
DEFPOINTS
  6
BYBLOCK
 62
     0
100
AcDbPoint
 10
107.655909
 20
68.009988
 30
0.0
  0
POINT
  5
3FC
100
AcDbEntity
  8
DEFPOINTS
  6
BYBLOCK
 62
     0
100
AcDbPoint
 10
149.455909
 20
68.009988
 30
0.0
  0
POINT
  5
3FD
100
AcDbEntity
  8
DEFPOINTS
  6
BYBLOCK
 62
     0
100
AcDbPoint
 10
149.455909
 20
76.587104
 30
0.0
  0
ENDBLK
  5
3FF
100
AcDbEntity
  8
0
100
AcDbBlockEnd
  0
BLOCK
  5
40A
100
AcDbEntity
  8
0
100
AcDbBlockBegin
  2
*D5
 70
    65
 10
0.0
 20
0.0
 30
0.0
  3
*D5
  1

  0
LINE
  5
401
100
AcDbEntity
  8
0
  6
BYBLOCK
 62
     0
100
AcDbLine
 10
149.455909
 20
68.536088
 30
0.0
 11
149.455909
 21
77.639305
 31
0.0
  0
LINE
  5
402
100
AcDbEntity
  8
0
  6
BYBLOCK
 62
     0
100
AcDbLine
 10
191.255909
 20
68.536088
 30
0.0
 11
191.255909
 21
77.639305
 31
0.0
  0
LINE
  5
403
100
AcDbEntity
  8
0
  6
BYBLOCK
 62
     0
100
AcDbLine
 10
152.055909
 20
76.587105
 30
0.0
 11
188.655909
 21
76.587105
 31
0.0
  0
SOLID
  5
404
100
AcDbEntity
  8
0
  6
BYBLOCK
 62
     0
100
AcDbTrace
 10
152.055909
 20
77.020438
 30
0.0
 11
152.055909
 21
76.153771
 31
0.0
 12
149.455909
 22
76.587105
 32
0.0
 13
149.455909
 23
76.587105
 33
0.0
  0
SOLID
  5
405
100
AcDbEntity
  8
0
  6
BYBLOCK
 62
     0
100
AcDbTrace
 10
188.655909
 20
77.020438
 30
0.0
 11
188.655909
 21
76.153771
 31
0.0
 12
191.255909
 22
76.587105
 32
0.0
 13
191.255909
 23
76.587105
 33
0.0
  0
MTEXT
  5
406
100
AcDbEntity
  8
0
  6
BYBLOCK
 62
     0
100
AcDbMText
 10
170.355909
 20
78.617105
 30
0.0
 40
3.0
 41
0.0
 71
     5
 72
     1
  1
\A1;{209}
  0
POINT
  5
407
100
AcDbEntity
  8
DEFPOINTS
  6
BYBLOCK
 62
     0
100
AcDbPoint
 10
149.455909
 20
68.009988
 30
0.0
  0
POINT
  5
408
100
AcDbEntity
  8
DEFPOINTS
  6
BYBLOCK
 62
     0
100
AcDbPoint
 10
191.255909
 20
68.009988
 30
0.0
  0
POINT
  5
409
100
AcDbEntity
  8
DEFPOINTS
  6
BYBLOCK
 62
     0
100
AcDbPoint
 10
191.255909
 20
76.587105
 30
0.0
  0
ENDBLK
  5
40B
100
AcDbEntity
  8
0
100
AcDbBlockEnd
  0
BLOCK
  5
416
100
AcDbEntity
  8
0
100
AcDbBlockBegin
  2
*D6
 70
    65
 10
0.0
 20
0.0
 30
0.0
  3
*D6
  1

  0
LINE
  5
40D
100
AcDbEntity
  8
0
  6
BYBLOCK
 62
     0
100
AcDbLine
 10
191.255909
 20
68.536088
 30
0.0
 11
191.255909
 21
77.639305
 31
0.0
  0
LINE
  5
40E
100
AcDbEntity
  8
0
  6
BYBLOCK
 62
     0
100
AcDbLine
 10
212.055909
 20
68.536088
 30
0.0
 11
212.055909
 21
77.639305
 31
0.0
  0
LINE
  5
40F
100
AcDbEntity
  8
0
  6
BYBLOCK
 62
     0
100
AcDbLine
 10
193.855909
 20
76.587105
 30
0.0
 11
209.455909
 21
76.587105
 31
0.0
  0
SOLID
  5
410
100
AcDbEntity
  8
0
  6
BYBLOCK
 62
     0
100
AcDbTrace
 10
193.855909
 20
77.020438
 30
0.0
 11
193.855909
 21
76.153771
 31
0.0
 12
191.255909
 22
76.587105
 32
0.0
 13
191.255909
 23
76.587105
 33
0.0
  0
SOLID
  5
411
100
AcDbEntity
  8
0
  6
BYBLOCK
 62
     0
100
AcDbTrace
 10
209.455909
 20
77.020438
 30
0.0
 11
209.455909
 21
76.153771
 31
0.0
 12
212.055909
 22
76.587105
 32
0.0
 13
212.055909
 23
76.587105
 33
0.0
  0
MTEXT
  5
412
100
AcDbEntity
  8
0
  6
BYBLOCK
 62
     0
100
AcDbMText
 10
201.655909
 20
78.617105
 30
0.0
 40
3.0
 41
0.0
 71
     5
 72
     1
  1
\A1;{104}
  0
POINT
  5
413
100
AcDbEntity
  8
DEFPOINTS
  6
BYBLOCK
 62
     0
100
AcDbPoint
 10
191.255909
 20
68.009988
 30
0.0
  0
POINT
  5
414
100
AcDbEntity
  8
DEFPOINTS
  6
BYBLOCK
 62
     0
100
AcDbPoint
 10
212.055909
 20
68.009988
 30
0.0
  0
POINT
  5
415
100
AcDbEntity
  8
DEFPOINTS
  6
BYBLOCK
 62
     0
100
AcDbPoint
 10
212.055909
 20
76.587105
 30
0.0
  0
ENDBLK
  5
417
100
AcDbEntity
  8
0
100
AcDbBlockEnd
  0
BLOCK
  5
422
100
AcDbEntity
  8
0
100
AcDbBlockBegin
  2
*D7
 70
    65
 10
0.0
 20
0.0
 30
0.0
  3
*D7
  1

  0
LINE
  5
419
100
AcDbEntity
  8
0
  6
BYBLOCK
 62
     0
100
AcDbLine
 10
45.055909
 20
68.536088
 30
0.0
 11
45.055909
 21
87.036375
 31
0.0
  0
LINE
  5
41A
100
AcDbEntity
  8
0
  6
BYBLOCK
 62
     0
100
AcDbLine
 10
212.055909
 20
68.536088
 30
0.0
 11
212.055909
 21
87.036375
 31
0.0
  0
LINE
  5
41B
100
AcDbEntity
  8
0
  6
BYBLOCK
 62
     0
100
AcDbLine
 10
47.655909
 20
85.984175
 30
0.0
 11
209.455909
 21
85.984175
 31
0.0
  0
SOLID
  5
41C
100
AcDbEntity
  8
0
  6
BYBLOCK
 62
     0
100
AcDbTrace
 10
47.655909
 20
86.417509
 30
0.0
 11
47.655909
 21
85.550842
 31
0.0
 12
45.055909
 22
85.984175
 32
0.0
 13
45.055909
 23
85.984175
 33
0.0
  0
SOLID
  5
41D
100
AcDbEntity
  8
0
  6
BYBLOCK
 62
     0
100
AcDbTrace
 10
209.455909
 20
86.417509
 30
0.0
 11
209.455909
 21
85.550842
 31
0.0
 12
212.055909
 22
85.984175
 32
0.0
 13
212.055909
 23
85.984175
 33
0.0
  0
MTEXT
  5
41E
100
AcDbEntity
  8
0
  6
BYBLOCK
 62
     0
100
AcDbMText
 10
128.555909
 20
88.014175
 30
0.0
 40
3.0
 41
0.0
 71
     5
 72
     1
  1
\A1;{835}
  0
POINT
  5
41F
100
AcDbEntity
  8
DEFPOINTS
  6
BYBLOCK
 62
     0
100
AcDbPoint
 10
45.055909
 20
68.009988
 30
0.0
  0
POINT
  5
420
100
AcDbEntity
  8
DEFPOINTS
  6
BYBLOCK
 62
     0
100
AcDbPoint
 10
212.055909
 20
68.009988
 30
0.0
  0
POINT
  5
421
100
AcDbEntity
  8
DEFPOINTS
  6
BYBLOCK
 62
     0
100
AcDbPoint
 10
212.055909
 20
85.984175
 30
0.0
  0
ENDBLK
  5
423
100
AcDbEntity
  8
0
100
AcDbBlockEnd
  0
BLOCK
  5
445
100
AcDbEntity
  8
QUOTE
100
AcDbBlockBegin
  2
A$C5
 70
     0
 10
0.0
 20
0.0
 30
0.0
  3
A$C5
  1

  0
LINE
  5
42A
100
AcDbEntity
  8
OGGETTO
  6
CONTINUOUS
100
AcDbLine
 10
167.354735
 20
25.420397
 30
0.0
 11
0.354735
 21
25.420397
 31
0.0
  0
DIMENSION
  5
42B
100
AcDbEntity
  8
QUOTE
  6
CONTINUOUS
100
AcDbDimension
  2
*D7
 10
167.354735
 20
43.394584
 30
0.0
 11
83.854735
 21
45.424584
 31
0.0
 12
-44.701173
 22
-42.589591
 32
0.0
  1
{835}
  3
ISO-25
100
AcDbAlignedDimension
 13
0.354735
 23
25.420397
 33
0.0
 14
167.354735
 24
25.420397
 34
0.0
100
AcDbRotatedDimension
1001
ACAD
1000
DSTYLE
1002
{
1070
   140
1040
2.6
1070
    47
1040
0.02
1070
    48
1040
0.02
1070
    73
1070
     0
1070
   272
1070
     2
1070
   147
1040
0.53
1070
    42
1040
0.5261
1070
    44
1040
1.0522
1070
    43
1040
3.1566
1070
   271
1070
     2
1070
   141
1040
2.1044
1070
    41
1040
2.6
1002
}
  0
DIMENSION
  5
42C
100
AcDbEntity
  8
QUOTE
  6
CONTINUOUS
100
AcDbDimension
  2
*D4
 10
104.754735
 20
33.997513
 30
0.0
 11
83.854735
 21
36.027513
 31
0.0
 12
-44.701173
 22
-42.589591
 32
0.0
  1
{209}
  3
ISO-25
100
AcDbAlignedDimension
 13
62.954735
 23
25.420397
 33
0.0
 14
104.754735
 24
25.420397
 34
0.0
100
AcDbRotatedDimension
1001
ACAD
1000
DSTYLE
1002
{
1070
   140
1040
2.6
1070
    47
1040
0.02
1070
    48
1040
0.02
1070
    73
1070
     0
1070
   272
1070
     2
1070
   147
1040
0.53
1070
    42
1040
0.5261
1070
    44
1040
1.0522
1070
    43
1040
3.1566
1070
   271
1070
     2
1070
   141
1040
2.1044
1070
    41
1040
2.6
1002
}
  0
LINE
  5
42D
100
AcDbEntity
  8
CENTRO
  6
LINEA-LINEETTEX2
100
AcDbLine
 10
0.354735
 20
19.920397
 30
0.0
 11
167.354735
 21
19.920397
 31
0.0
  0
LINE
  5
42E
100
AcDbEntity
  8
OGGETTO
  6
CONTINUOUS
100
AcDbLine
 10
167.354735
 20
14.420397
 30
0.0
 11
0.354735
 21
14.420397
 31
0.0
  0
DIMENSION
  5
42F
100
AcDbEntity
  8
QUOTE
  6
CONTINUOUS
100
AcDbDimension
  2
*D2
 10
21.154735
 20
33.997513
 30
0.0
 11
10.754735
 21
36.027513
 31
0.0
 12
-44.701173
 22
-42.589591
 32
0.0
  1
{104}
  3
ISO-25
100
AcDbAlignedDimension
 13
0.354735
 23
25.420397
 33
0.0
 14
21.154735
 24
25.420397
 34
0.0
100
AcDbRotatedDimension
1001
ACAD
1000
DSTYLE
1002
{
1070
   140
1040
2.6
1070
    47
1040
0.02
1070
    48
1040
0.02
1070
    73
1070
     0
1070
   272
1070
     2
1070
   147
1040
0.53
1070
    42
1040
0.5261
1070
    44
1040
1.0522
1070
    43
1040
3.1566
1070
   271
1070
     2
1070
   141
1040
2.1044
1070
    41
1040
2.6
1002
}
  0
LINE
  5
430
100
AcDbEntity
  8
OGGETTO
  6
CONTINUOUS
100
AcDbLine
 10
0.354735
 20
14.420397
 30
0.0
 11
0.354735
 21
25.420397
 31
0.0
  0
LINE
  5
431
100
AcDbEntity
  8
QUOTE
  6
CONTINUOUS
100
AcDbLine
 10
49.809398
 20
60.875468
 30
0.0
 11
39.667262
 21
60.875468
 31
0.0
  0
LINE
  5
432
100
AcDbEntity
  8
QUOTE
  6
CONTINUOUS
100
AcDbLine
 10
44.73833
 20
65.946536
 30
0.0
 11
39.667262
 21
60.875468
 31
0.0
  0
DIMENSION
  5
433
100
AcDbEntity
  8
QUOTE
  6
CONTINUOUS
100
AcDbDimension
  2
*D3
 10
62.954735
 20
33.997513
 30
0.0
 11
42.054735
 21
36.027513
 31
0.0
 12
-44.701173
 22
-42.589591
 32
0.0
  1
{209}
  3
ISO-25
100
AcDbAlignedDimension
 13
21.154735
 23
25.420397
 33
0.0
 14
62.954735
 24
25.420397
 34
0.0
100
AcDbRotatedDimension
1001
ACAD
1000
DSTYLE
1002
{
1070
   140
1040
2.6
1070
    47
1040
0.02
1070
    48
1040
0.02
1070
    73
1070
     0
1070
   272
1070
     2
1070
   147
1040
0.53
1070
    42
1040
0.5261
1070
    44
1040
1.0522
1070
    43
1040
3.1566
1070
   271
1070
     2
1070
   141
1040
2.1044
1070
    41
1040
2.6
1002
}
  0
CIRCLE
  5
434
100
AcDbEntity
  8
OGGETTO
  6
CONTINUOUS
100
AcDbCircle
 10
21.154735
 20
19.920397
 30
0.0
 40
0.8
  0
LINE
  5
435
100
AcDbEntity
  8
CENTRO
  6
LINEA-LINEETTEX2
100
AcDbLine
 10
21.154735
 20
25.420397
 30
0.0
 11
21.154735
 21
14.420397
 31
0.0
  0
TEXT
  5
436
100
AcDbEntity
  8
TESTO
  6
CONTINUOUS
100
AcDbText
 10
34.311757
 20
54.535807
 30
0.0
 40
3.0
  1
" A "
100
AcDbText
  0
LINE
  5
437
100
AcDbEntity
  8
CENTRO
  6
LINEA-LINEETTEX2
100
AcDbLine
 10
62.954735
 20
25.420397
 30
0.0
 11
62.954735
 21
14.420397
 31
0.0
  0
CIRCLE
  5
438
100
AcDbEntity
  8
OGGETTO
  6
CONTINUOUS
100
AcDbCircle
 10
62.954735
 20
19.920397
 30
0.0
 40
0.8
  0
LINE
  5
439
100
AcDbEntity
  8
QUOTE
  6
CONTINUOUS
100
AcDbLine
 10
44.73833
 20
65.946536
 30
0.0
 11
44.73833
 21
51.51532
 31
0.0
  0
LINE
  5
43A
100
AcDbEntity
  8
QUOTE
  6
CONTINUOUS
100
AcDbLine
 10
44.73833
 20
65.946536
 30
0.0
 11
49.809398
 21
60.875468
 31
0.0
  0
TEXT
  5
43B
100
AcDbEntity
  8
TESTO
  6
CONTINUOUS
100
AcDbText
 10
113.552731
 20
0.370442
 30
0.0
 40
3.0
  1
SMUSSI NON QUOTATI 0.5X45°
100
AcDbText
  0
TEXT
  5
43C
100
AcDbEntity
  8
TESTO
  6
CONTINUOUS
100
AcDbText
 10
90.008858
 20
7.082636
 30
0.0
 40
3.0
  1
TOLLERANZA INTERASSE FORI = +/- 0.2 MM
100
AcDbText
  0
TEXT
  5
43D
100
AcDbEntity
  8
TESTO
  6
CONTINUOUS
100
AcDbText
 10
112.207367
 20
51.850931
 30
0.0
 40
3.0
  1
VISTA DA " A " SCALA 1 : 5
100
AcDbText
  0
DIMENSION
  5
43E
100
AcDbEntity
  8
QUOTE
  6
CONTINUOUS
100
AcDbDimension
  2
*D5
 10
146.554735
 20
33.997514
 30
0.0
 11
125.654735
 21
36.027514
 31
0.0
 12
-44.701173
 22
-42.589591
 32
0.0
  1
{209}
  3
ISO-25
100
AcDbAlignedDimension
 13
104.754735
 23
25.420397
 33
0.0
 14
146.554735
 24
25.420397
 34
0.0
100
AcDbRotatedDimension
1001
ACAD
1000
DSTYLE
1002
{
1070
   140
1040
2.6
1070
    47
1040
0.02
1070
    48
1040
0.02
1070
    73
1070
     0
1070
   272
1070
     2
1070
   147
1040
0.53
1070
    42
1040
0.5261
1070
    44
1040
1.0522
1070
    43
1040
3.1566
1070
   271
1070
     2
1070
   141
1040
2.1044
1070
    41
1040
2.6
1002
}
  0
LINE
  5
43F
100
AcDbEntity
  8
CENTRO
  6
LINEA-LINEETTEX2
100
AcDbLine
 10
104.754735
 20
25.420397
 30
0.0
 11
104.754735
 21
14.420397
 31
0.0
  0
CIRCLE
  5
440
100
AcDbEntity
  8
OGGETTO
  6
CONTINUOUS
100
AcDbCircle
 10
104.754735
 20
19.920397
 30
0.0
 40
0.8
  0
DIMENSION
  5
441
100
AcDbEntity
  8
QUOTE
  6
CONTINUOUS
100
AcDbDimension
  2
*D6
 10
167.354735
 20
33.997514
 30
0.0
 11
156.954735
 21
36.027514
 31
0.0
 12
-44.701173
 22
-42.589591
 32
0.0
  1
{104}
  3
ISO-25
100
AcDbAlignedDimension
 13
146.554735
 23
25.420397
 33
0.0
 14
167.354735
 24
25.420397
 34
0.0
100
AcDbRotatedDimension
1001
ACAD
1000
DSTYLE
1002
{
1070
   140
1040
2.6
1070
    47
1040
0.02
1070
    48
1040
0.02
1070
    73
1070
     0
1070
   272
1070
     2
1070
   147
1040
0.53
1070
    42
1040
0.5261
1070
    44
1040
1.0522
1070
    43
1040
3.1566
1070
   271
1070
     2
1070
   141
1040
2.1044
1070
    41
1040
2.6
1002
}
  0
LINE
  5
442
100
AcDbEntity
  8
CENTRO
  6
LINEA-LINEETTEX2
100
AcDbLine
 10
146.554735
 20
25.420397
 30
0.0
 11
146.554735
 21
14.420397
 31
0.0
  0
CIRCLE
  5
443
100
AcDbEntity
  8
OGGETTO
  6
CONTINUOUS
100
AcDbCircle
 10
146.554735
 20
19.920397
 30
0.0
 40
0.8
  0
LINE
  5
444
100
AcDbEntity
  8
OGGETTO
  6
CONTINUOUS
100
AcDbLine
 10
167.354735
 20
25.420397
 30
0.0
 11
167.354735
 21
14.420397
 31
0.0
  0
ENDBLK
  5
446
100
AcDbEntity
  8
QUOTE
100
AcDbBlockEnd
  0
BLOCK
  5
743
100
AcDbEntity
  8
QUOTE
100
AcDbBlockBegin
  2
RUGOSITA
 70
     2
 10
0.0
 20
0.0
 30
0.0
  3
RUGOSITA
  1

  0
ATTDEF
  5
73F
100
AcDbEntity
  8
QUOTE
100
AcDbText
 10
-1.071886
 20
3.214106
 30
0.0
 40
1.5
  1
0.8
100
AcDbAttributeDefinition
  3
CHE RUGOSITA ?
  2
RUGOSITA
 70
     0
  0
LINE
  5
740
100
AcDbEntity
  8
QUOTE
100
AcDbLine
 10
0.0
 20
0.0
 30
0.0
 11
4.0
 21
6.928203
 31
0.0
  0
LINE
  5
741
100
AcDbEntity
  8
QUOTE
100
AcDbLine
 10
0.0
 20
0.0
 30
0.0
 11
-1.75
 21
3.031089
 31
0.0
  0
LINE
  5
742
100
AcDbEntity
  8
QUOTE
100
AcDbLine
 10
-1.75
 20
3.031089
 30
0.0
 11
1.75
 21
3.031089
 31
0.0
  0
ENDBLK
  5
744
100
AcDbEntity
  8
QUOTE
100
AcDbBlockEnd
  0
BLOCK
  5
1230
100
AcDbEntity
  8
0
100
AcDbBlockBegin
  2
*D10
 70
    65
 10
0.0
 20
0.0
 30
0.0
  3
*D10
  1

  0
LINE
  5
1231
100
AcDbEntity
  8
0
  6
BYBLOCK
 62
     0
100
AcDbLine
 10
85.113449
 20
236.102667
 30
0.0
 11
85.113449
 21
253.962743
 31
0.0
  0
LINE
  5
1232
100
AcDbEntity
  8
0
  6
BYBLOCK
 62
     0
100
AcDbLine
 10
95.113449
 20
236.102667
 30
0.0
 11
95.113449
 21
253.962743
 31
0.0
  0
LINE
  5
1233
100
AcDbEntity
  8
0
  6
BYBLOCK
 62
     0
100
AcDbLine
 10
82.613449
 20
252.712743
 30
0.0
 11
80.113449
 21
252.712743
 31
0.0
  0
LINE
  5
1234
100
AcDbEntity
  8
0
  6
BYBLOCK
 62
     0
100
AcDbLine
 10
97.613449
 20
252.712743
 30
0.0
 11
100.113449
 21
252.712743
 31
0.0
  0
SOLID
  5
1235
100
AcDbEntity
  8
0
  6
BYBLOCK
 62
     0
100
AcDbTrace
 10
82.613449
 20
253.129409
 30
0.0
 11
82.613449
 21
252.296076
 31
0.0
 12
85.113449
 22
252.712743
 32
0.0
 13
85.113449
 23
252.712743
 33
0.0
  0
SOLID
  5
1236
100
AcDbEntity
  8
0
  6
BYBLOCK
 62
     0
100
AcDbTrace
 10
97.613449
 20
253.129409
 30
0.0
 11
97.613449
 21
252.296076
 31
0.0
 12
95.113449
 22
252.712743
 32
0.0
 13
95.113449
 23
252.712743
 33
0.0
  0
MTEXT
  5
1237
100
AcDbEntity
  8
0
  6
BYBLOCK
 62
     0
100
AcDbMText
 10
90.113449
 20
255.742743
 30
0.0
 40
5.0
 41
0.0
 71
     5
 72
     1
  1
\A1;10
  0
POINT
  5
1238
100
AcDbEntity
  8
DEFPOINTS
  6
BYBLOCK
 62
     0
100
AcDbPoint
 10
85.113449
 20
235.477667
 30
0.0
  0
POINT
  5
1239
100
AcDbEntity
  8
DEFPOINTS
  6
BYBLOCK
 62
     0
100
AcDbPoint
 10
95.113449
 20
235.477667
 30
0.0
  0
POINT
  5
123A
100
AcDbEntity
  8
DEFPOINTS
  6
BYBLOCK
 62
     0
100
AcDbPoint
 10
95.113449
 20
252.712743
 30
0.0
  0
ENDBLK
  5
123B
100
AcDbEntity
  8
0
100
AcDbBlockEnd
  0
BLOCK
  5
126E
100
AcDbEntity
  8
0
100
AcDbBlockBegin
  2
*D14
 70
    65
 10
0.0
 20
0.0
 30
0.0
  3
*D14
  1

  0
LINE
  5
126F
100
AcDbEntity
  8
0
  6
BYBLOCK
 62
     0
100
AcDbLine
 10
51.113449
 20
265.056556
 30
0.0
 11
51.113449
 21
268.254875
 31
0.0
  0
LINE
  5
1270
100
AcDbEntity
  8
0
  6
BYBLOCK
 62
     0
100
AcDbLine
 10
90.113449
 20
264.431556
 30
0.0
 11
90.113449
 21
268.254875
 31
0.0
  0
LINE
  5
1271
100
AcDbEntity
  8
0
  6
BYBLOCK
 62
     0
100
AcDbLine
 10
53.613449
 20
267.004875
 30
0.0
 11
87.613449
 21
267.004875
 31
0.0
  0
SOLID
  5
1272
100
AcDbEntity
  8
0
  6
BYBLOCK
 62
     0
100
AcDbTrace
 10
53.613449
 20
267.421542
 30
0.0
 11
53.613449
 21
266.588209
 31
0.0
 12
51.113449
 22
267.004875
 32
0.0
 13
51.113449
 23
267.004875
 33
0.0
  0
SOLID
  5
1273
100
AcDbEntity
  8
0
  6
BYBLOCK
 62
     0
100
AcDbTrace
 10
87.613449
 20
267.421542
 30
0.0
 11
87.613449
 21
266.588209
 31
0.0
 12
90.113449
 22
267.004875
 32
0.0
 13
90.113449
 23
267.004875
 33
0.0
  0
MTEXT
  5
1274
100
AcDbEntity
  8
0
  6
BYBLOCK
 62
     0
100
AcDbMText
 10
70.613449
 20
270.034875
 30
0.0
 40
5.0
 41
0.0
 71
     5
 72
     1
  1
\A1;39
  0
POINT
  5
1275
100
AcDbEntity
  8
DEFPOINTS
  6
BYBLOCK
 62
     0
100
AcDbPoint
 10
51.113449
 20
264.431556
 30
0.0
  0
POINT
  5
1276
100
AcDbEntity
  8
DEFPOINTS
  6
BYBLOCK
 62
     0
100
AcDbPoint
 10
90.113449
 20
263.806556
 30
0.0
  0
POINT
  5
1277
100
AcDbEntity
  8
DEFPOINTS
  6
BYBLOCK
 62
     0
100
AcDbPoint
 10
90.113449
 20
267.004875
 30
0.0
  0
ENDBLK
  5
1278
100
AcDbEntity
  8
0
100
AcDbBlockEnd
  0
BLOCK
  5
11E0
100
AcDbEntity
  8
TEMPRA
100
AcDbBlockBegin
  2
A$CB0E1
 70
     0
 10
0.0
 20
0.0
 30
0.0
  3
A$CB0E1
  1

  0
TEXT
  5
11AF
100
AcDbEntity
  8
SEZIONE
  6
CONTINUOUS
 62
     7
100
AcDbText
 10
4.16705
 20
4.842204
 30
0.0
 40
5.0
  1
M 26-88-03/C
100
AcDbText
  0
LINE
  5
11B0
100
AcDbEntity
  8
SEZIONE
  6
CONTINUOUS
 62
     7
100
AcDbLine
 10
0.057052
 20
44.208521
 30
0.0
 11
92.057052
 21
44.208521
 31
0.0
  0
LINE
  5
11B1
100
AcDbEntity
  8
DISEGNO
  6
CONTINUOUS
100
AcDbLine
 10
2.057052
 20
2.208521
 30
0.0
 11
52.057052
 21
2.208521
 31
0.0
  0
LINE
  5
11B2
100
AcDbEntity
  8
DISEGNO
  6
CONTINUOUS
100
AcDbLine
 10
2.057052
 20
12.208521
 30
0.0
 11
52.057052
 21
12.208521
 31
0.0
  0
LINE
  5
11B3
100
AcDbEntity
  8
DISEGNO
  6
CONTINUOUS
100
AcDbLine
 10
2.057052
 20
0.208521
 30
0.0
 11
52.057052
 21
0.208521
 31
0.0
  0
LINE
  5
11B4
100
AcDbEntity
  8
DISEGNO
  6
CONTINUOUS
100
AcDbLine
 10
60.057052
 20
0.208521
 30
0.0
 11
0.057052
 21
0.208521
 31
0.0
  0
POLYLINE
  5
11B5
100
AcDbEntity
  8
FOGLIO
  6
CONTINUOUS
100
AcDb2dPolyline
 66
     1
 10
0.0
 20
0.0
 30
0.0
  0
VERTEX
  5
11B6
100
AcDbEntity
  8
FOGLIO
  6
CONTINUOUS
100
AcDbVertex
100
AcDb2dVertex
 10
90.057052
 20
22.208521
 30
0.0
  0
VERTEX
  5
11B7
100
AcDbEntity
  8
FOGLIO
  6
CONTINUOUS
100
AcDbVertex
100
AcDb2dVertex
 10
90.057052
 20
12.208521
 30
0.0
  0
VERTEX
  5
11B8
100
AcDbEntity
  8
FOGLIO
  6
CONTINUOUS
100
AcDbVertex
100
AcDb2dVertex
 10
60.057052
 20
12.208521
 30
0.0
  0
VERTEX
  5
11B9
100
AcDbEntity
  8
FOGLIO
  6
CONTINUOUS
100
AcDbVertex
100
AcDb2dVertex
 10
60.057052
 20
2.208521
 30
0.0
  0
VERTEX
  5
11BA
100
AcDbEntity
  8
FOGLIO
  6
CONTINUOUS
100
AcDbVertex
100
AcDb2dVertex
 10
2.057052
 20
2.208521
 30
0.0
  0
VERTEX
  5
11BB
100
AcDbEntity
  8
FOGLIO
  6
CONTINUOUS
100
AcDbVertex
100
AcDb2dVertex
 10
2.057052
 20
12.208521
 30
0.0
  0
VERTEX
  5
11BC
100
AcDbEntity
  8
FOGLIO
  6
CONTINUOUS
100
AcDbVertex
100
AcDb2dVertex
 10
60.057052
 20
12.208521
 30
0.0
  0
VERTEX
  5
11BD
100
AcDbEntity
  8
FOGLIO
  6
CONTINUOUS
100
AcDbVertex
100
AcDb2dVertex
 10
60.057052
 20
22.208521
 30
0.0
  0
VERTEX
  5
11BE
100
AcDbEntity
  8
FOGLIO
  6
CONTINUOUS
100
AcDbVertex
100
AcDb2dVertex
 10
60.057052
 20
42.208521
 30
0.0
  0
VERTEX
  5
11BF
100
AcDbEntity
  8
FOGLIO
  6
CONTINUOUS
100
AcDbVertex
100
AcDb2dVertex
 10
90.057052
 20
42.208521
 30
0.0
  0
VERTEX
  5
11C0
100
AcDbEntity
  8
FOGLIO
  6
CONTINUOUS
100
AcDbVertex
100
AcDb2dVertex
 10
90.057052
 20
22.208521
 30
0.0
  0
VERTEX
  5
11C1
100
AcDbEntity
  8
FOGLIO
  6
CONTINUOUS
100
AcDbVertex
100
AcDb2dVertex
 10
60.057052
 20
22.208521
 30
0.0
  0
VERTEX
  5
11C2
100
AcDbEntity
  8
FOGLIO
  6
CONTINUOUS
100
AcDbVertex
100
AcDb2dVertex
 10
2.057052
 20
22.208521
 30
0.0
  0
VERTEX
  5
11C3
100
AcDbEntity
  8
FOGLIO
  6
CONTINUOUS
100
AcDbVertex
100
AcDb2dVertex
 10
2.057052
 20
42.208521
 30
0.0
  0
VERTEX
  5
11C4
100
AcDbEntity
  8
FOGLIO
  6
CONTINUOUS
100
AcDbVertex
100
AcDb2dVertex
 10
60.057052
 20
42.208521
 30
0.0
  0
VERTEX
  5
11C5
100
AcDbEntity
  8
FOGLIO
  6
CONTINUOUS
100
AcDbVertex
100
AcDb2dVertex
 10
60.057052
 20
32.208521
 30
0.0
  0
SEQEND
  5
11C6
100
AcDbEntity
  8
FOGLIO
  6
CONTINUOUS
  0
LINE
  5
11C7
100
AcDbEntity
  8
SEZIONE
  6
CONTINUOUS
 62
     7
100
AcDbLine
 10
0.057052
 20
44.208521
 30
0.0
 11
0.057052
 21
0.208521
 31
0.0
  0
TEXT
  5
11C8
100
AcDbEntity
  8
SEZIONE
  6
CONTINUOUS
 62
     7
100
AcDbText
 10
4.16705
 20
14.842204
 30
0.0
 40
5.0
  1
M 26-88-03
100
AcDbText
  0
TEXT
  5
11C9
100
AcDbEntity
  8
SEZIONE
  6
CONTINUOUS
 62
     7
100
AcDbText
 10
4.252515
 20
34.201135
 30
0.0
 40
5.0
  1
CODE
100
AcDbText
  0
LINE
  5
11CA
100
AcDbEntity
  8
FOGLIO
  6
CONTINUOUS
100
AcDbLine
 10
2.057052
 20
22.208521
 30
0.0
 11
2.057052
 21
12.208521
 31
0.0
  0
LINE
  5
11CB
100
AcDbEntity
  8
DISEGNO
  6
CONTINUOUS
100
AcDbLine
 10
92.057052
 20
22.208521
 30
0.0
 11
92.057052
 21
44.208521
 31
0.0
  0
TEXT
  5
11CC
100
AcDbEntity
  8
SEZIONE
  6
CONTINUOUS
 62
     7
100
AcDbText
 10
63.557052
 20
34.708521
 30
0.0
 40
5.0
  1
LENGTH
 72
     4
 11
75.057052
 21
37.208521
 31
0.0
100
AcDbText
  0
TEXT
  5
11CD
100
AcDbEntity
  8
SEZIONE
  6
CONTINUOUS
 62
     7
100
AcDbText
 10
70.684762
 20
25.367911
 30
0.0
 40
5.0
  1
mm
 72
     4
 11
75.275371
 21
27.208521
 31
0.0
100
AcDbText
  0
LINE
  5
11CE
100
AcDbEntity
  8
DISEGNO
  6
CONTINUOUS
100
AcDbLine
 10
60.057052
 20
0.208521
 30
0.0
 11
92.057052
 21
0.208521
 31
0.0
  0
LINE
  5
11CF
100
AcDbEntity
  8
DISEGNO
  6
CONTINUOUS
100
AcDbLine
 10
90.057052
 20
2.208521
 30
0.0
 11
60.057052
 21
2.208521
 31
0.0
  0
LINE
  5
11D0
100
AcDbEntity
  8
DISEGNO
  6
CONTINUOUS
100
AcDbLine
 10
90.057052
 20
12.208521
 30
0.0
 11
60.057052
 21
12.208521
 31
0.0
  0
TEXT
  5
11D1
100
AcDbEntity
  8
SEZIONE
  6
CONTINUOUS
 62
     7
100
AcDbText
 10
67.953499
 20
4.812074
 30
0.0
 40
5.0
  1
 415
 72
     4
 11
75.057052
 21
7.208521
 31
0.0
100
AcDbText
  0
POLYLINE
  5
11D2
100
AcDbEntity
  8
FOGLIO
  6
CONTINUOUS
100
AcDb2dPolyline
 66
     1
 10
0.0
 20
0.0
 30
0.0
  0
VERTEX
  5
11D3
100
AcDbEntity
  8
FOGLIO
  6
CONTINUOUS
100
AcDbVertex
100
AcDb2dVertex
 10
60.057052
 20
2.208521
 30
0.0
  0
VERTEX
  5
11D4
100
AcDbEntity
  8
FOGLIO
  6
CONTINUOUS
100
AcDbVertex
100
AcDb2dVertex
 10
90.057052
 20
2.208521
 30
0.0
  0
VERTEX
  5
11D5
100
AcDbEntity
  8
FOGLIO
  6
CONTINUOUS
100
AcDbVertex
100
AcDb2dVertex
 10
90.057052
 20
12.208521
 30
0.0
  0
SEQEND
  5
11D6
100
AcDbEntity
  8
FOGLIO
  6
CONTINUOUS
  0
TEXT
  5
11D7
100
AcDbEntity
  8
SEZIONE
  6
CONTINUOUS
 62
     7
100
AcDbText
 10
69.703499
 20
14.812074
 30
0.0
 40
5.0
  1
835
 72
     4
 11
75.057052
 21
17.208521
 31
0.0
100
AcDbText
  0
LINE
  5
11D8
100
AcDbEntity
  8
DISEGNO
  6
CONTINUOUS
100
AcDbLine
 10
60.057052
 20
12.208521
 30
0.0
 11
60.057052
 21
22.208521
 31
0.0
  0
LINE
  5
11D9
100
AcDbEntity
  8
DISEGNO
  6
CONTINUOUS
100
AcDbLine
 10
60.057052
 20
2.208521
 30
0.0
 11
60.057052
 21
12.208521
 31
0.0
  0
LINE
  5
11DA
100
AcDbEntity
  8
DISEGNO
  6
CONTINUOUS
100
AcDbLine
 10
60.057052
 20
32.208521
 30
0.0
 11
60.057052
 21
22.208521
 31
0.0
  0
LINE
  5
11DB
100
AcDbEntity
  8
DISEGNO
  6
CONTINUOUS
100
AcDbLine
 10
92.057052
 20
12.208521
 30
0.0
 11
92.057052
 21
22.208521
 31
0.0
  0
LINE
  5
11DC
100
AcDbEntity
  8
DISEGNO
  6
CONTINUOUS
100
AcDbLine
 10
90.057052
 20
12.208521
 30
0.0
 11
90.057052
 21
22.208521
 31
0.0
  0
LINE
  5
11DD
100
AcDbEntity
  8
DISEGNO
  6
CONTINUOUS
100
AcDbLine
 10
92.057052
 20
0.208521
 30
0.0
 11
92.057052
 21
12.208521
 31
0.0
  0
LINE
  5
11DE
100
AcDbEntity
  8
DISEGNO
  6
CONTINUOUS
100
AcDbLine
 10
90.057052
 20
2.208521
 30
0.0
 11
90.057052
 21
12.208521
 31
0.0
  0
LINE
  5
11DF
100
AcDbEntity
  8
DISEGNO
  6
CONTINUOUS
100
AcDbLine
 10
90.057052
 20
0.208521
 30
0.0
 11
92.057052
 21
0.208521
 31
0.0
  0
ENDBLK
  5
11E1
100
AcDbEntity
  8
TEMPRA
100
AcDbBlockEnd
  0
BLOCK
  5
129E
100
AcDbEntity
  8
0
100
AcDbBlockBegin
  2
*D16
 70
    65
 10
0.0
 20
0.0
 30
0.0
  3
*D16
  1

  0
LINE
  5
129F
100
AcDbEntity
  8
0
  6
BYBLOCK
 62
     0
100
AcDbLine
 10
45.113449
 20
235.102667
 30
0.0
 11
45.113449
 21
268.088346
 31
0.0
  0
LINE
  5
12A0
100
AcDbEntity
  8
0
  6
BYBLOCK
 62
     0
100
AcDbLine
 10
51.113449
 20
266.379875
 30
0.0
 11
51.113449
 21
265.588346
 31
0.0
  0
LINE
  5
12A1
100
AcDbEntity
  8
0
  6
BYBLOCK
 62
     0
100
AcDbLine
 10
42.613449
 20
266.838346
 30
0.0
 11
40.113449
 21
266.838346
 31
0.0
  0
LINE
  5
12A2
100
AcDbEntity
  8
0
  6
BYBLOCK
 62
     0
100
AcDbLine
 10
53.613449
 20
266.838346
 30
0.0
 11
56.113449
 21
266.838346
 31
0.0
  0
SOLID
  5
12A3
100
AcDbEntity
  8
0
  6
BYBLOCK
 62
     0
100
AcDbTrace
 10
42.613449
 20
267.255012
 30
0.0
 11
42.613449
 21
266.421679
 31
0.0
 12
45.113449
 22
266.838346
 32
0.0
 13
45.113449
 23
266.838346
 33
0.0
  0
SOLID
  5
12A4
100
AcDbEntity
  8
0
  6
BYBLOCK
 62
     0
100
AcDbTrace
 10
53.613449
 20
267.255012
 30
0.0
 11
53.613449
 21
266.421679
 31
0.0
 12
51.113449
 22
266.838346
 32
0.0
 13
51.113449
 23
266.838346
 33
0.0
  0
MTEXT
  5
12A5
100
AcDbEntity
  8
0
  6
BYBLOCK
 62
     0
100
AcDbMText
 10
48.113449
 20
269.868346
 30
0.0
 40
5.0
 41
0.0
 71
     5
 72
     1
  1
\A1;6
  0
POINT
  5
12A6
100
AcDbEntity
  8
DEFPOINTS
  6
BYBLOCK
 62
     0
100
AcDbPoint
 10
45.113449
 20
234.477667
 30
0.0
  0
POINT
  5
12A7
100
AcDbEntity
  8
DEFPOINTS
  6
BYBLOCK
 62
     0
100
AcDbPoint
 10
51.113449
 20
267.004875
 30
0.0
  0
POINT
  5
12A8
100
AcDbEntity
  8
DEFPOINTS
  6
BYBLOCK
 62
     0
100
AcDbPoint
 10
51.113449
 20
266.838346
 30
0.0
  0
ENDBLK
  5
12A9
100
AcDbEntity
  8
0
100
AcDbBlockEnd
  0
BLOCK
  5
12CB
100
AcDbEntity
  8
0
100
AcDbBlockBegin
  2
*D17
 70
    65
 10
0.0
 20
0.0
 30
0.0
  3
*D17
  1

  0
LINE
  5
12CC
100
AcDbEntity
  8
0
  6
BYBLOCK
 62
     0
100
AcDbLine
 10
56.279937
 20
237.176902
 30
0.0
 11
67.584365
 21
249.037466
 31
0.0
  0
SOLID
  5
12CD
100
AcDbEntity
  8
0
  6
BYBLOCK
 62
     0
100
AcDbTrace
 10
55.978323
 20
237.464373
 30
0.0
 11
56.581551
 21
236.88943
 31
0.0
 12
54.555107
 22
235.367216
 32
0.0
 13
54.555107
 23
235.367216
 33
0.0
  0
MTEXT
  5
12CE
100
AcDbEntity
  8
0
  6
BYBLOCK
 62
     0
100
AcDbMText
 10
61.058253
 20
246.58203
 30
0.0
 40
5.0
 41
0.0
 71
     5
 72
     1
  1
\A1;R0.4
 11
0.689932
 21
0.723874
 31
0.0
  0
POINT
  5
12CF
100
AcDbEntity
  8
DEFPOINTS
  6
BYBLOCK
 62
     0
100
AcDbPoint
 10
54.555107
 20
235.367216
 30
0.0
  0
POINT
  5
12D0
100
AcDbEntity
  8
DEFPOINTS
  6
BYBLOCK
 62
     0
100
AcDbPoint
 10
54.279134
 20
235.077667
 30
0.0
  0
ENDBLK
  5
12D1
100
AcDbEntity
  8
0
100
AcDbBlockEnd
  0
BLOCK
  5
12D2
100
AcDbEntity
  8
0
100
AcDbBlockBegin
  2
*D18
 70
    65
 10
0.0
 20
0.0
 30
0.0
  3
*D18
  1

  0
LINE
  5
12D3
100
AcDbEntity
  8
0
  6
BYBLOCK
 62
     0
100
AcDbLine
 10
97.404684
 20
237.209479
 30
0.0
 11
109.845724
 21
251.411309
 31
0.0
  0
SOLID
  5
12D4
100
AcDbEntity
  8
0
  6
BYBLOCK
 62
     0
100
AcDbTrace
 10
97.091268
 20
237.484037
 30
0.0
 11
97.718099
 21
236.934922
 31
0.0
 12
95.75734
 22
235.328985
 32
0.0
 13
95.75734
 23
235.328985
 33
0.0
  0
MTEXT
  5
12D5
100
AcDbEntity
  8
0
  6
BYBLOCK
 62
     0
100
AcDbMText
 10
103.412871
 20
248.666321
 30
0.0
 40
5.0
 41
0.0
 71
     5
 72
     1
  1
\A1;R0.6
 11
0.658938
 21
0.752198
 31
0.0
  0
POINT
  5
12D6
100
AcDbEntity
  8
DEFPOINTS
  6
BYBLOCK
 62
     0
100
AcDbPoint
 10
95.75734
 20
235.328985
 30
0.0
  0
POINT
  5
12D7
100
AcDbEntity
  8
DEFPOINTS
  6
BYBLOCK
 62
     0
100
AcDbPoint
 10
95.361977
 20
234.877667
 30
0.0
  0
ENDBLK
  5
12D8
100
AcDbEntity
  8
0
100
AcDbBlockEnd
  0
BLOCK
  5
130E
100
AcDbEntity
  8
0
100
AcDbBlockBegin
  2
*D19
 70
    65
 10
0.0
 20
0.0
 30
0.0
  3
*D19
  1

  0
LINE
  5
130F
100
AcDbEntity
  8
0
  6
BYBLOCK
 62
     0
100
AcDbLine
 10
50.679287
 20
231.921488
 30
0.0
 11
42.265659
 21
223.208921
 31
0.0
  0
LINE
  5
1310
100
AcDbEntity
  8
0
  6
BYBLOCK
 62
     0
100
AcDbLine
 10
51.54761
 20
231.921488
 30
0.0
 11
59.961239
 21
223.208921
 31
0.0
  0
ARC
  5
1311
100
AcDbEntity
  8
0
  6
BYBLOCK
 62
     0
100
AcDbCircle
 10
51.113449
 20
232.371076
 30
0.0
 40
11.486894
100
AcDbArc
 50
238.494558
 51
301.505442
  0
SOLID
  5
1312
100
AcDbEntity
  8
0
  6
BYBLOCK
 62
     0
100
AcDbTrace
 10
44.855527
 20
222.248017
 30
0.0
 11
45.365739
 21
222.9069
 31
0.0
 12
43.133982
 22
224.108096
 32
0.0
 13
43.133982
 23
224.108096
 33
0.0
  0
SOLID
  5
1313
100
AcDbEntity
  8
0
  6
BYBLOCK
 62
     0
100
AcDbTrace
 10
56.861159
 20
222.9069
 30
0.0
 11
57.371371
 21
222.248017
 31
0.0
 12
59.092916
 22
224.108096
 32
0.0
 13
59.092916
 23
224.108096
 33
0.0
  0
MTEXT
  5
1314
100
AcDbEntity
  8
0
  6
BYBLOCK
 62
     0
100
AcDbMText
 10
51.113449
 20
223.914182
 30
0.0
 40
5.0
 41
0.0
 71
     5
 72
     1
  1
\A1;88°
  0
POINT
  5
1315
100
AcDbEntity
  8
DEFPOINTS
  6
BYBLOCK
 62
     0
100
AcDbPoint
 10
48.205023
 20
221.25848
 30
0.0
  0
POINT
  5
1316
100
AcDbEntity
  8
DEFPOINTS
  6
BYBLOCK
 62
     0
100
AcDbPoint
 10
48.231395
 20
235.35553
 30
0.0
  0
POINT
  5
1317
100
AcDbEntity
  8
DEFPOINTS
  6
BYBLOCK
 62
     0
100
AcDbPoint
 10
53.995503
 20
235.35553
 30
0.0
  0
POINT
  5
1318
100
AcDbEntity
  8
DEFPOINTS
  6
BYBLOCK
 62
     0
100
AcDbPoint
 10
51.113449
 20
232.371076
 30
0.0
  0
POINT
  5
1319
100
AcDbEntity
  8
DEFPOINTS
  6
BYBLOCK
 62
     0
100
AcDbPoint
 10
51.113449
 20
232.371076
 30
0.0
  0
ENDBLK
  5
131A
100
AcDbEntity
  8
0
100
AcDbBlockEnd
  0
BLOCK
  5
131D
100
AcDbEntity
  8
0
100
AcDbBlockBegin
  2
*D20
 70
    65
 10
0.0
 20
0.0
 30
0.0
  3
*D20
  1

  0
LINE
  5
131E
100
AcDbEntity
  8
0
  6
BYBLOCK
 62
     0
100
AcDbLine
 10
89.679287
 20
229.850428
 30
0.0
 11
81.656034
 21
221.542106
 31
0.0
  0
LINE
  5
131F
100
AcDbEntity
  8
0
  6
BYBLOCK
 62
     0
100
AcDbLine
 10
90.54761
 20
229.850428
 30
0.0
 11
98.570863
 21
221.542106
 31
0.0
  0
ARC
  5
1320
100
AcDbEntity
  8
0
  6
BYBLOCK
 62
     0
100
AcDbCircle
 10
90.113449
 20
230.300015
 30
0.0
 40
10.924926
100
AcDbArc
 50
239.140028
 51
300.859972
  0
SOLID
  5
1321
100
AcDbEntity
  8
0
  6
BYBLOCK
 62
     0
100
AcDbTrace
 10
84.256352
 20
220.590928
 30
0.0
 11
84.762845
 21
221.252676
 31
0.0
 12
82.524357
 22
222.441281
 32
0.0
 13
82.524357
 23
222.441281
 33
0.0
  0
SOLID
  5
1322
100
AcDbEntity
  8
0
  6
BYBLOCK
 62
     0
100
AcDbTrace
 10
95.464052
 20
221.252676
 30
0.0
 11
95.970545
 21
220.590928
 31
0.0
 12
97.70254
 22
222.441281
 32
0.0
 13
97.70254
 23
222.441281
 33
0.0
  0
MTEXT
  5
1323
100
AcDbEntity
  8
0
  6
BYBLOCK
 62
     0
100
AcDbMText
 10
90.113449
 20
222.405089
 30
0.0
 40
5.0
 41
0.0
 71
     5
 72
     1
  1
\A1;88°
  0
POINT
  5
1324
100
AcDbEntity
  8
DEFPOINTS
  6
BYBLOCK
 62
     0
100
AcDbPoint
 10
87.34731
 20
219.731075
 30
0.0
  0
POINT
  5
1325
100
AcDbEntity
  8
DEFPOINTS
  6
BYBLOCK
 62
     0
100
AcDbPoint
 10
85.290368
 20
235.294462
 30
0.0
  0
POINT
  5
1326
100
AcDbEntity
  8
DEFPOINTS
  6
BYBLOCK
 62
     0
100
AcDbPoint
 10
94.93653
 20
235.294462
 30
0.0
  0
POINT
  5
1327
100
AcDbEntity
  8
DEFPOINTS
  6
BYBLOCK
 62
     0
100
AcDbPoint
 10
90.113449
 20
230.300015
 30
0.0
  0
POINT
  5
1328
100
AcDbEntity
  8
DEFPOINTS
  6
BYBLOCK
 62
     0
100
AcDbPoint
 10
90.113449
 20
230.300015
 30
0.0
  0
ENDBLK
  5
1329
100
AcDbEntity
  8
0
100
AcDbBlockEnd
  0
BLOCK
  5
1366
100
AcDbEntity
  8
0
100
AcDbBlockBegin
  2
*X21
 70
    65
 10
0.0
 20
0.0
 30
0.0
  3
*X21
  1

  0
LINE
  5
1368
100
AcDbEntity
  8
0
 62
     0
100
AcDbLine
 10
73.01646
 20
233.987551
 30
0.0
 11
74.106576
 21
235.077667
 31
0.0
  0
LINE
  5
1369
100
AcDbEntity
  8
0
 62
     0
100
AcDbLine
 10
72.791954
 20
233.987551
 30
0.0
 11
73.882069
 21
235.077667
 31
0.0
  0
LINE
  5
136A
100
AcDbEntity
  8
0
 62
     0
100
AcDbLine
 10
72.567448
 20
233.987551
 30
0.0
 11
73.657563
 21
235.077667
 31
0.0
  0
LINE
  5
136B
100
AcDbEntity
  8
0
 62
     0
100
AcDbLine
 10
72.342941
 20
233.987551
 30
0.0
 11
73.433057
 21
235.077667
 31
0.0
  0
LINE
  5
136C
100
AcDbEntity
  8
0
 62
     0
100
AcDbLine
 10
72.118435
 20
233.987551
 30
0.0
 11
73.20855
 21
235.077667
 31
0.0
  0
LINE
  5
136D
100
AcDbEntity
  8
0
 62
     0
100
AcDbLine
 10
71.893928
 20
233.987551
 30
0.0
 11
72.984044
 21
235.077667
 31
0.0
  0
LINE
  5
136E
100
AcDbEntity
  8
0
 62
     0
100
AcDbLine
 10
71.669422
 20
233.987551
 30
0.0
 11
72.759537
 21
235.077667
 31
0.0
  0
LINE
  5
136F
100
AcDbEntity
  8
0
 62
     0
100
AcDbLine
 10
71.444916
 20
233.987551
 30
0.0
 11
72.535031
 21
235.077667
 31
0.0
  0
LINE
  5
1370
100
AcDbEntity
  8
0
 62
     0
100
AcDbLine
 10
71.220409
 20
233.987551
 30
0.0
 11
72.310525
 21
235.077667
 31
0.0
  0
LINE
  5
1371
100
AcDbEntity
  8
0
 62
     0
100
AcDbLine
 10
70.995903
 20
233.987551
 30
0.0
 11
72.086018
 21
235.077667
 31
0.0
  0
LINE
  5
1372
100
AcDbEntity
  8
0
 62
     0
100
AcDbLine
 10
70.771396
 20
233.987551
 30
0.0
 11
71.861512
 21
235.077667
 31
0.0
  0
LINE
  5
1373
100
AcDbEntity
  8
0
 62
     0
100
AcDbLine
 10
70.54689
 20
233.987551
 30
0.0
 11
71.637005
 21
235.077667
 31
0.0
  0
LINE
  5
1374
100
AcDbEntity
  8
0
 62
     0
100
AcDbLine
 10
70.322384
 20
233.987551
 30
0.0
 11
71.412499
 21
235.077667
 31
0.0
  0
LINE
  5
1375
100
AcDbEntity
  8
0
 62
     0
100
AcDbLine
 10
70.097877
 20
233.987551
 30
0.0
 11
71.187992
 21
235.077667
 31
0.0
  0
LINE
  5
1376
100
AcDbEntity
  8
0
 62
     0
100
AcDbLine
 10
69.873371
 20
233.987551
 30
0.0
 11
70.963486
 21
235.077667
 31
0.0
  0
LINE
  5
1377
100
AcDbEntity
  8
0
 62
     0
100
AcDbLine
 10
69.648864
 20
233.987551
 30
0.0
 11
70.73898
 21
235.077667
 31
0.0
  0
LINE
  5
1378
100
AcDbEntity
  8
0
 62
     0
100
AcDbLine
 10
69.424358
 20
233.987551
 30
0.0
 11
70.514473
 21
235.077667
 31
0.0
  0
LINE
  5
1379
100
AcDbEntity
  8
0
 62
     0
100
AcDbLine
 10
69.199852
 20
233.987551
 30
0.0
 11
70.289967
 21
235.077667
 31
0.0
  0
LINE
  5
137A
100
AcDbEntity
  8
0
 62
     0
100
AcDbLine
 10
68.975345
 20
233.987551
 30
0.0
 11
70.06546
 21
235.077667
 31
0.0
  0
LINE
  5
137B
100
AcDbEntity
  8
0
 62
     0
100
AcDbLine
 10
68.750839
 20
233.987551
 30
0.0
 11
69.840954
 21
235.077667
 31
0.0
  0
LINE
  5
137C
100
AcDbEntity
  8
0
 62
     0
100
AcDbLine
 10
68.526332
 20
233.987551
 30
0.0
 11
69.616448
 21
235.077667
 31
0.0
  0
LINE
  5
137D
100
AcDbEntity
  8
0
 62
     0
100
AcDbLine
 10
68.301826
 20
233.987551
 30
0.0
 11
69.391941
 21
235.077667
 31
0.0
  0
LINE
  5
137E
100
AcDbEntity
  8
0
 62
     0
100
AcDbLine
 10
68.07732
 20
233.987551
 30
0.0
 11
69.167435
 21
235.077667
 31
0.0
  0
LINE
  5
137F
100
AcDbEntity
  8
0
 62
     0
100
AcDbLine
 10
67.852813
 20
233.987551
 30
0.0
 11
68.942928
 21
235.077667
 31
0.0
  0
LINE
  5
1380
100
AcDbEntity
  8
0
 62
     0
100
AcDbLine
 10
67.628307
 20
233.987551
 30
0.0
 11
68.718422
 21
235.077667
 31
0.0
  0
LINE
  5
1381
100
AcDbEntity
  8
0
 62
     0
100
AcDbLine
 10
67.4038
 20
233.987551
 30
0.0
 11
68.493916
 21
235.077667
 31
0.0
  0
LINE
  5
1382
100
AcDbEntity
  8
0
 62
     0
100
AcDbLine
 10
67.179294
 20
233.987551
 30
0.0
 11
68.269409
 21
235.077667
 31
0.0
  0
LINE
  5
1383
100
AcDbEntity
  8
0
 62
     0
100
AcDbLine
 10
66.954788
 20
233.987551
 30
0.0
 11
68.044903
 21
235.077667
 31
0.0
  0
LINE
  5
1384
100
AcDbEntity
  8
0
 62
     0
100
AcDbLine
 10
66.730281
 20
233.987551
 30
0.0
 11
67.820396
 21
235.077667
 31
0.0
  0
LINE
  5
1385
100
AcDbEntity
  8
0
 62
     0
100
AcDbLine
 10
66.505775
 20
233.987551
 30
0.0
 11
67.59589
 21
235.077667
 31
0.0
  0
LINE
  5
1386
100
AcDbEntity
  8
0
 62
     0
100
AcDbLine
 10
66.281268
 20
233.987551
 30
0.0
 11
67.371384
 21
235.077667
 31
0.0
  0
LINE
  5
1387
100
AcDbEntity
  8
0
 62
     0
100
AcDbLine
 10
66.056762
 20
233.987551
 30
0.0
 11
67.146877
 21
235.077667
 31
0.0
  0
LINE
  5
1388
100
AcDbEntity
  8
0
 62
     0
100
AcDbLine
 10
65.832256
 20
233.987551
 30
0.0
 11
66.922371
 21
235.077667
 31
0.0
  0
LINE
  5
1389
100
AcDbEntity
  8
0
 62
     0
100
AcDbLine
 10
65.607749
 20
233.987551
 30
0.0
 11
66.697864
 21
235.077667
 31
0.0
  0
LINE
  5
138A
100
AcDbEntity
  8
0
 62
     0
100
AcDbLine
 10
65.383243
 20
233.987551
 30
0.0
 11
66.473358
 21
235.077667
 31
0.0
  0
LINE
  5
138B
100
AcDbEntity
  8
0
 62
     0
100
AcDbLine
 10
65.158736
 20
233.987551
 30
0.0
 11
66.248852
 21
235.077667
 31
0.0
  0
LINE
  5
138C
100
AcDbEntity
  8
0
 62
     0
100
AcDbLine
 10
64.93423
 20
233.987551
 30
0.0
 11
66.024345
 21
235.077667
 31
0.0
  0
LINE
  5
138D
100
AcDbEntity
  8
0
 62
     0
100
AcDbLine
 10
64.709724
 20
233.987551
 30
0.0
 11
65.799839
 21
235.077667
 31
0.0
  0
LINE
  5
138E
100
AcDbEntity
  8
0
 62
     0
100
AcDbLine
 10
64.485217
 20
233.987551
 30
0.0
 11
65.575332
 21
235.077667
 31
0.0
  0
LINE
  5
138F
100
AcDbEntity
  8
0
 62
     0
100
AcDbLine
 10
64.260711
 20
233.987551
 30
0.0
 11
65.350826
 21
235.077667
 31
0.0
  0
LINE
  5
1390
100
AcDbEntity
  8
0
 62
     0
100
AcDbLine
 10
64.036204
 20
233.987551
 30
0.0
 11
65.12632
 21
235.077667
 31
0.0
  0
LINE
  5
1391
100
AcDbEntity
  8
0
 62
     0
100
AcDbLine
 10
63.811698
 20
233.987551
 30
0.0
 11
64.901813
 21
235.077667
 31
0.0
  0
LINE
  5
1392
100
AcDbEntity
  8
0
 62
     0
100
AcDbLine
 10
63.587192
 20
233.987551
 30
0.0
 11
64.677307
 21
235.077667
 31
0.0
  0
LINE
  5
1393
100
AcDbEntity
  8
0
 62
     0
100
AcDbLine
 10
63.362685
 20
233.987551
 30
0.0
 11
64.4528
 21
235.077667
 31
0.0
  0
LINE
  5
1394
100
AcDbEntity
  8
0
 62
     0
100
AcDbLine
 10
63.138179
 20
233.987551
 30
0.0
 11
64.228294
 21
235.077667
 31
0.0
  0
LINE
  5
1395
100
AcDbEntity
  8
0
 62
     0
100
AcDbLine
 10
62.913672
 20
233.987551
 30
0.0
 11
64.003788
 21
235.077667
 31
0.0
  0
LINE
  5
1396
100
AcDbEntity
  8
0
 62
     0
100
AcDbLine
 10
62.689166
 20
233.987551
 30
0.0
 11
63.779281
 21
235.077667
 31
0.0
  0
LINE
  5
1397
100
AcDbEntity
  8
0
 62
     0
100
AcDbLine
 10
62.46466
 20
233.987551
 30
0.0
 11
63.554775
 21
235.077667
 31
0.0
  0
LINE
  5
1398
100
AcDbEntity
  8
0
 62
     0
100
AcDbLine
 10
62.240153
 20
233.987551
 30
0.0
 11
63.330268
 21
235.077667
 31
0.0
  0
LINE
  5
1399
100
AcDbEntity
  8
0
 62
     0
100
AcDbLine
 10
62.015647
 20
233.987551
 30
0.0
 11
63.105762
 21
235.077667
 31
0.0
  0
LINE
  5
139A
100
AcDbEntity
  8
0
 62
     0
100
AcDbLine
 10
61.79114
 20
233.987551
 30
0.0
 11
62.881256
 21
235.077667
 31
0.0
  0
LINE
  5
139B
100
AcDbEntity
  8
0
 62
     0
100
AcDbLine
 10
61.566634
 20
233.987551
 30
0.0
 11
62.656749
 21
235.077667
 31
0.0
  0
LINE
  5
139C
100
AcDbEntity
  8
0
 62
     0
100
AcDbLine
 10
61.342128
 20
233.987551
 30
0.0
 11
62.432243
 21
235.077667
 31
0.0
  0
LINE
  5
139D
100
AcDbEntity
  8
0
 62
     0
100
AcDbLine
 10
61.117621
 20
233.987551
 30
0.0
 11
62.207736
 21
235.077667
 31
0.0
  0
LINE
  5
139E
100
AcDbEntity
  8
0
 62
     0
100
AcDbLine
 10
60.893115
 20
233.987551
 30
0.0
 11
61.98323
 21
235.077667
 31
0.0
  0
LINE
  5
139F
100
AcDbEntity
  8
0
 62
     0
100
AcDbLine
 10
60.668608
 20
233.987551
 30
0.0
 11
61.758724
 21
235.077667
 31
0.0
  0
LINE
  5
13A0
100
AcDbEntity
  8
0
 62
     0
100
AcDbLine
 10
60.444102
 20
233.987551
 30
0.0
 11
61.534217
 21
235.077667
 31
0.0
  0
LINE
  5
13A1
100
AcDbEntity
  8
0
 62
     0
100
AcDbLine
 10
60.219596
 20
233.987551
 30
0.0
 11
61.309711
 21
235.077667
 31
0.0
  0
LINE
  5
13A2
100
AcDbEntity
  8
0
 62
     0
100
AcDbLine
 10
59.995089
 20
233.987551
 30
0.0
 11
61.085204
 21
235.077667
 31
0.0
  0
LINE
  5
13A3
100
AcDbEntity
  8
0
 62
     0
100
AcDbLine
 10
59.770583
 20
233.987551
 30
0.0
 11
60.860698
 21
235.077667
 31
0.0
  0
LINE
  5
13A4
100
AcDbEntity
  8
0
 62
     0
100
AcDbLine
 10
59.546076
 20
233.987551
 30
0.0
 11
60.636192
 21
235.077667
 31
0.0
  0
LINE
  5
13A5
100
AcDbEntity
  8
0
 62
     0
100
AcDbLine
 10
59.32157
 20
233.987551
 30
0.0
 11
60.411685
 21
235.077667
 31
0.0
  0
LINE
  5
13A6
100
AcDbEntity
  8
0
 62
     0
100
AcDbLine
 10
59.097064
 20
233.987551
 30
0.0
 11
60.187179
 21
235.077667
 31
0.0
  0
LINE
  5
13A7
100
AcDbEntity
  8
0
 62
     0
100
AcDbLine
 10
58.872557
 20
233.987551
 30
0.0
 11
59.962672
 21
235.077667
 31
0.0
  0
LINE
  5
13A8
100
AcDbEntity
  8
0
 62
     0
100
AcDbLine
 10
58.648051
 20
233.987551
 30
0.0
 11
59.738166
 21
235.077667
 31
0.0
  0
LINE
  5
13A9
100
AcDbEntity
  8
0
 62
     0
100
AcDbLine
 10
58.423544
 20
233.987551
 30
0.0
 11
59.51366
 21
235.077667
 31
0.0
  0
LINE
  5
13AA
100
AcDbEntity
  8
0
 62
     0
100
AcDbLine
 10
58.199038
 20
233.987551
 30
0.0
 11
59.289153
 21
235.077667
 31
0.0
  0
LINE
  5
13AB
100
AcDbEntity
  8
0
 62
     0
100
AcDbLine
 10
57.974531
 20
233.987551
 30
0.0
 11
59.064647
 21
235.077667
 31
0.0
  0
LINE
  5
13AC
100
AcDbEntity
  8
0
 62
     0
100
AcDbLine
 10
57.750025
 20
233.987551
 30
0.0
 11
58.84014
 21
235.077667
 31
0.0
  0
LINE
  5
13AD
100
AcDbEntity
  8
0
 62
     0
100
AcDbLine
 10
57.525519
 20
233.987551
 30
0.0
 11
58.615634
 21
235.077667
 31
0.0
  0
LINE
  5
13AE
100
AcDbEntity
  8
0
 62
     0
100
AcDbLine
 10
57.301012
 20
233.987551
 30
0.0
 11
58.391128
 21
235.077667
 31
0.0
  0
LINE
  5
13AF
100
AcDbEntity
  8
0
 62
     0
100
AcDbLine
 10
57.076506
 20
233.987551
 30
0.0
 11
58.166621
 21
235.077667
 31
0.0
  0
LINE
  5
13B0
100
AcDbEntity
  8
0
 62
     0
100
AcDbLine
 10
56.851999
 20
233.987551
 30
0.0
 11
57.942115
 21
235.077667
 31
0.0
  0
LINE
  5
13B1
100
AcDbEntity
  8
0
 62
     0
100
AcDbLine
 10
56.627493
 20
233.987551
 30
0.0
 11
57.717608
 21
235.077667
 31
0.0
  0
LINE
  5
13B2
100
AcDbEntity
  8
0
 62
     0
100
AcDbLine
 10
56.402987
 20
233.987551
 30
0.0
 11
57.503275
 21
235.08784
 31
0.0
  0
LINE
  5
13B3
100
AcDbEntity
  8
0
 62
     0
100
AcDbLine
 10
56.17848
 20
233.987551
 30
0.0
 11
57.391022
 21
235.200093
 31
0.0
  0
LINE
  5
13B4
100
AcDbEntity
  8
0
 62
     0
100
AcDbLine
 10
55.953974
 20
233.987551
 30
0.0
 11
57.278769
 21
235.312347
 31
0.0
  0
LINE
  5
13B5
100
AcDbEntity
  8
0
 62
     0
100
AcDbLine
 10
55.729467
 20
233.987551
 30
0.0
 11
57.166516
 21
235.4246
 31
0.0
  0
LINE
  5
13B6
100
AcDbEntity
  8
0
 62
     0
100
AcDbLine
 10
55.504961
 20
233.987551
 30
0.0
 11
56.995076
 21
235.477667
 31
0.0
  0
LINE
  5
13B7
100
AcDbEntity
  8
0
 62
     0
100
AcDbLine
 10
55.280455
 20
233.987551
 30
0.0
 11
56.77057
 21
235.477667
 31
0.0
  0
LINE
  5
13B8
100
AcDbEntity
  8
0
 62
     0
100
AcDbLine
 10
55.055948
 20
233.987551
 30
0.0
 11
56.546063
 21
235.477667
 31
0.0
  0
LINE
  5
13B9
100
AcDbEntity
  8
0
 62
     0
100
AcDbLine
 10
54.789009
 20
233.945119
 30
0.0
 11
56.321557
 21
235.477667
 31
0.0
  0
LINE
  5
13BA
100
AcDbEntity
  8
0
 62
     0
100
AcDbLine
 10
54.462645
 20
233.843261
 30
0.0
 11
56.097051
 21
235.477667
 31
0.0
  0
LINE
  5
13BB
100
AcDbEntity
  8
0
 62
     0
100
AcDbLine
 10
54.13628
 20
233.741403
 30
0.0
 11
55.872544
 21
235.477667
 31
0.0
  0
LINE
  5
13BC
100
AcDbEntity
  8
0
 62
     0
100
AcDbLine
 10
53.809916
 20
233.639545
 30
0.0
 11
55.648038
 21
235.477667
 31
0.0
  0
LINE
  5
13BD
100
AcDbEntity
  8
0
 62
     0
100
AcDbLine
 10
53.483552
 20
233.537687
 30
0.0
 11
55.423531
 21
235.477667
 31
0.0
  0
LINE
  5
13BE
100
AcDbEntity
  8
0
 62
     0
100
AcDbLine
 10
53.157187
 20
233.435829
 30
0.0
 11
55.199025
 21
235.477667
 31
0.0
  0
LINE
  5
13BF
100
AcDbEntity
  8
0
 62
     0
100
AcDbLine
 10
52.830823
 20
233.333971
 30
0.0
 11
54.974519
 21
235.477667
 31
0.0
  0
LINE
  5
13C0
100
AcDbEntity
  8
0
 62
     0
100
AcDbLine
 10
52.504458
 20
233.232113
 30
0.0
 11
54.750012
 21
235.477667
 31
0.0
  0
LINE
  5
13C1
100
AcDbEntity
  8
0
 62
     0
100
AcDbLine
 10
52.178094
 20
233.130254
 30
0.0
 11
54.525506
 21
235.477667
 31
0.0
  0
LINE
  5
13C2
100
AcDbEntity
  8
0
 62
     0
100
AcDbLine
 10
51.851729
 20
233.028396
 30
0.0
 11
54.300999
 21
235.477667
 31
0.0
  0
LINE
  5
13C3
100
AcDbEntity
  8
0
 62
     0
100
AcDbLine
 10
50.255039
 20
233.227758
 30
0.0
 11
50.270872
 21
233.24359
 31
0.0
  0
LINE
  5
13C4
100
AcDbEntity
  8
0
 62
     0
100
AcDbLine
 10
50.084144
 20
233.281369
 30
0.0
 11
50.160578
 21
233.357803
 31
0.0
  0
LINE
  5
13C5
100
AcDbEntity
  8
0
 62
     0
100
AcDbLine
 10
49.913249
 20
233.33498
 30
0.0
 11
50.050284
 21
233.472015
 31
0.0
  0
LINE
  5
13C6
100
AcDbEntity
  8
0
 62
     0
100
AcDbLine
 10
49.742354
 20
233.388592
 30
0.0
 11
49.93999
 21
233.586228
 31
0.0
  0
LINE
  5
13C7
100
AcDbEntity
  8
0
 62
     0
100
AcDbLine
 10
49.571459
 20
233.442203
 30
0.0
 11
49.829696
 21
233.70044
 31
0.0
  0
LINE
  5
13C8
100
AcDbEntity
  8
0
 62
     0
100
AcDbLine
 10
49.400564
 20
233.495814
 30
0.0
 11
49.719403
 21
233.814653
 31
0.0
  0
LINE
  5
13C9
100
AcDbEntity
  8
0
 62
     0
100
AcDbLine
 10
49.229669
 20
233.549426
 30
0.0
 11
49.609109
 21
233.928866
 31
0.0
  0
LINE
  5
13CA
100
AcDbEntity
  8
0
 62
     0
100
AcDbLine
 10
49.058774
 20
233.603037
 30
0.0
 11
49.498815
 21
234.043078
 31
0.0
  0
LINE
  5
13CB
100
AcDbEntity
  8
0
 62
     0
100
AcDbLine
 10
48.887879
 20
233.656648
 30
0.0
 11
49.388521
 21
234.157291
 31
0.0
  0
LINE
  5
13CC
100
AcDbEntity
  8
0
 62
     0
100
AcDbLine
 10
48.716983
 20
233.71026
 30
0.0
 11
49.278227
 21
234.271503
 31
0.0
  0
LINE
  5
13CD
100
AcDbEntity
  8
0
 62
     0
100
AcDbLine
 10
48.546088
 20
233.763871
 30
0.0
 11
49.167933
 21
234.385716
 31
0.0
  0
LINE
  5
13CE
100
AcDbEntity
  8
0
 62
     0
100
AcDbLine
 10
48.375193
 20
233.817482
 30
0.0
 11
49.05764
 21
234.499929
 31
0.0
  0
LINE
  5
13CF
100
AcDbEntity
  8
0
 62
     0
100
AcDbLine
 10
48.204298
 20
233.871093
 30
0.0
 11
48.947346
 21
234.614141
 31
0.0
  0
LINE
  5
13D0
100
AcDbEntity
  8
0
 62
     0
100
AcDbLine
 10
48.033403
 20
233.924705
 30
0.0
 11
48.837052
 21
234.728354
 31
0.0
  0
LINE
  5
13D1
100
AcDbEntity
  8
0
 62
     0
100
AcDbLine
 10
47.862508
 20
233.978316
 30
0.0
 11
48.726758
 21
234.842566
 31
0.0
  0
LINE
  5
13D2
100
AcDbEntity
  8
0
 62
     0
100
AcDbLine
 10
47.647237
 20
233.987551
 30
0.0
 11
48.616464
 21
234.956779
 31
0.0
  0
LINE
  5
13D3
100
AcDbEntity
  8
0
 62
     0
100
AcDbLine
 10
47.422731
 20
233.987551
 30
0.0
 11
48.506171
 21
235.070991
 31
0.0
  0
LINE
  5
13D4
100
AcDbEntity
  8
0
 62
     0
100
AcDbLine
 10
47.198224
 20
233.987551
 30
0.0
 11
48.395877
 21
235.185204
 31
0.0
  0
LINE
  5
13D5
100
AcDbEntity
  8
0
 62
     0
100
AcDbLine
 10
46.973718
 20
233.987551
 30
0.0
 11
48.285583
 21
235.299417
 31
0.0
  0
LINE
  5
13D6
100
AcDbEntity
  8
0
 62
     0
100
AcDbLine
 10
46.749211
 20
233.987551
 30
0.0
 11
48.169483
 21
235.407823
 31
0.0
  0
LINE
  5
13D7
100
AcDbEntity
  8
0
 62
     0
100
AcDbLine
 10
46.524705
 20
233.987551
 30
0.0
 11
48.009384
 21
235.47223
 31
0.0
  0
LINE
  5
13D8
100
AcDbEntity
  8
0
 62
     0
100
AcDbLine
 10
46.300199
 20
233.987551
 30
0.0
 11
47.790314
 21
235.477667
 31
0.0
  0
LINE
  5
13D9
100
AcDbEntity
  8
0
 62
     0
100
AcDbLine
 10
46.075692
 20
233.987551
 30
0.0
 11
47.565807
 21
235.477667
 31
0.0
  0
LINE
  5
13DA
100
AcDbEntity
  8
0
 62
     0
100
AcDbLine
 10
45.851186
 20
233.987551
 30
0.0
 11
47.341301
 21
235.477667
 31
0.0
  0
LINE
  5
13DB
100
AcDbEntity
  8
0
 62
     0
100
AcDbLine
 10
45.626679
 20
233.987551
 30
0.0
 11
47.116795
 21
235.477667
 31
0.0
  0
LINE
  5
13DC
100
AcDbEntity
  8
0
 62
     0
100
AcDbLine
 10
45.402173
 20
233.987551
 30
0.0
 11
46.892288
 21
235.477667
 31
0.0
  0
LINE
  5
13DD
100
AcDbEntity
  8
0
 62
     0
100
AcDbLine
 10
45.177667
 20
233.987551
 30
0.0
 11
46.667782
 21
235.477667
 31
0.0
  0
LINE
  5
13DE
100
AcDbEntity
  8
0
 62
     0
100
AcDbLine
 10
45.113449
 20
234.14784
 30
0.0
 11
46.443275
 21
235.477667
 31
0.0
  0
LINE
  5
13DF
100
AcDbEntity
  8
0
 62
     0
100
AcDbLine
 10
45.113449
 20
234.372347
 30
0.0
 11
46.218769
 21
235.477667
 31
0.0
  0
LINE
  5
13E0
100
AcDbEntity
  8
0
 62
     0
100
AcDbLine
 10
73.240967
 20
233.987551
 30
0.0
 11
74.331082
 21
235.077667
 31
0.0
  0
LINE
  5
13E1
100
AcDbEntity
  8
0
 62
     0
100
AcDbLine
 10
73.465473
 20
233.987551
 30
0.0
 11
74.555589
 21
235.077667
 31
0.0
  0
LINE
  5
13E2
100
AcDbEntity
  8
0
 62
     0
100
AcDbLine
 10
73.68998
 20
233.987551
 30
0.0
 11
74.780095
 21
235.077667
 31
0.0
  0
LINE
  5
13E3
100
AcDbEntity
  8
0
 62
     0
100
AcDbLine
 10
73.914486
 20
233.987551
 30
0.0
 11
75.004601
 21
235.077667
 31
0.0
  0
LINE
  5
13E4
100
AcDbEntity
  8
0
 62
     0
100
AcDbLine
 10
74.138993
 20
233.987551
 30
0.0
 11
75.229108
 21
235.077667
 31
0.0
  0
LINE
  5
13E5
100
AcDbEntity
  8
0
 62
     0
100
AcDbLine
 10
74.363499
 20
233.987551
 30
0.0
 11
75.453614
 21
235.077667
 31
0.0
  0
LINE
  5
13E6
100
AcDbEntity
  8
0
 62
     0
100
AcDbLine
 10
74.588005
 20
233.987551
 30
0.0
 11
75.678121
 21
235.077667
 31
0.0
  0
LINE
  5
13E7
100
AcDbEntity
  8
0
 62
     0
100
AcDbLine
 10
74.812512
 20
233.987551
 30
0.0
 11
75.902627
 21
235.077667
 31
0.0
  0
LINE
  5
13E8
100
AcDbEntity
  8
0
 62
     0
100
AcDbLine
 10
75.037018
 20
233.987551
 30
0.0
 11
76.127133
 21
235.077667
 31
0.0
  0
LINE
  5
13E9
100
AcDbEntity
  8
0
 62
     0
100
AcDbLine
 10
75.261525
 20
233.987551
 30
0.0
 11
76.35164
 21
235.077667
 31
0.0
  0
LINE
  5
13EA
100
AcDbEntity
  8
0
 62
     0
100
AcDbLine
 10
75.486031
 20
233.987551
 30
0.0
 11
76.576146
 21
235.077667
 31
0.0
  0
LINE
  5
13EB
100
AcDbEntity
  8
0
 62
     0
100
AcDbLine
 10
75.710537
 20
233.987551
 30
0.0
 11
76.800653
 21
235.077667
 31
0.0
  0
LINE
  5
13EC
100
AcDbEntity
  8
0
 62
     0
100
AcDbLine
 10
75.935044
 20
233.987551
 30
0.0
 11
77.025159
 21
235.077667
 31
0.0
  0
LINE
  5
13ED
100
AcDbEntity
  8
0
 62
     0
100
AcDbLine
 10
76.15955
 20
233.987551
 30
0.0
 11
77.249665
 21
235.077667
 31
0.0
  0
LINE
  5
13EE
100
AcDbEntity
  8
0
 62
     0
100
AcDbLine
 10
76.384057
 20
233.987551
 30
0.0
 11
77.474172
 21
235.077667
 31
0.0
  0
LINE
  5
13EF
100
AcDbEntity
  8
0
 62
     0
100
AcDbLine
 10
76.608563
 20
233.987551
 30
0.0
 11
77.698678
 21
235.077667
 31
0.0
  0
LINE
  5
13F0
100
AcDbEntity
  8
0
 62
     0
100
AcDbLine
 10
76.833069
 20
233.987551
 30
0.0
 11
77.923185
 21
235.077667
 31
0.0
  0
LINE
  5
13F1
100
AcDbEntity
  8
0
 62
     0
100
AcDbLine
 10
77.057576
 20
233.987551
 30
0.0
 11
78.147691
 21
235.077667
 31
0.0
  0
LINE
  5
13F2
100
AcDbEntity
  8
0
 62
     0
100
AcDbLine
 10
77.282082
 20
233.987551
 30
0.0
 11
78.372197
 21
235.077667
 31
0.0
  0
LINE
  5
13F3
100
AcDbEntity
  8
0
 62
     0
100
AcDbLine
 10
77.506589
 20
233.987551
 30
0.0
 11
78.596704
 21
235.077667
 31
0.0
  0
LINE
  5
13F4
100
AcDbEntity
  8
0
 62
     0
100
AcDbLine
 10
77.731095
 20
233.987551
 30
0.0
 11
78.82121
 21
235.077667
 31
0.0
  0
LINE
  5
13F5
100
AcDbEntity
  8
0
 62
     0
100
AcDbLine
 10
77.955601
 20
233.987551
 30
0.0
 11
79.045717
 21
235.077667
 31
0.0
  0
LINE
  5
13F6
100
AcDbEntity
  8
0
 62
     0
100
AcDbLine
 10
78.180108
 20
233.987551
 30
0.0
 11
79.270223
 21
235.077667
 31
0.0
  0
LINE
  5
13F7
100
AcDbEntity
  8
0
 62
     0
100
AcDbLine
 10
78.404614
 20
233.987551
 30
0.0
 11
79.494729
 21
235.077667
 31
0.0
  0
LINE
  5
13F8
100
AcDbEntity
  8
0
 62
     0
100
AcDbLine
 10
78.629121
 20
233.987551
 30
0.0
 11
79.719236
 21
235.077667
 31
0.0
  0
LINE
  5
13F9
100
AcDbEntity
  8
0
 62
     0
100
AcDbLine
 10
78.853627
 20
233.987551
 30
0.0
 11
79.943742
 21
235.077667
 31
0.0
  0
LINE
  5
13FA
100
AcDbEntity
  8
0
 62
     0
100
AcDbLine
 10
79.078133
 20
233.987551
 30
0.0
 11
80.168249
 21
235.077667
 31
0.0
  0
LINE
  5
13FB
100
AcDbEntity
  8
0
 62
     0
100
AcDbLine
 10
79.30264
 20
233.987551
 30
0.0
 11
80.392755
 21
235.077667
 31
0.0
  0
LINE
  5
13FC
100
AcDbEntity
  8
0
 62
     0
100
AcDbLine
 10
79.527146
 20
233.987551
 30
0.0
 11
80.617261
 21
235.077667
 31
0.0
  0
LINE
  5
13FD
100
AcDbEntity
  8
0
 62
     0
100
AcDbLine
 10
79.751653
 20
233.987551
 30
0.0
 11
81.241768
 21
235.477667
 31
0.0
  0
LINE
  5
13FE
100
AcDbEntity
  8
0
 62
     0
100
AcDbLine
 10
79.976159
 20
233.987551
 30
0.0
 11
81.466274
 21
235.477667
 31
0.0
  0
LINE
  5
13FF
100
AcDbEntity
  8
0
 62
     0
100
AcDbLine
 10
80.200665
 20
233.987551
 30
0.0
 11
81.690781
 21
235.477667
 31
0.0
  0
LINE
  5
1400
100
AcDbEntity
  8
0
 62
     0
100
AcDbLine
 10
80.425172
 20
233.987551
 30
0.0
 11
81.915287
 21
235.477667
 31
0.0
  0
LINE
  5
1401
100
AcDbEntity
  8
0
 62
     0
100
AcDbLine
 10
80.649678
 20
233.987551
 30
0.0
 11
82.139793
 21
235.477667
 31
0.0
  0
LINE
  5
1402
100
AcDbEntity
  8
0
 62
     0
100
AcDbLine
 10
80.874185
 20
233.987551
 30
0.0
 11
82.3643
 21
235.477667
 31
0.0
  0
LINE
  5
1403
100
AcDbEntity
  8
0
 62
     0
100
AcDbLine
 10
81.098691
 20
233.987551
 30
0.0
 11
82.588806
 21
235.477667
 31
0.0
  0
LINE
  5
1404
100
AcDbEntity
  8
0
 62
     0
100
AcDbLine
 10
81.323197
 20
233.987551
 30
0.0
 11
82.813313
 21
235.477667
 31
0.0
  0
LINE
  5
1405
100
AcDbEntity
  8
0
 62
     0
100
AcDbLine
 10
81.547704
 20
233.987551
 30
0.0
 11
83.037819
 21
235.477667
 31
0.0
  0
LINE
  5
1406
100
AcDbEntity
  8
0
 62
     0
100
AcDbLine
 10
81.77221
 20
233.987551
 30
0.0
 11
83.262325
 21
235.477667
 31
0.0
  0
LINE
  5
1407
100
AcDbEntity
  8
0
 62
     0
100
AcDbLine
 10
81.996717
 20
233.987551
 30
0.0
 11
83.486832
 21
235.477667
 31
0.0
  0
LINE
  5
1408
100
AcDbEntity
  8
0
 62
     0
100
AcDbLine
 10
82.221223
 20
233.987551
 30
0.0
 11
83.711338
 21
235.477667
 31
0.0
  0
LINE
  5
1409
100
AcDbEntity
  8
0
 62
     0
100
AcDbLine
 10
82.445729
 20
233.987551
 30
0.0
 11
83.935845
 21
235.477667
 31
0.0
  0
LINE
  5
140A
100
AcDbEntity
  8
0
 62
     0
100
AcDbLine
 10
82.670236
 20
233.987551
 30
0.0
 11
84.160351
 21
235.477667
 31
0.0
  0
LINE
  5
140B
100
AcDbEntity
  8
0
 62
     0
100
AcDbLine
 10
82.894742
 20
233.987551
 30
0.0
 11
84.384857
 21
235.477667
 31
0.0
  0
LINE
  5
140C
100
AcDbEntity
  8
0
 62
     0
100
AcDbLine
 10
83.119249
 20
233.987551
 30
0.0
 11
84.609364
 21
235.477667
 31
0.0
  0
LINE
  5
140D
100
AcDbEntity
  8
0
 62
     0
100
AcDbLine
 10
83.343755
 20
233.987551
 30
0.0
 11
84.83387
 21
235.477667
 31
0.0
  0
LINE
  5
140E
100
AcDbEntity
  8
0
 62
     0
100
AcDbLine
 10
83.568261
 20
233.987551
 30
0.0
 11
85.032632
 21
235.451923
 31
0.0
  0
LINE
  5
140F
100
AcDbEntity
  8
0
 62
     0
100
AcDbLine
 10
83.792768
 20
233.987551
 30
0.0
 11
85.185873
 21
235.380657
 31
0.0
  0
LINE
  5
1410
100
AcDbEntity
  8
0
 62
     0
100
AcDbLine
 10
83.957686
 20
233.927963
 30
0.0
 11
85.306981
 21
235.277258
 31
0.0
  0
LINE
  5
1411
100
AcDbEntity
  8
0
 62
     0
100
AcDbLine
 10
84.113133
 20
233.858904
 30
0.0
 11
85.417275
 21
235.163046
 31
0.0
  0
LINE
  5
1412
100
AcDbEntity
  8
0
 62
     0
100
AcDbLine
 10
84.26858
 20
233.789844
 30
0.0
 11
85.527569
 21
235.048833
 31
0.0
  0
LINE
  5
1413
100
AcDbEntity
  8
0
 62
     0
100
AcDbLine
 10
84.424026
 20
233.720784
 30
0.0
 11
85.637862
 21
234.93462
 31
0.0
  0
LINE
  5
1414
100
AcDbEntity
  8
0
 62
     0
100
AcDbLine
 10
84.579473
 20
233.651725
 30
0.0
 11
85.748156
 21
234.820408
 31
0.0
  0
LINE
  5
1415
100
AcDbEntity
  8
0
 62
     0
100
AcDbLine
 10
84.73492
 20
233.582665
 30
0.0
 11
85.85845
 21
234.706195
 31
0.0
  0
LINE
  5
1416
100
AcDbEntity
  8
0
 62
     0
100
AcDbLine
 10
84.890367
 20
233.513605
 30
0.0
 11
85.968744
 21
234.591983
 31
0.0
  0
LINE
  5
1417
100
AcDbEntity
  8
0
 62
     0
100
AcDbLine
 10
85.045813
 20
233.444546
 30
0.0
 11
86.079038
 21
234.47777
 31
0.0
  0
LINE
  5
1418
100
AcDbEntity
  8
0
 62
     0
100
AcDbLine
 10
85.20126
 20
233.375486
 30
0.0
 11
86.189332
 21
234.363558
 31
0.0
  0
LINE
  5
1419
100
AcDbEntity
  8
0
 62
     0
100
AcDbLine
 10
85.356707
 20
233.306427
 30
0.0
 11
86.299625
 21
234.249345
 31
0.0
  0
LINE
  5
141A
100
AcDbEntity
  8
0
 62
     0
100
AcDbLine
 10
85.512154
 20
233.237367
 30
0.0
 11
86.409919
 21
234.135132
 31
0.0
  0
LINE
  5
141B
100
AcDbEntity
  8
0
 62
     0
100
AcDbLine
 10
85.6676
 20
233.168307
 30
0.0
 11
86.520213
 21
234.02092
 31
0.0
  0
LINE
  5
141C
100
AcDbEntity
  8
0
 62
     0
100
AcDbLine
 10
85.823047
 20
233.099248
 30
0.0
 11
86.630507
 21
233.906707
 31
0.0
  0
LINE
  5
141D
100
AcDbEntity
  8
0
 62
     0
100
AcDbLine
 10
85.978494
 20
233.030188
 30
0.0
 11
86.740801
 21
233.792495
 31
0.0
  0
LINE
  5
141E
100
AcDbEntity
  8
0
 62
     0
100
AcDbLine
 10
86.133941
 20
232.961128
 30
0.0
 11
86.851094
 21
233.678282
 31
0.0
  0
LINE
  5
141F
100
AcDbEntity
  8
0
 62
     0
100
AcDbLine
 10
86.289387
 20
232.892069
 30
0.0
 11
86.961388
 21
233.564069
 31
0.0
  0
LINE
  5
1420
100
AcDbEntity
  8
0
 62
     0
100
AcDbLine
 10
86.444834
 20
232.823009
 30
0.0
 11
87.071682
 21
233.449857
 31
0.0
  0
LINE
  5
1421
100
AcDbEntity
  8
0
 62
     0
100
AcDbLine
 10
86.600281
 20
232.753949
 30
0.0
 11
87.181976
 21
233.335644
 31
0.0
  0
LINE
  5
1422
100
AcDbEntity
  8
0
 62
     0
100
AcDbLine
 10
86.755728
 20
232.68489
 30
0.0
 11
87.29227
 21
233.221432
 31
0.0
  0
LINE
  5
1423
100
AcDbEntity
  8
0
 62
     0
100
AcDbLine
 10
86.911174
 20
232.61583
 30
0.0
 11
87.402564
 21
233.107219
 31
0.0
  0
LINE
  5
1424
100
AcDbEntity
  8
0
 62
     0
100
AcDbLine
 10
87.066621
 20
232.54677
 30
0.0
 11
87.512857
 21
232.993006
 31
0.0
  0
LINE
  5
1425
100
AcDbEntity
  8
0
 62
     0
100
AcDbLine
 10
87.222068
 20
232.477711
 30
0.0
 11
87.623151
 21
232.878794
 31
0.0
  0
LINE
  5
1426
100
AcDbEntity
  8
0
 62
     0
100
AcDbLine
 10
87.377515
 20
232.408651
 30
0.0
 11
87.733445
 21
232.764581
 31
0.0
  0
LINE
  5
1427
100
AcDbEntity
  8
0
 62
     0
100
AcDbLine
 10
87.532961
 20
232.339591
 30
0.0
 11
87.843739
 21
232.650369
 31
0.0
  0
LINE
  5
1428
100
AcDbEntity
  8
0
 62
     0
100
AcDbLine
 10
87.688408
 20
232.270532
 30
0.0
 11
87.954033
 21
232.536156
 31
0.0
  0
LINE
  5
1429
100
AcDbEntity
  8
0
 62
     0
100
AcDbLine
 10
87.843855
 20
232.201472
 30
0.0
 11
88.064326
 21
232.421944
 31
0.0
  0
LINE
  5
142A
100
AcDbEntity
  8
0
 62
     0
100
AcDbLine
 10
87.999302
 20
232.132412
 30
0.0
 11
88.17462
 21
232.307731
 31
0.0
  0
LINE
  5
142B
100
AcDbEntity
  8
0
 62
     0
100
AcDbLine
 10
88.154748
 20
232.063353
 30
0.0
 11
88.284914
 21
232.193518
 31
0.0
  0
LINE
  5
142C
100
AcDbEntity
  8
0
 62
     0
100
AcDbLine
 10
88.310195
 20
231.994293
 30
0.0
 11
88.395208
 21
232.079306
 31
0.0
  0
LINE
  5
142D
100
AcDbEntity
  8
0
 62
     0
100
AcDbLine
 10
88.465642
 20
231.925233
 30
0.0
 11
88.505502
 21
231.965093
 31
0.0
  0
LINE
  5
142E
100
AcDbEntity
  8
0
 62
     0
100
AcDbLine
 10
93.770484
 20
234.086986
 30
0.0
 11
95.095799
 21
235.412301
 31
0.0
  0
LINE
  5
142F
100
AcDbEntity
  8
0
 62
     0
100
AcDbLine
 10
92.247146
 20
232.339141
 30
0.0
 11
95.385671
 21
235.477667
 31
0.0
  0
LINE
  5
1430
100
AcDbEntity
  8
0
 62
     0
100
AcDbLine
 10
92.662167
 20
232.529657
 30
0.0
 11
95.610178
 21
235.477667
 31
0.0
  0
LINE
  5
1431
100
AcDbEntity
  8
0
 62
     0
100
AcDbLine
 10
93.077189
 20
232.720172
 30
0.0
 11
95.834684
 21
235.477667
 31
0.0
  0
LINE
  5
1432
100
AcDbEntity
  8
0
 62
     0
100
AcDbLine
 10
93.492211
 20
232.910687
 30
0.0
 11
96.05919
 21
235.477667
 31
0.0
  0
LINE
  5
1433
100
AcDbEntity
  8
0
 62
     0
100
AcDbLine
 10
93.907233
 20
233.101203
 30
0.0
 11
96.283697
 21
235.477667
 31
0.0
  0
LINE
  5
1434
100
AcDbEntity
  8
0
 62
     0
100
AcDbLine
 10
94.322254
 20
233.291718
 30
0.0
 11
96.508203
 21
235.477667
 31
0.0
  0
LINE
  5
1435
100
AcDbEntity
  8
0
 62
     0
100
AcDbLine
 10
94.737276
 20
233.482233
 30
0.0
 11
96.73271
 21
235.477667
 31
0.0
  0
LINE
  5
1436
100
AcDbEntity
  8
0
 62
     0
100
AcDbLine
 10
95.152298
 20
233.672749
 30
0.0
 11
96.957216
 21
235.477667
 31
0.0
  0
LINE
  5
1437
100
AcDbEntity
  8
0
 62
     0
100
AcDbLine
 10
95.56732
 20
233.863264
 30
0.0
 11
97.181722
 21
235.477667
 31
0.0
  0
LINE
  5
1438
100
AcDbEntity
  8
0
 62
     0
100
AcDbLine
 10
95.916114
 20
233.987551
 30
0.0
 11
97.406229
 21
235.477667
 31
0.0
  0
LINE
  5
1439
100
AcDbEntity
  8
0
 62
     0
100
AcDbLine
 10
96.14062
 20
233.987551
 30
0.0
 11
97.630735
 21
235.477667
 31
0.0
  0
LINE
  5
143A
100
AcDbEntity
  8
0
 62
     0
100
AcDbLine
 10
96.365126
 20
233.987551
 30
0.0
 11
97.855242
 21
235.477667
 31
0.0
  0
LINE
  5
143B
100
AcDbEntity
  8
0
 62
     0
100
AcDbLine
 10
96.589633
 20
233.987551
 30
0.0
 11
98.079748
 21
235.477667
 31
0.0
  0
LINE
  5
143C
100
AcDbEntity
  8
0
 62
     0
100
AcDbLine
 10
96.814139
 20
233.987551
 30
0.0
 11
98.304254
 21
235.477667
 31
0.0
  0
LINE
  5
143D
100
AcDbEntity
  8
0
 62
     0
100
AcDbLine
 10
97.038646
 20
233.987551
 30
0.0
 11
98.528761
 21
235.477667
 31
0.0
  0
LINE
  5
143E
100
AcDbEntity
  8
0
 62
     0
100
AcDbLine
 10
97.263152
 20
233.987551
 30
0.0
 11
98.753267
 21
235.477667
 31
0.0
  0
LINE
  5
143F
100
AcDbEntity
  8
0
 62
     0
100
AcDbLine
 10
97.487658
 20
233.987551
 30
0.0
 11
98.977774
 21
235.477667
 31
0.0
  0
LINE
  5
1440
100
AcDbEntity
  8
0
 62
     0
100
AcDbLine
 10
97.712165
 20
233.987551
 30
0.0
 11
99.157864
 21
235.433251
 31
0.0
  0
LINE
  5
1441
100
AcDbEntity
  8
0
 62
     0
100
AcDbLine
 10
97.936671
 20
233.987551
 30
0.0
 11
99.270118
 21
235.320998
 31
0.0
  0
LINE
  5
1442
100
AcDbEntity
  8
0
 62
     0
100
AcDbLine
 10
98.161178
 20
233.987551
 30
0.0
 11
99.382371
 21
235.208745
 31
0.0
  0
LINE
  5
1443
100
AcDbEntity
  8
0
 62
     0
100
AcDbLine
 10
98.385684
 20
233.987551
 30
0.0
 11
99.494624
 21
235.096491
 31
0.0
  0
LINE
  5
1444
100
AcDbEntity
  8
0
 62
     0
100
AcDbLine
 10
98.61019
 20
233.987551
 30
0.0
 11
99.606877
 21
234.984238
 31
0.0
  0
LINE
  5
1445
100
AcDbEntity
  8
0
 62
     0
100
AcDbLine
 10
98.834697
 20
233.987551
 30
0.0
 11
99.71913
 21
234.871985
 31
0.0
  0
LINE
  5
1446
100
AcDbEntity
  8
0
 62
     0
100
AcDbLine
 10
99.059203
 20
233.987551
 30
0.0
 11
99.831384
 21
234.759732
 31
0.0
  0
LINE
  5
1447
100
AcDbEntity
  8
0
 62
     0
100
AcDbLine
 10
99.28371
 20
233.987551
 30
0.0
 11
99.943637
 21
234.647479
 31
0.0
  0
LINE
  5
1448
100
AcDbEntity
  8
0
 62
     0
100
AcDbLine
 10
99.508216
 20
233.987551
 30
0.0
 11
100.05589
 21
234.535225
 31
0.0
  0
LINE
  5
1449
100
AcDbEntity
  8
0
 62
     0
100
AcDbLine
 10
99.732722
 20
233.987551
 30
0.0
 11
100.113449
 21
234.368278
 31
0.0
  0
LINE
  5
144A
100
AcDbEntity
  8
0
 62
     0
100
AcDbLine
 10
99.957229
 20
233.987551
 30
0.0
 11
100.113449
 21
234.143771
 31
0.0
  0
ENDBLK
  5
144B
100
AcDbEntity
  8
0
100
AcDbBlockEnd
  0
ENDSEC
  0
SECTION
  2
ENTITIES
  0
LINE
  5
278
100
AcDbEntity
  8
DISEGNO
100
AcDbLine
 10
46.113449
 20
209.477667
 30
0.0
 11
99.113449
 21
209.477667
 31
0.0
1001
ACAD
1000
ASC_BOUNDS
1002
{
1070
    19
1002
}
  0
LINE
  5
279
100
AcDbEntity
  8
DISEGNO
100
AcDbLine
 10
100.113449
 20
210.477667
 30
0.0
 11
100.113449
 21
234.477667
 31
0.0
1001
ACAD
1000
ASC_BOUNDS
1002
{
1070
    19
1002
}
  0
LINE
  5
27B
100
AcDbEntity
  8
DISEGNO
100
AcDbLine
 10
45.113449
 20
234.477667
 30
0.0
 11
45.113449
 21
210.477667
 31
0.0
1001
ACAD
1000
ASC_BOUNDS
1002
{
1070
    19
1002
}
  0
LINE
  5
36F
100
AcDbEntity
  8
DISEGNO
100
AcDbLine
 10
99.113449
 20
235.477667
 30
0.0
 11
100.113449
 21
234.477667
 31
0.0
1001
ACAD
1000
ASC_BOUNDS
1002
{
1070
    19
1002
}
  0
LINE
  5
370
100
AcDbEntity
  8
DISEGNO
100
AcDbLine
 10
99.113449
 20
209.477667
 30
0.0
 11
100.113449
 21
210.477667
 31
0.0
  0
LINE
  5
371
100
AcDbEntity
  8
DISEGNO
100
AcDbLine
 10
46.113449
 20
209.477667
 30
0.0
 11
45.113449
 21
210.477667
 31
0.0
  0
LINE
  5
372
100
AcDbEntity
  8
DISEGNO
100
AcDbLine
 10
45.113449
 20
234.477667
 30
0.0
 11
46.113449
 21
235.477667
 31
0.0
1001
ACAD
1000
ASC_BOUNDS
1002
{
1070
    19
1002
}
  0
DIMENSION
  5
37F
100
AcDbEntity
  8
QUOTE
100
AcDbDimension
  2
*D0
 10
100.113449
 20
190.711525
 30
0.0
 11
72.613449
 21
193.741525
 31
0.0
 70
    32
  3
STANDARD
100
AcDbAlignedDimension
 13
45.113449
 23
210.477667
 33
0.0
 14
100.113449
 24
210.477667
 34
0.0
100
AcDbRotatedDimension
  0
DIMENSION
  5
38C
100
AcDbEntity
  8
QUOTE
100
AcDbDimension
  2
*D1
 10
28.518205
 20
209.477667
 30
0.0
 11
25.488205
 21
222.477667
 31
0.0
 70
    32
  3
STANDARD
100
AcDbAlignedDimension
 13
46.113449
 23
235.477667
 33
0.0
 14
46.113449
 24
209.477667
 34
0.0
 50
90.0
100
AcDbRotatedDimension
  0
LINE
  5
9CE
100
AcDbEntity
  8
DISEGNO
100
AcDbLine
 10
99.113449
 20
235.477667
 30
0.0
 11
95.368134
 21
235.477667
 31
0.0
1001
ACAD
1000
ASC_BOUNDS
1002
{
1070
    19
1002
}
  0
LINE
  5
CBD
100
AcDbEntity
  8
DISEGNO
100
AcDbLine
 10
81.113449
 20
235.477667
 30
0.0
 11
80.713449
 21
235.077667
 31
0.0
1001
ACAD
1000
ASC_BOUNDS
1002
{
1070
    19
1002
}
  0
LINE
  5
CBE
100
AcDbEntity
  8
DISEGNO
100
AcDbLine
 10
57.113449
 20
235.477667
 30
0.0
 11
57.513449
 21
235.077667
 31
0.0
1001
ACAD
1000
ASC_BOUNDS
1002
{
1070
    19
1002
}
  0
LINE
  5
CBF
100
AcDbEntity
  8
DISEGNO
100
AcDbLine
 10
57.113449
 20
235.477667
 30
0.0
 11
54.283239
 21
235.477667
 31
0.0
1001
ACAD
1000
ASC_BOUNDS
1002
{
1070
    19
1002
}
  0
LINE
  5
CC1
100
AcDbEntity
  8
DISEGNO
100
AcDbLine
 10
84.858764
 20
235.477667
 30
0.0
 11
81.113449
 21
235.477667
 31
0.0
1001
ACAD
1000
ASC_BOUNDS
1002
{
1070
    19
1002
}
  0
LINE
  5
CC2
100
AcDbEntity
  8
DISEGNO
100
AcDbLine
 10
80.713449
 20
235.077667
 30
0.0
 11
57.513449
 21
235.077667
 31
0.0
1001
ACAD
1000
ASC_BOUNDS
1002
{
1070
    19
1002
}
  0
DIMENSION
  5
CEA
100
AcDbEntity
  8
QUOTE
100
AcDbDimension
  2
*D10
 10
95.113449
 20
252.712743
 30
0.0
 11
90.113449
 21
255.742743
 31
0.0
 70
    32
  3
STANDARD
100
AcDbAlignedDimension
 13
85.113449
 23
235.477667
 33
0.0
 14
95.113449
 24
235.477667
 34
0.0
100
AcDbRotatedDimension
  0
LINE
  5
D88
100
AcDbEntity
  8
QUOTE
  6
BYBLOCK
 62
     1
100
AcDbLine
 10
48.113449
 20
236.102667
 30
0.0
 11
48.113449
 21
253.962743
 31
0.0
  0
LINE
  5
D89
100
AcDbEntity
  8
QUOTE
  6
BYBLOCK
 62
     1
100
AcDbLine
 10
54.113449
 20
236.102667
 30
0.0
 11
54.113449
 21
240.122192
 31
0.0
  0
LINE
  5
D8A
100
AcDbEntity
  8
QUOTE
  6
BYBLOCK
 62
     1
100
AcDbLine
 10
45.613449
 20
252.712743
 30
0.0
 11
43.113449
 21
252.712743
 31
0.0
  0
LINE
  5
D8B
100
AcDbEntity
  8
QUOTE
  6
BYBLOCK
 62
     1
100
AcDbLine
 10
56.613449
 20
252.712743
 30
0.0
 11
59.113449
 21
252.712743
 31
0.0
  0
SOLID
  5
D8C
100
AcDbEntity
  8
QUOTE
  6
BYBLOCK
 62
     1
100
AcDbTrace
 10
45.613449
 20
253.129409
 30
0.0
 11
45.613449
 21
252.296076
 31
0.0
 12
48.113449
 22
252.712743
 32
0.0
 13
48.113449
 23
252.712743
 33
0.0
  0
SOLID
  5
D8D
100
AcDbEntity
  8
QUOTE
  6
BYBLOCK
 62
     1
100
AcDbTrace
 10
56.613449
 20
253.129409
 30
0.0
 11
56.613449
 21
252.296076
 31
0.0
 12
54.113449
 22
252.712743
 32
0.0
 13
54.113449
 23
252.712743
 33
0.0
  0
MTEXT
  5
D8E
100
AcDbEntity
  8
QUOTE
  6
BYBLOCK
 62
     1
100
AcDbMText
 10
51.113449
 20
255.843067
 30
0.0
 40
5.0
 41
0.0
 71
     5
 72
     1
  1
\A1;6
  0
POINT
  5
D8F
100
AcDbEntity
  8
QUOTE
  6
BYBLOCK
 62
     5
100
AcDbPoint
 10
48.113449
 20
235.477667
 30
0.0
  0
POINT
  5
D90
100
AcDbEntity
  8
QUOTE
  6
BYBLOCK
 62
     5
100
AcDbPoint
 10
54.113449
 20
235.477667
 30
0.0
  0
POINT
  5
D91
100
AcDbEntity
  8
QUOTE
  6
BYBLOCK
 62
     5
100
AcDbPoint
 10
54.113449
 20
252.712743
 30
0.0
  0
LINE
  5
108C
100
AcDbEntity
  8
QUOTE
  6
BYBLOCK
 62
     1
100
AcDbLine
 10
54.113449
 20
247.87838
 30
0.0
 11
54.113449
 21
253.962743
 31
0.0
  0
DIMENSION
  5
109A
100
AcDbEntity
  8
QUOTE
100
AcDbDimension
  2
*D14
 10
90.113449
 20
267.004875
 30
0.0
 11
70.613449
 21
270.034875
 31
0.0
 70
    32
  3
STANDARD
100
AcDbAlignedDimension
 13
51.113449
 23
264.431556
 33
0.0
 14
90.113449
 24
263.806556
 34
0.0
100
AcDbRotatedDimension
  0
POINT
  5
11A5
100
AcDbEntity
  8
QUOTE
  6
BYBLOCK
 62
     1
100
AcDbPoint
 10
48.221968
 20
235.368891
 30
0.0
  0
POINT
  5
11AC
100
AcDbEntity
  8
QUOTE
  6
BYBLOCK
 62
     1
100
AcDbPoint
 10
85.289185
 20
235.301931
 30
0.0
  0
TEXT
  5
11E3
100
AcDbEntity
  8
SEZIONE
  6
CONTINUOUS
 62
     7
100
AcDbText
 10
124.686231
 20
213.969528
 30
0.0
 40
5.0
  1
M 26-88-01/C
100
AcDbText
  0
LINE
  5
11E4
100
AcDbEntity
  8
SEZIONE
  6
CONTINUOUS
 62
     7
100
AcDbLine
 10
120.576233
 20
253.335845
 30
0.0
 11
212.576233
 21
253.335845
 31
0.0
  0
LINE
  5
11FB
100
AcDbEntity
  8
SEZIONE
  6
CONTINUOUS
 62
     7
100
AcDbLine
 10
120.576233
 20
253.335845
 30
0.0
 11
120.576233
 21
209.335845
 31
0.0
  0
TEXT
  5
11FC
100
AcDbEntity
  8
SEZIONE
  6
CONTINUOUS
 62
     7
100
AcDbText
 10
124.686231
 20
223.969528
 30
0.0
 40
5.0
  1
M 26-88-01
100
AcDbText
  0
TEXT
  5
11FD
100
AcDbEntity
  8
SEZIONE
  6
CONTINUOUS
 62
     7
100
AcDbText
 10
124.771695
 20
243.32846
 30
0.0
 40
5.0
  1
CODE
100
AcDbText
  0
TEXT
  5
1200
100
AcDbEntity
  8
SEZIONE
  6
CONTINUOUS
 62
     7
100
AcDbText
 10
184.076233
 20
243.835845
 30
0.0
 40
5.0
  1
LENGTH
 72
     4
 11
195.576233
 21
246.335845
 31
0.0
100
AcDbText
  0
TEXT
  5
1201
100
AcDbEntity
  8
SEZIONE
  6
CONTINUOUS
 62
     7
100
AcDbText
 10
191.203943
 20
234.495236
 30
0.0
 40
5.0
  1
mm
 72
     4
 11
195.794552
 21
236.335845
 31
0.0
100
AcDbText
  0
TEXT
  5
1205
100
AcDbEntity
  8
SEZIONE
  6
CONTINUOUS
 62
     7
100
AcDbText
 10
188.472679
 20
213.939398
 30
0.0
 40
5.0
  1
 415
 72
     4
 11
195.576233
 21
216.335845
 31
0.0
100
AcDbText
  0
TEXT
  5
120B
100
AcDbEntity
  8
SEZIONE
  6
CONTINUOUS
 62
     7
100
AcDbText
 10
190.222679
 20
223.939398
 30
0.0
 40
5.0
  1
835
 72
     4
 11
195.576233
 21
226.335845
 31
0.0
100
AcDbText
  0
LINE
  5
129A
100
AcDbEntity
  8
QUOTE
100
AcDbLine
 10
54.113449
 20
247.87838
 30
0.0
 11
54.113449
 21
240.122192
 31
0.0
  0
LINE
  5
129B
100
AcDbEntity
  8
ASSI
100
AcDbLine
 10
51.113449
 20
232.477667
 30
0.0
 11
51.113449
 21
253.204349
 31
0.0
  0
LINE
  5
129C
100
AcDbEntity
  8
ASSI
100
AcDbLine
 10
90.113449
 20
230.477667
 30
0.0
 11
90.113449
 21
252.869241
 31
0.0
  0
DIMENSION
  5
12AA
100
AcDbEntity
  8
QUOTE
100
AcDbDimension
  2
*D16
 10
51.113449
 20
266.838346
 30
0.0
 11
48.113449
 21
269.868346
 31
0.0
 70
    32
  3
STANDARD
100
AcDbAlignedDimension
 13
45.113449
 23
234.477667
 33
0.0
 14
51.113449
 24
267.004875
 34
0.0
100
AcDbRotatedDimension
1001
ACAD
1000
DSTYLE
1002
{
1070
   141
1040
0.0
1002
}
  0
DIMENSION
  5
12C1
100
AcDbEntity
  8
QUOTE
100
AcDbDimension
  2
*D17
 10
54.279134
 20
235.077667
 30
0.0
 11
63.251592
 21
244.491536
 31
0.0
 70
   164
  3
STANDARD
100
AcDbRadialDimension
 15
54.555107
 25
235.367216
 35
0.0
 40
0.0
1001
ACAD
1000
DSTYLE
1002
{
1070
   141
1040
0.0
1002
}
  0
DIMENSION
  5
12CA
100
AcDbEntity
  8
QUOTE
100
AcDbDimension
  2
*D18
 10
95.361977
 20
234.877667
 30
0.0
 11
105.69203
 21
246.66974
 31
0.0
 70
   164
  3
STANDARD
100
AcDbRadialDimension
 15
95.75734
 25
235.328985
 35
0.0
 40
0.0
1001
ACAD
1000
DSTYLE
1002
{
1070
   141
1040
0.0
1002
}
  0
LINE
  5
12D9
100
AcDbEntity
  8
ASSI
100
AcDbLine
 10
90.113449
 20
259.236296
 30
0.0
 11
90.113449
 21
268.178778
 31
0.0
  0
LINE
  5
12DA
100
AcDbEntity
  8
ASSI
100
AcDbLine
 10
51.113449
 20
259.40385
 30
0.0
 11
51.113449
 21
268.178778
 31
0.0
  0
LINE
  5
12DB
100
AcDbEntity
  8
QUOTE
  6
BYBLOCK
 62
     1
100
AcDbLine
 10
100.113449
 20
235.102667
 30
0.0
 11
100.113449
 21
238.375812
 31
0.0
  0
LINE
  5
12DC
100
AcDbEntity
  8
QUOTE
  6
BYBLOCK
 62
     1
100
AcDbLine
 10
90.113449
 20
267.629875
 30
0.0
 11
90.113449
 21
268.2559
 31
0.0
  0
LINE
  5
12DD
100
AcDbEntity
  8
QUOTE
  6
BYBLOCK
 62
     1
100
AcDbLine
 10
102.613449
 20
267.0059
 30
0.0
 11
105.113449
 21
267.0059
 31
0.0
  0
LINE
  5
12DE
100
AcDbEntity
  8
QUOTE
  6
BYBLOCK
 62
     1
100
AcDbLine
 10
87.613449
 20
267.0059
 30
0.0
 11
85.113449
 21
267.0059
 31
0.0
  0
SOLID
  5
12DF
100
AcDbEntity
  8
QUOTE
  6
BYBLOCK
 62
     1
100
AcDbTrace
 10
102.613449
 20
267.422566
 30
0.0
 11
102.613449
 21
266.589233
 31
0.0
 12
100.113449
 22
267.0059
 32
0.0
 13
100.113449
 23
267.0059
 33
0.0
  0
SOLID
  5
12E0
100
AcDbEntity
  8
QUOTE
  6
BYBLOCK
 62
     1
100
AcDbTrace
 10
87.613449
 20
267.422566
 30
0.0
 11
87.613449
 21
266.589233
 31
0.0
 12
90.113449
 22
267.0059
 32
0.0
 13
90.113449
 23
267.0059
 33
0.0
  0
MTEXT
  5
12E1
100
AcDbEntity
  8
QUOTE
  6
BYBLOCK
 62
     1
100
AcDbMText
 10
95.113449
 20
270.0359
 30
0.0
 40
5.0
 41
0.0
 71
     5
 72
     1
  1
\A1;10
  0
POINT
  5
12E2
100
AcDbEntity
  8
QUOTE
  6
BYBLOCK
 62
     1
100
AcDbPoint
 10
100.113449
 20
234.477667
 30
0.0
  0
POINT
  5
12E3
100
AcDbEntity
  8
QUOTE
  6
BYBLOCK
 62
     1
100
AcDbPoint
 10
90.113449
 20
267.004875
 30
0.0
  0
POINT
  5
12E4
100
AcDbEntity
  8
QUOTE
  6
BYBLOCK
 62
     1
100
AcDbPoint
 10
90.113449
 20
267.0059
 30
0.0
  0
LINE
  5
12E5
100
AcDbEntity
  8
QUOTE
  6
BYBLOCK
 62
     1
100
AcDbLine
 10
100.113449
 20
251.109923
 30
0.0
 11
100.113449
 21
268.2559
 31
0.0
  0
LINE
  5
1301
100
AcDbEntity
  8
OGGETTO
100
AcDbLine
 10
53.995503
 20
235.35553
 30
0.0
 11
51.113449
 21
232.371076
 31
0.0
1001
ACAD
1000
ASC_BOUNDS
1002
{
1070
    19
1002
}
  0
LINE
  5
1303
100
AcDbEntity
  8
OGGETTO
100
AcDbLine
 10
48.231395
 20
235.35553
 30
0.0
 11
51.113449
 21
232.371076
 31
0.0
1001
ACAD
1000
ASC_BOUNDS
1002
{
1070
    19
1002
}
  0
LINE
  5
1304
100
AcDbEntity
  8
OGGETTO
100
AcDbLine
 10
46.113449
 20
235.477667
 30
0.0
 11
47.943659
 21
235.477667
 31
0.0
1001
ACAD
1000
ASC_BOUNDS
1002
{
1070
    19
1002
}
  0
ARC
  5
1305
100
AcDbEntity
  8
OGGETTO
100
AcDbCircle
 10
47.943659
 20
235.077667
 30
0.0
 40
0.4
100
AcDbArc
 50
44.0
 51
90.0
1001
ACAD
1000
ASC_BOUNDS
1002
{
1070
    19
1002
}
  0
ARC
  5
1306
100
AcDbEntity
  8
OGGETTO
100
AcDbCircle
 10
54.283239
 20
235.077667
 30
0.0
 40
0.4
100
AcDbArc
 50
90.0
 51
136.0
1001
ACAD
1000
ASC_BOUNDS
1002
{
1070
    19
1002
}
  0
LINE
  5
1308
100
AcDbEntity
  8
OGGETTO
100
AcDbLine
 10
94.93653
 20
235.294462
 30
0.0
 11
90.113449
 21
230.300015
 31
0.0
1001
ACAD
1000
ASC_BOUNDS
1002
{
1070
    19
1002
}
  0
LINE
  5
130A
100
AcDbEntity
  8
OGGETTO
100
AcDbLine
 10
85.290368
 20
235.294462
 30
0.0
 11
90.113449
 21
230.300015
 31
0.0
1001
ACAD
1000
ASC_BOUNDS
1002
{
1070
    19
1002
}
  0
ARC
  5
130B
100
AcDbEntity
  8
OGGETTO
100
AcDbCircle
 10
95.368134
 20
234.877667
 30
0.0
 40
0.6
100
AcDbArc
 50
90.0
 51
136.0
1001
ACAD
1000
ASC_BOUNDS
1002
{
1070
    19
1002
}
  0
ARC
  5
130C
100
AcDbEntity
  8
OGGETTO
100
AcDbCircle
 10
84.858764
 20
234.877667
 30
0.0
 40
0.6
100
AcDbArc
 50
44.0
 51
90.0
1001
ACAD
1000
ASC_BOUNDS
1002
{
1070
    19
1002
}
  0
DIMENSION
  5
131B
100
AcDbEntity
  8
QUOTE
100
AcDbDimension
  2
*D19
 10
51.113449
 20
232.371076
 30
0.0
 11
51.113449
 21
223.914182
 31
0.0
 70
    34
  3
STANDARD
100
AcDb2LineAngularDimension
 13
53.995503
 23
235.35553
 33
0.0
 14
51.113449
 24
232.371076
 34
0.0
 15
48.231395
 25
235.35553
 35
0.0
 16
48.205023
 26
221.25848
 36
0.0
1001
ACAD
1000
DSTYLE
1002
{
1070
   141
1040
0.0
1002
}
  0
DIMENSION
  5
132A
100
AcDbEntity
  8
QUOTE
100
AcDbDimension
  2
*D20
 10
90.113449
 20
230.300015
 30
0.0
 11
90.113449
 21
222.405089
 31
0.0
 70
    34
  3
STANDARD
100
AcDb2LineAngularDimension
 13
94.93653
 23
235.294462
 33
0.0
 14
90.113449
 24
230.300015
 34
0.0
 15
85.290368
 25
235.294462
 35
0.0
 16
87.34731
 26
219.731075
 36
0.0
1001
ACAD
1000
DSTYLE
1002
{
1070
   141
1040
0.0
1002
}
  0
ENDSEC
  0
SECTION
  2
OBJECTS
  0
DICTIONARY
  5
C
100
AcDbDictionary
  3
ACAD_GROUP
350
D
  3
ACAD_MLINESTYLE
350
E
  0
DICTIONARY
  5
D
102
{ACAD_REACTORS
330
C
102
}
100
AcDbDictionary
  0
DICTIONARY
  5
E
102
{ACAD_REACTORS
330
C
102
}
100
AcDbDictionary
  3
STANDARD
350
1C
  0
MLINESTYLE
  5
1C
102
{ACAD_REACTORS
330
E
102
}
100
AcDbMlineStyle
  2
STANDARD
 70
     0
  3

 62
     0
 51
90.0
 52
90.0
 71
     2
 49
0.5
 62
   256
  6
BYLAYER
 49
-0.5
 62
   256
  6
BYLAYER
  0
ENDSEC
  0
EOF
