  0
SECTION
  2
HEADER
  9
$ACADVER
  1
AC1012
  9
$DWGCODEPAGE
  3
iso8859-1
  9
$INSBASE
 10
0.0
 20
0.0
 30
0.0
  9
$EXTMIN
 10
-1940.234365
 20
-1659.251698
 30
0.0
  9
$EXTMAX
 10
-1495.033033
 20
-1368.424675
 30
0.0
  9
$LIMMIN
 10
0.0
 20
0.0
  9
$LIMMAX
 10
210.0
 20
297.0
  9
$ORTHOMODE
 70
     0
  9
$REGENMODE
 70
     1
  9
$FILLMODE
 70
     1
  9
$QTEXTMODE
 70
     0
  9
$MIRRTEXT
 70
     1
  9
$DRAGMODE
 70
     2
  9
$LTSCALE
 40
1.0
  9
$OSMODE
 70
     0
  9
$ATTMODE
 70
     1
  9
$TEXTSIZE
 40
3.0
  9
$TRACEWID
 40
0.05
  9
$TEXTSTYLE
  7
STANDARD
  9
$CLAYER
  8
QUOTE
  9
$CELTYPE
  6
BYLAYER
  9
$CECOLOR
 62
   256
  9
$CELTSCALE
 40
1.0
  9
$DELOBJ
 70
     1
  9
$DISPSILH
 70
     0
  9
$DIMSCALE
 40
1.0
  9
$DIMASZ
 40
2.5
  9
$DIMEXO
 40
0.625
  9
$DIMDLI
 40
3.75
  9
$DIMRND
 40
0.0
  9
$DIMDLE
 40
0.0
  9
$DIMEXE
 40
1.25
  9
$DIMTP
 40
0.0
  9
$DIMTM
 40
0.0
  9
$DIMTXT
 40
3.0
  9
$DIMCEN
 40
0.0
  9
$DIMTSZ
 40
0.0
  9
$DIMTOL
 70
     0
  9
$DIMLIM
 70
     0
  9
$DIMTIH
 70
     0
  9
$DIMTOH
 70
     0
  9
$DIMSE1
 70
     0
  9
$DIMSE2
 70
     0
  9
$DIMTAD
 70
     1
  9
$DIMZIN
 70
     8
  9
$DIMBLK
  1

  9
$DIMASO
 70
     1
  9
$DIMSHO
 70
     1
  9
$DIMPOST
  1

  9
$DIMAPOST
  1

  9
$DIMALT
 70
     0
  9
$DIMALTD
 70
     2
  9
$DIMALTF
 40
0.03937
  9
$DIMLFAC
 40
1.0
  9
$DIMTOFL
 70
     0
  9
$DIMTVP
 40
0.0
  9
$DIMTIX
 70
     0
  9
$DIMSOXD
 70
     0
  9
$DIMSAH
 70
     0
  9
$DIMBLK1
  1

  9
$DIMBLK2
  1

  9
$DIMSTYLE
  2
STANDARD
  9
$DIMCLRD
 70
     0
  9
$DIMCLRE
 70
     0
  9
$DIMCLRT
 70
     0
  9
$DIMTFAC
 40
1.0
  9
$DIMGAP
 40
0.625
  9
$DIMJUST
 70
     0
  9
$DIMSD1
 70
     0
  9
$DIMSD2
 70
     0
  9
$DIMTOLJ
 70
     1
  9
$DIMTZIN
 70
     8
  9
$DIMALTZ
 70
     0
  9
$DIMALTTZ
 70
     0
  9
$DIMFIT
 70
     3
  9
$DIMUPT
 70
     0
  9
$DIMUNIT
 70
     2
  9
$DIMDEC
 70
     2
  9
$DIMTDEC
 70
     2
  9
$DIMALTU
 70
     2
  9
$DIMALTTD
 70
     2
  9
$DIMTXSTY
  7
STANDARD
  9
$DIMAUNIT
 70
     0
  9
$LUNITS
 70
     2
  9
$LUPREC
 70
     4
  9
$SKETCHINC
 40
0.1
  9
$FILLETRAD
 40
1.0
  9
$AUNITS
 70
     0
  9
$AUPREC
 70
     0
  9
$MENU
  1
acad
  9
$ELEVATION
 40
0.0
  9
$PELEVATION
 40
0.0
  9
$THICKNESS
 40
0.0
  9
$LIMCHECK
 70
     0
  9
$BLIPMODE
 70
     1
  9
$CHAMFERA
 40
0.0
  9
$CHAMFERB
 40
0.0
  9
$CHAMFERC
 40
20.0
  9
$CHAMFERD
 40
0.0
  9
$SKPOLY
 70
     0
  9
$TDCREATE
 40
2451871.741401273
  9
$TDUPDATE
 40
2452263.407629050
  9
$TDINDWG
 40
0.0646239583
  9
$TDUSRTIMER
 40
0.0646239583
  9
$USRTIMER
 70
     1
  9
$ANGBASE
 50
0.0
  9
$ANGDIR
 70
     0
  9
$PDMODE
 70
     0
  9
$PDSIZE
 40
0.0
  9
$PLINEWID
 40
0.0
  9
$COORDS
 70
     1
  9
$SPLFRAME
 70
     0
  9
$SPLINETYPE
 70
     6
  9
$SPLINESEGS
 70
     8
  9
$ATTDIA
 70
     0
  9
$ATTREQ
 70
     1
  9
$HANDLING
 70
     1
  9
$HANDSEED
  5
1012
  9
$SURFTAB1
 70
     6
  9
$SURFTAB2
 70
     6
  9
$SURFTYPE
 70
     6
  9
$SURFU
 70
     6
  9
$SURFV
 70
     6
  9
$UCSNAME
  2

  9
$UCSORG
 10
0.0
 20
0.0
 30
0.0
  9
$UCSXDIR
 10
1.0
 20
0.0
 30
0.0
  9
$UCSYDIR
 10
0.0
 20
1.0
 30
0.0
  9
$PUCSNAME
  2

  9
$PUCSORG
 10
0.0
 20
0.0
 30
0.0
  9
$PUCSXDIR
 10
1.0
 20
0.0
 30
0.0
  9
$PUCSYDIR
 10
0.0
 20
1.0
 30
0.0
  9
$USERI1
 70
     0
  9
$USERI2
 70
     0
  9
$USERI3
 70
     0
  9
$USERI4
 70
     0
  9
$USERI5
 70
     0
  9
$USERR1
 40
0.0
  9
$USERR2
 40
0.0
  9
$USERR3
 40
0.0
  9
$USERR4
 40
0.0
  9
$USERR5
 40
0.0
  9
$WORLDVIEW
 70
     1
  9
$SHADEDGE
 70
     3
  9
$SHADEDIF
 70
    70
  9
$TILEMODE
 70
     1
  9
$MAXACTVP
 70
    16
  9
$PINSBASE
 10
0.0
 20
0.0
 30
0.0
  9
$PLIMCHECK
 70
     0
  9
$PEXTMIN
 10
1.000000E+20
 20
1.000000E+20
 30
1.000000E+20
  9
$PEXTMAX
 10
-1.000000E+20
 20
-1.000000E+20
 30
-1.000000E+20
  9
$PLIMMIN
 10
0.0
 20
0.0
  9
$PLIMMAX
 10
12.0
 20
9.0
  9
$UNITMODE
 70
     0
  9
$VISRETAIN
 70
     0
  9
$PLINEGEN
 70
     0
  9
$PSLTSCALE
 70
     1
  9
$TREEDEPTH
 70
  3020
  9
$PICKSTYLE
 70
     1
  9
$CMLSTYLE
  2
STANDARD
  9
$CMLJUST
 70
     0
  9
$CMLSCALE
 40
20.0
  9
$SAVEIMAGES
 70
     0
  0
ENDSEC
  0
SECTION
  2
CLASSES
  0
ENDSEC
  0
SECTION
  2
TABLES
  0
TABLE
  2
VPORT
  5
8
100
AcDbSymbolTable
 70
     2
  0
VPORT
  5
1011
100
AcDbSymbolTableRecord
100
AcDbViewportTableRecord
  2
*ACTIVE
 70
     0
 10
0.0
 20
0.0
 11
1.0
 21
1.0
 12
-1795.738368
 22
-1469.748
 13
0.0
 23
0.0
 14
10.0
 24
10.0
 15
10.0
 25
10.0
 16
0.0
 26
0.0
 36
1.0
 17
0.0
 27
0.0
 37
0.0
 40
139.947229
 41
1.563011
 42
50.0
 43
0.0
 44
0.0
 50
0.0
 51
0.0
 71
     0
 72
   100
 73
     1
 74
     0
 75
     0
 76
     0
 77
     0
 78
     0
  0
ENDTAB
  0
TABLE
  2
LTYPE
  5
5
100
AcDbSymbolTable
 70
     4
  0
LTYPE
  5
13
100
AcDbSymbolTableRecord
100
AcDbLinetypeTableRecord
  2
BYBLOCK
 70
     0
  3

 72
    65
 73
     0
 40
0.0
  0
LTYPE
  5
14
100
AcDbSymbolTableRecord
100
AcDbLinetypeTableRecord
  2
BYLAYER
 70
     0
  3

 72
    65
 73
     0
 40
0.0
  0
LTYPE
  5
15
100
AcDbSymbolTableRecord
100
AcDbLinetypeTableRecord
  2
CONTINUOUS
 70
    64
  3
Solid line
 72
    65
 73
     0
 40
0.0
  0
LTYPE
  5
94
100
AcDbSymbolTableRecord
100
AcDbLinetypeTableRecord
  2
ACAD_ISO04W100
 70
    64
  3
____ . ____ . ____ . ____ . ____ . ____ . ____ 
 72
    65
 73
     4
 40
30.5
 49
24.0
 74
     0
 49
-3.0
 74
     0
 49
0.5
 74
     0
 49
-3.0
 74
     0
  0
LTYPE
  5
225
100
AcDbSymbolTableRecord
100
AcDbLinetypeTableRecord
  2
TRATTEGGIATAX2
 70
    64
  3
____  ____  ____  ____  ____  ____  ____  ____ 
 72
    65
 73
     2
 40
1.5
 49
1.0
 74
     0
 49
-0.5
 74
     0
  0
LTYPE
  5
226
100
AcDbSymbolTableRecord
100
AcDbLinetypeTableRecord
  2
NASCOSTA
 70
    64
  3
__ __ __ __ __ __ __ __ __ __ __ __ __ __ __ __
 72
    65
 73
     2
 40
0.375
 49
0.25
 74
     0
 49
-0.125
 74
     0
  0
ENDTAB
  0
TABLE
  2
LAYER
  5
2
100
AcDbSymbolTable
 70
    10
  0
LAYER
  5
F
100
AcDbSymbolTableRecord
100
AcDbLayerTableRecord
  2
0
 70
     0
 62
     7
  6
CONTINUOUS
  0
LAYER
  5
95
100
AcDbSymbolTableRecord
100
AcDbLayerTableRecord
  2
DISEGNO
 70
    64
 62
     7
  6
CONTINUOUS
  0
LAYER
  5
96
100
AcDbSymbolTableRecord
100
AcDbLayerTableRecord
  2
ASSI
 70
    64
 62
     1
  6
ACAD_ISO04W100
  0
LAYER
  5
97
100
AcDbSymbolTableRecord
100
AcDbLayerTableRecord
  2
SEZIONE
 70
    64
 62
     3
  6
CONTINUOUS
  0
LAYER
  5
98
100
AcDbSymbolTableRecord
100
AcDbLayerTableRecord
  2
TEMPRA
 70
    64
 62
     2
  6
CONTINUOUS
  0
LAYER
  5
99
100
AcDbSymbolTableRecord
100
AcDbLayerTableRecord
  2
QUOTE
 70
    64
 62
     5
  6
CONTINUOUS
  0
LAYER
  5
9A
100
AcDbSymbolTableRecord
100
AcDbLayerTableRecord
  2
FOGLIO
 70
    64
 62
     8
  6
CONTINUOUS
  0
LAYER
  5
1A3
100
AcDbSymbolTableRecord
100
AcDbLayerTableRecord
  2
TRATTO
 70
    64
 62
     6
  6
NASCOSTA
  0
LAYER
  5
28A
100
AcDbSymbolTableRecord
100
AcDbLayerTableRecord
  2
DEFPOINTS
 70
    64
 62
     7
  6
CONTINUOUS
  0
LAYER
  5
4A6
100
AcDbSymbolTableRecord
100
AcDbLayerTableRecord
  2
TABELLA
 70
    64
 62
     8
  6
CONTINUOUS
  0
ENDTAB
  0
TABLE
  2
STYLE
  5
3
100
AcDbSymbolTable
 70
     2
  0
STYLE
  5
10
100
AcDbSymbolTableRecord
100
AcDbTextStyleTableRecord
  2
STANDARD
 70
    64
 40
0.0
 41
1.1
 50
0.0
 71
     0
 42
3.0
  3
D:\Programmi\AutoCAD LT\isocp.shx
  4

  0
STYLE
  5
B0
100
AcDbSymbolTableRecord
100
AcDbTextStyleTableRecord
  2
STYLE3
 70
    64
 40
0.0
 41
1.5
 50
0.0
 71
     0
 42
4.0
  3
C:\Programmi\AutoCAD LT\isocp3.shx
  4

  0
ENDTAB
  0
TABLE
  2
VIEW
  5
6
100
AcDbSymbolTable
 70
     0
  0
ENDTAB
  0
TABLE
  2
UCS
  5
7
100
AcDbSymbolTable
 70
     0
  0
ENDTAB
  0
TABLE
  2
APPID
  5
9
100
AcDbSymbolTable
 70
     1
  0
APPID
  5
11
100
AcDbSymbolTableRecord
100
AcDbRegAppTableRecord
  2
ACAD
 70
     0
  0
ENDTAB
  0
TABLE
  2
DIMSTYLE
  5
A
100
AcDbSymbolTable
 70
    13
  0
DIMSTYLE
105
1D
100
AcDbSymbolTableRecord
100
AcDbDimStyleTableRecord
  2
STANDARD
 70
     0
  3

  4

  5

  6

  7

 40
1.0
 41
2.5
 42
0.625
 43
3.75
 44
1.25
 45
0.0
 46
0.0
 47
0.0
 48
0.0
140
3.0
141
2.5
142
0.0
143
0.03937
144
1.0
145
0.0
146
1.0
147
0.625
 71
     0
 72
     0
 73
     0
 74
     0
 75
     0
 76
     0
 77
     1
 78
     8
170
     0
171
     2
172
     0
173
     0
174
     0
175
     0
176
     0
177
     0
178
     0
270
     2
271
     2
272
     2
273
     2
274
     2
340
10
275
     0
280
     0
281
     0
282
     0
283
     1
284
     8
285
     0
286
     0
287
     3
288
     0
  0
DIMSTYLE
105
198
100
AcDbSymbolTableRecord
100
AcDbDimStyleTableRecord
  2
TOLL-06
 70
     0
  3

  4

  5

  6

  7

 40
1.0
 41
2.5
 42
0.625
 43
3.75
 44
1.25
 45
0.0
 46
0.0
 47
-0.05
 48
0.0
140
3.0
141
2.5
142
0.0
143
0.03937
144
1.0
145
0.0
146
0.8
147
0.625
 71
     1
 72
     0
 73
     0
 74
     0
 75
     0
 76
     0
 77
     1
 78
     8
170
     0
171
     2
172
     0
173
     0
174
     0
175
     0
176
     0
177
     0
178
     0
270
     2
271
     2
272
     2
273
     2
274
     2
340
10
275
     0
280
     0
281
     0
282
     0
283
     2
284
     8
285
     0
286
     0
287
     3
288
     0
  0
DIMSTYLE
105
20B
100
AcDbSymbolTableRecord
100
AcDbDimStyleTableRecord
  2
TOLL-01
 70
     0
  3

  4

  5

  6

  7

 40
1.0
 41
2.5
 42
0.625
 43
3.75
 44
1.25
 45
0.0
 46
0.0
 47
0.02
 48
0.0
140
3.0
141
2.5
142
0.0
143
0.03937
144
1.0
145
0.0
146
0.8
147
0.625
 71
     1
 72
     0
 73
     0
 74
     0
 75
     0
 76
     0
 77
     1
 78
     8
170
     0
171
     2
172
     0
173
     0
174
     0
175
     0
176
     0
177
     0
178
     0
270
     2
271
     2
272
     2
273
     2
274
     2
340
10
275
     0
280
     0
281
     0
282
     0
283
     2
284
     8
285
     0
286
     0
287
     3
288
     0
  0
DIMSTYLE
105
232
100
AcDbSymbolTableRecord
100
AcDbDimStyleTableRecord
  2
TOLL-02
 70
     0
  3

  4

  5

  6

  7

 40
1.0
 41
2.5
 42
0.625
 43
3.75
 44
1.25
 45
0.0
 46
0.0
 47
-0.02
 48
0.0
140
3.0
141
2.5
142
0.0
143
0.03937
144
1.0
145
0.0
146
0.8
147
0.625
 71
     1
 72
     0
 73
     0
 74
     0
 75
     0
 76
     0
 77
     1
 78
     8
170
     0
171
     2
172
     0
173
     0
174
     0
175
     0
176
     0
177
     0
178
     0
270
     2
271
     2
272
     2
273
     2
274
     2
340
10
275
     0
280
     0
281
     0
282
     0
283
     2
284
     8
285
     0
286
     0
287
     3
288
     0
  0
DIMSTYLE
105
233
100
AcDbSymbolTableRecord
100
AcDbDimStyleTableRecord
  2
TOLL-03
 70
     0
  3

  4

  5

  6

  7

 40
1.0
 41
2.5
 42
0.625
 43
3.75
 44
1.25
 45
0.0
 46
0.0
 47
0.01
 48
0.01
140
3.0
141
2.5
142
0.0
143
0.03937
144
1.0
145
0.0
146
0.8
147
0.625
 71
     1
 72
     0
 73
     0
 74
     0
 75
     0
 76
     0
 77
     1
 78
     8
170
     0
171
     2
172
     0
173
     0
174
     0
175
     0
176
     0
177
     0
178
     0
270
     2
271
     2
272
     2
273
     2
274
     2
340
10
275
     0
280
     0
281
     0
282
     0
283
     2
284
     8
285
     0
286
     0
287
     3
288
     0
  0
DIMSTYLE
105
234
100
AcDbSymbolTableRecord
100
AcDbDimStyleTableRecord
  2
TOLL-04
 70
     0
  3

  4

  5

  6

  7

 40
1.0
 41
2.5
 42
0.625
 43
3.75
 44
1.25
 45
0.0
 46
0.0
 47
0.05
 48
0.05
140
3.0
141
2.5
142
0.0
143
0.03937
144
1.0
145
0.0
146
0.8
147
0.625
 71
     1
 72
     0
 73
     0
 74
     0
 75
     0
 76
     0
 77
     1
 78
     8
170
     0
171
     2
172
     0
173
     0
174
     0
175
     0
176
     0
177
     0
178
     0
270
     2
271
     2
272
     2
273
     2
274
     2
340
10
275
     0
280
     0
281
     0
282
     0
283
     2
284
     8
285
     0
286
     0
287
     3
288
     0
  0
DIMSTYLE
105
235
100
AcDbSymbolTableRecord
100
AcDbDimStyleTableRecord
  2
TOLL-05
 70
     0
  3

  4

  5

  6

  7

 40
1.0
 41
2.5
 42
0.625
 43
3.75
 44
1.25
 45
0.0
 46
0.0
 47
0.05
 48
0.0
140
3.0
141
2.5
142
0.0
143
0.03937
144
1.0
145
0.0
146
0.8
147
0.625
 71
     1
 72
     0
 73
     0
 74
     0
 75
     0
 76
     0
 77
     1
 78
     8
170
     0
171
     2
172
     0
173
     0
174
     0
175
     0
176
     0
177
     0
178
     0
270
     2
271
     2
272
     2
273
     2
274
     2
340
10
275
     0
280
     0
281
     0
282
     0
283
     2
284
     8
285
     0
286
     0
287
     3
288
     0
  0
DIMSTYLE
105
247
100
AcDbSymbolTableRecord
100
AcDbDimStyleTableRecord
  2
TOLL-07
 70
     0
  3

  4

  5

  6

  7

 40
1.0
 41
2.5
 42
0.625
 43
3.75
 44
1.25
 45
0.0
 46
0.0
 47
0.1
 48
0.1
140
3.0
141
2.5
142
0.0
143
0.03937
144
1.0
145
0.0
146
1.0
147
0.625
 71
     1
 72
     0
 73
     0
 74
     0
 75
     0
 76
     0
 77
     1
 78
     8
170
     0
171
     2
172
     0
173
     0
174
     0
175
     0
176
     0
177
     0
178
     0
270
     2
271
     2
272
     2
273
     2
274
     2
340
10
275
     0
280
     0
281
     0
282
     0
283
     1
284
     8
285
     0
286
     0
287
     3
288
     0
  0
DIMSTYLE
105
251
100
AcDbSymbolTableRecord
100
AcDbDimStyleTableRecord
  2
TOLL-08
 70
     0
  3

  4

  5

  6

  7

 40
1.0
 41
2.5
 42
0.625
 43
3.75
 44
1.25
 45
0.0
 46
0.0
 47
0.1
 48
0.0
140
3.0
141
2.5
142
0.0
143
0.03937
144
1.0
145
0.0
146
1.0
147
0.625
 71
     1
 72
     0
 73
     0
 74
     0
 75
     0
 76
     0
 77
     1
 78
     8
170
     0
171
     2
172
     0
173
     0
174
     0
175
     0
176
     0
177
     0
178
     0
270
     2
271
     2
272
     2
273
     2
274
     2
340
10
275
     0
280
     0
281
     0
282
     0
283
     1
284
     8
285
     0
286
     0
287
     3
288
     0
  0
DIMSTYLE
105
257
100
AcDbSymbolTableRecord
100
AcDbDimStyleTableRecord
  2
TOLL-09
 70
     0
  3

  4

  5

  6

  7

 40
1.0
 41
2.5
 42
0.625
 43
3.75
 44
1.25
 45
0.0
 46
0.0
 47
-0.1
 48
0.0
140
3.0
141
2.5
142
0.0
143
0.03937
144
1.0
145
0.0
146
1.0
147
0.625
 71
     1
 72
     0
 73
     0
 74
     0
 75
     0
 76
     0
 77
     1
 78
     8
170
     0
171
     2
172
     0
173
     0
174
     0
175
     0
176
     0
177
     0
178
     0
270
     2
271
     2
272
     2
273
     2
274
     2
340
10
275
     0
280
     0
281
     0
282
     0
283
     1
284
     8
285
     0
286
     0
287
     3
288
     0
  0
DIMSTYLE
105
258
100
AcDbSymbolTableRecord
100
AcDbDimStyleTableRecord
  2
TOLL-10
 70
     0
  3

  4

  5

  6

  7

 40
1.0
 41
2.5
 42
0.625
 43
3.75
 44
1.25
 45
0.0
 46
0.0
 47
0.2
 48
0.2
140
3.0
141
2.5
142
0.0
143
0.03937
144
1.0
145
0.0
146
1.0
147
0.625
 71
     1
 72
     0
 73
     0
 74
     0
 75
     0
 76
     0
 77
     1
 78
     8
170
     0
171
     2
172
     0
173
     0
174
     0
175
     0
176
     0
177
     0
178
     0
270
     2
271
     2
272
     2
273
     2
274
     2
340
10
275
     0
280
     0
281
     0
282
     0
283
     1
284
     8
285
     0
286
     0
287
     3
288
     0
  0
DIMSTYLE
105
259
100
AcDbSymbolTableRecord
100
AcDbDimStyleTableRecord
  2
TOLL-11
 70
     0
  3

  4

  5

  6

  7

 40
1.0
 41
2.5
 42
0.625
 43
3.75
 44
1.25
 45
0.0
 46
0.0
 47
0.2
 48
0.0
140
3.0
141
2.5
142
0.0
143
0.03937
144
1.0
145
0.0
146
1.0
147
0.625
 71
     1
 72
     0
 73
     0
 74
     0
 75
     0
 76
     0
 77
     1
 78
     8
170
     0
171
     2
172
     0
173
     0
174
     0
175
     0
176
     0
177
     0
178
     0
270
     2
271
     2
272
     2
273
     2
274
     2
340
10
275
     0
280
     0
281
     0
282
     0
283
     1
284
     8
285
     0
286
     0
287
     3
288
     0
  0
DIMSTYLE
105
4A7
100
AcDbSymbolTableRecord
100
AcDbDimStyleTableRecord
  2
ISO-25
 70
     0
  3

  4

  5

  6

  7

 40
1.0
 41
2.5
 42
0.625
 43
3.75
 44
1.25
 45
0.0
 46
0.0
 47
0.0
 48
0.0
140
2.5
141
2.5
142
0.0
143
0.0394
144
1.0
145
1.0
146
1.0
147
0.625
 71
     0
 72
     0
 73
     1
 74
     0
 75
     0
 76
     0
 77
     1
 78
     8
170
     0
171
     2
172
     1
173
     0
174
     0
175
     0
176
     0
177
     0
178
     0
270
     2
271
     4
272
     4
273
     2
274
     2
340
10
275
     0
280
     0
281
     0
282
     0
283
     1
284
     0
285
     0
286
     0
287
     3
288
     0
  0
ENDTAB
  0
TABLE
  2
BLOCK_RECORD
  5
1
100
AcDbSymbolTable
 70
    55
  0
BLOCK_RECORD
  5
19
100
AcDbSymbolTableRecord
100
AcDbBlockTableRecord
  2
*MODEL_SPACE
  0
BLOCK_RECORD
  5
16
100
AcDbSymbolTableRecord
100
AcDbBlockTableRecord
  2
*PAPER_SPACE
  0
BLOCK_RECORD
  5
3A2
100
AcDbSymbolTableRecord
100
AcDbBlockTableRecord
  2
RUGOSITA
  0
BLOCK_RECORD
  5
4A8
100
AcDbSymbolTableRecord
100
AcDbBlockTableRecord
  2
A$C52B2
  0
BLOCK_RECORD
  5
582
100
AcDbSymbolTableRecord
100
AcDbBlockTableRecord
  2
*D2
  0
BLOCK_RECORD
  5
58F
100
AcDbSymbolTableRecord
100
AcDbBlockTableRecord
  2
*D3
  0
BLOCK_RECORD
  5
63C
100
AcDbSymbolTableRecord
100
AcDbBlockTableRecord
  2
*D4
  0
BLOCK_RECORD
  5
679
100
AcDbSymbolTableRecord
100
AcDbBlockTableRecord
  2
*D5
  0
BLOCK_RECORD
  5
687
100
AcDbSymbolTableRecord
100
AcDbBlockTableRecord
  2
*D6
  0
BLOCK_RECORD
  5
69A
100
AcDbSymbolTableRecord
100
AcDbBlockTableRecord
  2
*D7
  0
BLOCK_RECORD
  5
6A9
100
AcDbSymbolTableRecord
100
AcDbBlockTableRecord
  2
*D8
  0
BLOCK_RECORD
  5
6B8
100
AcDbSymbolTableRecord
100
AcDbBlockTableRecord
  2
*D9
  0
BLOCK_RECORD
  5
7BE
100
AcDbSymbolTableRecord
100
AcDbBlockTableRecord
  2
A$C8212
  0
BLOCK_RECORD
  5
7C4
100
AcDbSymbolTableRecord
100
AcDbBlockTableRecord
  2
A$C40A2
  0
BLOCK_RECORD
  5
7EA
100
AcDbSymbolTableRecord
100
AcDbBlockTableRecord
  2
*D12
  0
BLOCK_RECORD
  5
7F7
100
AcDbSymbolTableRecord
100
AcDbBlockTableRecord
  2
*D13
  0
BLOCK_RECORD
  5
92D
100
AcDbSymbolTableRecord
100
AcDbBlockTableRecord
  2
*D14
  0
BLOCK_RECORD
  5
986
100
AcDbSymbolTableRecord
100
AcDbBlockTableRecord
  2
*D15
  0
BLOCK_RECORD
  5
993
100
AcDbSymbolTableRecord
100
AcDbBlockTableRecord
  2
*D16
  0
BLOCK_RECORD
  5
99F
100
AcDbSymbolTableRecord
100
AcDbBlockTableRecord
  2
*D17
  0
BLOCK_RECORD
  5
9AB
100
AcDbSymbolTableRecord
100
AcDbBlockTableRecord
  2
*D18
  0
BLOCK_RECORD
  5
9B7
100
AcDbSymbolTableRecord
100
AcDbBlockTableRecord
  2
*D19
  0
BLOCK_RECORD
  5
9C4
100
AcDbSymbolTableRecord
100
AcDbBlockTableRecord
  2
*D20
  0
BLOCK_RECORD
  5
9D1
100
AcDbSymbolTableRecord
100
AcDbBlockTableRecord
  2
*D21
  0
BLOCK_RECORD
  5
9DF
100
AcDbSymbolTableRecord
100
AcDbBlockTableRecord
  2
*D22
  0
BLOCK_RECORD
  5
9EC
100
AcDbSymbolTableRecord
100
AcDbBlockTableRecord
  2
*D23
  0
BLOCK_RECORD
  5
9F8
100
AcDbSymbolTableRecord
100
AcDbBlockTableRecord
  2
*D24
  0
BLOCK_RECORD
  5
A04
100
AcDbSymbolTableRecord
100
AcDbBlockTableRecord
  2
*D25
  0
BLOCK_RECORD
  5
A11
100
AcDbSymbolTableRecord
100
AcDbBlockTableRecord
  2
*D26
  0
BLOCK_RECORD
  5
A1E
100
AcDbSymbolTableRecord
100
AcDbBlockTableRecord
  2
*D27
  0
BLOCK_RECORD
  5
A2B
100
AcDbSymbolTableRecord
100
AcDbBlockTableRecord
  2
*D28
  0
BLOCK_RECORD
  5
A39
100
AcDbSymbolTableRecord
100
AcDbBlockTableRecord
  2
*X29
  0
BLOCK_RECORD
  5
AA9
100
AcDbSymbolTableRecord
100
AcDbBlockTableRecord
  2
*D30
  0
BLOCK_RECORD
  5
AB1
100
AcDbSymbolTableRecord
100
AcDbBlockTableRecord
  2
A$CC3A2
  0
BLOCK_RECORD
  5
C92
100
AcDbSymbolTableRecord
100
AcDbBlockTableRecord
  2
*D32
  0
BLOCK_RECORD
  5
CBB
100
AcDbSymbolTableRecord
100
AcDbBlockTableRecord
  2
*D33
  0
BLOCK_RECORD
  5
CC7
100
AcDbSymbolTableRecord
100
AcDbBlockTableRecord
  2
*D34
  0
BLOCK_RECORD
  5
CD4
100
AcDbSymbolTableRecord
100
AcDbBlockTableRecord
  2
*D35
  0
BLOCK_RECORD
  5
CE1
100
AcDbSymbolTableRecord
100
AcDbBlockTableRecord
  2
*D36
  0
BLOCK_RECORD
  5
CEE
100
AcDbSymbolTableRecord
100
AcDbBlockTableRecord
  2
*D37
  0
BLOCK_RECORD
  5
CFA
100
AcDbSymbolTableRecord
100
AcDbBlockTableRecord
  2
*D38
  0
BLOCK_RECORD
  5
D06
100
AcDbSymbolTableRecord
100
AcDbBlockTableRecord
  2
*D39
  0
BLOCK_RECORD
  5
D13
100
AcDbSymbolTableRecord
100
AcDbBlockTableRecord
  2
*D40
  0
BLOCK_RECORD
  5
D20
100
AcDbSymbolTableRecord
100
AcDbBlockTableRecord
  2
*D41
  0
BLOCK_RECORD
  5
D35
100
AcDbSymbolTableRecord
100
AcDbBlockTableRecord
  2
*D42
  0
BLOCK_RECORD
  5
D41
100
AcDbSymbolTableRecord
100
AcDbBlockTableRecord
  2
*D43
  0
BLOCK_RECORD
  5
E08
100
AcDbSymbolTableRecord
100
AcDbBlockTableRecord
  2
*D44
  0
BLOCK_RECORD
  5
E38
100
AcDbSymbolTableRecord
100
AcDbBlockTableRecord
  2
*D45
  0
BLOCK_RECORD
  5
E84
100
AcDbSymbolTableRecord
100
AcDbBlockTableRecord
  2
*D46
  0
BLOCK_RECORD
  5
E9C
100
AcDbSymbolTableRecord
100
AcDbBlockTableRecord
  2
*D47
  0
BLOCK_RECORD
  5
EAB
100
AcDbSymbolTableRecord
100
AcDbBlockTableRecord
  2
*D48
  0
BLOCK_RECORD
  5
EB6
100
AcDbSymbolTableRecord
100
AcDbBlockTableRecord
  2
*D49
  0
BLOCK_RECORD
  5
EDD
100
AcDbSymbolTableRecord
100
AcDbBlockTableRecord
  2
*X50
  0
BLOCK_RECORD
  5
F61
100
AcDbSymbolTableRecord
100
AcDbBlockTableRecord
  2
*X51
  0
BLOCK_RECORD
  5
FAC
100
AcDbSymbolTableRecord
100
AcDbBlockTableRecord
  2
*D52
  0
BLOCK_RECORD
  5
FC6
100
AcDbSymbolTableRecord
100
AcDbBlockTableRecord
  2
*D53
  0
BLOCK_RECORD
  5
FED
100
AcDbSymbolTableRecord
100
AcDbBlockTableRecord
  2
*D54
  0
ENDTAB
  0
ENDSEC
  0
SECTION
  2
BLOCKS
  0
BLOCK
  5
1A
100
AcDbEntity
  8
0
100
AcDbBlockBegin
  2
*MODEL_SPACE
 70
     0
 10
0.0
 20
0.0
 30
0.0
  3
*MODEL_SPACE
  1

  0
ENDBLK
  5
1B
100
AcDbEntity
  8
0
100
AcDbBlockEnd
  0
BLOCK
  5
17
100
AcDbEntity
 67
     1
  8
0
100
AcDbBlockBegin
  2
*PAPER_SPACE
 70
     0
 10
0.0
 20
0.0
 30
0.0
  3
*PAPER_SPACE
  1

  0
ENDBLK
  5
18
100
AcDbEntity
 67
     1
  8
0
100
AcDbBlockEnd
  0
BLOCK
  5
3A7
100
AcDbEntity
  8
DISEGNO
100
AcDbBlockBegin
  2
RUGOSITA
 70
     2
 10
0.0
 20
0.0
 30
0.0
  3
RUGOSITA
  1

  0
ATTDEF
  5
3A3
100
AcDbEntity
  8
QUOTE
100
AcDbText
 10
-1.071886
 20
3.214106
 30
0.0
 40
1.5
  1
0.8
100
AcDbAttributeDefinition
  3
CHE RUGOSITA ?
  2
RUGOSITA
 70
     0
  0
LINE
  5
3A4
100
AcDbEntity
  8
QUOTE
100
AcDbLine
 10
0.0
 20
0.0
 30
0.0
 11
4.0
 21
6.928203
 31
0.0
  0
LINE
  5
3A5
100
AcDbEntity
  8
QUOTE
100
AcDbLine
 10
0.0
 20
0.0
 30
0.0
 11
-1.75
 21
3.031089
 31
0.0
  0
LINE
  5
3A6
100
AcDbEntity
  8
QUOTE
100
AcDbLine
 10
-1.75
 20
3.031089
 30
0.0
 11
1.75
 21
3.031089
 31
0.0
  0
ENDBLK
  5
3A8
100
AcDbEntity
  8
DISEGNO
100
AcDbBlockEnd
  0
BLOCK
  5
547
100
AcDbEntity
  8
QUOTE
100
AcDbBlockBegin
  2
A$C52B2
 70
     0
 10
0.0
 20
0.0
 30
0.0
  3
A$C52B2
  1

  0
LINE
  5
4A9
100
AcDbEntity
  8
TABELLA
  6
CONTINUOUS
100
AcDbLine
 10
100.781064
 20
5.387067
 30
0.0
 11
103.281064
 21
0.387067
 31
0.0
  0
LINE
  5
4AA
100
AcDbEntity
  8
TABELLA
  6
CONTINUOUS
100
AcDbLine
 10
100.781064
 20
0.387067
 30
0.0
 11
103.281064
 21
0.387067
 31
0.0
  0
LINE
  5
4AB
100
AcDbEntity
  8
TABELLA
  6
CONTINUOUS
100
AcDbLine
 10
103.281064
 20
287.387067
 30
0.0
 11
100.781064
 21
282.387067
 31
0.0
  0
LINE
  5
4AC
100
AcDbEntity
  8
TABELLA
  6
CONTINUOUS
100
AcDbLine
 10
100.781064
 20
287.387067
 30
0.0
 11
103.281064
 21
287.387067
 31
0.0
  0
TEXT
  5
4AD
100
AcDbEntity
  8
TABELLA
  6
CONTINUOUS
100
AcDbText
 10
83.891226
 20
14.123583
 30
0.0
 40
6.0
  1
ROLLERI
100
AcDbText
  0
LINE
  5
4AE
100
AcDbEntity
  8
TABELLA
  6
CONTINUOUS
100
AcDbLine
 10
115.706968
 20
22.612261
 30
0.0
 11
84.107383
 21
22.612261
 31
0.0
1001
ACAD
1000
ASC_BOUNDS
1002
{
1070
    19
1002
}
  0
LINE
  5
4AF
100
AcDbEntity
  8
TABELLA
  6
CONTINUOUS
100
AcDbLine
 10
82.055262
 20
11.456564
 30
0.0
 11
113.654847
 21
11.456564
 31
0.0
1001
ACAD
1000
ASC_BOUNDS
1002
{
1070
    19
1002
}
  0
LINE
  5
4B0
100
AcDbEntity
  8
TABELLA
  6
CONTINUOUS
100
AcDbLine
 10
116.407176
 20
23.612261
 30
0.0
 11
83.407176
 21
23.612261
 31
0.0
1001
ACAD
1000
ASC_BOUNDS
1002
{
1070
    19
1002
}
  0
LINE
  5
4B1
100
AcDbEntity
  8
TABELLA
  6
CONTINUOUS
100
AcDbLine
 10
81.355055
 20
10.456564
 30
0.0
 11
114.355055
 21
10.456564
 31
0.0
1001
ACAD
1000
ASC_BOUNDS
1002
{
1070
    19
1002
}
  0
TEXT
  5
4B2
100
AcDbEntity
  8
TABELLA
  6
CONTINUOUS
100
AcDbText
 10
79.770815
 20
6.679292
 30
0.0
 40
2.0
  1
Vigolzone ( Piacenza ) - ITALIA
100
AcDbText
  0
LINE
  5
4B3
100
AcDbEntity
  8
TABELLA
  6
CONTINUOUS
100
AcDbLine
 10
125.782064
 20
35.387067
 30
0.0
 11
75.782064
 21
35.387067
 31
0.0
  0
LINE
  5
4B4
100
AcDbEntity
  8
TABELLA
  6
CONTINUOUS
100
AcDbLine
 10
195.782064
 20
45.387067
 30
0.0
 11
5.697058
 21
45.395351
 31
0.0
  0
LINE
  5
4B5
100
AcDbEntity
  8
TABELLA
  6
CONTINUOUS
100
AcDbLine
 10
125.782064
 20
25.387067
 30
0.0
 11
75.782064
 21
25.387067
 31
0.0
  0
LINE
  5
4B6
100
AcDbEntity
  8
TABELLA
  6
CONTINUOUS
100
AcDbLine
 10
195.782064
 20
5.387067
 30
0.0
 11
5.782064
 21
5.387067
 31
0.0
  0
LINE
  5
4B7
100
AcDbEntity
  8
TABELLA
  6
CONTINUOUS
100
AcDbLine
 10
5.782064
 20
282.387067
 30
0.0
 11
195.782064
 21
282.387067
 31
0.0
  0
LINE
  5
4B8
100
AcDbEntity
  8
TABELLA
  6
CONTINUOUS
100
AcDbLine
 10
5.782064
 20
143.887067
 30
0.0
 11
0.782064
 21
141.387067
 31
0.0
  0
LINE
  5
4B9
100
AcDbEntity
  8
TABELLA
  6
CONTINUOUS
100
AcDbLine
 10
0.782064
 20
143.887067
 30
0.0
 11
0.782064
 21
141.387067
 31
0.0
  0
LINE
  5
4BA
100
AcDbEntity
  8
TABELLA
  6
CONTINUOUS
100
AcDbLine
 10
5.782064
 20
5.387067
 30
0.0
 11
5.782064
 21
282.387067
 31
0.0
  0
POLYLINE
  5
4BB
100
AcDbEntity
  8
QUOTE
100
AcDb2dPolyline
 66
     1
 10
0.0
 20
0.0
 30
0.0
 70
     1
  0
VERTEX
  5
4BC
100
AcDbEntity
  8
QUOTE
100
AcDbVertex
100
AcDb2dVertex
 10
11.507487
 20
62.582414
 30
0.0
  0
VERTEX
  5
4BD
100
AcDbEntity
  8
QUOTE
100
AcDbVertex
100
AcDb2dVertex
 10
11.507487
 20
49.867806
 30
0.0
  0
VERTEX
  5
4BE
100
AcDbEntity
  8
QUOTE
100
AcDbVertex
100
AcDb2dVertex
 10
52.626527
 20
49.867806
 30
0.0
  0
VERTEX
  5
4BF
100
AcDbEntity
  8
QUOTE
100
AcDbVertex
100
AcDb2dVertex
 10
52.626527
 20
62.582414
 30
0.0
  0
SEQEND
  5
4C0
100
AcDbEntity
  8
QUOTE
  0
TOLERANCE
  5
4C1
100
AcDbEntity
  8
QUOTE
  6
CONTINUOUS
100
AcDbFcf
  3
ISO-25
 10
30.863585
 20
54.182522
 30
0.0
  1
{\Fgdt;u}%%v0.02%%v%%v%%v%%v
1001
ACAD
1000
DSTYLE
1002
{
1070
   140
1040
2.6
1070
    47
1040
0.02
1070
    73
1070
     0
1070
   272
1070
     2
1070
   147
1040
0.53
1070
    42
1040
0.5261
1070
    44
1040
1.0522
1070
    43
1040
3.1566
1070
   271
1070
     2
1070
   141
1040
2.1044
1070
    41
1040
2.6
1002
}
  0
TEXT
  5
4C2
100
AcDbEntity
  8
QUOTE
100
AcDbText
 10
12.101072
 20
58.118453
 30
0.0
 40
2.5
  1
TOLLERANZE AL METRO
 41
1.1
100
AcDbText
  0
TEXT
  5
4C3
100
AcDbEntity
  8
TABELLA
  6
CONTINUOUS
100
AcDbText
 10
7.271803
 20
15.7314
 30
0.0
 40
2.0
  1
- Angoli su superfici lavorate = +/- 30'
100
AcDbText
  0
TEXT
  5
4C4
100
AcDbEntity
  8
TABELLA
  6
CONTINUOUS
100
AcDbText
 10
7.271803
 20
23.3314
 30
0.0
 40
2.0
  1
   da mm 151 a mm 500 = +/- 0.4
100
AcDbText
  0
TEXT
  5
4C5
100
AcDbEntity
  8
TABELLA
  6
CONTINUOUS
100
AcDbText
 10
7.271803
 20
27.1314
 30
0.0
 40
2.0
  1
   da mm 51 a mm 150 = +/- 0.3
100
AcDbText
  0
TEXT
  5
4C6
100
AcDbEntity
  8
TABELLA
  6
CONTINUOUS
100
AcDbText
 10
7.271803
 20
30.9314
 30
0.0
 40
2.0
  1
- Superfici lavorate da mm 1 a mm 50 = +/- 0.2
100
AcDbText
  0
TEXT
  5
4C7
100
AcDbEntity
  8
TABELLA
  6
CONTINUOUS
100
AcDbText
 10
7.271803
 20
34.7314
 30
0.0
 40
2.0
  1
- Parti fuse con spessori >10 mm = +/- 10%
100
AcDbText
  0
TEXT
  5
4C8
100
AcDbEntity
  8
TABELLA
  6
CONTINUOUS
100
AcDbText
 10
7.271803
 20
38.5314
 30
0.0
 40
2.0
  1
- Parti fuse con spessori <10 mm = +/- 1 mm
100
AcDbText
  0
TOLERANCE
  5
4C9
100
AcDbEntity
  8
QUOTE
  6
CONTINUOUS
100
AcDbFcf
  3
ISO-25
 10
15.305627
 20
54.182522
 30
0.0
  1
{\Fgdt;b}%%v0.02%%v%%v%%v%%v
1001
ACAD
1000
DSTYLE
1002
{
1070
   140
1040
2.6
1070
    47
1040
0.02
1070
    73
1070
     0
1070
   272
1070
     2
1070
   147
1040
0.53
1070
    42
1040
0.5261
1070
    44
1040
1.0522
1070
    43
1040
3.1566
1070
   271
1070
     2
1070
   141
1040
2.1044
1070
    41
1040
2.6
1002
}
  0
TEXT
  5
4CA
100
AcDbEntity
  8
TABELLA
  6
CONTINUOUS
100
AcDbText
 10
0.769342
 20
51.259863
 30
0.0
 40
4.0
  1
B
100
AcDbText
  0
TEXT
  5
4CB
100
AcDbEntity
  8
TABELLA
  6
CONTINUOUS
100
AcDbText
 10
0.353187
 20
15.100813
 30
0.0
 40
4.0
  1
A
100
AcDbText
  0
LINE
  5
4CC
100
AcDbEntity
  8
TABELLA
  6
CONTINUOUS
100
AcDbLine
 10
5.782064
 20
36.262067
 30
0.0
 11
0.782064
 21
36.262067
 31
0.0
  0
TEXT
  5
4CD
100
AcDbEntity
  8
TABELLA
  6
CONTINUOUS
100
AcDbText
 10
15.583223
 20
0.138446
 30
0.0
 40
4.0
  1
6
100
AcDbText
  0
LINE
  5
4CE
100
AcDbEntity
  8
TABELLA
  6
CONTINUOUS
100
AcDbLine
 10
34.115064
 20
5.387067
 30
0.0
 11
34.115064
 21
0.387067
 31
0.0
  0
TEXT
  5
4CF
100
AcDbEntity
  8
TABELLA
  6
CONTINUOUS
100
AcDbText
 10
7.271803
 20
11.9314
 30
0.0
 40
2.0
  1
- Interassi fori = +/- 0.25
100
AcDbText
  0
TEXT
  5
4D0
100
AcDbEntity
  8
TABELLA
  6
CONTINUOUS
100
AcDbText
 10
7.271803
 20
19.5314
 30
0.0
 40
2.0
  1
   oltre 500 mm = +/- 0.5
100
AcDbText
  0
TEXT
  5
4D1
100
AcDbEntity
  8
TABELLA
  6
CONTINUOUS
100
AcDbText
 10
7.271803
 20
42.3314
 30
0.0
 40
2.0
  1
TOLLERANZE GENERALI :
100
AcDbText
  0
LINE
  5
4D2
100
AcDbEntity
  8
TABELLA
  6
CONTINUOUS
100
AcDbLine
 10
5.782064
 20
72.137067
 30
0.0
 11
0.782064
 21
72.137067
 31
0.0
  0
TEXT
  5
4D3
100
AcDbEntity
  8
TABELLA
  6
CONTINUOUS
100
AcDbText
 10
0.769342
 20
87.459725
 30
0.0
 40
4.0
  1
C
100
AcDbText
  0
LINE
  5
4D4
100
AcDbEntity
  8
TABELLA
  6
CONTINUOUS
100
AcDbLine
 10
5.782064
 20
108.012067
 30
0.0
 11
0.782064
 21
108.012067
 31
0.0
  0
TEXT
  5
4D5
100
AcDbEntity
  8
TABELLA
  6
CONTINUOUS
100
AcDbText
 10
0.769342
 20
124.034397
 30
0.0
 40
4.0
  1
D
100
AcDbText
  0
LINE
  5
4D6
100
AcDbEntity
  8
TABELLA
  6
CONTINUOUS
100
AcDbLine
 10
65.792444
 20
45.394891
 30
0.0
 11
65.782064
 21
5.389662
 31
0.0
  0
TEXT
  5
4D7
100
AcDbEntity
  8
TABELLA
  6
CONTINUOUS
100
AcDbText
 10
68.438556
 20
7.454028
 30
0.0
 40
1.5
  1
A termine di legge la Rolleri si riserva la
 50
90.0
100
AcDbText
  0
TEXT
  5
4D8
100
AcDbEntity
  8
TABELLA
  6
CONTINUOUS
100
AcDbText
 10
49.29176
 20
0.138446
 30
0.0
 40
4.0
  1
5
100
AcDbText
  0
LINE
  5
4D9
100
AcDbEntity
  8
TABELLA
  6
CONTINUOUS
100
AcDbLine
 10
67.448064
 20
5.387067
 30
0.0
 11
67.448064
 21
0.387067
 31
0.0
  0
LINE
  5
4DA
100
AcDbEntity
  8
TABELLA
  6
CONTINUOUS
100
AcDbLine
 10
75.792442
 20
45.387067
 30
0.0
 11
75.792442
 21
5.387067
 31
0.0
  0
TEXT
  5
4DB
100
AcDbEntity
  8
TABELLA
  6
CONTINUOUS
100
AcDbText
 10
74.138556
 20
7.454028
 30
0.0
 40
1.5
  1
di riprodurlo e di comunicarlo a terzi.
 50
90.0
100
AcDbText
  0
TEXT
  5
4DC
100
AcDbEntity
  8
TABELLA
  6
CONTINUOUS
100
AcDbText
 10
71.288556
 20
7.454028
 30
0.0
 40
1.5
  1
proprietà di questo disegno, con divieto
 50
90.0
100
AcDbText
  0
TEXT
  5
4DD
100
AcDbEntity
  8
TABELLA
  6
CONTINUOUS
100
AcDbText
 10
83.416451
 20
0.554068
 30
0.0
 40
4.0
  1
4
100
AcDbText
  0
LINE
  5
4DE
100
AcDbEntity
  8
TABELLA
  6
CONTINUOUS
100
AcDbLine
 10
98.281064
 20
0.387067
 30
0.0
 11
100.781064
 21
5.387067
 31
0.0
  0
LINE
  5
4DF
100
AcDbEntity
  8
TABELLA
  6
CONTINUOUS
100
AcDbLine
 10
100.781064
 20
5.387067
 30
0.0
 11
100.781064
 21
0.387067
 31
0.0
  0
LINE
  5
4E0
100
AcDbEntity
  8
TABELLA
  6
CONTINUOUS
100
AcDbLine
 10
100.781064
 20
0.387067
 30
0.0
 11
98.281064
 21
0.387067
 31
0.0
  0
TEXT
  5
4E1
100
AcDbEntity
  8
TABELLA
  6
CONTINUOUS
100
AcDbText
 10
77.180326
 20
42.484843
 30
0.0
 40
2.0
  1
Materiale
100
AcDbText
  0
TEXT
  5
4E2
100
AcDbEntity
  8
TABELLA
  6
CONTINUOUS
100
AcDbText
 10
76.949018
 20
32.320687
 30
0.0
 40
2.0
  1
Disegnato da
100
AcDbText
  0
LINE
  5
4E3
100
AcDbEntity
  8
TABELLA
  6
CONTINUOUS
100
AcDbLine
 10
84.107383
 20
22.612261
 30
0.0
 11
81.051152
 21
14.215335
 31
0.0
1001
ACAD
1000
ASC_BOUNDS
1002
{
1070
    19
1002
}
  0
LINE
  5
4E4
100
AcDbEntity
  8
TABELLA
  6
CONTINUOUS
100
AcDbLine
 10
83.407176
 20
23.612261
 30
0.0
 11
79.986974
 21
14.215335
 31
0.0
1001
ACAD
1000
ASC_BOUNDS
1002
{
1070
    19
1002
}
  0
LINE
  5
4E5
100
AcDbEntity
  8
TABELLA
  6
CONTINUOUS
100
AcDbLine
 10
81.051152
 20
14.215335
 30
0.0
 11
82.055262
 21
11.456564
 31
0.0
1001
ACAD
1000
ASC_BOUNDS
1002
{
1070
    19
1002
}
  0
LINE
  5
4E6
100
AcDbEntity
  8
TABELLA
  6
CONTINUOUS
100
AcDbLine
 10
79.986974
 20
14.215335
 30
0.0
 11
81.355055
 21
10.456564
 31
0.0
1001
ACAD
1000
ASC_BOUNDS
1002
{
1070
    19
1002
}
  0
LINE
  5
4E7
100
AcDbEntity
  8
TABELLA
  6
CONTINUOUS
100
AcDbLine
 10
100.782064
 20
35.387067
 30
0.0
 11
100.782064
 21
25.387067
 31
0.0
  0
TEXT
  5
4E8
100
AcDbEntity
  8
TABELLA
  6
CONTINUOUS
100
AcDbText
 10
1.185497
 20
230.800736
 30
0.0
 40
4.0
  1
G
100
AcDbText
  0
LINE
  5
4E9
100
AcDbEntity
  8
TABELLA
  6
CONTINUOUS
100
AcDbLine
 10
0.782064
 20
146.387067
 30
0.0
 11
5.782064
 21
143.887067
 31
0.0
  0
LINE
  5
4EA
100
AcDbEntity
  8
TABELLA
  6
CONTINUOUS
100
AcDbLine
 10
5.782064
 20
143.887067
 30
0.0
 11
0.782064
 21
143.887067
 31
0.0
  0
LINE
  5
4EB
100
AcDbEntity
  8
TABELLA
  6
CONTINUOUS
100
AcDbLine
 10
0.782064
 20
143.887067
 30
0.0
 11
0.782064
 21
146.387067
 31
0.0
  0
TEXT
  5
4EC
100
AcDbEntity
  8
TABELLA
  6
CONTINUOUS
100
AcDbText
 10
1.601651
 20
158.319393
 30
0.0
 40
4.0
  1
E
100
AcDbText
  0
LINE
  5
4ED
100
AcDbEntity
  8
TABELLA
  6
CONTINUOUS
100
AcDbLine
 10
5.782064
 20
179.762067
 30
0.0
 11
0.782064
 21
179.762067
 31
0.0
  0
TEXT
  5
4EE
100
AcDbEntity
  8
TABELLA
  6
CONTINUOUS
100
AcDbText
 10
1.185497
 20
195.309687
 30
0.0
 40
4.0
  1
F
100
AcDbText
  0
LINE
  5
4EF
100
AcDbEntity
  8
TABELLA
  6
CONTINUOUS
100
AcDbLine
 10
5.782064
 20
215.637067
 30
0.0
 11
0.782064
 21
215.637067
 31
0.0
  0
LINE
  5
4F0
100
AcDbEntity
  8
TABELLA
  6
CONTINUOUS
100
AcDbLine
 10
5.782064
 20
251.512067
 30
0.0
 11
0.782064
 21
251.512067
 31
0.0
  0
TEXT
  5
4F1
100
AcDbEntity
  8
TABELLA
  6
CONTINUOUS
100
AcDbText
 10
1.185497
 20
268.206651
 30
0.0
 40
4.0
  1
H
100
AcDbText
  0
TEXT
  5
4F2
100
AcDbEntity
  8
TABELLA
  6
CONTINUOUS
100
AcDbText
 10
15.583224
 20
283.209827
 30
0.0
 40
4.0
  1
6
100
AcDbText
  0
LINE
  5
4F3
100
AcDbEntity
  8
TABELLA
  6
CONTINUOUS
100
AcDbLine
 10
34.115064
 20
282.387067
 30
0.0
 11
34.115064
 21
287.387067
 31
0.0
  0
TEXT
  5
4F4
100
AcDbEntity
  8
TABELLA
  6
CONTINUOUS
100
AcDbText
 10
50.12407
 20
283.250638
 30
0.0
 40
4.0
  1
5
100
AcDbText
  0
LINE
  5
4F5
100
AcDbEntity
  8
TABELLA
  6
CONTINUOUS
100
AcDbLine
 10
67.448064
 20
282.387067
 30
0.0
 11
67.448064
 21
287.387067
 31
0.0
  0
TEXT
  5
4F6
100
AcDbEntity
  8
TABELLA
  6
CONTINUOUS
100
AcDbText
 10
83.832607
 20
283.250638
 30
0.0
 40
4.0
  1
4
100
AcDbText
  0
LINE
  5
4F7
100
AcDbEntity
  8
TABELLA
  6
CONTINUOUS
100
AcDbLine
 10
100.781064
 20
282.387067
 30
0.0
 11
98.281064
 21
287.387067
 31
0.0
  0
LINE
  5
4F8
100
AcDbEntity
  8
TABELLA
  6
CONTINUOUS
100
AcDbLine
 10
100.781064
 20
282.387067
 30
0.0
 11
100.781064
 21
287.387067
 31
0.0
  0
LINE
  5
4F9
100
AcDbEntity
  8
TABELLA
  6
CONTINUOUS
100
AcDbLine
 10
100.781064
 20
287.387067
 30
0.0
 11
98.281064
 21
287.387067
 31
0.0
  0
LINE
  5
4FA
100
AcDbEntity
  8
TABELLA
  6
CONTINUOUS
100
AcDbLine
 10
200.782064
 20
141.387067
 30
0.0
 11
195.782064
 21
143.887067
 31
0.0
  0
LINE
  5
4FB
100
AcDbEntity
  8
TABELLA
  6
CONTINUOUS
100
AcDbLine
 10
200.782064
 20
143.887067
 30
0.0
 11
200.782064
 21
141.387067
 31
0.0
  0
LINE
  5
4FC
100
AcDbEntity
  8
TABELLA
  6
CONTINUOUS
100
AcDbLine
 10
191.781227
 20
165.387241
 30
0.0
 11
191.781227
 21
45.387241
 31
0.0
  0
LINE
  5
4FD
100
AcDbEntity
  8
TABELLA
  6
CONTINUOUS
100
AcDbLine
 10
195.782064
 20
5.387067
 30
0.0
 11
195.782064
 21
282.387067
 31
0.0
  0
TEXT
  5
4FE
100
AcDbEntity
  8
TABELLA
  6
CONTINUOUS
100
AcDbText
 10
147.267168
 20
42.484843
 30
0.0
 40
2.0
  1
Trattamento Termico
100
AcDbText
  0
TEXT
  5
4FF
100
AcDbEntity
  8
TABELLA
  6
CONTINUOUS
100
AcDbText
 10
161.83968
 20
32.089683
 30
0.0
 40
2.0
  1
Scala
100
AcDbText
  0
TEXT
  5
500
100
AcDbEntity
  8
TABELLA
  6
CONTINUOUS
100
AcDbText
 10
162.070991
 20
12.223377
 30
0.0
 40
2.0
  1
Data
100
AcDbText
  0
LINE
  5
501
100
AcDbEntity
  8
TABELLA
  6
CONTINUOUS
100
AcDbLine
 10
125.782064
 20
35.387067
 30
0.0
 11
195.782064
 21
35.387067
 31
0.0
  0
LINE
  5
502
100
AcDbEntity
  8
TABELLA
  6
CONTINUOUS
100
AcDbLine
 10
125.782064
 20
25.387067
 30
0.0
 11
195.782064
 21
25.387067
 31
0.0
  0
LINE
  5
503
100
AcDbEntity
  8
TABELLA
  6
CONTINUOUS
100
AcDbLine
 10
120.666552
 20
15.457427
 30
0.0
 11
195.782064
 21
15.387067
 31
0.0
  0
TEXT
  5
504
100
AcDbEntity
  8
TABELLA
  6
CONTINUOUS
100
AcDbText
 10
116.965597
 20
42.484843
 30
0.0
 40
2.0
  1
Dimensioni di prelievo
100
AcDbText
  0
TEXT
  5
505
100
AcDbEntity
  8
TABELLA
  6
CONTINUOUS
100
AcDbText
 10
126.911915
 20
32.089683
 30
0.0
 40
2.0
  1
Approvato da - data
100
AcDbText
  0
TEXT
  5
506
100
AcDbEntity
  8
TABELLA
  6
CONTINUOUS
100
AcDbText
 10
121.823101
 20
22.387534
 30
0.0
 40
2.0
  1
Particolare
100
AcDbText
  0
LINE
  5
507
100
AcDbEntity
  8
TABELLA
  6
CONTINUOUS
100
AcDbLine
 10
120.782064
 20
15.387067
 30
0.0
 11
120.782064
 21
5.387067
 31
0.0
  0
TEXT
  5
508
100
AcDbEntity
  8
TABELLA
  6
CONTINUOUS
100
AcDbText
 10
116.708833
 20
0.138446
 30
0.0
 40
4.0
  1
3
100
AcDbText
  0
LINE
  5
509
100
AcDbEntity
  8
TABELLA
  6
CONTINUOUS
100
AcDbLine
 10
116.711078
 20
19.853491
 30
0.0
 11
115.706968
 21
22.612261
 31
0.0
1001
ACAD
1000
ASC_BOUNDS
1002
{
1070
    19
1002
}
  0
LINE
  5
50A
100
AcDbEntity
  8
TABELLA
  6
CONTINUOUS
100
AcDbLine
 10
113.654847
 20
11.456564
 30
0.0
 11
116.711078
 21
19.853491
 31
0.0
1001
ACAD
1000
ASC_BOUNDS
1002
{
1070
    19
1002
}
  0
LINE
  5
50B
100
AcDbEntity
  8
TABELLA
  6
CONTINUOUS
100
AcDbLine
 10
114.355055
 20
10.456564
 30
0.0
 11
117.775256
 21
19.853491
 31
0.0
1001
ACAD
1000
ASC_BOUNDS
1002
{
1070
    19
1002
}
  0
TEXT
  5
50C
100
AcDbEntity
  8
TABELLA
  6
CONTINUOUS
100
AcDbText
 10
101.930465
 20
32.089683
 30
0.0
 40
2.0
  1
Controllato da
100
AcDbText
  0
LINE
  5
50D
100
AcDbEntity
  8
TABELLA
  6
CONTINUOUS
100
AcDbLine
 10
115.782064
 20
35.387067
 30
0.0
 11
115.782064
 21
45.387067
 31
0.0
  0
LINE
  5
50E
100
AcDbEntity
  8
TABELLA
  6
CONTINUOUS
100
AcDbLine
 10
125.782064
 20
35.387067
 30
0.0
 11
125.782064
 21
25.387067
 31
0.0
  0
TEXT
  5
50F
100
AcDbEntity
  8
TABELLA
  6
CONTINUOUS
100
AcDbText
 10
121.591791
 20
12.223377
 30
0.0
 40
2.0
  1
Disegno
100
AcDbText
  0
LINE
  5
510
100
AcDbEntity
  8
TABELLA
  6
CONTINUOUS
100
AcDbLine
 10
117.775256
 20
19.853491
 30
0.0
 11
116.407176
 21
23.612261
 31
0.0
1001
ACAD
1000
ASC_BOUNDS
1002
{
1070
    19
1002
}
  0
LINE
  5
511
100
AcDbEntity
  8
TABELLA
  6
CONTINUOUS
100
AcDbLine
 10
120.782064
 20
25.387067
 30
0.0
 11
120.782064
 21
15.387067
 31
0.0
  0
LINE
  5
512
100
AcDbEntity
  8
TABELLA
  6
CONTINUOUS
100
AcDbLine
 10
160.782064
 20
15.387067
 30
0.0
 11
160.782064
 21
5.387067
 31
0.0
  0
LINE
  5
513
100
AcDbEntity
  8
TABELLA
  6
CONTINUOUS
100
AcDbLine
 10
134.114064
 20
5.387067
 30
0.0
 11
134.114064
 21
0.387067
 31
0.0
  0
TEXT
  5
514
100
AcDbEntity
  8
TABELLA
  6
CONTINUOUS
100
AcDbText
 10
150.41737
 20
0.138446
 30
0.0
 40
4.0
  1
2
100
AcDbText
  0
LINE
  5
515
100
AcDbEntity
  8
TABELLA
  6
CONTINUOUS
100
AcDbLine
 10
145.782064
 20
35.387067
 30
0.0
 11
145.782064
 21
45.387067
 31
0.0
  0
LINE
  5
516
100
AcDbEntity
  8
TABELLA
  6
CONTINUOUS
100
AcDbLine
 10
160.782064
 20
35.387067
 30
0.0
 11
160.782064
 21
25.387067
 31
0.0
  0
TEXT
  5
517
100
AcDbEntity
  8
TABELLA
  6
CONTINUOUS
100
AcDbText
 10
197.026704
 20
51.259863
 30
0.0
 40
4.0
  1
B
100
AcDbText
  0
TEXT
  5
518
100
AcDbEntity
  8
TABELLA
  6
CONTINUOUS
100
AcDbText
 10
195.001816
 20
46.303578
 30
0.0
 40
2.0
  1
N° rev.
 50
90.0
100
AcDbText
  0
LINE
  5
519
100
AcDbEntity
  8
TABELLA
  6
CONTINUOUS
100
AcDbLine
 10
176.747411
 20
30.474182
 30
0.0
 11
194.673913
 21
30.474182
 31
0.0
  0
LINE
  5
51A
100
AcDbEntity
  8
TABELLA
  6
CONTINUOUS
100
AcDbLine
 10
180.782064
 20
15.387067
 30
0.0
 11
180.782064
 21
5.387067
 31
0.0
  0
LINE
  5
51B
100
AcDbEntity
  8
TABELLA
  6
CONTINUOUS
100
AcDbLine
 10
167.447064
 20
5.387067
 30
0.0
 11
167.447064
 21
0.387067
 31
0.0
  0
TEXT
  5
51C
100
AcDbEntity
  8
TABELLA
  6
CONTINUOUS
100
AcDbText
 10
184.542061
 20
0.138446
 30
0.0
 40
4.0
  1
1
100
AcDbText
  0
LINE
  5
51D
100
AcDbEntity
  8
TABELLA
  6
CONTINUOUS
100
AcDbLine
 10
176.747411
 20
31.974182
 30
0.0
 11
182.656258
 21
33.016071
 31
0.0
  0
LINE
  5
51E
100
AcDbEntity
  8
TABELLA
  6
CONTINUOUS
100
AcDbLine
 10
176.747411
 20
28.974182
 30
0.0
 11
182.656258
 21
27.932293
 31
0.0
  0
LINE
  5
51F
100
AcDbEntity
  8
TABELLA
  6
CONTINUOUS
100
AcDbLine
 10
176.747411
 20
31.974182
 30
0.0
 11
176.747411
 21
28.974182
 31
0.0
  0
LINE
  5
520
100
AcDbEntity
  8
TABELLA
  6
CONTINUOUS
100
AcDbLine
 10
175.782064
 20
35.387067
 30
0.0
 11
175.782064
 21
25.387067
 31
0.0
  0
CIRCLE
  5
521
100
AcDbEntity
  8
TABELLA
  6
CONTINUOUS
100
AcDbCircle
 10
189.932065
 20
30.474182
 30
0.0
 40
1.5
  0
LINE
  5
522
100
AcDbEntity
  8
TABELLA
  6
CONTINUOUS
100
AcDbLine
 10
189.932065
 20
28.369782
 30
0.0
 11
189.932065
 21
32.578582
 31
0.0
  0
CIRCLE
  5
523
100
AcDbEntity
  8
TABELLA
  6
CONTINUOUS
100
AcDbCircle
 10
189.932065
 20
30.474182
 30
0.0
 40
2.54
  0
LINE
  5
524
100
AcDbEntity
  8
TABELLA
  6
CONTINUOUS
100
AcDbLine
 10
182.656258
 20
33.016071
 30
0.0
 11
182.656258
 21
27.932293
 31
0.0
  0
TEXT
  5
525
100
AcDbEntity
  8
TABELLA
  6
CONTINUOUS
100
AcDbText
 10
181.963625
 20
11.992375
 30
0.0
 40
2.0
  1
Formato
100
AcDbText
  0
LINE
  5
526
100
AcDbEntity
  8
TABELLA
  6
CONTINUOUS
100
AcDbLine
 10
187.827665
 20
30.474182
 30
0.0
 11
192.036465
 21
30.474182
 31
0.0
  0
LINE
  5
527
100
AcDbEntity
  8
TABELLA
  6
CONTINUOUS
100
AcDbLine
 10
195.782064
 20
5.387067
 30
0.0
 11
195.782064
 21
35.387067
 31
0.0
  0
TEXT
  5
528
100
AcDbEntity
  8
TABELLA
  6
CONTINUOUS
100
AcDbText
 10
197.026704
 20
14.685191
 30
0.0
 40
4.0
  1
A
100
AcDbText
  0
LINE
  5
529
100
AcDbEntity
  8
TABELLA
  6
CONTINUOUS
100
AcDbLine
 10
195.782064
 20
36.262067
 30
0.0
 11
200.782064
 21
36.262067
 31
0.0
  0
TEXT
  5
52A
100
AcDbEntity
  8
TABELLA
  6
CONTINUOUS
100
AcDbText
 10
195.209894
 20
130.984517
 30
0.0
 40
2.0
  1
Data
 50
90.0
100
AcDbText
  0
TEXT
  5
52B
100
AcDbEntity
  8
TABELLA
  6
CONTINUOUS
100
AcDbText
 10
195.209894
 20
56.278486
 30
0.0
 40
2.0
  1
Nota di revisione
 50
90.0
100
AcDbText
  0
LINE
  5
52C
100
AcDbEntity
  8
TABELLA
  6
CONTINUOUS
100
AcDbLine
 10
191.781227
 20
55.387241
 30
0.0
 11
195.782064
 21
55.387241
 31
0.0
  0
LINE
  5
52D
100
AcDbEntity
  8
TABELLA
  6
CONTINUOUS
100
AcDbLine
 10
191.781227
 20
130.387241
 30
0.0
 11
195.782064
 21
130.387241
 31
0.0
  0
LINE
  5
52E
100
AcDbEntity
  8
TABELLA
  6
CONTINUOUS
100
AcDbLine
 10
195.782064
 20
72.137067
 30
0.0
 11
200.782064
 21
72.137067
 31
0.0
  0
TEXT
  5
52F
100
AcDbEntity
  8
TABELLA
  6
CONTINUOUS
100
AcDbText
 10
197.442859
 20
87.459725
 30
0.0
 40
4.0
  1
C
100
AcDbText
  0
LINE
  5
530
100
AcDbEntity
  8
TABELLA
  6
CONTINUOUS
100
AcDbLine
 10
195.782064
 20
108.012067
 30
0.0
 11
200.782064
 21
108.012067
 31
0.0
  0
TEXT
  5
531
100
AcDbEntity
  8
TABELLA
  6
CONTINUOUS
100
AcDbText
 10
197.442859
 20
123.618776
 30
0.0
 40
4.0
  1
D
100
AcDbText
  0
TEXT
  5
532
100
AcDbEntity
  8
TABELLA
  6
CONTINUOUS
100
AcDbText
 10
116.708835
 20
283.250638
 30
0.0
 40
4.0
  1
3
100
AcDbText
  0
LINE
  5
533
100
AcDbEntity
  8
TABELLA
  6
CONTINUOUS
100
AcDbLine
 10
134.114064
 20
282.387067
 30
0.0
 11
134.114064
 21
287.387067
 31
0.0
  0
TEXT
  5
534
100
AcDbEntity
  8
TABELLA
  6
CONTINUOUS
100
AcDbText
 10
150.417372
 20
283.250638
 30
0.0
 40
4.0
  1
2
100
AcDbText
  0
TEXT
  5
535
100
AcDbEntity
  8
TABELLA
  6
CONTINUOUS
100
AcDbText
 10
197.026704
 20
230.800736
 30
0.0
 40
4.0
  1
G
100
AcDbText
  0
TEXT
  5
536
100
AcDbEntity
  8
TABELLA
  6
CONTINUOUS
100
AcDbText
 10
195.209894
 20
155.7956
 30
0.0
 40
2.0
  1
Control.
 50
90.0
100
AcDbText
  0
TEXT
  5
537
100
AcDbEntity
  8
TABELLA
  6
CONTINUOUS
100
AcDbText
 10
195.209894
 20
146.028502
 30
0.0
 40
2.0
  1
Firma
 50
90.0
100
AcDbText
  0
LINE
  5
538
100
AcDbEntity
  8
TABELLA
  6
CONTINUOUS
100
AcDbLine
 10
191.781227
 20
145.387241
 30
0.0
 11
195.782064
 21
145.387241
 31
0.0
  0
LINE
  5
539
100
AcDbEntity
  8
TABELLA
  6
CONTINUOUS
100
AcDbLine
 10
191.781227
 20
155.387241
 30
0.0
 11
195.782064
 21
155.387241
 31
0.0
  0
LINE
  5
53A
100
AcDbEntity
  8
TABELLA
  6
CONTINUOUS
100
AcDbLine
 10
191.781227
 20
165.387241
 30
0.0
 11
195.782064
 21
165.387241
 31
0.0
  0
LINE
  5
53B
100
AcDbEntity
  8
TABELLA
  6
CONTINUOUS
100
AcDbLine
 10
195.782064
 20
143.887067
 30
0.0
 11
200.782064
 21
146.387067
 31
0.0
  0
LINE
  5
53C
100
AcDbEntity
  8
TABELLA
  6
CONTINUOUS
100
AcDbLine
 10
195.782064
 20
143.887067
 30
0.0
 11
200.782064
 21
143.887067
 31
0.0
  0
LINE
  5
53D
100
AcDbEntity
  8
TABELLA
  6
CONTINUOUS
100
AcDbLine
 10
200.782064
 20
143.887067
 30
0.0
 11
200.782064
 21
146.387067
 31
0.0
  0
TEXT
  5
53E
100
AcDbEntity
  8
TABELLA
  6
CONTINUOUS
100
AcDbText
 10
197.442859
 20
158.319393
 30
0.0
 40
4.0
  1
E
100
AcDbText
  0
LINE
  5
53F
100
AcDbEntity
  8
TABELLA
  6
CONTINUOUS
100
AcDbLine
 10
195.782064
 20
179.762067
 30
0.0
 11
200.782064
 21
179.762067
 31
0.0
  0
TEXT
  5
540
100
AcDbEntity
  8
TABELLA
  6
CONTINUOUS
100
AcDbText
 10
197.859013
 20
195.309687
 30
0.0
 40
4.0
  1
F
100
AcDbText
  0
LINE
  5
541
100
AcDbEntity
  8
TABELLA
  6
CONTINUOUS
100
AcDbLine
 10
195.782064
 20
215.637067
 30
0.0
 11
200.782064
 21
215.637067
 31
0.0
  0
LINE
  5
542
100
AcDbEntity
  8
TABELLA
  6
CONTINUOUS
100
AcDbLine
 10
167.447064
 20
282.387067
 30
0.0
 11
167.447064
 21
287.387067
 31
0.0
  0
TEXT
  5
543
100
AcDbEntity
  8
TABELLA
  6
CONTINUOUS
100
AcDbText
 10
184.958217
 20
283.250638
 30
0.0
 40
4.0
  1
1
100
AcDbText
  0
LINE
  5
544
100
AcDbEntity
  8
TABELLA
  6
CONTINUOUS
100
AcDbLine
 10
195.782064
 20
282.387067
 30
0.0
 11
195.782064
 21
278.387067
 31
0.0
  0
LINE
  5
545
100
AcDbEntity
  8
TABELLA
  6
CONTINUOUS
100
AcDbLine
 10
195.782064
 20
251.512067
 30
0.0
 11
200.782064
 21
251.512067
 31
0.0
  0
TEXT
  5
546
100
AcDbEntity
  8
TABELLA
  6
CONTINUOUS
100
AcDbText
 10
197.026704
 20
268.206651
 30
0.0
 40
4.0
  1
H
100
AcDbText
  0
ENDBLK
  5
548
100
AcDbEntity
  8
QUOTE
100
AcDbBlockEnd
  0
BLOCK
  5
649
100
AcDbEntity
  8
0
100
AcDbBlockBegin
  2
*D2
 70
    65
 10
0.0
 20
0.0
 30
0.0
  3
*D2
  1

  0
LINE
  5
64A
100
AcDbEntity
  8
0
  6
BYBLOCK
 62
     0
100
AcDbLine
 10
-1846.555863
 20
-1540.640986
 30
0.0
 11
-1846.555863
 21
-1565.192529
 31
0.0
  0
LINE
  5
64B
100
AcDbEntity
  8
0
  6
BYBLOCK
 62
     0
100
AcDbLine
 10
-1833.555863
 20
-1540.640986
 30
0.0
 11
-1833.555863
 21
-1565.192529
 31
0.0
  0
LINE
  5
64C
100
AcDbEntity
  8
0
  6
BYBLOCK
 62
     0
100
AcDbLine
 10
-1844.055863
 20
-1563.942529
 30
0.0
 11
-1836.055863
 21
-1563.942529
 31
0.0
  0
LINE
  5
64D
100
AcDbEntity
  8
0
  6
BYBLOCK
 62
     0
100
AcDbLine
 10
-1833.555863
 20
-1563.942529
 30
0.0
 11
-1808.946321
 21
-1563.942529
 31
0.0
  0
SOLID
  5
64E
100
AcDbEntity
  8
0
  6
BYBLOCK
 62
     0
100
AcDbTrace
 10
-1844.055863
 20
-1563.525863
 30
0.0
 11
-1844.055863
 21
-1564.359196
 31
0.0
 12
-1846.555863
 22
-1563.942529
 32
0.0
 13
-1846.555863
 23
-1563.942529
 33
0.0
  0
SOLID
  5
64F
100
AcDbEntity
  8
0
  6
BYBLOCK
 62
     0
100
AcDbTrace
 10
-1836.055863
 20
-1563.525863
 30
0.0
 11
-1836.055863
 21
-1564.359196
 31
0.0
 12
-1833.555863
 22
-1563.942529
 32
0.0
 13
-1833.555863
 23
-1563.942529
 33
0.0
  0
MTEXT
  5
650
100
AcDbEntity
  8
0
  6
BYBLOCK
 62
     0
100
AcDbMText
 10
-1815.643321
 20
-1560.576821
 30
0.0
 40
3.0
 41
0.0
 71
     5
 72
     1
  1
\A2;13{\H2.400000;\S-0.02^  0;}
  0
POINT
  5
651
100
AcDbEntity
  8
DEFPOINTS
  6
BYBLOCK
 62
     0
100
AcDbPoint
 10
-1846.555863
 20
-1540.015986
 30
0.0
  0
POINT
  5
652
100
AcDbEntity
  8
DEFPOINTS
  6
BYBLOCK
 62
     0
100
AcDbPoint
 10
-1833.555863
 20
-1540.015986
 30
0.0
  0
POINT
  5
653
100
AcDbEntity
  8
DEFPOINTS
  6
BYBLOCK
 62
     0
100
AcDbPoint
 10
-1833.555863
 20
-1563.942529
 30
0.0
  0
ENDBLK
  5
654
100
AcDbEntity
  8
0
100
AcDbBlockEnd
  0
BLOCK
  5
590
100
AcDbEntity
  8
0
100
AcDbBlockBegin
  2
*D3
 70
    65
 10
0.0
 20
0.0
 30
0.0
  3
*D3
  1

  0
LINE
  5
591
100
AcDbEntity
  8
0
  6
BYBLOCK
 62
     0
100
AcDbLine
 10
-1826.930863
 20
-1520.015986
 30
0.0
 11
-1802.835185
 21
-1520.015986
 31
0.0
  0
LINE
  5
592
100
AcDbEntity
  8
0
  6
BYBLOCK
 62
     0
100
AcDbLine
 10
-1832.930863
 20
-1540.015986
 30
0.0
 11
-1802.835185
 21
-1540.015986
 31
0.0
  0
LINE
  5
593
100
AcDbEntity
  8
0
  6
BYBLOCK
 62
     0
100
AcDbLine
 10
-1804.085185
 20
-1522.515986
 30
0.0
 11
-1804.085185
 21
-1537.515986
 31
0.0
  0
SOLID
  5
594
100
AcDbEntity
  8
0
  6
BYBLOCK
 62
     0
100
AcDbTrace
 10
-1804.501852
 20
-1522.515986
 30
0.0
 11
-1803.668518
 21
-1522.515986
 31
0.0
 12
-1804.085185
 22
-1520.015986
 32
0.0
 13
-1804.085185
 23
-1520.015986
 33
0.0
  0
SOLID
  5
595
100
AcDbEntity
  8
0
  6
BYBLOCK
 62
     0
100
AcDbTrace
 10
-1804.501852
 20
-1537.515986
 30
0.0
 11
-1803.668518
 21
-1537.515986
 31
0.0
 12
-1804.085185
 22
-1540.015986
 32
0.0
 13
-1804.085185
 23
-1540.015986
 33
0.0
  0
MTEXT
  5
596
100
AcDbEntity
  8
0
  6
BYBLOCK
 62
     0
100
AcDbMText
 10
-1806.210185
 20
-1530.015986
 30
0.0
 40
3.0
 41
0.0
 71
     5
 72
     1
  1
\A1;20
 11
0.0
 21
1.0
 31
0.0
  0
POINT
  5
597
100
AcDbEntity
  8
DEFPOINTS
  6
BYBLOCK
 62
     0
100
AcDbPoint
 10
-1827.555863
 20
-1520.015986
 30
0.0
  0
POINT
  5
598
100
AcDbEntity
  8
DEFPOINTS
  6
BYBLOCK
 62
     0
100
AcDbPoint
 10
-1833.555863
 20
-1540.015986
 30
0.0
  0
POINT
  5
599
100
AcDbEntity
  8
DEFPOINTS
  6
BYBLOCK
 62
     0
100
AcDbPoint
 10
-1804.085185
 20
-1540.015986
 30
0.0
  0
ENDBLK
  5
59A
100
AcDbEntity
  8
0
100
AcDbBlockEnd
  0
BLOCK
  5
91E
100
AcDbEntity
  8
0
100
AcDbBlockBegin
  2
*D4
 70
    65
 10
0.0
 20
0.0
 30
0.0
  3
*D4
  1

  0
LINE
  5
91F
100
AcDbEntity
  8
0
  6
BYBLOCK
 62
     0
100
AcDbLine
 10
-1852.555863
 20
-1520.640986
 30
0.0
 11
-1852.555863
 21
-1576.864123
 31
0.0
  0
LINE
  5
920
100
AcDbEntity
  8
0
  6
BYBLOCK
 62
     0
100
AcDbLine
 10
-1827.555863
 20
-1520.640986
 30
0.0
 11
-1827.555863
 21
-1576.864123
 31
0.0
  0
LINE
  5
921
100
AcDbEntity
  8
0
  6
BYBLOCK
 62
     0
100
AcDbLine
 10
-1850.055863
 20
-1575.614123
 30
0.0
 11
-1830.055863
 21
-1575.614123
 31
0.0
  0
SOLID
  5
922
100
AcDbEntity
  8
0
  6
BYBLOCK
 62
     0
100
AcDbTrace
 10
-1850.055863
 20
-1575.197456
 30
0.0
 11
-1850.055863
 21
-1576.030789
 31
0.0
 12
-1852.555863
 22
-1575.614123
 32
0.0
 13
-1852.555863
 23
-1575.614123
 33
0.0
  0
SOLID
  5
923
100
AcDbEntity
  8
0
  6
BYBLOCK
 62
     0
100
AcDbTrace
 10
-1830.055863
 20
-1575.197456
 30
0.0
 11
-1830.055863
 21
-1576.030789
 31
0.0
 12
-1827.555863
 22
-1575.614123
 32
0.0
 13
-1827.555863
 23
-1575.614123
 33
0.0
  0
MTEXT
  5
924
100
AcDbEntity
  8
0
  6
BYBLOCK
 62
     0
100
AcDbMText
 10
-1840.055863
 20
-1572.248414
 30
0.0
 40
3.0
 41
0.0
 71
     5
 72
     1
  1
\A2;25{\H2.400000;\S+0.02^  0;}
  0
POINT
  5
925
100
AcDbEntity
  8
DEFPOINTS
  6
BYBLOCK
 62
     0
100
AcDbPoint
 10
-1852.555863
 20
-1520.015986
 30
0.0
  0
POINT
  5
926
100
AcDbEntity
  8
DEFPOINTS
  6
BYBLOCK
 62
     0
100
AcDbPoint
 10
-1827.555863
 20
-1520.015986
 30
0.0
  0
POINT
  5
927
100
AcDbEntity
  8
DEFPOINTS
  6
BYBLOCK
 62
     0
100
AcDbPoint
 10
-1827.555863
 20
-1575.614123
 30
0.0
  0
ENDBLK
  5
928
100
AcDbEntity
  8
0
100
AcDbBlockEnd
  0
BLOCK
  5
67A
100
AcDbEntity
  8
0
100
AcDbBlockBegin
  2
*D5
 70
    65
 10
0.0
 20
0.0
 30
0.0
  3
*D5
  1

  0
LINE
  5
67B
100
AcDbEntity
  8
0
  6
BYBLOCK
 62
     0
100
AcDbLine
 10
-1846.113922
 20
-1521.872141
 30
0.0
 11
-1843.42902
 21
-1524.557042
 31
0.0
  0
LINE
  5
67C
100
AcDbEntity
  8
0
  6
BYBLOCK
 62
     0
100
AcDbLine
 10
-1845.053261
 20
-1520.811481
 30
0.0
 11
-1842.36836
 21
-1523.496382
 31
0.0
  0
LINE
  5
67D
100
AcDbEntity
  8
0
  6
BYBLOCK
 62
     0
100
AcDbLine
 10
-1846.08067
 20
-1525.440926
 30
0.0
 11
-1847.848437
 21
-1527.208693
 31
0.0
  0
LINE
  5
67E
100
AcDbEntity
  8
0
  6
BYBLOCK
 62
     0
100
AcDbLine
 10
-1841.484476
 20
-1520.844732
 30
0.0
 11
-1835.936028
 21
-1515.296284
 31
0.0
  0
SOLID
  5
67F
100
AcDbEntity
  8
0
  6
BYBLOCK
 62
     0
100
AcDbTrace
 10
-1846.375298
 20
-1525.146298
 30
0.0
 11
-1845.786043
 21
-1525.735554
 31
0.0
 12
-1844.312903
 22
-1523.673159
 32
0.0
 13
-1844.312903
 23
-1523.673159
 33
0.0
  0
SOLID
  5
680
100
AcDbEntity
  8
0
  6
BYBLOCK
 62
     0
100
AcDbTrace
 10
-1841.779104
 20
-1520.550104
 30
0.0
 11
-1841.189849
 21
-1521.13936
 31
0.0
 12
-1843.252243
 22
-1522.612499
 32
0.0
 13
-1843.252243
 23
-1522.612499
 33
0.0
  0
MTEXT
  5
681
100
AcDbEntity
  8
0
  6
BYBLOCK
 62
     0
100
AcDbMText
 10
-1839.328971
 20
-1515.684022
 30
0.0
 40
3.0
 41
0.0
 71
     5
 72
     1
  1
\A1;1.5
 11
0.707107
 21
0.707107
 31
0.0
  0
POINT
  5
682
100
AcDbEntity
  8
DEFPOINTS
  6
BYBLOCK
 62
     0
100
AcDbPoint
 10
-1846.555863
 20
-1521.430199
 30
0.0
  0
POINT
  5
683
100
AcDbEntity
  8
DEFPOINTS
  6
BYBLOCK
 62
     0
100
AcDbPoint
 10
-1845.495203
 20
-1520.369539
 30
0.0
  0
POINT
  5
684
100
AcDbEntity
  8
DEFPOINTS
  6
BYBLOCK
 62
     0
100
AcDbPoint
 10
-1843.252243
 20
-1522.612499
 30
0.0
  0
ENDBLK
  5
685
100
AcDbEntity
  8
0
100
AcDbBlockEnd
  0
BLOCK
  5
688
100
AcDbEntity
  8
0
100
AcDbBlockBegin
  2
*D6
 70
    65
 10
0.0
 20
0.0
 30
0.0
  3
*D6
  1

  0
LINE
  5
689
100
AcDbEntity
  8
0
  6
BYBLOCK
 62
     0
100
AcDbLine
 10
-1835.058465
 20
-1519.927597
 30
0.0
 11
-1836.624101
 21
-1518.361961
 31
0.0
  0
LINE
  5
68A
100
AcDbEntity
  8
0
  6
BYBLOCK
 62
     0
100
AcDbLine
 10
-1833.644252
 20
-1518.513384
 30
0.0
 11
-1835.209888
 21
-1516.947748
 31
0.0
  0
LINE
  5
68B
100
AcDbEntity
  8
0
  6
BYBLOCK
 62
     0
100
AcDbLine
 10
-1837.507985
 20
-1521.013612
 30
0.0
 11
-1839.275752
 21
-1522.781379
 31
0.0
  0
LINE
  5
68C
100
AcDbEntity
  8
0
  6
BYBLOCK
 62
     0
100
AcDbLine
 10
-1832.558237
 20
-1516.063864
 30
0.0
 11
-1828.773806
 21
-1512.279433
 31
0.0
  0
SOLID
  5
68D
100
AcDbEntity
  8
0
  6
BYBLOCK
 62
     0
100
AcDbTrace
 10
-1837.802613
 20
-1520.718984
 30
0.0
 11
-1837.213357
 21
-1521.308239
 31
0.0
 12
-1835.740218
 22
-1519.245845
 32
0.0
 13
-1835.740218
 23
-1519.245845
 33
0.0
  0
SOLID
  5
68E
100
AcDbEntity
  8
0
  6
BYBLOCK
 62
     0
100
AcDbTrace
 10
-1832.852865
 20
-1515.769236
 30
0.0
 11
-1832.263609
 21
-1516.358492
 31
0.0
 12
-1834.326004
 22
-1517.831631
 32
0.0
 13
-1834.326004
 23
-1517.831631
 33
0.0
  0
MTEXT
  5
68F
100
AcDbEntity
  8
0
  6
BYBLOCK
 62
     0
100
AcDbMText
 10
-1831.284949
 20
-1511.784954
 30
0.0
 40
3.0
 41
0.0
 71
     5
 72
     1
  1
\A1;2
 11
0.707107
 21
0.707107
 31
0.0
  0
POINT
  5
690
100
AcDbEntity
  8
DEFPOINTS
  6
BYBLOCK
 62
     0
100
AcDbPoint
 10
-1834.616523
 20
-1520.369539
 30
0.0
  0
POINT
  5
691
100
AcDbEntity
  8
DEFPOINTS
  6
BYBLOCK
 62
     0
100
AcDbPoint
 10
-1833.20231
 20
-1518.955325
 30
0.0
  0
POINT
  5
692
100
AcDbEntity
  8
DEFPOINTS
  6
BYBLOCK
 62
     0
100
AcDbPoint
 10
-1834.326004
 20
-1517.831631
 30
0.0
  0
ENDBLK
  5
693
100
AcDbEntity
  8
0
100
AcDbBlockEnd
  0
BLOCK
  5
6C5
100
AcDbEntity
  8
0
100
AcDbBlockBegin
  2
*D7
 70
    65
 10
0.0
 20
0.0
 30
0.0
  3
*D7
  1

  0
LINE
  5
6C6
100
AcDbEntity
  8
0
  6
BYBLOCK
 62
     0
100
AcDbLine
 10
-1852.997805
 20
-1510.074044
 30
0.0
 11
-1866.944771
 21
-1496.127077
 31
0.0
  0
LINE
  5
6C7
100
AcDbEntity
  8
0
  6
BYBLOCK
 62
     0
100
AcDbLine
 10
-1852.997805
 20
-1513.957927
 30
0.0
 11
-1866.944771
 21
-1527.904894
 31
0.0
  0
ARC
  5
6C8
100
AcDbEntity
  8
0
  6
BYBLOCK
 62
     0
100
AcDbCircle
 10
-1851.055863
 20
-1512.015986
 30
0.0
 40
21.220309
100
AcDbArc
 50
141.754021
 51
218.245979
  0
SOLID
  5
6C9
100
AcDbEntity
  8
0
  6
BYBLOCK
 62
     0
100
AcDbTrace
 10
-1868.032925
 20
-1498.603029
 30
0.0
 11
-1867.409982
 21
-1499.156551
 31
0.0
 12
-1866.060888
 22
-1497.010961
 32
0.0
 13
-1866.060888
 23
-1497.010961
 33
0.0
  0
SOLID
  5
6CA
100
AcDbEntity
  8
0
  6
BYBLOCK
 62
     0
100
AcDbTrace
 10
-1867.409982
 20
-1524.87542
 30
0.0
 11
-1868.032925
 21
-1525.428942
 31
0.0
 12
-1866.060888
 22
-1527.02101
 32
0.0
 13
-1866.060888
 23
-1527.02101
 33
0.0
  0
MTEXT
  5
6CB
100
AcDbEntity
  8
0
  6
BYBLOCK
 62
     0
100
AcDbMText
 10
-1874.125482
 20
-1508.438811
 30
0.0
 40
3.0
 41
0.0
 71
     5
 72
     1
  1
\A1;90°
 11
0.153229
 21
0.988191
 31
0.0
  0
POINT
  5
6CC
100
AcDbEntity
  8
DEFPOINTS
  6
BYBLOCK
 62
     0
100
AcDbPoint
 10
-1871.553108
 20
-1517.508206
 30
0.0
  0
POINT
  5
6CD
100
AcDbEntity
  8
DEFPOINTS
  6
BYBLOCK
 62
     0
100
AcDbPoint
 10
-1852.555863
 20
-1510.515986
 30
0.0
  0
POINT
  5
6CE
100
AcDbEntity
  8
DEFPOINTS
  6
BYBLOCK
 62
     0
100
AcDbPoint
 10
-1852.555863
 20
-1513.515986
 30
0.0
  0
POINT
  5
6CF
100
AcDbEntity
  8
DEFPOINTS
  6
BYBLOCK
 62
     0
100
AcDbPoint
 10
-1851.055863
 20
-1512.015986
 30
0.0
  0
POINT
  5
6D0
100
AcDbEntity
  8
DEFPOINTS
  6
BYBLOCK
 62
     0
100
AcDbPoint
 10
-1851.055863
 20
-1512.015986
 30
0.0
  0
ENDBLK
  5
6D1
100
AcDbEntity
  8
0
100
AcDbBlockEnd
  0
BLOCK
  5
6AA
100
AcDbEntity
  8
0
100
AcDbBlockBegin
  2
*D8
 70
    65
 10
0.0
 20
0.0
 30
0.0
  3
*D8
  1

  0
LINE
  5
6AB
100
AcDbEntity
  8
0
  6
BYBLOCK
 62
     0
100
AcDbLine
 10
-1853.180863
 20
-1510.515986
 30
0.0
 11
-1862.125509
 21
-1510.515986
 31
0.0
  0
LINE
  5
6AC
100
AcDbEntity
  8
0
  6
BYBLOCK
 62
     0
100
AcDbLine
 10
-1853.180863
 20
-1513.515986
 30
0.0
 11
-1862.125509
 21
-1513.515986
 31
0.0
  0
LINE
  5
6AD
100
AcDbEntity
  8
0
  6
BYBLOCK
 62
     0
100
AcDbLine
 10
-1860.875509
 20
-1508.015986
 30
0.0
 11
-1860.875509
 21
-1505.515986
 31
0.0
  0
LINE
  5
6AE
100
AcDbEntity
  8
0
  6
BYBLOCK
 62
     0
100
AcDbLine
 10
-1860.875509
 20
-1516.015986
 30
0.0
 11
-1860.875509
 21
-1518.515986
 31
0.0
  0
SOLID
  5
6AF
100
AcDbEntity
  8
0
  6
BYBLOCK
 62
     0
100
AcDbTrace
 10
-1861.292176
 20
-1508.015986
 30
0.0
 11
-1860.458842
 21
-1508.015986
 31
0.0
 12
-1860.875509
 22
-1510.515986
 32
0.0
 13
-1860.875509
 23
-1510.515986
 33
0.0
  0
SOLID
  5
6B0
100
AcDbEntity
  8
0
  6
BYBLOCK
 62
     0
100
AcDbTrace
 10
-1861.292176
 20
-1516.015986
 30
0.0
 11
-1860.458842
 21
-1516.015986
 31
0.0
 12
-1860.875509
 22
-1513.515986
 32
0.0
 13
-1860.875509
 23
-1513.515986
 33
0.0
  0
MTEXT
  5
6B1
100
AcDbEntity
  8
0
  6
BYBLOCK
 62
     0
100
AcDbMText
 10
-1863.000509
 20
-1512.015986
 30
0.0
 40
3.0
 41
0.0
 71
     5
 72
     1
  1
\A1;3
 11
0.0
 21
1.0
 31
0.0
  0
POINT
  5
6B2
100
AcDbEntity
  8
DEFPOINTS
  6
BYBLOCK
 62
     0
100
AcDbPoint
 10
-1852.555863
 20
-1510.515986
 30
0.0
  0
POINT
  5
6B3
100
AcDbEntity
  8
DEFPOINTS
  6
BYBLOCK
 62
     0
100
AcDbPoint
 10
-1852.555863
 20
-1513.515986
 30
0.0
  0
POINT
  5
6B4
100
AcDbEntity
  8
DEFPOINTS
  6
BYBLOCK
 62
     0
100
AcDbPoint
 10
-1860.875509
 20
-1513.515986
 30
0.0
  0
ENDBLK
  5
6B5
100
AcDbEntity
  8
0
100
AcDbBlockEnd
  0
BLOCK
  5
6B9
100
AcDbEntity
  8
0
100
AcDbBlockBegin
  2
*D9
 70
    65
 10
0.0
 20
0.0
 30
0.0
  3
*D9
  1

  0
LINE
  5
6BA
100
AcDbEntity
  8
0
  6
BYBLOCK
 62
     0
100
AcDbLine
 10
-1865.977293
 20
-1512.015986
 30
0.0
 11
-1881.160267
 21
-1512.015986
 31
0.0
  0
LINE
  5
6BB
100
AcDbEntity
  8
0
  6
BYBLOCK
 62
     0
100
AcDbLine
 10
-1853.180863
 20
-1520.015986
 30
0.0
 11
-1881.160267
 21
-1520.015986
 31
0.0
  0
LINE
  5
6BC
100
AcDbEntity
  8
0
  6
BYBLOCK
 62
     0
100
AcDbLine
 10
-1879.910267
 20
-1514.515986
 30
0.0
 11
-1879.910267
 21
-1517.515986
 31
0.0
  0
SOLID
  5
6BD
100
AcDbEntity
  8
0
  6
BYBLOCK
 62
     0
100
AcDbTrace
 10
-1880.326933
 20
-1514.515986
 30
0.0
 11
-1879.4936
 21
-1514.515986
 31
0.0
 12
-1879.910267
 22
-1512.015986
 32
0.0
 13
-1879.910267
 23
-1512.015986
 33
0.0
  0
SOLID
  5
6BE
100
AcDbEntity
  8
0
  6
BYBLOCK
 62
     0
100
AcDbTrace
 10
-1880.326933
 20
-1517.515986
 30
0.0
 11
-1879.4936
 21
-1517.515986
 31
0.0
 12
-1879.910267
 22
-1520.015986
 32
0.0
 13
-1879.910267
 23
-1520.015986
 33
0.0
  0
MTEXT
  5
6BF
100
AcDbEntity
  8
0
  6
BYBLOCK
 62
     0
100
AcDbMText
 10
-1882.035267
 20
-1516.015986
 30
0.0
 40
3.0
 41
0.0
 71
     5
 72
     1
  1
\A1;8
 11
0.0
 21
1.0
 31
0.0
  0
POINT
  5
6C0
100
AcDbEntity
  8
DEFPOINTS
  6
BYBLOCK
 62
     0
100
AcDbPoint
 10
-1865.352293
 20
-1512.015986
 30
0.0
  0
POINT
  5
6C1
100
AcDbEntity
  8
DEFPOINTS
  6
BYBLOCK
 62
     0
100
AcDbPoint
 10
-1852.555863
 20
-1520.015986
 30
0.0
  0
POINT
  5
6C2
100
AcDbEntity
  8
DEFPOINTS
  6
BYBLOCK
 62
     0
100
AcDbPoint
 10
-1879.910267
 20
-1520.015986
 30
0.0
  0
ENDBLK
  5
6C3
100
AcDbEntity
  8
0
100
AcDbBlockEnd
  0
BLOCK
  5
7C2
100
AcDbEntity
  8
QUOTE
100
AcDbBlockBegin
  2
A$C8212
 70
     0
 10
0.0
 20
0.0
 30
0.0
  3
A$C8212
  1

  0
TEXT
  5
7BF
100
AcDbEntity
  8
DISEGNO
100
AcDbText
 10
0.35722
 20
0.920164
 30
0.0
 40
3.0
  1
10/15/20/30/50/100/200/300/375
 41
1.1
100
AcDbText
  0
TEXT
  5
7C0
100
AcDbEntity
  8
DISEGNO
100
AcDbText
 10
0.35722
 20
6.620164
 30
0.0
 40
3.0
  1
N° 1 PEZZO L=1100 FRAZIONATO:
 41
1.1
100
AcDbText
  0
TEXT
  5
7C1
100
AcDbEntity
  8
DISEGNO
100
AcDbText
 10
0.35722
 20
12.320164
 30
0.0
 40
3.0
  1
N° 3 PEZZI L=1030
 41
1.1
100
AcDbText
  0
ENDBLK
  5
7C3
100
AcDbEntity
  8
QUOTE
100
AcDbBlockEnd
  0
BLOCK
  5
7C6
100
AcDbEntity
  8
DISEGNO
100
AcDbBlockBegin
  2
A$C40A2
 70
     0
 10
0.0
 20
0.0
 30
0.0
  3
A$C40A2
  1

  0
INSERT
  5
7C5
100
AcDbEntity
  8
QUOTE
100
AcDbBlockReference
  2
A$C8212
 10
-0.300799
 20
-0.789156
 30
0.0
  0
ENDBLK
  5
7C7
100
AcDbEntity
  8
DISEGNO
100
AcDbBlockEnd
  0
BLOCK
  5
825
100
AcDbEntity
  8
0
100
AcDbBlockBegin
  2
*D12
 70
    65
 10
0.0
 20
0.0
 30
0.0
  3
*D12
  1

  0
LINE
  5
826
100
AcDbEntity
  8
0
  6
BYBLOCK
 62
     0
100
AcDbLine
 10
-1830.430863
 20
-1450.015986
 30
0.0
 11
-1802.889369
 21
-1450.015986
 31
0.0
  0
LINE
  5
827
100
AcDbEntity
  8
0
  6
BYBLOCK
 62
     0
100
AcDbLine
 10
-1827.930863
 20
-1520.015986
 30
0.0
 11
-1802.889369
 21
-1520.015986
 31
0.0
  0
LINE
  5
828
100
AcDbEntity
  8
0
  6
BYBLOCK
 62
     0
100
AcDbLine
 10
-1804.139369
 20
-1452.515986
 30
0.0
 11
-1804.139369
 21
-1517.515986
 31
0.0
  0
SOLID
  5
829
100
AcDbEntity
  8
0
  6
BYBLOCK
 62
     0
100
AcDbTrace
 10
-1804.556036
 20
-1452.515986
 30
0.0
 11
-1803.722702
 21
-1452.515986
 31
0.0
 12
-1804.139369
 22
-1450.015986
 32
0.0
 13
-1804.139369
 23
-1450.015986
 33
0.0
  0
SOLID
  5
82A
100
AcDbEntity
  8
0
  6
BYBLOCK
 62
     0
100
AcDbTrace
 10
-1804.556036
 20
-1517.515986
 30
0.0
 11
-1803.722702
 21
-1517.515986
 31
0.0
 12
-1804.139369
 22
-1520.015986
 32
0.0
 13
-1804.139369
 23
-1520.015986
 33
0.0
  0
MTEXT
  5
82B
100
AcDbEntity
  8
0
  6
BYBLOCK
 62
     0
100
AcDbMText
 10
-1807.505078
 20
-1485.015986
 30
0.0
 40
3.0
 41
0.0
 71
     5
 72
     1
  1
\A2;70{\H2.400000;\S+0.02^  0;}
 11
0.0
 21
1.0
 31
0.0
  0
POINT
  5
82C
100
AcDbEntity
  8
DEFPOINTS
  6
BYBLOCK
 62
     0
100
AcDbPoint
 10
-1831.055863
 20
-1450.015986
 30
0.0
  0
POINT
  5
82D
100
AcDbEntity
  8
DEFPOINTS
  6
BYBLOCK
 62
     0
100
AcDbPoint
 10
-1828.555863
 20
-1520.015986
 30
0.0
  0
POINT
  5
82E
100
AcDbEntity
  8
DEFPOINTS
  6
BYBLOCK
 62
     0
100
AcDbPoint
 10
-1804.139369
 20
-1520.015986
 30
0.0
  0
ENDBLK
  5
82F
100
AcDbEntity
  8
0
100
AcDbBlockEnd
  0
BLOCK
  5
80F
100
AcDbEntity
  8
0
100
AcDbBlockBegin
  2
*D13
 70
    65
 10
0.0
 20
0.0
 30
0.0
  3
*D13
  1

  0
LINE
  5
810
100
AcDbEntity
  8
0
  6
BYBLOCK
 62
     0
100
AcDbLine
 10
-1833.930863
 20
-1540.015986
 30
0.0
 11
-1786.399116
 21
-1540.015986
 31
0.0
  0
LINE
  5
811
100
AcDbEntity
  8
0
  6
BYBLOCK
 62
     0
100
AcDbLine
 10
-1830.430863
 20
-1450.015986
 30
0.0
 11
-1786.399116
 21
-1450.015986
 31
0.0
  0
LINE
  5
812
100
AcDbEntity
  8
0
  6
BYBLOCK
 62
     0
100
AcDbLine
 10
-1787.649116
 20
-1537.515986
 30
0.0
 11
-1787.649116
 21
-1452.515986
 31
0.0
  0
SOLID
  5
813
100
AcDbEntity
  8
0
  6
BYBLOCK
 62
     0
100
AcDbTrace
 10
-1788.065783
 20
-1537.515986
 30
0.0
 11
-1787.23245
 21
-1537.515986
 31
0.0
 12
-1787.649116
 22
-1540.015986
 32
0.0
 13
-1787.649116
 23
-1540.015986
 33
0.0
  0
SOLID
  5
814
100
AcDbEntity
  8
0
  6
BYBLOCK
 62
     0
100
AcDbTrace
 10
-1788.065783
 20
-1452.515986
 30
0.0
 11
-1787.23245
 21
-1452.515986
 31
0.0
 12
-1787.649116
 22
-1450.015986
 32
0.0
 13
-1787.649116
 23
-1450.015986
 33
0.0
  0
MTEXT
  5
815
100
AcDbEntity
  8
0
  6
BYBLOCK
 62
     0
100
AcDbMText
 10
-1791.014825
 20
-1495.015986
 30
0.0
 40
3.0
 41
0.0
 71
     5
 72
     1
  1
\A2;90{\H2.400000;\S+0.02^  0;}
 11
0.0
 21
1.0
 31
0.0
  0
POINT
  5
816
100
AcDbEntity
  8
DEFPOINTS
  6
BYBLOCK
 62
     0
100
AcDbPoint
 10
-1834.555863
 20
-1540.015986
 30
0.0
  0
POINT
  5
817
100
AcDbEntity
  8
DEFPOINTS
  6
BYBLOCK
 62
     0
100
AcDbPoint
 10
-1831.055863
 20
-1450.015986
 30
0.0
  0
POINT
  5
818
100
AcDbEntity
  8
DEFPOINTS
  6
BYBLOCK
 62
     0
100
AcDbPoint
 10
-1787.649116
 20
-1450.015986
 30
0.0
  0
ENDBLK
  5
819
100
AcDbEntity
  8
0
100
AcDbBlockEnd
  0
BLOCK
  5
952
100
AcDbEntity
  8
0
100
AcDbBlockBegin
  2
*D14
 70
    65
 10
0.0
 20
0.0
 30
0.0
  3
*D14
  1

  0
LINE
  5
953
100
AcDbEntity
  8
0
  6
BYBLOCK
 62
     0
100
AcDbLine
 10
-1830.055863
 20
-1485.102849
 30
0.0
 11
-1830.055863
 21
-1483.522843
 31
0.0
  0
LINE
  5
954
100
AcDbEntity
  8
0
  6
BYBLOCK
 62
     0
100
AcDbLine
 10
-1850.055863
 20
-1484.784514
 30
0.0
 11
-1850.055863
 21
-1483.522843
 31
0.0
  0
LINE
  5
955
100
AcDbEntity
  8
0
  6
BYBLOCK
 62
     0
100
AcDbLine
 10
-1832.555863
 20
-1484.772843
 30
0.0
 11
-1847.555863
 21
-1484.772843
 31
0.0
  0
LINE
  5
956
100
AcDbEntity
  8
0
  6
BYBLOCK
 62
     0
100
AcDbLine
 10
-1850.055863
 20
-1484.772843
 30
0.0
 11
-1870.163474
 21
-1484.772843
 31
0.0
  0
SOLID
  5
957
100
AcDbEntity
  8
0
  6
BYBLOCK
 62
     0
100
AcDbTrace
 10
-1832.555863
 20
-1484.356177
 30
0.0
 11
-1832.555863
 21
-1485.18951
 31
0.0
 12
-1830.055863
 22
-1484.772843
 32
0.0
 13
-1830.055863
 23
-1484.772843
 33
0.0
  0
SOLID
  5
958
100
AcDbEntity
  8
0
  6
BYBLOCK
 62
     0
100
AcDbTrace
 10
-1847.555863
 20
-1484.356177
 30
0.0
 11
-1847.555863
 21
-1485.18951
 31
0.0
 12
-1850.055863
 22
-1484.772843
 32
0.0
 13
-1850.055863
 23
-1484.772843
 33
0.0
  0
MTEXT
  5
959
100
AcDbEntity
  8
0
  6
BYBLOCK
 62
     0
100
AcDbMText
 10
-1863.136474
 20
-1481.407135
 30
0.0
 40
3.0
 41
0.0
 71
     5
 72
     1
  1
\A2;20{\H2.400000;\S+0.02^  0;}
  0
POINT
  5
95A
100
AcDbEntity
  8
DEFPOINTS
  6
BYBLOCK
 62
     0
100
AcDbPoint
 10
-1830.055863
 20
-1485.727849
 30
0.0
  0
POINT
  5
95B
100
AcDbEntity
  8
DEFPOINTS
  6
BYBLOCK
 62
     0
100
AcDbPoint
 10
-1850.055863
 20
-1485.409514
 30
0.0
  0
POINT
  5
95C
100
AcDbEntity
  8
DEFPOINTS
  6
BYBLOCK
 62
     0
100
AcDbPoint
 10
-1850.055863
 20
-1484.772843
 30
0.0
  0
ENDBLK
  5
95D
100
AcDbEntity
  8
0
100
AcDbBlockEnd
  0
BLOCK
  5
991
100
AcDbEntity
  8
0
100
AcDbBlockBegin
  2
*D15
 70
    65
 10
0.0
 20
0.0
 30
0.0
  3
*D15
  1

  0
LINE
  5
987
100
AcDbEntity
  8
0
  6
BYBLOCK
 62
     0
100
AcDbLine
 10
-1846.855863
 20
-1540.940986
 30
0.0
 11
-1846.855863
 21
-1562.97791
 31
0.0
  0
LINE
  5
988
100
AcDbEntity
  8
0
  6
BYBLOCK
 62
     0
100
AcDbLine
 10
-1833.255863
 20
-1540.940986
 30
0.0
 11
-1833.255863
 21
-1562.97791
 31
0.0
  0
LINE
  5
989
100
AcDbEntity
  8
0
  6
BYBLOCK
 62
     0
100
AcDbLine
 10
-1844.355863
 20
-1561.72791
 30
0.0
 11
-1835.755863
 21
-1561.72791
 31
0.0
  0
LINE
  5
98A
100
AcDbEntity
  8
0
  6
BYBLOCK
 62
     0
100
AcDbLine
 10
-1833.255863
 20
-1561.72791
 30
0.0
 11
-1807.07416
 21
-1561.72791
 31
0.0
  0
SOLID
  5
98B
100
AcDbEntity
  8
0
  6
BYBLOCK
 62
     0
100
AcDbTrace
 10
-1844.355863
 20
-1561.311243
 30
0.0
 11
-1844.355863
 21
-1562.144577
 31
0.0
 12
-1846.855863
 22
-1561.72791
 32
0.0
 13
-1846.855863
 23
-1561.72791
 33
0.0
  0
SOLID
  5
98C
100
AcDbEntity
  8
0
  6
BYBLOCK
 62
     0
100
AcDbTrace
 10
-1835.755863
 20
-1561.311243
 30
0.0
 11
-1835.755863
 21
-1562.144577
 31
0.0
 12
-1833.255863
 22
-1561.72791
 32
0.0
 13
-1833.255863
 23
-1561.72791
 33
0.0
  0
MTEXT
  5
98D
100
AcDbEntity
  8
0
  6
BYBLOCK
 62
     0
100
AcDbMText
 10
-1814.95916
 20
-1557.751729
 30
0.0
 40
3.0
 41
0.0
 71
     5
 72
     1
  1
\A1;13.6\S+0.1^  0;
  0
POINT
  5
98E
100
AcDbEntity
  8
DEFPOINTS
  6
BYBLOCK
 62
     0
100
AcDbPoint
 10
-1846.855863
 20
-1540.315986
 30
0.0
  0
POINT
  5
98F
100
AcDbEntity
  8
DEFPOINTS
  6
BYBLOCK
 62
     0
100
AcDbPoint
 10
-1833.255863
 20
-1540.315986
 30
0.0
  0
POINT
  5
990
100
AcDbEntity
  8
DEFPOINTS
  6
BYBLOCK
 62
     0
100
AcDbPoint
 10
-1833.255863
 20
-1561.72791
 30
0.0
  0
ENDBLK
  5
992
100
AcDbEntity
  8
0
100
AcDbBlockEnd
  0
BLOCK
  5
99D
100
AcDbEntity
  8
0
100
AcDbBlockBegin
  2
*D16
 70
    65
 10
0.0
 20
0.0
 30
0.0
  3
*D16
  1

  0
LINE
  5
994
100
AcDbEntity
  8
0
  6
BYBLOCK
 62
     0
100
AcDbLine
 10
-1826.630863
 20
-1520.315986
 30
0.0
 11
-1795.570571
 21
-1520.315986
 31
0.0
  0
LINE
  5
995
100
AcDbEntity
  8
0
  6
BYBLOCK
 62
     0
100
AcDbLine
 10
-1832.630863
 20
-1540.315986
 30
0.0
 11
-1795.570571
 21
-1540.315986
 31
0.0
  0
LINE
  5
996
100
AcDbEntity
  8
0
  6
BYBLOCK
 62
     0
100
AcDbLine
 10
-1796.820571
 20
-1522.815986
 30
0.0
 11
-1796.820571
 21
-1537.815986
 31
0.0
  0
SOLID
  5
997
100
AcDbEntity
  8
0
  6
BYBLOCK
 62
     0
100
AcDbTrace
 10
-1797.237237
 20
-1522.815986
 30
0.0
 11
-1796.403904
 21
-1522.815986
 31
0.0
 12
-1796.820571
 22
-1520.315986
 32
0.0
 13
-1796.820571
 23
-1520.315986
 33
0.0
  0
SOLID
  5
998
100
AcDbEntity
  8
0
  6
BYBLOCK
 62
     0
100
AcDbTrace
 10
-1797.237237
 20
-1537.815986
 30
0.0
 11
-1796.403904
 21
-1537.815986
 31
0.0
 12
-1796.820571
 22
-1540.315986
 32
0.0
 13
-1796.820571
 23
-1540.315986
 33
0.0
  0
MTEXT
  5
999
100
AcDbEntity
  8
0
  6
BYBLOCK
 62
     0
100
AcDbMText
 10
-1798.945571
 20
-1530.315986
 30
0.0
 40
3.0
 41
0.0
 71
     5
 72
     1
  1
\A1;20
 11
0.0
 21
1.0
 31
0.0
  0
POINT
  5
99A
100
AcDbEntity
  8
DEFPOINTS
  6
BYBLOCK
 62
     0
100
AcDbPoint
 10
-1827.255863
 20
-1520.315986
 30
0.0
  0
POINT
  5
99B
100
AcDbEntity
  8
DEFPOINTS
  6
BYBLOCK
 62
     0
100
AcDbPoint
 10
-1833.255863
 20
-1540.315986
 30
0.0
  0
POINT
  5
99C
100
AcDbEntity
  8
DEFPOINTS
  6
BYBLOCK
 62
     0
100
AcDbPoint
 10
-1796.820571
 20
-1540.315986
 30
0.0
  0
ENDBLK
  5
99E
100
AcDbEntity
  8
0
100
AcDbBlockEnd
  0
BLOCK
  5
9A9
100
AcDbEntity
  8
0
100
AcDbBlockBegin
  2
*D17
 70
    65
 10
0.0
 20
0.0
 30
0.0
  3
*D17
  1

  0
LINE
  5
9A0
100
AcDbEntity
  8
0
  6
BYBLOCK
 62
     0
100
AcDbLine
 10
-1826.630863
 20
-1520.315986
 30
0.0
 11
-1812.115069
 21
-1520.315986
 31
0.0
  0
LINE
  5
9A1
100
AcDbEntity
  8
0
  6
BYBLOCK
 62
     0
100
AcDbLine
 10
-1826.630863
 20
-1505.015986
 30
0.0
 11
-1812.115069
 21
-1505.015986
 31
0.0
  0
LINE
  5
9A2
100
AcDbEntity
  8
0
  6
BYBLOCK
 62
     0
100
AcDbLine
 10
-1813.365069
 20
-1517.815986
 30
0.0
 11
-1813.365069
 21
-1507.515986
 31
0.0
  0
SOLID
  5
9A3
100
AcDbEntity
  8
0
  6
BYBLOCK
 62
     0
100
AcDbTrace
 10
-1813.781736
 20
-1517.815986
 30
0.0
 11
-1812.948402
 21
-1517.815986
 31
0.0
 12
-1813.365069
 22
-1520.315986
 32
0.0
 13
-1813.365069
 23
-1520.315986
 33
0.0
  0
SOLID
  5
9A4
100
AcDbEntity
  8
0
  6
BYBLOCK
 62
     0
100
AcDbTrace
 10
-1813.781736
 20
-1507.515986
 30
0.0
 11
-1812.948402
 21
-1507.515986
 31
0.0
 12
-1813.365069
 22
-1505.015986
 32
0.0
 13
-1813.365069
 23
-1505.015986
 33
0.0
  0
MTEXT
  5
9A5
100
AcDbEntity
  8
0
  6
BYBLOCK
 62
     0
100
AcDbMText
 10
-1815.490069
 20
-1512.665986
 30
0.0
 40
3.0
 41
0.0
 71
     5
 72
     1
  1
\A1;15.3
 11
0.0
 21
1.0
 31
0.0
  0
POINT
  5
9A6
100
AcDbEntity
  8
DEFPOINTS
  6
BYBLOCK
 62
     0
100
AcDbPoint
 10
-1827.255863
 20
-1520.315986
 30
0.0
  0
POINT
  5
9A7
100
AcDbEntity
  8
DEFPOINTS
  6
BYBLOCK
 62
     0
100
AcDbPoint
 10
-1827.255863
 20
-1505.015986
 30
0.0
  0
POINT
  5
9A8
100
AcDbEntity
  8
DEFPOINTS
  6
BYBLOCK
 62
     0
100
AcDbPoint
 10
-1813.365069
 20
-1505.015986
 30
0.0
  0
ENDBLK
  5
9AA
100
AcDbEntity
  8
0
100
AcDbBlockEnd
  0
BLOCK
  5
9B5
100
AcDbEntity
  8
0
100
AcDbBlockBegin
  2
*D18
 70
    65
 10
0.0
 20
0.0
 30
0.0
  3
*D18
  1

  0
LINE
  5
9AC
100
AcDbEntity
  8
0
  6
BYBLOCK
 62
     0
100
AcDbLine
 10
-1827.255863
 20
-1520.940986
 30
0.0
 11
-1827.255863
 21
-1575.392987
 31
0.0
  0
LINE
  5
9AD
100
AcDbEntity
  8
0
  6
BYBLOCK
 62
     0
100
AcDbLine
 10
-1852.855863
 20
-1520.940986
 30
0.0
 11
-1852.855863
 21
-1575.392987
 31
0.0
  0
LINE
  5
9AE
100
AcDbEntity
  8
0
  6
BYBLOCK
 62
     0
100
AcDbLine
 10
-1829.755863
 20
-1574.142987
 30
0.0
 11
-1850.355863
 21
-1574.142987
 31
0.0
  0
SOLID
  5
9AF
100
AcDbEntity
  8
0
  6
BYBLOCK
 62
     0
100
AcDbTrace
 10
-1829.755863
 20
-1573.726321
 30
0.0
 11
-1829.755863
 21
-1574.559654
 31
0.0
 12
-1827.255863
 22
-1574.142987
 32
0.0
 13
-1827.255863
 23
-1574.142987
 33
0.0
  0
SOLID
  5
9B0
100
AcDbEntity
  8
0
  6
BYBLOCK
 62
     0
100
AcDbTrace
 10
-1850.355863
 20
-1573.726321
 30
0.0
 11
-1850.355863
 21
-1574.559654
 31
0.0
 12
-1852.855863
 22
-1574.142987
 32
0.0
 13
-1852.855863
 23
-1574.142987
 33
0.0
  0
MTEXT
  5
9B1
100
AcDbEntity
  8
0
  6
BYBLOCK
 62
     0
100
AcDbMText
 10
-1840.055863
 20
-1570.166806
 30
0.0
 40
3.0
 41
0.0
 71
     5
 72
     1
  1
\A1;25.6\S+0.1^  0;
  0
POINT
  5
9B2
100
AcDbEntity
  8
DEFPOINTS
  6
BYBLOCK
 62
     0
100
AcDbPoint
 10
-1827.255863
 20
-1520.315986
 30
0.0
  0
POINT
  5
9B3
100
AcDbEntity
  8
DEFPOINTS
  6
BYBLOCK
 62
     0
100
AcDbPoint
 10
-1852.855863
 20
-1520.315986
 30
0.0
  0
POINT
  5
9B4
100
AcDbEntity
  8
DEFPOINTS
  6
BYBLOCK
 62
     0
100
AcDbPoint
 10
-1852.855863
 20
-1574.142987
 30
0.0
  0
ENDBLK
  5
9B6
100
AcDbEntity
  8
0
100
AcDbBlockEnd
  0
BLOCK
  5
9C2
100
AcDbEntity
  8
0
100
AcDbBlockBegin
  2
*D19
 70
    65
 10
0.0
 20
0.0
 30
0.0
  3
*D19
  1

  0
LINE
  5
9B8
100
AcDbEntity
  8
0
  6
BYBLOCK
 62
     0
100
AcDbLine
 10
-1853.480863
 20
-1520.315986
 30
0.0
 11
-1869.709054
 21
-1520.315986
 31
0.0
  0
LINE
  5
9B9
100
AcDbEntity
  8
0
  6
BYBLOCK
 62
     0
100
AcDbLine
 10
-1865.977293
 20
-1512.015986
 30
0.0
 11
-1869.709054
 21
-1512.015986
 31
0.0
  0
LINE
  5
9BA
100
AcDbEntity
  8
0
  6
BYBLOCK
 62
     0
100
AcDbLine
 10
-1868.459054
 20
-1522.815986
 30
0.0
 11
-1868.459054
 21
-1525.315986
 31
0.0
  0
LINE
  5
9BB
100
AcDbEntity
  8
0
  6
BYBLOCK
 62
     0
100
AcDbLine
 10
-1868.459054
 20
-1509.515986
 30
0.0
 11
-1868.459054
 21
-1507.015986
 31
0.0
  0
SOLID
  5
9BC
100
AcDbEntity
  8
0
  6
BYBLOCK
 62
     0
100
AcDbTrace
 10
-1868.875721
 20
-1522.815986
 30
0.0
 11
-1868.042388
 21
-1522.815986
 31
0.0
 12
-1868.459054
 22
-1520.315986
 32
0.0
 13
-1868.459054
 23
-1520.315986
 33
0.0
  0
SOLID
  5
9BD
100
AcDbEntity
  8
0
  6
BYBLOCK
 62
     0
100
AcDbTrace
 10
-1868.875721
 20
-1509.515986
 30
0.0
 11
-1868.042388
 21
-1509.515986
 31
0.0
 12
-1868.459054
 22
-1512.015986
 32
0.0
 13
-1868.459054
 23
-1512.015986
 33
0.0
  0
MTEXT
  5
9BE
100
AcDbEntity
  8
0
  6
BYBLOCK
 62
     0
100
AcDbMText
 10
-1870.584054
 20
-1516.165986
 30
0.0
 40
3.0
 41
0.0
 71
     5
 72
     1
  1
\A1;8.3
 11
0.0
 21
1.0
 31
0.0
  0
POINT
  5
9BF
100
AcDbEntity
  8
DEFPOINTS
  6
BYBLOCK
 62
     0
100
AcDbPoint
 10
-1852.855863
 20
-1520.315986
 30
0.0
  0
POINT
  5
9C0
100
AcDbEntity
  8
DEFPOINTS
  6
BYBLOCK
 62
     0
100
AcDbPoint
 10
-1865.352293
 20
-1512.015986
 30
0.0
  0
POINT
  5
9C1
100
AcDbEntity
  8
DEFPOINTS
  6
BYBLOCK
 62
     0
100
AcDbPoint
 10
-1868.459054
 20
-1512.015986
 30
0.0
  0
ENDBLK
  5
9C3
100
AcDbEntity
  8
0
100
AcDbBlockEnd
  0
BLOCK
  5
9CF
100
AcDbEntity
  8
0
100
AcDbBlockBegin
  2
*D20
 70
    65
 10
0.0
 20
0.0
 30
0.0
  3
*D20
  1

  0
LINE
  5
9C5
100
AcDbEntity
  8
0
  6
BYBLOCK
 62
     0
100
AcDbLine
 10
-1853.480863
 20
-1510.215986
 30
0.0
 11
-1862.699292
 21
-1510.215986
 31
0.0
  0
LINE
  5
9C6
100
AcDbEntity
  8
0
  6
BYBLOCK
 62
     0
100
AcDbLine
 10
-1853.480863
 20
-1513.815986
 30
0.0
 11
-1862.699292
 21
-1513.815986
 31
0.0
  0
LINE
  5
9C7
100
AcDbEntity
  8
0
  6
BYBLOCK
 62
     0
100
AcDbLine
 10
-1861.449292
 20
-1507.715986
 30
0.0
 11
-1861.449292
 21
-1505.215986
 31
0.0
  0
LINE
  5
9C8
100
AcDbEntity
  8
0
  6
BYBLOCK
 62
     0
100
AcDbLine
 10
-1861.449292
 20
-1516.315986
 30
0.0
 11
-1861.449292
 21
-1533.506549
 31
0.0
  0
SOLID
  5
9C9
100
AcDbEntity
  8
0
  6
BYBLOCK
 62
     0
100
AcDbTrace
 10
-1861.865959
 20
-1507.715986
 30
0.0
 11
-1861.032625
 21
-1507.715986
 31
0.0
 12
-1861.449292
 22
-1510.215986
 32
0.0
 13
-1861.449292
 23
-1510.215986
 33
0.0
  0
SOLID
  5
9CA
100
AcDbEntity
  8
0
  6
BYBLOCK
 62
     0
100
AcDbTrace
 10
-1861.865959
 20
-1516.315986
 30
0.0
 11
-1861.032625
 21
-1516.315986
 31
0.0
 12
-1861.449292
 22
-1513.815986
 32
0.0
 13
-1861.449292
 23
-1513.815986
 33
0.0
  0
MTEXT
  5
9CB
100
AcDbEntity
  8
0
  6
BYBLOCK
 62
     0
100
AcDbMText
 10
-1863.574292
 20
-1530.390958
 30
0.0
 40
3.0
 41
0.0
 71
     5
 72
     1
  1
\A1;3.6
 11
0.0
 21
1.0
 31
0.0
  0
POINT
  5
9CC
100
AcDbEntity
  8
DEFPOINTS
  6
BYBLOCK
 62
     0
100
AcDbPoint
 10
-1852.855863
 20
-1510.215986
 30
0.0
  0
POINT
  5
9CD
100
AcDbEntity
  8
DEFPOINTS
  6
BYBLOCK
 62
     0
100
AcDbPoint
 10
-1852.855863
 20
-1513.815986
 30
0.0
  0
POINT
  5
9CE
100
AcDbEntity
  8
DEFPOINTS
  6
BYBLOCK
 62
     0
100
AcDbPoint
 10
-1861.449292
 20
-1513.815986
 30
0.0
  0
ENDBLK
  5
9D0
100
AcDbEntity
  8
0
100
AcDbBlockEnd
  0
BLOCK
  5
9DD
100
AcDbEntity
  8
0
100
AcDbBlockBegin
  2
*D21
 70
    65
 10
0.0
 20
0.0
 30
0.0
  3
*D21
  1

  0
LINE
  5
9D2
100
AcDbEntity
  8
0
  6
BYBLOCK
 62
     0
100
AcDbLine
 10
-1853.297805
 20
-1509.774044
 30
0.0
 11
-1869.73937
 21
-1493.332479
 31
0.0
  0
LINE
  5
9D3
100
AcDbEntity
  8
0
  6
BYBLOCK
 62
     0
100
AcDbLine
 10
-1853.297805
 20
-1514.257927
 30
0.0
 11
-1869.73937
 21
-1530.699492
 31
0.0
  0
ARC
  5
9D4
100
AcDbEntity
  8
0
  6
BYBLOCK
 62
     0
100
AcDbCircle
 10
-1851.055863
 20
-1512.015986
 30
0.0
 40
25.172469
100
AcDbArc
 50
140.692663
 51
219.307337
  0
SOLID
  5
9D5
100
AcDbEntity
  8
0
  6
BYBLOCK
 62
     0
100
AcDbTrace
 10
-1870.842185
 20
-1495.790097
 30
0.0
 11
-1870.224395
 21
-1496.349365
 31
0.0
 12
-1868.855487
 22
-1494.216362
 32
0.0
 13
-1868.855487
 23
-1494.216362
 33
0.0
  0
SOLID
  5
9D6
100
AcDbEntity
  8
0
  6
BYBLOCK
 62
     0
100
AcDbTrace
 10
-1870.224395
 20
-1527.682606
 30
0.0
 11
-1870.842185
 21
-1528.241874
 31
0.0
 12
-1868.855487
 22
-1529.815609
 32
0.0
 13
-1868.855487
 23
-1529.815609
 33
0.0
  0
MTEXT
  5
9D7
100
AcDbEntity
  8
0
  6
BYBLOCK
 62
     0
100
AcDbMText
 10
-1878.353332
 20
-1512.015986
 30
0.0
 40
3.0
 41
0.0
 71
     5
 72
     1
  1
\A1;90°
 11
0.0
 21
1.0
 31
0.0
  0
POINT
  5
9D8
100
AcDbEntity
  8
DEFPOINTS
  6
BYBLOCK
 62
     0
100
AcDbPoint
 10
-1875.370601
 20
-1505.500871
 30
0.0
  0
POINT
  5
9D9
100
AcDbEntity
  8
DEFPOINTS
  6
BYBLOCK
 62
     0
100
AcDbPoint
 10
-1852.855863
 20
-1510.215986
 30
0.0
  0
POINT
  5
9DA
100
AcDbEntity
  8
DEFPOINTS
  6
BYBLOCK
 62
     0
100
AcDbPoint
 10
-1852.855863
 20
-1513.815986
 30
0.0
  0
POINT
  5
9DB
100
AcDbEntity
  8
DEFPOINTS
  6
BYBLOCK
 62
     0
100
AcDbPoint
 10
-1851.055863
 20
-1512.015986
 30
0.0
  0
POINT
  5
9DC
100
AcDbEntity
  8
DEFPOINTS
  6
BYBLOCK
 62
     0
100
AcDbPoint
 10
-1851.055863
 20
-1512.015986
 30
0.0
  0
ENDBLK
  5
9DE
100
AcDbEntity
  8
0
100
AcDbBlockEnd
  0
BLOCK
  5
9EA
100
AcDbEntity
  8
0
100
AcDbBlockBegin
  2
*D22
 70
    65
 10
0.0
 20
0.0
 30
0.0
  3
*D22
  1

  0
LINE
  5
9E0
100
AcDbEntity
  8
0
  6
BYBLOCK
 62
     0
100
AcDbLine
 10
-1829.755863
 20
-1485.63063
 30
0.0
 11
-1829.755863
 21
-1487.210636
 31
0.0
  0
LINE
  5
9E1
100
AcDbEntity
  8
0
  6
BYBLOCK
 62
     0
100
AcDbLine
 10
-1850.355863
 20
-1486.267301
 30
0.0
 11
-1850.355863
 21
-1487.210636
 31
0.0
  0
LINE
  5
9E2
100
AcDbEntity
  8
0
  6
BYBLOCK
 62
     0
100
AcDbLine
 10
-1832.255863
 20
-1485.960636
 30
0.0
 11
-1847.855863
 21
-1485.960636
 31
0.0
  0
LINE
  5
9E3
100
AcDbEntity
  8
0
  6
BYBLOCK
 62
     0
100
AcDbLine
 10
-1850.355863
 20
-1485.960636
 30
0.0
 11
-1867.912453
 21
-1485.960636
 31
0.0
  0
SOLID
  5
9E4
100
AcDbEntity
  8
0
  6
BYBLOCK
 62
     0
100
AcDbTrace
 10
-1832.255863
 20
-1485.543969
 30
0.0
 11
-1832.255863
 21
-1486.377303
 31
0.0
 12
-1829.755863
 22
-1485.960636
 32
0.0
 13
-1829.755863
 23
-1485.960636
 33
0.0
  0
SOLID
  5
9E5
100
AcDbEntity
  8
0
  6
BYBLOCK
 62
     0
100
AcDbTrace
 10
-1847.855863
 20
-1485.543969
 30
0.0
 11
-1847.855863
 21
-1486.377303
 31
0.0
 12
-1850.355863
 22
-1485.960636
 32
0.0
 13
-1850.355863
 23
-1485.960636
 33
0.0
  0
MTEXT
  5
9E6
100
AcDbEntity
  8
0
  6
BYBLOCK
 62
     0
100
AcDbMText
 10
-1859.697453
 20
-1481.984455
 30
0.0
 40
3.0
 41
0.0
 71
     5
 72
     1
  1
\A1;20.6\S+0.1^  0;
  0
POINT
  5
9E7
100
AcDbEntity
  8
DEFPOINTS
  6
BYBLOCK
 62
     0
100
AcDbPoint
 10
-1829.755863
 20
-1485.00563
 30
0.0
  0
POINT
  5
9E8
100
AcDbEntity
  8
DEFPOINTS
  6
BYBLOCK
 62
     0
100
AcDbPoint
 10
-1850.355863
 20
-1485.642301
 30
0.0
  0
POINT
  5
9E9
100
AcDbEntity
  8
DEFPOINTS
  6
BYBLOCK
 62
     0
100
AcDbPoint
 10
-1850.355863
 20
-1485.960636
 30
0.0
  0
ENDBLK
  5
9EB
100
AcDbEntity
  8
0
100
AcDbBlockEnd
  0
BLOCK
  5
9F6
100
AcDbEntity
  8
0
100
AcDbBlockBegin
  2
*D23
 70
    65
 10
0.0
 20
0.0
 30
0.0
  3
*D23
  1

  0
LINE
  5
9ED
100
AcDbEntity
  8
0
  6
BYBLOCK
 62
     0
100
AcDbLine
 10
-1829.130863
 20
-1449.515986
 30
0.0
 11
-1795.678222
 21
-1449.515986
 31
0.0
  0
LINE
  5
9EE
100
AcDbEntity
  8
0
  6
BYBLOCK
 62
     0
100
AcDbLine
 10
-1826.630863
 20
-1520.315986
 30
0.0
 11
-1795.678222
 21
-1520.315986
 31
0.0
  0
LINE
  5
9EF
100
AcDbEntity
  8
0
  6
BYBLOCK
 62
     0
100
AcDbLine
 10
-1796.928222
 20
-1452.015986
 30
0.0
 11
-1796.928222
 21
-1517.815986
 31
0.0
  0
SOLID
  5
9F0
100
AcDbEntity
  8
0
  6
BYBLOCK
 62
     0
100
AcDbTrace
 10
-1797.344889
 20
-1452.015986
 30
0.0
 11
-1796.511556
 21
-1452.015986
 31
0.0
 12
-1796.928222
 22
-1449.515986
 32
0.0
 13
-1796.928222
 23
-1449.515986
 33
0.0
  0
SOLID
  5
9F1
100
AcDbEntity
  8
0
  6
BYBLOCK
 62
     0
100
AcDbTrace
 10
-1797.344889
 20
-1517.815986
 30
0.0
 11
-1796.511556
 21
-1517.815986
 31
0.0
 12
-1796.928222
 22
-1520.315986
 32
0.0
 13
-1796.928222
 23
-1520.315986
 33
0.0
  0
MTEXT
  5
9F2
100
AcDbEntity
  8
0
  6
BYBLOCK
 62
     0
100
AcDbMText
 10
-1800.904403
 20
-1484.915986
 30
0.0
 40
3.0
 41
0.0
 71
     5
 72
     1
  1
\A1;70.8\S+0.1^  0;
 11
0.0
 21
1.0
 31
0.0
  0
POINT
  5
9F3
100
AcDbEntity
  8
DEFPOINTS
  6
BYBLOCK
 62
     0
100
AcDbPoint
 10
-1829.755863
 20
-1449.515986
 30
0.0
  0
POINT
  5
9F4
100
AcDbEntity
  8
DEFPOINTS
  6
BYBLOCK
 62
     0
100
AcDbPoint
 10
-1827.255863
 20
-1520.315986
 30
0.0
  0
POINT
  5
9F5
100
AcDbEntity
  8
DEFPOINTS
  6
BYBLOCK
 62
     0
100
AcDbPoint
 10
-1796.928222
 20
-1520.315986
 30
0.0
  0
ENDBLK
  5
9F7
100
AcDbEntity
  8
0
100
AcDbBlockEnd
  0
BLOCK
  5
A02
100
AcDbEntity
  8
0
100
AcDbBlockBegin
  2
*D24
 70
    65
 10
0.0
 20
0.0
 30
0.0
  3
*D24
  1

  0
LINE
  5
9F9
100
AcDbEntity
  8
0
  6
BYBLOCK
 62
     0
100
AcDbLine
 10
-1829.130863
 20
-1449.515986
 30
0.0
 11
-1778.472444
 21
-1449.515986
 31
0.0
  0
LINE
  5
9FA
100
AcDbEntity
  8
0
  6
BYBLOCK
 62
     0
100
AcDbLine
 10
-1832.630863
 20
-1540.315986
 30
0.0
 11
-1778.472444
 21
-1540.315986
 31
0.0
  0
LINE
  5
9FB
100
AcDbEntity
  8
0
  6
BYBLOCK
 62
     0
100
AcDbLine
 10
-1779.722444
 20
-1452.015986
 30
0.0
 11
-1779.722444
 21
-1537.815986
 31
0.0
  0
SOLID
  5
9FC
100
AcDbEntity
  8
0
  6
BYBLOCK
 62
     0
100
AcDbTrace
 10
-1780.139111
 20
-1452.015986
 30
0.0
 11
-1779.305778
 21
-1452.015986
 31
0.0
 12
-1779.722444
 22
-1449.515986
 32
0.0
 13
-1779.722444
 23
-1449.515986
 33
0.0
  0
SOLID
  5
9FD
100
AcDbEntity
  8
0
  6
BYBLOCK
 62
     0
100
AcDbTrace
 10
-1780.139111
 20
-1537.815986
 30
0.0
 11
-1779.305778
 21
-1537.815986
 31
0.0
 12
-1779.722444
 22
-1540.315986
 32
0.0
 13
-1779.722444
 23
-1540.315986
 33
0.0
  0
MTEXT
  5
9FE
100
AcDbEntity
  8
0
  6
BYBLOCK
 62
     0
100
AcDbMText
 10
-1783.698625
 20
-1494.915986
 30
0.0
 40
3.0
 41
0.0
 71
     5
 72
     1
  1
\A1;90.8\S+0.1^  0;
 11
0.0
 21
1.0
 31
0.0
  0
POINT
  5
9FF
100
AcDbEntity
  8
DEFPOINTS
  6
BYBLOCK
 62
     0
100
AcDbPoint
 10
-1829.755863
 20
-1449.515986
 30
0.0
  0
POINT
  5
A00
100
AcDbEntity
  8
DEFPOINTS
  6
BYBLOCK
 62
     0
100
AcDbPoint
 10
-1833.255863
 20
-1540.315986
 30
0.0
  0
POINT
  5
A01
100
AcDbEntity
  8
DEFPOINTS
  6
BYBLOCK
 62
     0
100
AcDbPoint
 10
-1779.722444
 20
-1540.315986
 30
0.0
  0
ENDBLK
  5
A03
100
AcDbEntity
  8
0
100
AcDbBlockEnd
  0
BLOCK
  5
A0F
100
AcDbEntity
  8
0
100
AcDbBlockBegin
  2
*D25
 70
    65
 10
0.0
 20
0.0
 30
0.0
  3
*D25
  1

  0
LINE
  5
A05
100
AcDbEntity
  8
0
  6
BYBLOCK
 62
     0
100
AcDbLine
 10
-1835.058465
 20
-1519.927597
 30
0.0
 11
-1838.309772
 21
-1516.67629
 31
0.0
  0
LINE
  5
A06
100
AcDbEntity
  8
0
  6
BYBLOCK
 62
     0
100
AcDbLine
 10
-1833.644252
 20
-1518.513384
 30
0.0
 11
-1836.895559
 21
-1515.262077
 31
0.0
  0
LINE
  5
A07
100
AcDbEntity
  8
0
  6
BYBLOCK
 62
     0
100
AcDbLine
 10
-1839.193656
 20
-1519.327941
 30
0.0
 11
-1840.961423
 21
-1521.095708
 31
0.0
  0
LINE
  5
A08
100
AcDbEntity
  8
0
  6
BYBLOCK
 62
     0
100
AcDbLine
 10
-1834.243908
 20
-1514.378193
 30
0.0
 11
-1830.459477
 21
-1510.593762
 31
0.0
  0
SOLID
  5
A09
100
AcDbEntity
  8
0
  6
BYBLOCK
 62
     0
100
AcDbTrace
 10
-1839.488283
 20
-1519.033313
 30
0.0
 11
-1838.899028
 21
-1519.622569
 31
0.0
 12
-1837.425889
 22
-1517.560174
 32
0.0
 13
-1837.425889
 23
-1517.560174
 33
0.0
  0
SOLID
  5
A0A
100
AcDbEntity
  8
0
  6
BYBLOCK
 62
     0
100
AcDbTrace
 10
-1834.538536
 20
-1514.083565
 30
0.0
 11
-1833.94928
 21
-1514.672821
 31
0.0
 12
-1836.011675
 22
-1516.14596
 32
0.0
 13
-1836.011675
 23
-1516.14596
 33
0.0
  0
MTEXT
  5
A0B
100
AcDbEntity
  8
0
  6
BYBLOCK
 62
     0
100
AcDbMText
 10
-1832.97062
 20
-1510.099283
 30
0.0
 40
3.0
 41
0.0
 71
     5
 72
     1
  1
\A1;2
 11
0.707107
 21
0.707107
 31
0.0
  0
POINT
  5
A0C
100
AcDbEntity
  8
DEFPOINTS
  6
BYBLOCK
 62
     0
100
AcDbPoint
 10
-1834.616523
 20
-1520.369539
 30
0.0
  0
POINT
  5
A0D
100
AcDbEntity
  8
DEFPOINTS
  6
BYBLOCK
 62
     0
100
AcDbPoint
 10
-1833.20231
 20
-1518.955325
 30
0.0
  0
POINT
  5
A0E
100
AcDbEntity
  8
DEFPOINTS
  6
BYBLOCK
 62
     0
100
AcDbPoint
 10
-1836.011675
 20
-1516.14596
 30
0.0
  0
ENDBLK
  5
A10
100
AcDbEntity
  8
0
100
AcDbBlockEnd
  0
BLOCK
  5
A1C
100
AcDbEntity
  8
0
100
AcDbBlockBegin
  2
*D26
 70
    65
 10
0.0
 20
0.0
 30
0.0
  3
*D26
  1

  0
LINE
  5
A12
100
AcDbEntity
  8
0
  6
BYBLOCK
 62
     0
100
AcDbLine
 10
-1848.712019
 20
-1519.874044
 30
0.0
 11
-1851.243241
 21
-1517.342822
 31
0.0
  0
LINE
  5
A13
100
AcDbEntity
  8
0
  6
BYBLOCK
 62
     0
100
AcDbLine
 10
-1847.351358
 20
-1518.513384
 30
0.0
 11
-1849.882581
 21
-1515.982161
 31
0.0
  0
LINE
  5
A14
100
AcDbEntity
  8
0
  6
BYBLOCK
 62
     0
100
AcDbLine
 10
-1852.127124
 20
-1519.994472
 30
0.0
 11
-1853.894891
 21
-1521.762239
 31
0.0
  0
LINE
  5
A15
100
AcDbEntity
  8
0
  6
BYBLOCK
 62
     0
100
AcDbLine
 10
-1847.23093
 20
-1515.098278
 30
0.0
 11
-1839.938167
 21
-1507.805514
 31
0.0
  0
SOLID
  5
A16
100
AcDbEntity
  8
0
  6
BYBLOCK
 62
     0
100
AcDbTrace
 10
-1852.421752
 20
-1519.699844
 30
0.0
 11
-1851.832497
 21
-1520.2891
 31
0.0
 12
-1850.359357
 22
-1518.226705
 32
0.0
 13
-1850.359357
 23
-1518.226705
 33
0.0
  0
SOLID
  5
A17
100
AcDbEntity
  8
0
  6
BYBLOCK
 62
     0
100
AcDbTrace
 10
-1847.525558
 20
-1514.80365
 30
0.0
 11
-1846.936302
 21
-1515.392906
 31
0.0
 12
-1848.998697
 22
-1516.866045
 32
0.0
 13
-1848.998697
 23
-1516.866045
 33
0.0
  0
MTEXT
  5
A18
100
AcDbEntity
  8
0
  6
BYBLOCK
 62
     0
100
AcDbMText
 10
-1844.203476
 20
-1509.065202
 30
0.0
 40
3.0
 41
0.0
 71
     5
 72
     1
  1
\A1;1.92
 11
0.707107
 21
0.707107
 31
0.0
  0
POINT
  5
A19
100
AcDbEntity
  8
DEFPOINTS
  6
BYBLOCK
 62
     0
100
AcDbPoint
 10
-1848.270077
 20
-1520.315986
 30
0.0
  0
POINT
  5
A1A
100
AcDbEntity
  8
DEFPOINTS
  6
BYBLOCK
 62
     0
100
AcDbPoint
 10
-1846.909417
 20
-1518.955325
 30
0.0
  0
POINT
  5
A1B
100
AcDbEntity
  8
DEFPOINTS
  6
BYBLOCK
 62
     0
100
AcDbPoint
 10
-1848.998697
 20
-1516.866045
 30
0.0
  0
ENDBLK
  5
A1D
100
AcDbEntity
  8
0
100
AcDbBlockEnd
  0
BLOCK
  5
A29
100
AcDbEntity
  8
0
100
AcDbBlockBegin
  2
*D27
 70
    65
 10
0.0
 20
0.0
 30
0.0
  3
*D27
  1

  0
LINE
  5
A1F
100
AcDbEntity
  8
0
  6
BYBLOCK
 62
     0
100
AcDbLine
 10
-1844.775727
 20
-1448.890986
 30
0.0
 11
-1844.775727
 21
-1426.661652
 31
0.0
  0
LINE
  5
A20
100
AcDbEntity
  8
0
  6
BYBLOCK
 62
     0
100
AcDbLine
 10
-1835.335999
 20
-1448.890986
 30
0.0
 11
-1835.335999
 21
-1426.661652
 31
0.0
  0
LINE
  5
A21
100
AcDbEntity
  8
0
  6
BYBLOCK
 62
     0
100
AcDbLine
 10
-1842.275727
 20
-1427.911652
 30
0.0
 11
-1837.835999
 21
-1427.911652
 31
0.0
  0
LINE
  5
A22
100
AcDbEntity
  8
0
  6
BYBLOCK
 62
     0
100
AcDbLine
 10
-1835.335999
 20
-1427.911652
 30
0.0
 11
-1810.078958
 21
-1427.911652
 31
0.0
  0
SOLID
  5
A23
100
AcDbEntity
  8
0
  6
BYBLOCK
 62
     0
100
AcDbTrace
 10
-1842.275727
 20
-1427.494986
 30
0.0
 11
-1842.275727
 21
-1428.328319
 31
0.0
 12
-1844.775727
 22
-1427.911652
 32
0.0
 13
-1844.775727
 23
-1427.911652
 33
0.0
  0
SOLID
  5
A24
100
AcDbEntity
  8
0
  6
BYBLOCK
 62
     0
100
AcDbTrace
 10
-1837.835999
 20
-1427.494986
 30
0.0
 11
-1837.835999
 21
-1428.328319
 31
0.0
 12
-1835.335999
 22
-1427.911652
 32
0.0
 13
-1835.335999
 23
-1427.911652
 33
0.0
  0
MTEXT
  5
A25
100
AcDbEntity
  8
0
  6
BYBLOCK
 62
     0
100
AcDbMText
 10
-1818.629724
 20
-1423.935471
 30
0.0
 40
3.0
 41
0.0
 71
     5
 72
     1
  1
\A1;9.44\S-0.1^  0;
  0
POINT
  5
A26
100
AcDbEntity
  8
DEFPOINTS
  6
BYBLOCK
 62
     0
100
AcDbPoint
 10
-1844.775727
 20
-1449.515986
 30
0.0
  0
POINT
  5
A27
100
AcDbEntity
  8
DEFPOINTS
  6
BYBLOCK
 62
     0
100
AcDbPoint
 10
-1835.335999
 20
-1449.515986
 30
0.0
  0
POINT
  5
A28
100
AcDbEntity
  8
DEFPOINTS
  6
BYBLOCK
 62
     0
100
AcDbPoint
 10
-1835.335999
 20
-1427.911652
 30
0.0
  0
ENDBLK
  5
A2A
100
AcDbEntity
  8
0
100
AcDbBlockEnd
  0
BLOCK
  5
A37
100
AcDbEntity
  8
0
100
AcDbBlockBegin
  2
*D28
 70
    65
 10
0.0
 20
0.0
 30
0.0
  3
*D28
  1

  0
LINE
  5
A2C
100
AcDbEntity
  8
0
  6
BYBLOCK
 62
     0
100
AcDbLine
 10
-1835.174237
 20
-1448.912282
 30
0.0
 11
-1827.270904
 21
-1419.416642
 31
0.0
  0
LINE
  5
A2D
100
AcDbEntity
  8
0
  6
BYBLOCK
 62
     0
100
AcDbLine
 10
-1844.937489
 20
-1448.912282
 30
0.0
 11
-1852.840822
 21
-1419.416642
 31
0.0
  0
ARC
  5
A2E
100
AcDbEntity
  8
0
  6
BYBLOCK
 62
     0
100
AcDbCircle
 10
-1840.055863
 20
-1467.130758
 30
0.0
 40
48.147288
100
AcDbArc
 50
77.975361
 51
102.024639
  0
SOLID
  5
A2F
100
AcDbEntity
  8
0
  6
BYBLOCK
 62
     0
100
AcDbTrace
 10
-1829.927871
 20
-1419.63478
 30
0.0
 11
-1830.122583
 21
-1420.445046
 31
0.0
 12
-1827.594428
 22
-1420.624049
 32
0.0
 13
-1827.594428
 23
-1420.624049
 33
0.0
  0
SOLID
  5
A30
100
AcDbEntity
  8
0
  6
BYBLOCK
 62
     0
100
AcDbTrace
 10
-1849.989143
 20
-1420.445046
 30
0.0
 11
-1850.183855
 21
-1419.63478
 31
0.0
 12
-1852.517298
 22
-1420.624049
 32
0.0
 13
-1852.517298
 23
-1420.624049
 33
0.0
  0
MTEXT
  5
A31
100
AcDbEntity
  8
0
  6
BYBLOCK
 62
     0
100
AcDbMText
 10
-1840.055863
 20
-1416.85847
 30
0.0
 40
3.0
 41
0.0
 71
     5
 72
     1
  1
\A1;30°
  0
POINT
  5
A32
100
AcDbEntity
  8
DEFPOINTS
  6
BYBLOCK
 62
     0
100
AcDbPoint
 10
-1835.859551
 20
-1419.166685
 30
0.0
  0
POINT
  5
A33
100
AcDbEntity
  8
DEFPOINTS
  6
BYBLOCK
 62
     0
100
AcDbPoint
 10
-1844.775727
 20
-1449.515986
 30
0.0
  0
POINT
  5
A34
100
AcDbEntity
  8
DEFPOINTS
  6
BYBLOCK
 62
     0
100
AcDbPoint
 10
-1835.335999
 20
-1449.515986
 30
0.0
  0
POINT
  5
A35
100
AcDbEntity
  8
DEFPOINTS
  6
BYBLOCK
 62
     0
100
AcDbPoint
 10
-1840.442234
 20
-1468.572712
 30
0.0
  0
POINT
  5
A36
100
AcDbEntity
  8
DEFPOINTS
  6
BYBLOCK
 62
     0
100
AcDbPoint
 10
-1839.669493
 20
-1468.572712
 30
0.0
  0
ENDBLK
  5
A38
100
AcDbEntity
  8
0
100
AcDbBlockEnd
  0
BLOCK
  5
AA7
100
AcDbEntity
  8
0
100
AcDbBlockBegin
  2
*X29
 70
    65
 10
0.0
 20
0.0
 30
0.0
  3
*X29
  1

  0
LINE
  5
A3A
100
AcDbEntity
  8
0
 62
     0
100
AcDbLine
 10
-1843.402165
 20
-1454.846989
 30
0.0
 11
-1843.358886
 21
-1454.80371
 31
0.0
  0
LINE
  5
A3B
100
AcDbEntity
  8
0
 62
     0
100
AcDbLine
 10
-1843.525633
 20
-1454.79368
 30
0.0
 11
-1843.396243
 21
-1454.66429
 31
0.0
  0
LINE
  5
A3C
100
AcDbEntity
  8
0
 62
     0
100
AcDbLine
 10
-1843.6491
 20
-1454.74037
 30
0.0
 11
-1843.433601
 21
-1454.524871
 31
0.0
  0
LINE
  5
A3D
100
AcDbEntity
  8
0
 62
     0
100
AcDbLine
 10
-1843.772568
 20
-1454.687061
 30
0.0
 11
-1843.470958
 21
-1454.385452
 31
0.0
  0
LINE
  5
A3E
100
AcDbEntity
  8
0
 62
     0
100
AcDbLine
 10
-1843.896035
 20
-1454.633752
 30
0.0
 11
-1843.508315
 21
-1454.246032
 31
0.0
  0
LINE
  5
A3F
100
AcDbEntity
  8
0
 62
     0
100
AcDbLine
 10
-1844.019503
 20
-1454.580443
 30
0.0
 11
-1843.545673
 21
-1454.106613
 31
0.0
  0
LINE
  5
A40
100
AcDbEntity
  8
0
 62
     0
100
AcDbLine
 10
-1844.14297
 20
-1454.527134
 30
0.0
 11
-1843.58303
 21
-1453.967193
 31
0.0
  0
LINE
  5
A41
100
AcDbEntity
  8
0
 62
     0
100
AcDbLine
 10
-1844.266438
 20
-1454.473825
 30
0.0
 11
-1843.620387
 21
-1453.827774
 31
0.0
  0
LINE
  5
A42
100
AcDbEntity
  8
0
 62
     0
100
AcDbLine
 10
-1844.389905
 20
-1454.420516
 30
0.0
 11
-1843.657745
 21
-1453.688355
 31
0.0
  0
LINE
  5
A43
100
AcDbEntity
  8
0
 62
     0
100
AcDbLine
 10
-1844.513373
 20
-1454.367206
 30
0.0
 11
-1843.695102
 21
-1453.548935
 31
0.0
  0
LINE
  5
A44
100
AcDbEntity
  8
0
 62
     0
100
AcDbLine
 10
-1844.636841
 20
-1454.313897
 30
0.0
 11
-1843.732459
 21
-1453.409516
 31
0.0
  0
LINE
  5
A45
100
AcDbEntity
  8
0
 62
     0
100
AcDbLine
 10
-1844.760308
 20
-1454.260588
 30
0.0
 11
-1843.769816
 21
-1453.270097
 31
0.0
  0
LINE
  5
A46
100
AcDbEntity
  8
0
 62
     0
100
AcDbLine
 10
-1844.883776
 20
-1454.207279
 30
0.0
 11
-1843.807174
 21
-1453.130677
 31
0.0
  0
LINE
  5
A47
100
AcDbEntity
  8
0
 62
     0
100
AcDbLine
 10
-1845.007243
 20
-1454.15397
 30
0.0
 11
-1843.844531
 21
-1452.991258
 31
0.0
  0
LINE
  5
A48
100
AcDbEntity
  8
0
 62
     0
100
AcDbLine
 10
-1845.130711
 20
-1454.100661
 30
0.0
 11
-1843.881888
 21
-1452.851838
 31
0.0
  0
LINE
  5
A49
100
AcDbEntity
  8
0
 62
     0
100
AcDbLine
 10
-1845.254178
 20
-1454.047352
 30
0.0
 11
-1843.919246
 21
-1452.712419
 31
0.0
  0
LINE
  5
A4A
100
AcDbEntity
  8
0
 62
     0
100
AcDbLine
 10
-1845.377646
 20
-1453.994042
 30
0.0
 11
-1843.956603
 21
-1452.573
 31
0.0
  0
LINE
  5
A4B
100
AcDbEntity
  8
0
 62
     0
100
AcDbLine
 10
-1845.501113
 20
-1453.940733
 30
0.0
 11
-1843.99396
 21
-1452.43358
 31
0.0
  0
LINE
  5
A4C
100
AcDbEntity
  8
0
 62
     0
100
AcDbLine
 10
-1845.624581
 20
-1453.887424
 30
0.0
 11
-1844.031318
 21
-1452.294161
 31
0.0
  0
LINE
  5
A4D
100
AcDbEntity
  8
0
 62
     0
100
AcDbLine
 10
-1845.748049
 20
-1453.834115
 30
0.0
 11
-1844.068675
 21
-1452.154741
 31
0.0
  0
LINE
  5
A4E
100
AcDbEntity
  8
0
 62
     0
100
AcDbLine
 10
-1845.871516
 20
-1453.780806
 30
0.0
 11
-1844.106032
 21
-1452.015322
 31
0.0
  0
LINE
  5
A4F
100
AcDbEntity
  8
0
 62
     0
100
AcDbLine
 10
-1845.994984
 20
-1453.727497
 30
0.0
 11
-1844.14339
 21
-1451.875903
 31
0.0
  0
LINE
  5
A50
100
AcDbEntity
  8
0
 62
     0
100
AcDbLine
 10
-1846.118451
 20
-1453.674188
 30
0.0
 11
-1844.180747
 21
-1451.736483
 31
0.0
  0
LINE
  5
A51
100
AcDbEntity
  8
0
 62
     0
100
AcDbLine
 10
-1846.241919
 20
-1453.620879
 30
0.0
 11
-1844.218104
 21
-1451.597064
 31
0.0
  0
LINE
  5
A52
100
AcDbEntity
  8
0
 62
     0
100
AcDbLine
 10
-1846.365386
 20
-1453.567569
 30
0.0
 11
-1844.255461
 21
-1451.457645
 31
0.0
  0
LINE
  5
A53
100
AcDbEntity
  8
0
 62
     0
100
AcDbLine
 10
-1846.488854
 20
-1453.51426
 30
0.0
 11
-1844.292819
 21
-1451.318225
 31
0.0
  0
LINE
  5
A54
100
AcDbEntity
  8
0
 62
     0
100
AcDbLine
 10
-1846.612321
 20
-1453.460951
 30
0.0
 11
-1844.330176
 21
-1451.178806
 31
0.0
  0
LINE
  5
A55
100
AcDbEntity
  8
0
 62
     0
100
AcDbLine
 10
-1846.735789
 20
-1453.407642
 30
0.0
 11
-1844.367533
 21
-1451.039386
 31
0.0
  0
LINE
  5
A56
100
AcDbEntity
  8
0
 62
     0
100
AcDbLine
 10
-1846.859257
 20
-1453.354333
 30
0.0
 11
-1844.404891
 21
-1450.899967
 31
0.0
  0
LINE
  5
A57
100
AcDbEntity
  8
0
 62
     0
100
AcDbLine
 10
-1846.982724
 20
-1453.301024
 30
0.0
 11
-1844.442248
 21
-1450.760548
 31
0.0
  0
LINE
  5
A58
100
AcDbEntity
  8
0
 62
     0
100
AcDbLine
 10
-1847.106192
 20
-1453.247715
 30
0.0
 11
-1844.479605
 21
-1450.621128
 31
0.0
  0
LINE
  5
A59
100
AcDbEntity
  8
0
 62
     0
100
AcDbLine
 10
-1847.229659
 20
-1453.194405
 30
0.0
 11
-1844.516963
 21
-1450.481709
 31
0.0
  0
LINE
  5
A5A
100
AcDbEntity
  8
0
 62
     0
100
AcDbLine
 10
-1847.353127
 20
-1453.141096
 30
0.0
 11
-1844.55432
 21
-1450.342289
 31
0.0
  0
LINE
  5
A5B
100
AcDbEntity
  8
0
 62
     0
100
AcDbLine
 10
-1847.476594
 20
-1453.087787
 30
0.0
 11
-1844.591677
 21
-1450.20287
 31
0.0
  0
LINE
  5
A5C
100
AcDbEntity
  8
0
 62
     0
100
AcDbLine
 10
-1847.600062
 20
-1453.034478
 30
0.0
 11
-1844.629035
 21
-1450.063451
 31
0.0
  0
LINE
  5
A5D
100
AcDbEntity
  8
0
 62
     0
100
AcDbLine
 10
-1847.723529
 20
-1452.981169
 30
0.0
 11
-1844.666392
 21
-1449.924031
 31
0.0
  0
LINE
  5
A5E
100
AcDbEntity
  8
0
 62
     0
100
AcDbLine
 10
-1847.846997
 20
-1452.92786
 30
0.0
 11
-1844.703749
 21
-1449.784612
 31
0.0
  0
LINE
  5
A5F
100
AcDbEntity
  8
0
 62
     0
100
AcDbLine
 10
-1847.970465
 20
-1452.874551
 30
0.0
 11
-1844.741107
 21
-1449.645193
 31
0.0
  0
LINE
  5
A60
100
AcDbEntity
  8
0
 62
     0
100
AcDbLine
 10
-1848.093932
 20
-1452.821241
 30
0.0
 11
-1844.788676
 21
-1449.515986
 31
0.0
  0
LINE
  5
A61
100
AcDbEntity
  8
0
 62
     0
100
AcDbLine
 10
-1848.2174
 20
-1452.767932
 30
0.0
 11
-1844.965453
 21
-1449.515986
 31
0.0
  0
LINE
  5
A62
100
AcDbEntity
  8
0
 62
     0
100
AcDbLine
 10
-1848.340867
 20
-1452.714623
 30
0.0
 11
-1845.14223
 21
-1449.515986
 31
0.0
  0
LINE
  5
A63
100
AcDbEntity
  8
0
 62
     0
100
AcDbLine
 10
-1848.464335
 20
-1452.661314
 30
0.0
 11
-1845.319006
 21
-1449.515986
 31
0.0
  0
LINE
  5
A64
100
AcDbEntity
  8
0
 62
     0
100
AcDbLine
 10
-1848.587802
 20
-1452.608005
 30
0.0
 11
-1845.495783
 21
-1449.515986
 31
0.0
  0
LINE
  5
A65
100
AcDbEntity
  8
0
 62
     0
100
AcDbLine
 10
-1848.71127
 20
-1452.554696
 30
0.0
 11
-1845.67256
 21
-1449.515986
 31
0.0
  0
LINE
  5
A66
100
AcDbEntity
  8
0
 62
     0
100
AcDbLine
 10
-1848.834737
 20
-1452.501387
 30
0.0
 11
-1845.849336
 21
-1449.515986
 31
0.0
  0
LINE
  5
A67
100
AcDbEntity
  8
0
 62
     0
100
AcDbLine
 10
-1848.958205
 20
-1452.448077
 30
0.0
 11
-1846.026113
 21
-1449.515986
 31
0.0
  0
LINE
  5
A68
100
AcDbEntity
  8
0
 62
     0
100
AcDbLine
 10
-1849.081673
 20
-1452.394768
 30
0.0
 11
-1846.20289
 21
-1449.515986
 31
0.0
  0
LINE
  5
A69
100
AcDbEntity
  8
0
 62
     0
100
AcDbLine
 10
-1849.20514
 20
-1452.341459
 30
0.0
 11
-1846.379666
 21
-1449.515986
 31
0.0
  0
LINE
  5
A6A
100
AcDbEntity
  8
0
 62
     0
100
AcDbLine
 10
-1849.328608
 20
-1452.28815
 30
0.0
 11
-1846.556443
 21
-1449.515986
 31
0.0
  0
LINE
  5
A6B
100
AcDbEntity
  8
0
 62
     0
100
AcDbLine
 10
-1849.452075
 20
-1452.234841
 30
0.0
 11
-1846.73322
 21
-1449.515986
 31
0.0
  0
LINE
  5
A6C
100
AcDbEntity
  8
0
 62
     0
100
AcDbLine
 10
-1849.575543
 20
-1452.181532
 30
0.0
 11
-1846.909997
 21
-1449.515986
 31
0.0
  0
LINE
  5
A6D
100
AcDbEntity
  8
0
 62
     0
100
AcDbLine
 10
-1849.69901
 20
-1452.128223
 30
0.0
 11
-1847.086773
 21
-1449.515986
 31
0.0
  0
LINE
  5
A6E
100
AcDbEntity
  8
0
 62
     0
100
AcDbLine
 10
-1849.822478
 20
-1452.074914
 30
0.0
 11
-1847.26355
 21
-1449.515986
 31
0.0
  0
LINE
  5
A6F
100
AcDbEntity
  8
0
 62
     0
100
AcDbLine
 10
-1849.945946
 20
-1452.021604
 30
0.0
 11
-1847.440327
 21
-1449.515986
 31
0.0
  0
LINE
  5
A70
100
AcDbEntity
  8
0
 62
     0
100
AcDbLine
 10
-1850.069413
 20
-1451.968295
 30
0.0
 11
-1847.617103
 21
-1449.515986
 31
0.0
  0
LINE
  5
A71
100
AcDbEntity
  8
0
 62
     0
100
AcDbLine
 10
-1850.192881
 20
-1451.914986
 30
0.0
 11
-1847.79388
 21
-1449.515986
 31
0.0
  0
LINE
  5
A72
100
AcDbEntity
  8
0
 62
     0
100
AcDbLine
 10
-1850.316348
 20
-1451.861677
 30
0.0
 11
-1847.970657
 21
-1449.515986
 31
0.0
  0
LINE
  5
A73
100
AcDbEntity
  8
0
 62
     0
100
AcDbLine
 10
-1850.355863
 20
-1451.724415
 30
0.0
 11
-1848.147433
 21
-1449.515986
 31
0.0
  0
LINE
  5
A74
100
AcDbEntity
  8
0
 62
     0
100
AcDbLine
 10
-1850.355863
 20
-1451.547639
 30
0.0
 11
-1848.32421
 21
-1449.515986
 31
0.0
  0
LINE
  5
A75
100
AcDbEntity
  8
0
 62
     0
100
AcDbLine
 10
-1850.355863
 20
-1451.370862
 30
0.0
 11
-1848.500987
 21
-1449.515986
 31
0.0
  0
LINE
  5
A76
100
AcDbEntity
  8
0
 62
     0
100
AcDbLine
 10
-1850.355863
 20
-1451.194085
 30
0.0
 11
-1848.677764
 21
-1449.515986
 31
0.0
  0
LINE
  5
A77
100
AcDbEntity
  8
0
 62
     0
100
AcDbLine
 10
-1850.355863
 20
-1451.017309
 30
0.0
 11
-1848.85454
 21
-1449.515986
 31
0.0
  0
LINE
  5
A78
100
AcDbEntity
  8
0
 62
     0
100
AcDbLine
 10
-1850.355863
 20
-1450.840532
 30
0.0
 11
-1849.031317
 21
-1449.515986
 31
0.0
  0
LINE
  5
A79
100
AcDbEntity
  8
0
 62
     0
100
AcDbLine
 10
-1850.355863
 20
-1450.663755
 30
0.0
 11
-1849.208094
 21
-1449.515986
 31
0.0
  0
LINE
  5
A7A
100
AcDbEntity
  8
0
 62
     0
100
AcDbLine
 10
-1835.370136
 20
-1449.643387
 30
0.0
 11
-1835.242735
 21
-1449.515986
 31
0.0
  0
LINE
  5
A7B
100
AcDbEntity
  8
0
 62
     0
100
AcDbLine
 10
-1835.434841
 20
-1449.884869
 30
0.0
 11
-1835.065958
 21
-1449.515986
 31
0.0
  0
LINE
  5
A7C
100
AcDbEntity
  8
0
 62
     0
100
AcDbLine
 10
-1835.499546
 20
-1450.12635
 30
0.0
 11
-1834.889181
 21
-1449.515986
 31
0.0
  0
LINE
  5
A7D
100
AcDbEntity
  8
0
 62
     0
100
AcDbLine
 10
-1835.564251
 20
-1450.367832
 30
0.0
 11
-1834.712405
 21
-1449.515986
 31
0.0
  0
LINE
  5
A7E
100
AcDbEntity
  8
0
 62
     0
100
AcDbLine
 10
-1835.628955
 20
-1450.609313
 30
0.0
 11
-1834.535628
 21
-1449.515986
 31
0.0
  0
LINE
  5
A7F
100
AcDbEntity
  8
0
 62
     0
100
AcDbLine
 10
-1835.69366
 20
-1450.850795
 30
0.0
 11
-1834.358851
 21
-1449.515986
 31
0.0
  0
LINE
  5
A80
100
AcDbEntity
  8
0
 62
     0
100
AcDbLine
 10
-1835.758365
 20
-1451.092276
 30
0.0
 11
-1834.182075
 21
-1449.515986
 31
0.0
  0
LINE
  5
A81
100
AcDbEntity
  8
0
 62
     0
100
AcDbLine
 10
-1835.82307
 20
-1451.333757
 30
0.0
 11
-1834.005298
 21
-1449.515986
 31
0.0
  0
LINE
  5
A82
100
AcDbEntity
  8
0
 62
     0
100
AcDbLine
 10
-1835.887774
 20
-1451.575239
 30
0.0
 11
-1833.828521
 21
-1449.515986
 31
0.0
  0
LINE
  5
A83
100
AcDbEntity
  8
0
 62
     0
100
AcDbLine
 10
-1835.952479
 20
-1451.81672
 30
0.0
 11
-1833.651744
 21
-1449.515986
 31
0.0
  0
LINE
  5
A84
100
AcDbEntity
  8
0
 62
     0
100
AcDbLine
 10
-1836.017184
 20
-1452.058202
 30
0.0
 11
-1833.474968
 21
-1449.515986
 31
0.0
  0
LINE
  5
A85
100
AcDbEntity
  8
0
 62
     0
100
AcDbLine
 10
-1836.081889
 20
-1452.299683
 30
0.0
 11
-1833.298191
 21
-1449.515986
 31
0.0
  0
LINE
  5
A86
100
AcDbEntity
  8
0
 62
     0
100
AcDbLine
 10
-1836.146594
 20
-1452.541165
 30
0.0
 11
-1833.121414
 21
-1449.515986
 31
0.0
  0
LINE
  5
A87
100
AcDbEntity
  8
0
 62
     0
100
AcDbLine
 10
-1836.211298
 20
-1452.782646
 30
0.0
 11
-1832.944638
 21
-1449.515986
 31
0.0
  0
LINE
  5
A88
100
AcDbEntity
  8
0
 62
     0
100
AcDbLine
 10
-1836.276003
 20
-1453.024128
 30
0.0
 11
-1832.767861
 21
-1449.515986
 31
0.0
  0
LINE
  5
A89
100
AcDbEntity
  8
0
 62
     0
100
AcDbLine
 10
-1836.340708
 20
-1453.265609
 30
0.0
 11
-1832.591084
 21
-1449.515986
 31
0.0
  0
LINE
  5
A8A
100
AcDbEntity
  8
0
 62
     0
100
AcDbLine
 10
-1836.405413
 20
-1453.507091
 30
0.0
 11
-1832.414308
 21
-1449.515986
 31
0.0
  0
LINE
  5
A8B
100
AcDbEntity
  8
0
 62
     0
100
AcDbLine
 10
-1836.470117
 20
-1453.748572
 30
0.0
 11
-1832.237531
 21
-1449.515986
 31
0.0
  0
LINE
  5
A8C
100
AcDbEntity
  8
0
 62
     0
100
AcDbLine
 10
-1836.534822
 20
-1453.990053
 30
0.0
 11
-1832.060754
 21
-1449.515986
 31
0.0
  0
LINE
  5
A8D
100
AcDbEntity
  8
0
 62
     0
100
AcDbLine
 10
-1836.599527
 20
-1454.231535
 30
0.0
 11
-1831.883977
 21
-1449.515986
 31
0.0
  0
LINE
  5
A8E
100
AcDbEntity
  8
0
 62
     0
100
AcDbLine
 10
-1836.664232
 20
-1454.473016
 30
0.0
 11
-1831.707201
 21
-1449.515986
 31
0.0
  0
LINE
  5
A8F
100
AcDbEntity
  8
0
 62
     0
100
AcDbLine
 10
-1836.728936
 20
-1454.714498
 30
0.0
 11
-1831.530424
 21
-1449.515986
 31
0.0
  0
LINE
  5
A90
100
AcDbEntity
  8
0
 62
     0
100
AcDbLine
 10
-1836.665722
 20
-1454.82806
 30
0.0
 11
-1831.353647
 21
-1449.515986
 31
0.0
  0
LINE
  5
A91
100
AcDbEntity
  8
0
 62
     0
100
AcDbLine
 10
-1836.354623
 20
-1454.693738
 30
0.0
 11
-1831.176871
 21
-1449.515986
 31
0.0
  0
LINE
  5
A92
100
AcDbEntity
  8
0
 62
     0
100
AcDbLine
 10
-1836.043525
 20
-1454.559416
 30
0.0
 11
-1831.000094
 21
-1449.515986
 31
0.0
  0
LINE
  5
A93
100
AcDbEntity
  8
0
 62
     0
100
AcDbLine
 10
-1835.732426
 20
-1454.425094
 30
0.0
 11
-1830.823317
 21
-1449.515986
 31
0.0
  0
LINE
  5
A94
100
AcDbEntity
  8
0
 62
     0
100
AcDbLine
 10
-1835.421328
 20
-1454.290773
 30
0.0
 11
-1830.701202
 21
-1449.570647
 31
0.0
  0
LINE
  5
A95
100
AcDbEntity
  8
0
 62
     0
100
AcDbLine
 10
-1835.110229
 20
-1454.156451
 30
0.0
 11
-1830.612814
 21
-1449.659035
 31
0.0
  0
LINE
  5
A96
100
AcDbEntity
  8
0
 62
     0
100
AcDbLine
 10
-1834.79913
 20
-1454.022129
 30
0.0
 11
-1830.524425
 21
-1449.747424
 31
0.0
  0
LINE
  5
A97
100
AcDbEntity
  8
0
 62
     0
100
AcDbLine
 10
-1834.488032
 20
-1453.887807
 30
0.0
 11
-1830.436037
 21
-1449.835812
 31
0.0
  0
LINE
  5
A98
100
AcDbEntity
  8
0
 62
     0
100
AcDbLine
 10
-1834.176933
 20
-1453.753485
 30
0.0
 11
-1830.347649
 21
-1449.9242
 31
0.0
  0
LINE
  5
A99
100
AcDbEntity
  8
0
 62
     0
100
AcDbLine
 10
-1833.865835
 20
-1453.619163
 30
0.0
 11
-1830.25926
 21
-1450.012589
 31
0.0
  0
LINE
  5
A9A
100
AcDbEntity
  8
0
 62
     0
100
AcDbLine
 10
-1833.554736
 20
-1453.484841
 30
0.0
 11
-1830.170872
 21
-1450.100977
 31
0.0
  0
LINE
  5
A9B
100
AcDbEntity
  8
0
 62
     0
100
AcDbLine
 10
-1833.243637
 20
-1453.350519
 30
0.0
 11
-1830.082484
 21
-1450.189365
 31
0.0
  0
LINE
  5
A9C
100
AcDbEntity
  8
0
 62
     0
100
AcDbLine
 10
-1832.932539
 20
-1453.216197
 30
0.0
 11
-1829.994095
 21
-1450.277754
 31
0.0
  0
LINE
  5
A9D
100
AcDbEntity
  8
0
 62
     0
100
AcDbLine
 10
-1832.62144
 20
-1453.081875
 30
0.0
 11
-1829.905707
 21
-1450.366142
 31
0.0
  0
LINE
  5
A9E
100
AcDbEntity
  8
0
 62
     0
100
AcDbLine
 10
-1832.310342
 20
-1452.947553
 30
0.0
 11
-1829.817318
 21
-1450.45453
 31
0.0
  0
LINE
  5
A9F
100
AcDbEntity
  8
0
 62
     0
100
AcDbLine
 10
-1831.999243
 20
-1452.813232
 30
0.0
 11
-1829.755863
 21
-1450.569852
 31
0.0
  0
LINE
  5
AA0
100
AcDbEntity
  8
0
 62
     0
100
AcDbLine
 10
-1831.688144
 20
-1452.67891
 30
0.0
 11
-1829.755863
 21
-1450.746629
 31
0.0
  0
LINE
  5
AA1
100
AcDbEntity
  8
0
 62
     0
100
AcDbLine
 10
-1831.377046
 20
-1452.544588
 30
0.0
 11
-1829.755863
 21
-1450.923405
 31
0.0
  0
LINE
  5
AA2
100
AcDbEntity
  8
0
 62
     0
100
AcDbLine
 10
-1831.065947
 20
-1452.410266
 30
0.0
 11
-1829.755863
 21
-1451.100182
 31
0.0
  0
LINE
  5
AA3
100
AcDbEntity
  8
0
 62
     0
100
AcDbLine
 10
-1830.754848
 20
-1452.275944
 30
0.0
 11
-1829.755863
 21
-1451.276959
 31
0.0
  0
LINE
  5
AA4
100
AcDbEntity
  8
0
 62
     0
100
AcDbLine
 10
-1830.44375
 20
-1452.141622
 30
0.0
 11
-1829.755863
 21
-1451.453735
 31
0.0
  0
LINE
  5
AA5
100
AcDbEntity
  8
0
 62
     0
100
AcDbLine
 10
-1830.132651
 20
-1452.0073
 30
0.0
 11
-1829.755863
 21
-1451.630512
 31
0.0
  0
LINE
  5
AA6
100
AcDbEntity
  8
0
 62
     0
100
AcDbLine
 10
-1829.821553
 20
-1451.872978
 30
0.0
 11
-1829.755863
 21
-1451.807289
 31
0.0
  0
ENDBLK
  5
AA8
100
AcDbEntity
  8
0
100
AcDbBlockEnd
  0
BLOCK
  5
AAF
100
AcDbEntity
  8
0
100
AcDbBlockBegin
  2
*D30
 70
    65
 10
0.0
 20
0.0
 30
0.0
  3
*D30
  1

  0
LINE
  5
AAA
100
AcDbEntity
  8
0
  6
BYBLOCK
 62
     0
100
AcDbLine
 10
-1842.077369
 20
-1466.124242
 30
0.0
 11
-1846.149258
 21
-1471.879432
 31
0.0
  0
SOLID
  5
AAB
100
AcDbEntity
  8
0
  6
BYBLOCK
 62
     0
100
AcDbTrace
 10
-1842.41751
 20
-1465.883586
 30
0.0
 11
-1841.737227
 21
-1466.364897
 31
0.0
 12
-1840.633436
 22
-1464.083394
 32
0.0
 13
-1840.633436
 23
-1464.083394
 33
0.0
  0
MTEXT
  5
AAC
100
AcDbEntity
  8
0
  6
BYBLOCK
 62
     0
100
AcDbMText
 10
-1846.57
 20
-1468.794918
 30
0.0
 40
3.0
 41
0.0
 71
     5
 72
     1
  1
\A1;R1
 11
0.577573
 21
0.816339
 31
0.0
  0
POINT
  5
AAD
100
AcDbEntity
  8
DEFPOINTS
  6
BYBLOCK
 62
     0
100
AcDbPoint
 10
-1840.633436
 20
-1464.083394
 30
0.0
  0
POINT
  5
AAE
100
AcDbEntity
  8
DEFPOINTS
  6
BYBLOCK
 62
     0
100
AcDbPoint
 10
-1840.055863
 20
-1463.267055
 30
0.0
  0
ENDBLK
  5
AB0
100
AcDbEntity
  8
0
100
AcDbBlockEnd
  0
BLOCK
  5
BA0
100
AcDbEntity
  8
DISEGNO
100
AcDbBlockBegin
  2
A$CC3A2
 70
     0
 10
0.0
 20
0.0
 30
0.0
  3
A$CC3A2
  1

  0
TEXT
  5
AB2
100
AcDbEntity
  8
TABELLA
  6
CONTINUOUS
100
AcDbText
 10
67.851274
 20
7.588952
 30
0.0
 40
1.5
  1
A termine di legge la Rolleri si riserva la
 50
90.0
100
AcDbText
  0
LINE
  5
AB3
100
AcDbEntity
  8
TABELLA
  6
CONTINUOUS
100
AcDbLine
 10
5.194782
 20
282.521992
 30
0.0
 11
195.194782
 21
282.521992
 31
0.0
  0
LINE
  5
AB4
100
AcDbEntity
  8
TABELLA
  6
CONTINUOUS
100
AcDbLine
 10
195.194782
 20
5.521992
 30
0.0
 11
5.194782
 21
5.521992
 31
0.0
  0
LINE
  5
AB5
100
AcDbEntity
  8
TABELLA
  6
CONTINUOUS
100
AcDbLine
 10
195.194782
 20
45.521992
 30
0.0
 11
5.109776
 21
45.530276
 31
0.0
  0
MTEXT
  5
AB6
100
AcDbEntity
  8
QUOTE
100
AcDbMText
 10
71.888628
 20
222.400865
 30
0.0
 40
3.0
 41
0.0
 71
     9
 72
     1
  1
{N° 2 SM 1X45°}
  0
LEADER
  5
AB7
100
AcDbEntity
  8
QUOTE
100
AcDbLeader
  3
STANDARD
 73
     0
 75
     1
 40
3.0
 41
27.06
 76
     3
 10
90.373593
 20
209.343707
 30
0.0
 10
75.013628
 20
221.775865
 30
0.0
 10
72.513628
 20
221.775865
 30
0.0
 77
   256
1001
ACAD
1000
DSTYLE
1002
{
1070
   141
1040
0.0
1002
}
  0
LEADER
  5
AB8
100
AcDbEntity
  8
QUOTE
100
AcDbLeader
  3
STANDARD
 73
     0
 75
     1
 40
3.0
 41
27.06
 76
     3
 10
87.697347
 20
153.667461
 30
0.0
 10
65.952985
 20
173.751554
 30
0.0
 10
63.452985
 20
173.751554
 30
0.0
 77
   256
1001
ACAD
1000
DSTYLE
1002
{
1070
   141
1040
0.0
1002
}
  0
DIMENSION
  5
AB9
100
AcDbEntity
  8
QUOTE
100
AcDbDimension
  2
*D21
 10
89.373284
 20
147.543398
 30
0.0
 11
62.075815
 21
147.543398
 31
0.0
 12
1940.429147
 22
1659.559384
 32
0.0
 70
     2
  3
STANDARD
100
AcDb2LineAngularDimension
 13
87.573284
 23
145.743398
 33
0.0
 14
89.373284
 24
147.543398
 34
0.0
 15
87.573284
 25
149.343398
 35
0.0
 16
65.058546
 26
154.058513
 36
0.0
1001
ACAD
1000
DSTYLE
1002
{
1070
   141
1040
0.0
1002
}
  0
TEXT
  5
ABA
100
AcDbEntity
  8
QUOTE
100
AcDbText
 10
65.676161
 20
50.239031
 30
0.0
 40
2.5
  1
MATERIALE R=95-105 Kg/mm
 41
1.1
100
AcDbText
  0
TEXT
  5
ABB
100
AcDbEntity
  8
QUOTE
100
AcDbText
 10
16.249741
 20
68.499782
 30
0.0
 40
3.0
  1
SMUSSI NON QUOTATI 1.5X45°
 41
1.1
100
AcDbText
  0
POLYLINE
  5
ABC
100
AcDbEntity
  8
QUOTE
100
AcDb2dPolyline
 66
     1
 10
0.0
 20
0.0
 30
0.0
 70
     1
  0
VERTEX
  5
ABD
100
AcDbEntity
  8
QUOTE
100
AcDbVertex
100
AcDb2dVertex
 10
10.920205
 20
62.717339
 30
0.0
  0
VERTEX
  5
ABE
100
AcDbEntity
  8
QUOTE
100
AcDbVertex
100
AcDb2dVertex
 10
10.920205
 20
50.00273
 30
0.0
  0
VERTEX
  5
ABF
100
AcDbEntity
  8
QUOTE
100
AcDbVertex
100
AcDb2dVertex
 10
52.039245
 20
50.00273
 30
0.0
  0
VERTEX
  5
AC0
100
AcDbEntity
  8
QUOTE
100
AcDbVertex
100
AcDb2dVertex
 10
52.039245
 20
62.717339
 30
0.0
  0
SEQEND
  5
AC1
100
AcDbEntity
  8
QUOTE
  0
LINE
  5
AC2
100
AcDbEntity
  8
TABELLA
  6
CONTINUOUS
100
AcDbLine
 10
5.194782
 20
5.521992
 30
0.0
 11
5.194782
 21
282.521992
 31
0.0
  0
TEXT
  5
AC3
100
AcDbEntity
  8
TABELLA
  6
CONTINUOUS
100
AcDbText
 10
6.684521
 20
42.466325
 30
0.0
 40
2.0
  1
TOLLERANZE GENERALI :
100
AcDbText
  0
TEXT
  5
AC4
100
AcDbEntity
  8
TABELLA
  6
CONTINUOUS
100
AcDbText
 10
6.684521
 20
19.666325
 30
0.0
 40
2.0
  1
   oltre 500 mm = +/- 0.5
100
AcDbText
  0
TEXT
  5
AC5
100
AcDbEntity
  8
TABELLA
  6
CONTINUOUS
100
AcDbText
 10
6.684521
 20
12.066325
 30
0.0
 40
2.0
  1
- Interassi fori = +/- 0.25
100
AcDbText
  0
TOLERANCE
  5
AC6
100
AcDbEntity
  8
QUOTE
  6
CONTINUOUS
100
AcDbFcf
  3
ISO-25
 10
14.718345
 20
54.317447
 30
0.0
  1
{\Fgdt;b}%%v0.1%%v%%v%%v%%v
1001
ACAD
1000
DSTYLE
1002
{
1070
   140
1040
2.6
1070
    47
1040
0.02
1070
    73
1070
     0
1070
   272
1070
     2
1070
   147
1040
0.53
1070
    42
1040
0.5261
1070
    44
1040
1.0522
1070
    43
1040
3.1566
1070
   271
1070
     2
1070
   141
1040
2.1044
1070
    41
1040
2.6
1002
}
  0
TEXT
  5
AC7
100
AcDbEntity
  8
TABELLA
  6
CONTINUOUS
100
AcDbText
 10
6.684521
 20
38.666325
 30
0.0
 40
2.0
  1
- Parti fuse con spessori <10 mm = +/- 1 mm
100
AcDbText
  0
TEXT
  5
AC8
100
AcDbEntity
  8
TABELLA
  6
CONTINUOUS
100
AcDbText
 10
6.684521
 20
34.866325
 30
0.0
 40
2.0
  1
- Parti fuse con spessori >10 mm = +/- 10%
100
AcDbText
  0
TEXT
  5
AC9
100
AcDbEntity
  8
TABELLA
  6
CONTINUOUS
100
AcDbText
 10
6.684521
 20
31.066325
 30
0.0
 40
2.0
  1
- Superfici lavorate da mm 1 a mm 50 = +/- 0.2
100
AcDbText
  0
TEXT
  5
ACA
100
AcDbEntity
  8
TABELLA
  6
CONTINUOUS
100
AcDbText
 10
6.684521
 20
27.266325
 30
0.0
 40
2.0
  1
   da mm 51 a mm 150 = +/- 0.3
100
AcDbText
  0
TEXT
  5
ACB
100
AcDbEntity
  8
TABELLA
  6
CONTINUOUS
100
AcDbText
 10
6.684521
 20
23.466325
 30
0.0
 40
2.0
  1
   da mm 151 a mm 500 = +/- 0.4
100
AcDbText
  0
TEXT
  5
ACC
100
AcDbEntity
  8
TABELLA
  6
CONTINUOUS
100
AcDbText
 10
6.684521
 20
15.866325
 30
0.0
 40
2.0
  1
- Angoli su superfici lavorate = +/- 30'
100
AcDbText
  0
TEXT
  5
ACD
100
AcDbEntity
  8
QUOTE
100
AcDbText
 10
11.51379
 20
58.253378
 30
0.0
 40
2.5
  1
TOLLERANZE AL METRO
 41
1.1
100
AcDbText
  0
TEXT
  5
ACE
100
AcDbEntity
  8
TABELLA
  6
CONTINUOUS
100
AcDbText
 10
-0.234095
 20
15.235738
 30
0.0
 40
4.0
  1
A
100
AcDbText
  0
TEXT
  5
ACF
100
AcDbEntity
  8
TABELLA
  6
CONTINUOUS
100
AcDbText
 10
14.995941
 20
0.273371
 30
0.0
 40
4.0
  1
6
100
AcDbText
  0
LINE
  5
AD0
100
AcDbEntity
  8
TABELLA
  6
CONTINUOUS
100
AcDbLine
 10
5.194782
 20
36.396992
 30
0.0
 11
0.194782
 21
36.396992
 31
0.0
  0
TEXT
  5
AD1
100
AcDbEntity
  8
TABELLA
  6
CONTINUOUS
100
AcDbText
 10
0.18206
 20
51.394788
 30
0.0
 40
4.0
  1
B
100
AcDbText
  0
LINE
  5
AD2
100
AcDbEntity
  8
TABELLA
  6
CONTINUOUS
100
AcDbLine
 10
65.205162
 20
45.529816
 30
0.0
 11
65.194782
 21
5.524586
 31
0.0
  0
LINE
  5
AD3
100
AcDbEntity
  8
TABELLA
  6
CONTINUOUS
100
AcDbLine
 10
33.527782
 20
5.521992
 30
0.0
 11
33.527782
 21
0.521992
 31
0.0
  0
LINE
  5
AD4
100
AcDbEntity
  8
TABELLA
  6
CONTINUOUS
100
AcDbLine
 10
66.860782
 20
5.521992
 30
0.0
 11
66.860782
 21
0.521992
 31
0.0
  0
TEXT
  5
AD5
100
AcDbEntity
  8
TABELLA
  6
CONTINUOUS
100
AcDbText
 10
48.704478
 20
0.273371
 30
0.0
 40
4.0
  1
5
100
AcDbText
  0
TOLERANCE
  5
AD6
100
AcDbEntity
  8
QUOTE
  6
CONTINUOUS
100
AcDbFcf
  3
ISO-25
 10
30.276303
 20
54.317447
 30
0.0
  1
{\Fgdt;u}%%v0.1%%v%%v%%v%%v
1001
ACAD
1000
DSTYLE
1002
{
1070
   140
1040
2.6
1070
    47
1040
0.02
1070
    73
1070
     0
1070
   272
1070
     2
1070
   147
1040
0.53
1070
    42
1040
0.5261
1070
    44
1040
1.0522
1070
    43
1040
3.1566
1070
   271
1070
     2
1070
   141
1040
2.1044
1070
    41
1040
2.6
1002
}
  0
LINE
  5
AD7
100
AcDbEntity
  8
TABELLA
  6
CONTINUOUS
100
AcDbLine
 10
5.194782
 20
72.271992
 30
0.0
 11
0.194782
 21
72.271992
 31
0.0
  0
TEXT
  5
AD8
100
AcDbEntity
  8
TABELLA
  6
CONTINUOUS
100
AcDbText
 10
0.18206
 20
87.59465
 30
0.0
 40
4.0
  1
C
100
AcDbText
  0
LINE
  5
AD9
100
AcDbEntity
  8
TABELLA
  6
CONTINUOUS
100
AcDbLine
 10
5.194782
 20
108.146992
 30
0.0
 11
0.194782
 21
108.146992
 31
0.0
  0
TEXT
  5
ADA
100
AcDbEntity
  8
TABELLA
  6
CONTINUOUS
100
AcDbText
 10
0.18206
 20
124.169322
 30
0.0
 40
4.0
  1
D
100
AcDbText
  0
INSERT
  5
ADB
100
AcDbEntity
  8
QUOTE
100
AcDbBlockReference
 66
     1
  2
RUGOSITA
 10
28.937018
 20
87.867877
 30
0.0
 41
2.0
 42
2.0
 43
2.0
  0
ATTRIB
  5
ADC
100
AcDbEntity
  8
QUOTE
100
AcDbText
 10
26.793246
 20
94.296088
 30
0.0
 40
3.0
  1
3.2
100
AcDbAttribute
  2
RUGOSITA
 70
     0
  0
SEQEND
  5
ADD
100
AcDbEntity
  8
QUOTE
  0
LINE
  5
ADE
100
AcDbEntity
  8
TABELLA
  6
CONTINUOUS
100
AcDbLine
 10
5.194782
 20
144.021992
 30
0.0
 11
0.194782
 21
144.021992
 31
0.0
  0
LINE
  5
ADF
100
AcDbEntity
  8
TABELLA
  6
CONTINUOUS
100
AcDbLine
 10
0.194782
 20
146.521992
 30
0.0
 11
5.194782
 21
144.021992
 31
0.0
  0
LINE
  5
AE0
100
AcDbEntity
  8
TABELLA
  6
CONTINUOUS
100
AcDbLine
 10
5.194782
 20
144.021992
 30
0.0
 11
0.194782
 21
141.521992
 31
0.0
  0
TEXT
  5
AE1
100
AcDbEntity
  8
TABELLA
  6
CONTINUOUS
100
AcDbText
 10
1.014369
 20
158.454318
 30
0.0
 40
4.0
  1
E
100
AcDbText
  0
LINE
  5
AE2
100
AcDbEntity
  8
TABELLA
  6
CONTINUOUS
100
AcDbLine
 10
0.194782
 20
144.021992
 30
0.0
 11
0.194782
 21
146.521992
 31
0.0
  0
LINE
  5
AE3
100
AcDbEntity
  8
TABELLA
  6
CONTINUOUS
100
AcDbLine
 10
0.194782
 20
144.021992
 30
0.0
 11
0.194782
 21
141.521992
 31
0.0
  0
LINE
  5
AE4
100
AcDbEntity
  8
TABELLA
  6
CONTINUOUS
100
AcDbLine
 10
5.194782
 20
179.896992
 30
0.0
 11
0.194782
 21
179.896992
 31
0.0
  0
TEXT
  5
AE5
100
AcDbEntity
  8
TABELLA
  6
CONTINUOUS
100
AcDbText
 10
0.598215
 20
195.444612
 30
0.0
 40
4.0
  1
F
100
AcDbText
  0
MTEXT
  5
AE6
100
AcDbEntity
  8
QUOTE
100
AcDbMText
 10
62.827985
 20
174.376554
 30
0.0
 40
3.0
 41
0.0
 71
     9
 72
     1
  1
{N° 2 SM 1X45°}
  0
TEXT
  5
AE7
100
AcDbEntity
  8
QUOTE
100
AcDbText
 10
21.181633
 20
268.123904
 30
0.0
 40
3.0
  1
DISEGNO DI FRESATURA
 41
1.1
100
AcDbText
  0
LINE
  5
AE8
100
AcDbEntity
  8
TABELLA
  6
CONTINUOUS
100
AcDbLine
 10
5.194782
 20
251.646992
 30
0.0
 11
0.194782
 21
251.646992
 31
0.0
  0
LINE
  5
AE9
100
AcDbEntity
  8
TABELLA
  6
CONTINUOUS
100
AcDbLine
 10
5.194782
 20
215.771992
 30
0.0
 11
0.194782
 21
215.771992
 31
0.0
  0
TEXT
  5
AEA
100
AcDbEntity
  8
TABELLA
  6
CONTINUOUS
100
AcDbText
 10
0.598215
 20
230.935661
 30
0.0
 40
4.0
  1
G
100
AcDbText
  0
TEXT
  5
AEB
100
AcDbEntity
  8
TABELLA
  6
CONTINUOUS
100
AcDbText
 10
0.598215
 20
268.341576
 30
0.0
 40
4.0
  1
H
100
AcDbText
  0
TEXT
  5
AEC
100
AcDbEntity
  8
TABELLA
  6
CONTINUOUS
100
AcDbText
 10
14.995942
 20
283.344752
 30
0.0
 40
4.0
  1
6
100
AcDbText
  0
LINE
  5
AED
100
AcDbEntity
  8
TABELLA
  6
CONTINUOUS
100
AcDbLine
 10
33.527782
 20
282.521992
 30
0.0
 11
33.527782
 21
287.521992
 31
0.0
  0
LINE
  5
AEE
100
AcDbEntity
  8
TABELLA
  6
CONTINUOUS
100
AcDbLine
 10
66.860782
 20
282.521992
 30
0.0
 11
66.860782
 21
287.521992
 31
0.0
  0
TEXT
  5
AEF
100
AcDbEntity
  8
TABELLA
  6
CONTINUOUS
100
AcDbText
 10
49.536788
 20
283.385562
 30
0.0
 40
4.0
  1
5
100
AcDbText
  0
TEXT
  5
AF0
100
AcDbEntity
  8
TABELLA
  6
CONTINUOUS
100
AcDbText
 10
194.622612
 20
56.413411
 30
0.0
 40
2.0
  1
Nota di revisione
 50
90.0
100
AcDbText
  0
LINE
  5
AF1
100
AcDbEntity
  8
TABELLA
  6
CONTINUOUS
100
AcDbLine
 10
195.194782
 20
5.521992
 30
0.0
 11
195.194782
 21
282.521992
 31
0.0
  0
LINE
  5
AF2
100
AcDbEntity
  8
TABELLA
  6
CONTINUOUS
100
AcDbLine
 10
191.193945
 20
165.522166
 30
0.0
 11
191.193945
 21
45.522166
 31
0.0
  0
TEXT
  5
AF3
100
AcDbEntity
  8
TABELLA
  6
CONTINUOUS
100
AcDbText
 10
149.830088
 20
0.273371
 30
0.0
 40
4.0
  1
2
100
AcDbText
  0
LINE
  5
AF4
100
AcDbEntity
  8
TABELLA
  6
CONTINUOUS
100
AcDbLine
 10
120.07927
 20
15.592352
 30
0.0
 11
195.194782
 21
15.521992
 31
0.0
  0
LINE
  5
AF5
100
AcDbEntity
  8
TABELLA
  6
CONTINUOUS
100
AcDbLine
 10
125.194782
 20
25.521992
 30
0.0
 11
195.194782
 21
25.521992
 31
0.0
  0
LINE
  5
AF6
100
AcDbEntity
  8
TABELLA
  6
CONTINUOUS
100
AcDbLine
 10
125.194782
 20
35.521992
 30
0.0
 11
195.194782
 21
35.521992
 31
0.0
  0
TEXT
  5
AF7
100
AcDbEntity
  8
TABELLA
  6
CONTINUOUS
100
AcDbText
 10
146.679886
 20
42.619768
 30
0.0
 40
2.0
  1
Trattamento Termico
100
AcDbText
  0
TEXT
  5
AF8
100
AcDbEntity
  8
DISEGNO
100
AcDbText
 10
121.383025
 20
7.133167
 30
0.0
 40
2.5
  1
M10-30 H70                   04/01/01       A 4
 41
1.1
100
AcDbText
  0
TEXT
  5
AF9
100
AcDbEntity
  8
DISEGNO
100
AcDbText
 10
121.383025
 20
16.681663
 30
0.0
 40
2.5
  1
MATRICE V=10 A 30°
 41
1.1
100
AcDbText
  0
TEXT
  5
AFA
100
AcDbEntity
  8
DISEGNO
100
AcDbText
 10
76.782758
 20
27.821574
 30
0.0
 40
2.5
  1
PARABOSCHI   GAZZOLA        ROLLERI M 04/01/01    1:1
 41
1.1
100
AcDbText
  0
TEXT
  5
AFB
100
AcDbEntity
  8
DISEGNO
100
AcDbText
 10
76.145611
 20
37.051786
 30
0.0
 40
2.5
  1
W 1.2311                         100X30 L1035              TEMPRA IND. 54HRC
 41
1.1
100
AcDbText
  0
TEXT
  5
AFC
100
AcDbEntity
  8
TABELLA
  6
CONTINUOUS
100
AcDbText
 10
101.343183
 20
32.224608
 30
0.0
 40
2.0
  1
Controllato da
100
AcDbText
  0
LINE
  5
AFD
100
AcDbEntity
  8
TABELLA
  6
CONTINUOUS
100
AcDbLine
 10
125.194782
 20
25.521992
 30
0.0
 11
75.194782
 21
25.521992
 31
0.0
  0
LINE
  5
AFE
100
AcDbEntity
  8
TABELLA
  6
CONTINUOUS
100
AcDbLine
 10
125.194782
 20
35.521992
 30
0.0
 11
75.194782
 21
35.521992
 31
0.0
  0
TEXT
  5
AFF
100
AcDbEntity
  8
TABELLA
  6
CONTINUOUS
100
AcDbText
 10
79.183533
 20
6.814217
 30
0.0
 40
2.0
  1
Vigolzone ( Piacenza ) - ITALIA
100
AcDbText
  0
LINE
  5
B00
100
AcDbEntity
  8
TABELLA
  6
CONTINUOUS
100
AcDbLine
 10
80.767773
 20
10.591489
 30
0.0
 11
113.767773
 21
10.591489
 31
0.0
1001
ACAD
1000
ASC_BOUNDS
1002
{
1070
    19
1002
}
  0
LINE
  5
B01
100
AcDbEntity
  8
TABELLA
  6
CONTINUOUS
100
AcDbLine
 10
115.819894
 20
23.747186
 30
0.0
 11
82.819894
 21
23.747186
 31
0.0
1001
ACAD
1000
ASC_BOUNDS
1002
{
1070
    19
1002
}
  0
LINE
  5
B02
100
AcDbEntity
  8
TABELLA
  6
CONTINUOUS
100
AcDbLine
 10
81.46798
 20
11.591489
 30
0.0
 11
113.067565
 21
11.591489
 31
0.0
1001
ACAD
1000
ASC_BOUNDS
1002
{
1070
    19
1002
}
  0
LINE
  5
B03
100
AcDbEntity
  8
TABELLA
  6
CONTINUOUS
100
AcDbLine
 10
115.119686
 20
22.747186
 30
0.0
 11
83.520101
 21
22.747186
 31
0.0
1001
ACAD
1000
ASC_BOUNDS
1002
{
1070
    19
1002
}
  0
TEXT
  5
B04
100
AcDbEntity
  8
TABELLA
  6
CONTINUOUS
100
AcDbText
 10
83.303944
 20
14.258508
 30
0.0
 40
6.0
  1
ROLLERI
100
AcDbText
  0
LINE
  5
B05
100
AcDbEntity
  8
TABELLA
  6
CONTINUOUS
100
AcDbLine
 10
82.819894
 20
23.747186
 30
0.0
 11
79.399692
 21
14.35026
 31
0.0
1001
ACAD
1000
ASC_BOUNDS
1002
{
1070
    19
1002
}
  0
TEXT
  5
B06
100
AcDbEntity
  8
TABELLA
  6
CONTINUOUS
100
AcDbText
 10
70.701274
 20
7.588952
 30
0.0
 40
1.5
  1
proprietà di questo disegno, con divieto
 50
90.0
100
AcDbText
  0
TEXT
  5
B07
100
AcDbEntity
  8
TABELLA
  6
CONTINUOUS
100
AcDbText
 10
73.551274
 20
7.588952
 30
0.0
 40
1.5
  1
di riprodurlo e di comunicarlo a terzi.
 50
90.0
100
AcDbText
  0
LINE
  5
B08
100
AcDbEntity
  8
TABELLA
  6
CONTINUOUS
100
AcDbLine
 10
75.20516
 20
45.521992
 30
0.0
 11
75.20516
 21
5.521992
 31
0.0
  0
LINE
  5
B09
100
AcDbEntity
  8
TABELLA
  6
CONTINUOUS
100
AcDbLine
 10
79.399692
 20
14.35026
 30
0.0
 11
80.767773
 21
10.591489
 31
0.0
1001
ACAD
1000
ASC_BOUNDS
1002
{
1070
    19
1002
}
  0
LINE
  5
B0A
100
AcDbEntity
  8
TABELLA
  6
CONTINUOUS
100
AcDbLine
 10
80.46387
 20
14.35026
 30
0.0
 11
81.46798
 21
11.591489
 31
0.0
1001
ACAD
1000
ASC_BOUNDS
1002
{
1070
    19
1002
}
  0
LINE
  5
B0B
100
AcDbEntity
  8
TABELLA
  6
CONTINUOUS
100
AcDbLine
 10
83.520101
 20
22.747186
 30
0.0
 11
80.46387
 21
14.35026
 31
0.0
1001
ACAD
1000
ASC_BOUNDS
1002
{
1070
    19
1002
}
  0
TEXT
  5
B0C
100
AcDbEntity
  8
TABELLA
  6
CONTINUOUS
100
AcDbText
 10
82.829169
 20
0.688993
 30
0.0
 40
4.0
  1
4
100
AcDbText
  0
LINE
  5
B0D
100
AcDbEntity
  8
TABELLA
  6
CONTINUOUS
100
AcDbLine
 10
100.193782
 20
0.521992
 30
0.0
 11
97.693782
 21
0.521992
 31
0.0
  0
LINE
  5
B0E
100
AcDbEntity
  8
TABELLA
  6
CONTINUOUS
100
AcDbLine
 10
100.193782
 20
5.521992
 30
0.0
 11
100.193782
 21
0.521992
 31
0.0
  0
LINE
  5
B0F
100
AcDbEntity
  8
TABELLA
  6
CONTINUOUS
100
AcDbLine
 10
97.693782
 20
0.521992
 30
0.0
 11
100.193782
 21
5.521992
 31
0.0
  0
LINE
  5
B10
100
AcDbEntity
  8
TABELLA
  6
CONTINUOUS
100
AcDbLine
 10
100.193782
 20
0.521992
 30
0.0
 11
102.693782
 21
0.521992
 31
0.0
  0
LINE
  5
B11
100
AcDbEntity
  8
TABELLA
  6
CONTINUOUS
100
AcDbLine
 10
100.193782
 20
5.521992
 30
0.0
 11
102.693782
 21
0.521992
 31
0.0
  0
TEXT
  5
B12
100
AcDbEntity
  8
TABELLA
  6
CONTINUOUS
100
AcDbText
 10
76.361736
 20
32.455612
 30
0.0
 40
2.0
  1
Disegnato da
100
AcDbText
  0
TEXT
  5
B13
100
AcDbEntity
  8
TABELLA
  6
CONTINUOUS
100
AcDbText
 10
76.593044
 20
42.619768
 30
0.0
 40
2.0
  1
Materiale
100
AcDbText
  0
LINE
  5
B14
100
AcDbEntity
  8
TABELLA
  6
CONTINUOUS
100
AcDbLine
 10
100.194782
 20
35.521992
 30
0.0
 11
100.194782
 21
25.521992
 31
0.0
  0
LINE
  5
B15
100
AcDbEntity
  8
TABELLA
  6
CONTINUOUS
100
AcDbLine
 10
120.194782
 20
25.521992
 30
0.0
 11
120.194782
 21
15.521992
 31
0.0
  0
LINE
  5
B16
100
AcDbEntity
  8
TABELLA
  6
CONTINUOUS
100
AcDbLine
 10
117.187974
 20
19.988415
 30
0.0
 11
115.819894
 21
23.747186
 31
0.0
1001
ACAD
1000
ASC_BOUNDS
1002
{
1070
    19
1002
}
  0
TEXT
  5
B17
100
AcDbEntity
  8
TABELLA
  6
CONTINUOUS
100
AcDbText
 10
121.235819
 20
22.522459
 30
0.0
 40
2.0
  1
Particolare
100
AcDbText
  0
TEXT
  5
B18
100
AcDbEntity
  8
TABELLA
  6
CONTINUOUS
100
AcDbText
 10
121.004509
 20
12.358302
 30
0.0
 40
2.0
  1
Disegno
100
AcDbText
  0
LINE
  5
B19
100
AcDbEntity
  8
TABELLA
  6
CONTINUOUS
100
AcDbLine
 10
113.767773
 20
10.591489
 30
0.0
 11
117.187974
 21
19.988415
 31
0.0
1001
ACAD
1000
ASC_BOUNDS
1002
{
1070
    19
1002
}
  0
LINE
  5
B1A
100
AcDbEntity
  8
TABELLA
  6
CONTINUOUS
100
AcDbLine
 10
113.067565
 20
11.591489
 30
0.0
 11
116.123796
 21
19.988415
 31
0.0
1001
ACAD
1000
ASC_BOUNDS
1002
{
1070
    19
1002
}
  0
LINE
  5
B1B
100
AcDbEntity
  8
TABELLA
  6
CONTINUOUS
100
AcDbLine
 10
116.123796
 20
19.988415
 30
0.0
 11
115.119686
 21
22.747186
 31
0.0
1001
ACAD
1000
ASC_BOUNDS
1002
{
1070
    19
1002
}
  0
TEXT
  5
B1C
100
AcDbEntity
  8
TABELLA
  6
CONTINUOUS
100
AcDbText
 10
116.121551
 20
0.273371
 30
0.0
 40
4.0
  1
3
100
AcDbText
  0
LINE
  5
B1D
100
AcDbEntity
  8
TABELLA
  6
CONTINUOUS
100
AcDbLine
 10
120.194782
 20
15.521992
 30
0.0
 11
120.194782
 21
5.521992
 31
0.0
  0
LINE
  5
B1E
100
AcDbEntity
  8
TABELLA
  6
CONTINUOUS
100
AcDbLine
 10
133.526782
 20
5.521992
 30
0.0
 11
133.526782
 21
0.521992
 31
0.0
  0
TEXT
  5
B1F
100
AcDbEntity
  8
TABELLA
  6
CONTINUOUS
100
AcDbText
 10
126.324633
 20
32.224608
 30
0.0
 40
2.0
  1
Approvato da - data
100
AcDbText
  0
TEXT
  5
B20
100
AcDbEntity
  8
TABELLA
  6
CONTINUOUS
100
AcDbText
 10
116.378315
 20
42.619768
 30
0.0
 40
2.0
  1
Dimensioni di prelievo
100
AcDbText
  0
LINE
  5
B21
100
AcDbEntity
  8
TABELLA
  6
CONTINUOUS
100
AcDbLine
 10
125.194782
 20
35.521992
 30
0.0
 11
125.194782
 21
25.521992
 31
0.0
  0
LINE
  5
B22
100
AcDbEntity
  8
TABELLA
  6
CONTINUOUS
100
AcDbLine
 10
115.194782
 20
35.521992
 30
0.0
 11
115.194782
 21
45.521992
 31
0.0
  0
TEXT
  5
B23
100
AcDbEntity
  8
QUOTE
100
AcDbText
 10
112.825021
 20
52.14873
 30
0.0
 40
2.5
  1
2
 41
1.1
100
AcDbText
  0
LINE
  5
B24
100
AcDbEntity
  8
TABELLA
  6
CONTINUOUS
100
AcDbLine
 10
145.194782
 20
35.521992
 30
0.0
 11
145.194782
 21
45.521992
 31
0.0
  0
LINE
  5
B25
100
AcDbEntity
  8
TABELLA
  6
CONTINUOUS
100
AcDbLine
 10
191.193945
 20
55.522166
 30
0.0
 11
195.194782
 21
55.522166
 31
0.0
  0
LINE
  5
B26
100
AcDbEntity
  8
TABELLA
  6
CONTINUOUS
100
AcDbLine
 10
176.160129
 20
30.609106
 30
0.0
 11
194.086631
 21
30.609106
 31
0.0
  0
TEXT
  5
B27
100
AcDbEntity
  8
TABELLA
  6
CONTINUOUS
100
AcDbText
 10
194.414534
 20
46.438502
 30
0.0
 40
2.0
  1
N° rev.
 50
90.0
100
AcDbText
  0
LINE
  5
B28
100
AcDbEntity
  8
TABELLA
  6
CONTINUOUS
100
AcDbLine
 10
166.859782
 20
5.521992
 30
0.0
 11
166.859782
 21
0.521992
 31
0.0
  0
LINE
  5
B29
100
AcDbEntity
  8
TABELLA
  6
CONTINUOUS
100
AcDbLine
 10
160.194782
 20
15.521992
 30
0.0
 11
160.194782
 21
5.521992
 31
0.0
  0
TEXT
  5
B2A
100
AcDbEntity
  8
TABELLA
  6
CONTINUOUS
100
AcDbText
 10
161.483709
 20
12.358302
 30
0.0
 40
2.0
  1
Data
100
AcDbText
  0
TEXT
  5
B2B
100
AcDbEntity
  8
TABELLA
  6
CONTINUOUS
100
AcDbText
 10
181.376343
 20
12.127299
 30
0.0
 40
2.0
  1
Formato
100
AcDbText
  0
TEXT
  5
B2C
100
AcDbEntity
  8
TABELLA
  6
CONTINUOUS
100
AcDbText
 10
183.954779
 20
0.273371
 30
0.0
 40
4.0
  1
1
100
AcDbText
  0
LINE
  5
B2D
100
AcDbEntity
  8
TABELLA
  6
CONTINUOUS
100
AcDbLine
 10
180.194782
 20
15.521992
 30
0.0
 11
180.194782
 21
5.521992
 31
0.0
  0
LINE
  5
B2E
100
AcDbEntity
  8
TABELLA
  6
CONTINUOUS
100
AcDbLine
 10
160.194782
 20
35.521992
 30
0.0
 11
160.194782
 21
25.521992
 31
0.0
  0
TEXT
  5
B2F
100
AcDbEntity
  8
TABELLA
  6
CONTINUOUS
100
AcDbText
 10
161.252398
 20
32.224608
 30
0.0
 40
2.0
  1
Scala
100
AcDbText
  0
LINE
  5
B30
100
AcDbEntity
  8
TABELLA
  6
CONTINUOUS
100
AcDbLine
 10
187.240383
 20
30.609106
 30
0.0
 11
191.449183
 21
30.609106
 31
0.0
  0
LINE
  5
B31
100
AcDbEntity
  8
TABELLA
  6
CONTINUOUS
100
AcDbLine
 10
182.068976
 20
33.150995
 30
0.0
 11
182.068976
 21
28.067217
 31
0.0
  0
CIRCLE
  5
B32
100
AcDbEntity
  8
TABELLA
  6
CONTINUOUS
100
AcDbCircle
 10
189.344783
 20
30.609106
 30
0.0
 40
2.54
  0
LINE
  5
B33
100
AcDbEntity
  8
TABELLA
  6
CONTINUOUS
100
AcDbLine
 10
189.344783
 20
28.504706
 30
0.0
 11
189.344783
 21
32.713506
 31
0.0
  0
CIRCLE
  5
B34
100
AcDbEntity
  8
TABELLA
  6
CONTINUOUS
100
AcDbCircle
 10
189.344783
 20
30.609106
 30
0.0
 40
1.5
  0
LINE
  5
B35
100
AcDbEntity
  8
TABELLA
  6
CONTINUOUS
100
AcDbLine
 10
175.194782
 20
35.521992
 30
0.0
 11
175.194782
 21
25.521992
 31
0.0
  0
LINE
  5
B36
100
AcDbEntity
  8
TABELLA
  6
CONTINUOUS
100
AcDbLine
 10
176.160129
 20
32.109106
 30
0.0
 11
176.160129
 21
29.109106
 31
0.0
  0
LINE
  5
B37
100
AcDbEntity
  8
TABELLA
  6
CONTINUOUS
100
AcDbLine
 10
176.160129
 20
29.109106
 30
0.0
 11
182.068976
 21
28.067217
 31
0.0
  0
LINE
  5
B38
100
AcDbEntity
  8
TABELLA
  6
CONTINUOUS
100
AcDbLine
 10
176.160129
 20
32.109106
 30
0.0
 11
182.068976
 21
33.150995
 31
0.0
  0
LINE
  5
B39
100
AcDbEntity
  8
TABELLA
  6
CONTINUOUS
100
AcDbLine
 10
195.194782
 20
5.521992
 30
0.0
 11
195.194782
 21
35.521992
 31
0.0
  0
TEXT
  5
B3A
100
AcDbEntity
  8
TABELLA
  6
CONTINUOUS
100
AcDbText
 10
196.439422
 20
14.820116
 30
0.0
 40
4.0
  1
A
100
AcDbText
  0
LINE
  5
B3B
100
AcDbEntity
  8
TABELLA
  6
CONTINUOUS
100
AcDbLine
 10
195.194782
 20
36.396992
 30
0.0
 11
200.194782
 21
36.396992
 31
0.0
  0
TEXT
  5
B3C
100
AcDbEntity
  8
TABELLA
  6
CONTINUOUS
100
AcDbText
 10
196.439422
 20
51.394788
 30
0.0
 40
4.0
  1
B
100
AcDbText
  0
DIMENSION
  5
B3D
100
AcDbEntity
  8
QUOTE
100
AcDbDimension
  2
*D28
 10
100.759654
 20
190.986672
 30
0.0
 11
100.373284
 21
242.700914
 31
0.0
 12
1940.429147
 22
1659.559384
 32
0.0
 70
     2
  3
STANDARD
100
AcDb2LineAngularDimension
 13
105.093148
 23
210.043398
 33
0.0
 14
99.986914
 24
190.986672
 34
0.0
 15
95.65342
 25
210.043398
 35
0.0
 16
104.569597
 26
240.392699
 36
0.0
1001
ACAD
1000
DSTYLE
1002
{
1070
   141
1040
0.0
1002
}
  0
DIMENSION
  5
B3E
100
AcDbEntity
  8
QUOTE
100
AcDbDimension
  2
*D27
 10
105.093148
 20
231.647732
 30
0.0
 11
121.799423
 21
231.647732
 31
0.0
 12
1940.429147
 22
1659.559384
 32
0.0
 70
   128
  3
TOLL-09
100
AcDbAlignedDimension
 13
95.65342
 23
210.043398
 33
0.0
 14
105.093148
 24
210.043398
 34
0.0
100
AcDbRotatedDimension
1001
ACAD
1000
DSTYLE
1002
{
1070
   141
1040
0.0
1002
}
  0
LEADER
  5
B3F
100
AcDbEntity
  8
QUOTE
100
AcDbLeader
  3
STANDARD
 73
     0
 74
     0
 75
     1
 40
3.0
 41
37.773777
 76
     3
 10
108.213441
 20
210.081374
 30
0.0
 10
124.261294
 20
225.538621
 30
0.0
 10
126.761294
 20
225.538621
 30
0.0
 77
   256
1001
ACAD
1000
DSTYLE
1002
{
1070
   141
1040
0.0
1002
}
  0
DIMENSION
  5
B40
100
AcDbEntity
  8
QUOTE
100
AcDbDimension
  2
*D24
 10
160.706703
 20
119.243398
 30
0.0
 11
156.730522
 21
164.643398
 31
0.0
 12
1940.429147
 22
1659.559384
 32
0.0
  3
TOLL-08
100
AcDbAlignedDimension
 13
110.673284
 23
210.043398
 33
0.0
 14
107.173284
 24
119.243398
 34
0.0
 50
90.0
100
AcDbRotatedDimension
1001
ACAD
1000
DSTYLE
1002
{
1070
   141
1040
0.0
1002
}
  0
DIMENSION
  5
B41
100
AcDbEntity
  8
QUOTE
100
AcDbDimension
  2
*D26
 10
91.43045
 20
142.693339
 30
0.0
 11
96.225672
 21
150.494182
 31
0.0
 12
1940.429147
 22
1659.559384
 32
0.0
 70
     1
  3
STANDARD
100
AcDbAlignedDimension
 13
92.15907
 23
139.243398
 33
0.0
 14
93.51973
 24
140.604059
 34
0.0
1001
ACAD
1000
DSTYLE
1002
{
1070
   141
1040
0.0
1002
}
  0
DIMENSION
  5
B42
100
AcDbEntity
  8
QUOTE
100
AcDbDimension
  2
*D20
 10
78.979855
 20
145.743398
 30
0.0
 11
78.979855
 21
129.168426
 31
0.0
 12
1940.429147
 22
1659.559384
 32
0.0
 70
   128
  3
STANDARD
100
AcDbAlignedDimension
 13
87.573284
 23
149.343398
 33
0.0
 14
87.573284
 24
145.743398
 34
0.0
 50
90.0
100
AcDbRotatedDimension
1001
ACAD
1000
DSTYLE
1002
{
1070
   141
1040
0.0
1002
}
  0
DIMENSION
  5
B43
100
AcDbEntity
  8
QUOTE
100
AcDbDimension
  2
*D19
 10
71.970093
 20
147.543398
 30
0.0
 11
69.845093
 21
143.393398
 31
0.0
 12
1940.429147
 22
1659.559384
 32
0.0
  3
STANDARD
100
AcDbAlignedDimension
 13
87.573284
 23
139.243398
 33
0.0
 14
75.076854
 24
147.543398
 34
0.0
 50
90.0
100
AcDbRotatedDimension
1001
ACAD
1000
DSTYLE
1002
{
1070
   141
1040
0.0
1002
}
  0
DIMENSION
  5
B44
100
AcDbEntity
  8
QUOTE
100
AcDbDimension
  2
*D18
 10
87.573284
 20
85.416396
 30
0.0
 11
100.373284
 21
89.392578
 31
0.0
 12
1940.429147
 22
1659.559384
 32
0.0
  3
TOLL-08
100
AcDbAlignedDimension
 13
113.173284
 23
139.243398
 33
0.0
 14
87.573284
 24
139.243398
 34
0.0
100
AcDbRotatedDimension
1001
ACAD
1000
DSTYLE
1002
{
1070
   141
1040
0.0
1002
}
  0
DIMENSION
  5
B45
100
AcDbEntity
  8
QUOTE
100
AcDbDimension
  2
*D16
 10
143.608577
 20
119.243398
 30
0.0
 11
141.483577
 21
129.243398
 31
0.0
 12
1940.429147
 22
1659.559384
 32
0.0
  3
STANDARD
100
AcDbAlignedDimension
 13
113.173284
 23
139.243398
 33
0.0
 14
107.173284
 24
119.243398
 34
0.0
 50
90.0
100
AcDbRotatedDimension
1001
ACAD
1000
DSTYLE
1002
{
1070
   141
1040
0.0
1002
}
  0
LINE
  5
B46
100
AcDbEntity
  8
ASSI
100
AcDbLine
 10
100.373284
 20
138.467638
 30
0.0
 11
100.373284
 21
90.629208
 31
0.0
  0
LINE
  5
B47
100
AcDbEntity
  8
DISEGNO
100
AcDbLine
 10
107.173284
 20
137.829185
 30
0.0
 11
105.812624
 21
139.189845
 31
0.0
  0
LINE
  5
B48
100
AcDbEntity
  8
DISEGNO
100
AcDbLine
 10
93.573284
 20
137.829185
 30
0.0
 11
94.933944
 21
139.189845
 31
0.0
  0
DIMENSION
  5
B49
100
AcDbEntity
  8
QUOTE
100
AcDbDimension
  2
*D15
 10
107.173284
 20
97.831474
 30
0.0
 11
125.469987
 21
97.831474
 31
0.0
 12
1940.429147
 22
1659.559384
 32
0.0
 70
   128
  3
TOLL-08
100
AcDbAlignedDimension
 13
93.573284
 23
119.243398
 33
0.0
 14
107.173284
 24
119.243398
 34
0.0
100
AcDbRotatedDimension
1001
ACAD
1000
DSTYLE
1002
{
1070
   141
1040
0.0
1002
}
  0
TEXT
  5
B4A
100
AcDbEntity
  8
DISEGNO
100
AcDbText
 10
100.248551
 20
65.50228
 30
0.0
 40
3.0
  1
 L=1030
 41
1.1
100
AcDbText
  0
TEXT
  5
B4B
100
AcDbEntity
  8
QUOTE
100
AcDbText
 10
94.553112
 20
95.084612
 30
0.0
 40
2.5
  1
=       =
 41
1.1
100
AcDbText
  0
TEXT
  5
B4C
100
AcDbEntity
  8
QUOTE
100
AcDbText
 10
94.234486
 20
82.032864
 30
0.0
 40
2.5
  1
=       =
 41
1.1
100
AcDbText
  0
LINE
  5
B4D
100
AcDbEntity
  8
ASSI
100
AcDbLine
 10
100.373284
 20
83.945261
 30
0.0
 11
100.373284
 21
82.622547
 31
0.0
  0
LINE
  5
B4E
100
AcDbEntity
  8
DISEGNO
100
AcDbLine
 10
105.673284
 20
119.243398
 30
0.0
 11
107.173284
 21
120.743398
 31
0.0
  0
LINE
  5
B4F
100
AcDbEntity
  8
DISEGNO
100
AcDbLine
 10
93.573284
 20
120.743398
 30
0.0
 11
95.073284
 21
119.243398
 31
0.0
  0
LINE
  5
B50
100
AcDbEntity
  8
DISEGNO
100
AcDbLine
 10
93.573284
 20
137.829185
 30
0.0
 11
93.573284
 21
120.743398
 31
0.0
  0
LINE
  5
B51
100
AcDbEntity
  8
DISEGNO
100
AcDbLine
 10
107.173284
 20
120.743398
 30
0.0
 11
107.173284
 21
137.829185
 31
0.0
  0
LINE
  5
B52
100
AcDbEntity
  8
DISEGNO
100
AcDbLine
 10
95.073284
 20
119.243398
 30
0.0
 11
105.673284
 21
119.243398
 31
0.0
  0
INSERT
  5
B53
100
AcDbEntity
  8
TEMPRA
100
AcDbBlockReference
  2
*X29
 10
1940.429147
 20
1659.559384
 30
0.0
1001
ACAD
1000
HATCH
1002
{
1070
    19
1000
ANSI31
1040
1.0
1040
0.0
1000
ASC_BOUNDS
1070
     2
1070
     1
1070
     5
1005
B78
1005
B57
1005
B6E
1005
B54
1005
B72
1070
     1
1070
     5
1005
B70
1005
B6D
1005
B5A
1005
B6C
1005
B6F
1000
ASC_SEEDPOINT
1011
93.284117
1021
207.714768
1031
0.0
1002
}
  0
LINE
  5
B54
100
AcDbEntity
  8
TEMPRA
100
AcDbLine
 10
110.673284
 20
207.714768
 30
0.0
 11
103.657531
 21
204.685602
 31
0.0
1001
ACAD
1000
ASC_BOUNDS
1002
{
1070
    19
1005
B53
1002
}
  0
DIMENSION
  5
B55
100
AcDbEntity
  8
QUOTE
100
AcDbDimension
  2
*D25
 10
104.417472
 20
143.413424
 30
0.0
 11
107.458527
 21
149.460101
 31
0.0
 12
1940.429147
 22
1659.559384
 32
0.0
 70
     1
  3
STANDARD
100
AcDbAlignedDimension
 13
105.812624
 23
139.189845
 33
0.0
 14
107.226837
 24
140.604059
 34
0.0
1001
ACAD
1000
DSTYLE
1002
{
1070
   141
1040
0.0
1002
}
  0
DIMENSION
  5
B56
100
AcDbEntity
  8
QUOTE
100
AcDbDimension
  2
*D22
 10
90.073284
 20
173.598748
 30
0.0
 11
80.731694
 21
173.598748
 31
0.0
 12
1940.429147
 22
1659.559384
 32
0.0
 70
   128
  3
TOLL-08
100
AcDbAlignedDimension
 13
110.673284
 23
174.553754
 33
0.0
 14
90.073284
 24
173.917083
 34
0.0
100
AcDbRotatedDimension
1001
ACAD
1000
DSTYLE
1002
{
1070
   141
1040
0.0
1002
}
  0
LINE
  5
B57
100
AcDbEntity
  8
DISEGNO
100
AcDbLine
 10
105.093148
 20
210.043398
 30
0.0
 11
109.673284
 21
210.043398
 31
0.0
1001
ACAD
1000
ASC_BOUNDS
1002
{
1070
    19
1005
B53
1002
}
  0
LINE
  5
B58
100
AcDbEntity
  8
DISEGNO
100
AcDbLine
 10
108.587497
 20
139.243398
 30
0.0
 11
111.673284
 21
139.243398
 31
0.0
  0
LINE
  5
B59
100
AcDbEntity
  8
ASSI
100
AcDbLine
 10
100.373284
 20
214.141214
 30
0.0
 11
100.373284
 21
147.061285
 31
0.0
  0
LINE
  5
B5A
100
AcDbEntity
  8
DISEGNO
100
AcDbLine
 10
90.073284
 20
209.043398
 30
0.0
 11
90.073284
 21
154.543398
 31
0.0
1001
ACAD
1000
ASC_BOUNDS
1002
{
1070
    19
1005
B53
1002
}
  0
LINE
  5
B5B
100
AcDbEntity
  8
DISEGNO
100
AcDbLine
 10
87.573284
 20
153.543398
 30
0.0
 11
88.573284
 21
154.543398
 31
0.0
  0
LINE
  5
B5C
100
AcDbEntity
  8
DISEGNO
100
AcDbLine
 10
87.573284
 20
140.743398
 30
0.0
 11
89.073284
 21
139.243398
 31
0.0
  0
LINE
  5
B5D
100
AcDbEntity
  8
DISEGNO
100
AcDbLine
 10
87.573284
 20
145.743398
 30
0.0
 11
89.373284
 21
147.543398
 31
0.0
  0
LINE
  5
B5E
100
AcDbEntity
  8
DISEGNO
100
AcDbLine
 10
87.573284
 20
149.343398
 30
0.0
 11
89.373284
 21
147.543398
 31
0.0
  0
LINE
  5
B5F
100
AcDbEntity
  8
ASSI
100
AcDbLine
 10
94.873284
 20
147.543398
 30
0.0
 11
79.872211
 21
147.543398
 31
0.0
  0
LINE
  5
B60
100
AcDbEntity
  8
DISEGNO
100
AcDbLine
 10
87.573284
 20
153.543398
 30
0.0
 11
87.573284
 21
149.343398
 31
0.0
1001
ACAD
1000
ASC_BOUNDS
1002
{
1070
    19
1002
}
  0
LINE
  5
B61
100
AcDbEntity
  8
ASSI
100
AcDbLine
 10
75.571471
 20
147.543398
 30
0.0
 11
75.076854
 21
147.543398
 31
0.0
  0
LINE
  5
B62
100
AcDbEntity
  8
DISEGNO
100
AcDbLine
 10
87.573284
 20
145.743398
 30
0.0
 11
87.573284
 21
140.743398
 31
0.0
  0
TEXT
  5
B63
100
AcDbEntity
  8
QUOTE
100
AcDbText
 10
94.818037
 20
171.528422
 30
0.0
 40
2.5
  1
=     =
 41
1.1
100
AcDbText
  0
LINE
  5
B64
100
AcDbEntity
  8
DISEGNO
100
AcDbLine
 10
90.073284
 20
154.543398
 30
0.0
 11
88.573284
 21
154.543398
 31
0.0
  0
LINE
  5
B65
100
AcDbEntity
  8
DISEGNO
100
AcDbLine
 10
105.812624
 20
139.189845
 30
0.0
 11
107.226837
 21
140.604059
 31
0.0
  0
LINE
  5
B66
100
AcDbEntity
  8
DISEGNO
100
AcDbLine
 10
108.587497
 20
139.243398
 30
0.0
 11
107.226837
 21
140.604059
 31
0.0
  0
LINE
  5
B67
100
AcDbEntity
  8
DISEGNO
100
AcDbLine
 10
94.933944
 20
139.189845
 30
0.0
 11
93.51973
 21
140.604059
 31
0.0
  0
LINE
  5
B68
100
AcDbEntity
  8
DISEGNO
100
AcDbLine
 10
92.15907
 20
139.243398
 30
0.0
 11
93.51973
 21
140.604059
 31
0.0
  0
LINE
  5
B69
100
AcDbEntity
  8
DISEGNO
100
AcDbLine
 10
89.073284
 20
139.243398
 30
0.0
 11
92.15907
 21
139.243398
 31
0.0
  0
DIMENSION
  5
B6A
100
AcDbEntity
  8
QUOTE
100
AcDbDimension
  2
*D30
 10
100.373284
 20
196.292329
 30
0.0
 11
93.859147
 21
190.764466
 31
0.0
 12
1940.429147
 22
1659.559384
 32
0.0
 70
     4
  3
STANDARD
100
AcDbRadialDimension
 15
99.795711
 25
195.47599
 35
0.0
 40
0.0
1001
ACAD
1000
DSTYLE
1002
{
1070
   141
1040
0.0
1002
}
  0
ARC
  5
B6B
100
AcDbEntity
  8
DISEGNO
100
AcDbCircle
 10
100.373284
 20
196.292329
 30
0.0
 40
1.0
100
AcDbArc
 50
195.0
 51
345.0
1001
ACAD
1000
ASC_BOUNDS
1002
{
1070
    19
1005
B53
1002
}
  0
LINE
  5
B6C
100
AcDbEntity
  8
TEMPRA
100
AcDbLine
 10
90.073284
 20
207.714768
 30
0.0
 11
97.089037
 21
204.685602
 31
0.0
1001
ACAD
1000
ASC_BOUNDS
1002
{
1070
    19
1005
B53
1002
}
  0
LINE
  5
B6D
100
AcDbEntity
  8
DISEGNO
100
AcDbLine
 10
90.073284
 20
209.043398
 30
0.0
 11
91.073284
 21
210.043398
 31
0.0
1001
ACAD
1000
ASC_BOUNDS
1002
{
1070
    19
1005
B53
1002
}
  0
LINE
  5
B6E
100
AcDbEntity
  8
DISEGNO
100
AcDbLine
 10
105.093148
 20
210.043398
 30
0.0
 11
101.33921
 21
196.03351
 31
0.0
1001
ACAD
1000
ASC_BOUNDS
1002
{
1070
    19
1005
B53
1002
}
  0
LINE
  5
B6F
100
AcDbEntity
  8
DISEGNO
100
AcDbLine
 10
95.65342
 20
210.043398
 30
0.0
 11
99.407358
 21
196.03351
 31
0.0
1001
ACAD
1000
ASC_BOUNDS
1002
{
1070
    19
1005
B53
1002
}
  0
LINE
  5
B70
100
AcDbEntity
  8
DISEGNO
100
AcDbLine
 10
91.073284
 20
210.043398
 30
0.0
 11
95.65342
 21
210.043398
 31
0.0
1001
ACAD
1000
ASC_BOUNDS
1002
{
1070
    19
1005
B53
1002
}
  0
DIMENSION
  5
B71
100
AcDbEntity
  8
QUOTE
100
AcDbDimension
  2
*D23
 10
143.500925
 20
139.243398
 30
0.0
 11
139.524744
 21
174.643398
 31
0.0
 12
1940.429147
 22
1659.559384
 32
0.0
  3
TOLL-08
100
AcDbAlignedDimension
 13
110.673284
 23
210.043398
 33
0.0
 14
113.173284
 24
139.243398
 34
0.0
 50
90.0
100
AcDbRotatedDimension
1001
ACAD
1000
DSTYLE
1002
{
1070
   141
1040
0.0
1002
}
  0
LINE
  5
B72
100
AcDbEntity
  8
DISEGNO
100
AcDbLine
 10
110.673284
 20
154.543398
 30
0.0
 11
110.673284
 21
209.043398
 31
0.0
1001
ACAD
1000
ASC_BOUNDS
1002
{
1070
    19
1005
B53
1002
}
  0
LINE
  5
B73
100
AcDbEntity
  8
DISEGNO
100
AcDbLine
 10
112.173284
 20
154.543398
 30
0.0
 11
113.173284
 21
153.543398
 31
0.0
1001
ACAD
1000
ASC_BOUNDS
1002
{
1070
    19
1002
}
  0
LINE
  5
B74
100
AcDbEntity
  8
DISEGNO
100
AcDbLine
 10
111.673284
 20
139.243398
 30
0.0
 11
113.173284
 21
140.743398
 31
0.0
1001
ACAD
1000
ASC_BOUNDS
1002
{
1070
    19
1002
}
  0
DIMENSION
  5
B75
100
AcDbEntity
  8
QUOTE
100
AcDbDimension
  2
*D17
 10
127.064078
 20
154.543398
 30
0.0
 11
124.939078
 21
146.893398
 31
0.0
 12
1940.429147
 22
1659.559384
 32
0.0
  3
STANDARD
100
AcDbAlignedDimension
 13
113.173284
 23
139.243398
 33
0.0
 14
113.173284
 24
154.543398
 34
0.0
 50
90.0
100
AcDbRotatedDimension
1001
ACAD
1000
DSTYLE
1002
{
1070
   141
1040
0.0
1002
}
  0
LINE
  5
B76
100
AcDbEntity
  8
DISEGNO
100
AcDbLine
 10
112.173284
 20
154.543398
 30
0.0
 11
110.673284
 21
154.543398
 31
0.0
  0
LINE
  5
B77
100
AcDbEntity
  8
DISEGNO
100
AcDbLine
 10
113.173284
 20
140.743398
 30
0.0
 11
113.173284
 21
153.543398
 31
0.0
1001
ACAD
1000
ASC_BOUNDS
1002
{
1070
    19
1002
}
  0
LINE
  5
B78
100
AcDbEntity
  8
DISEGNO
100
AcDbLine
 10
110.673284
 20
209.043398
 30
0.0
 11
109.673284
 21
210.043398
 31
0.0
1001
ACAD
1000
ASC_BOUNDS
1002
{
1070
    19
1005
B53
1002
}
  0
LINE
  5
B79
100
AcDbEntity
  8
TABELLA
  6
CONTINUOUS
100
AcDbLine
 10
191.193945
 20
130.522166
 30
0.0
 11
195.194782
 21
130.522166
 31
0.0
  0
TEXT
  5
B7A
100
AcDbEntity
  8
TABELLA
  6
CONTINUOUS
100
AcDbText
 10
194.622612
 20
131.119442
 30
0.0
 40
2.0
  1
Data
 50
90.0
100
AcDbText
  0
TEXT
  5
B7B
100
AcDbEntity
  8
TABELLA
  6
CONTINUOUS
100
AcDbText
 10
196.855577
 20
87.59465
 30
0.0
 40
4.0
  1
C
100
AcDbText
  0
LINE
  5
B7C
100
AcDbEntity
  8
TABELLA
  6
CONTINUOUS
100
AcDbLine
 10
195.194782
 20
72.271992
 30
0.0
 11
200.194782
 21
72.271992
 31
0.0
  0
TEXT
  5
B7D
100
AcDbEntity
  8
TABELLA
  6
CONTINUOUS
100
AcDbText
 10
196.855577
 20
123.7537
 30
0.0
 40
4.0
  1
D
100
AcDbText
  0
LINE
  5
B7E
100
AcDbEntity
  8
TABELLA
  6
CONTINUOUS
100
AcDbLine
 10
195.194782
 20
108.146992
 30
0.0
 11
200.194782
 21
108.146992
 31
0.0
  0
LINE
  5
B7F
100
AcDbEntity
  8
TABELLA
  6
CONTINUOUS
100
AcDbLine
 10
191.193945
 20
165.522166
 30
0.0
 11
195.194782
 21
165.522166
 31
0.0
  0
LINE
  5
B80
100
AcDbEntity
  8
TABELLA
  6
CONTINUOUS
100
AcDbLine
 10
191.193945
 20
155.522166
 30
0.0
 11
195.194782
 21
155.522166
 31
0.0
  0
LINE
  5
B81
100
AcDbEntity
  8
TABELLA
  6
CONTINUOUS
100
AcDbLine
 10
191.193945
 20
145.522166
 30
0.0
 11
195.194782
 21
145.522166
 31
0.0
  0
TEXT
  5
B82
100
AcDbEntity
  8
TABELLA
  6
CONTINUOUS
100
AcDbText
 10
194.622612
 20
146.163427
 30
0.0
 40
2.0
  1
Firma
 50
90.0
100
AcDbText
  0
TEXT
  5
B83
100
AcDbEntity
  8
TABELLA
  6
CONTINUOUS
100
AcDbText
 10
194.622612
 20
155.930524
 30
0.0
 40
2.0
  1
Control.
 50
90.0
100
AcDbText
  0
TEXT
  5
B84
100
AcDbEntity
  8
TABELLA
  6
CONTINUOUS
100
AcDbText
 10
196.855577
 20
158.454318
 30
0.0
 40
4.0
  1
E
100
AcDbText
  0
LINE
  5
B85
100
AcDbEntity
  8
TABELLA
  6
CONTINUOUS
100
AcDbLine
 10
200.194782
 20
144.021992
 30
0.0
 11
200.194782
 21
146.521992
 31
0.0
  0
LINE
  5
B86
100
AcDbEntity
  8
TABELLA
  6
CONTINUOUS
100
AcDbLine
 10
195.194782
 20
144.021992
 30
0.0
 11
200.194782
 21
144.021992
 31
0.0
  0
LINE
  5
B87
100
AcDbEntity
  8
TABELLA
  6
CONTINUOUS
100
AcDbLine
 10
195.194782
 20
144.021992
 30
0.0
 11
200.194782
 21
146.521992
 31
0.0
  0
LINE
  5
B88
100
AcDbEntity
  8
TABELLA
  6
CONTINUOUS
100
AcDbLine
 10
200.194782
 20
144.021992
 30
0.0
 11
200.194782
 21
141.521992
 31
0.0
  0
LINE
  5
B89
100
AcDbEntity
  8
TABELLA
  6
CONTINUOUS
100
AcDbLine
 10
200.194782
 20
141.521992
 30
0.0
 11
195.194782
 21
144.021992
 31
0.0
  0
TEXT
  5
B8A
100
AcDbEntity
  8
TABELLA
  6
CONTINUOUS
100
AcDbText
 10
197.271732
 20
195.444612
 30
0.0
 40
4.0
  1
F
100
AcDbText
  0
LINE
  5
B8B
100
AcDbEntity
  8
TABELLA
  6
CONTINUOUS
100
AcDbLine
 10
195.194782
 20
179.896992
 30
0.0
 11
200.194782
 21
179.896992
 31
0.0
  0
TEXT
  5
B8C
100
AcDbEntity
  8
TABELLA
  6
CONTINUOUS
100
AcDbText
 10
149.83009
 20
283.385562
 30
0.0
 40
4.0
  1
2
100
AcDbText
  0
MTEXT
  5
B8D
100
AcDbEntity
  8
QUOTE
100
AcDbMText
 10
127.386294
 20
226.163621
 30
0.0
 40
3.0
 41
0.0
 71
     7
 72
     1
  1
{TEMPRA IND. 54HRC}
  0
TEXT
  5
B8E
100
AcDbEntity
  8
QUOTE
100
AcDbText
 10
97.41306
 20
227.830031
 30
0.0
 40
2.5
  1
=  =
 41
1.1
100
AcDbText
  0
LINE
  5
B8F
100
AcDbEntity
  8
ASSI
100
AcDbLine
 10
100.373284
 20
224.805332
 30
0.0
 11
100.373284
 21
221.70044
 31
0.0
  0
LINE
  5
B90
100
AcDbEntity
  8
ASSI
100
AcDbLine
 10
100.373284
 20
238.305942
 30
0.0
 11
100.373284
 21
232.125845
 31
0.0
  0
TEXT
  5
B91
100
AcDbEntity
  8
TABELLA
  6
CONTINUOUS
100
AcDbText
 10
83.245325
 20
283.385562
 30
0.0
 40
4.0
  1
4
100
AcDbText
  0
LINE
  5
B92
100
AcDbEntity
  8
TABELLA
  6
CONTINUOUS
100
AcDbLine
 10
100.193782
 20
287.521992
 30
0.0
 11
97.693782
 21
287.521992
 31
0.0
  0
LINE
  5
B93
100
AcDbEntity
  8
TABELLA
  6
CONTINUOUS
100
AcDbLine
 10
100.193782
 20
282.521992
 30
0.0
 11
100.193782
 21
287.521992
 31
0.0
  0
LINE
  5
B94
100
AcDbEntity
  8
TABELLA
  6
CONTINUOUS
100
AcDbLine
 10
100.193782
 20
282.521992
 30
0.0
 11
97.693782
 21
287.521992
 31
0.0
  0
LINE
  5
B95
100
AcDbEntity
  8
TABELLA
  6
CONTINUOUS
100
AcDbLine
 10
100.193782
 20
287.521992
 30
0.0
 11
102.693782
 21
287.521992
 31
0.0
  0
LINE
  5
B96
100
AcDbEntity
  8
TABELLA
  6
CONTINUOUS
100
AcDbLine
 10
102.693782
 20
287.521992
 30
0.0
 11
100.193782
 21
282.521992
 31
0.0
  0
TEXT
  5
B97
100
AcDbEntity
  8
TABELLA
  6
CONTINUOUS
100
AcDbText
 10
116.121553
 20
283.385562
 30
0.0
 40
4.0
  1
3
100
AcDbText
  0
LINE
  5
B98
100
AcDbEntity
  8
TABELLA
  6
CONTINUOUS
100
AcDbLine
 10
133.526782
 20
282.521992
 30
0.0
 11
133.526782
 21
287.521992
 31
0.0
  0
LINE
  5
B99
100
AcDbEntity
  8
TABELLA
  6
CONTINUOUS
100
AcDbLine
 10
166.859782
 20
282.521992
 30
0.0
 11
166.859782
 21
287.521992
 31
0.0
  0
TEXT
  5
B9A
100
AcDbEntity
  8
TABELLA
  6
CONTINUOUS
100
AcDbText
 10
184.370935
 20
283.385562
 30
0.0
 40
4.0
  1
1
100
AcDbText
  0
LINE
  5
B9B
100
AcDbEntity
  8
TABELLA
  6
CONTINUOUS
100
AcDbLine
 10
195.194782
 20
251.646992
 30
0.0
 11
200.194782
 21
251.646992
 31
0.0
  0
LINE
  5
B9C
100
AcDbEntity
  8
TABELLA
  6
CONTINUOUS
100
AcDbLine
 10
195.194782
 20
215.771992
 30
0.0
 11
200.194782
 21
215.771992
 31
0.0
  0
TEXT
  5
B9D
100
AcDbEntity
  8
TABELLA
  6
CONTINUOUS
100
AcDbText
 10
196.439422
 20
230.935661
 30
0.0
 40
4.0
  1
G
100
AcDbText
  0
TEXT
  5
B9E
100
AcDbEntity
  8
TABELLA
  6
CONTINUOUS
100
AcDbText
 10
196.439422
 20
268.341576
 30
0.0
 40
4.0
  1
H
100
AcDbText
  0
LINE
  5
B9F
100
AcDbEntity
  8
TABELLA
  6
CONTINUOUS
100
AcDbLine
 10
195.194782
 20
282.521992
 30
0.0
 11
195.194782
 21
278.521992
 31
0.0
  0
ENDBLK
  5
BA1
100
AcDbEntity
  8
DISEGNO
100
AcDbBlockEnd
  0
BLOCK
  5
D4D
100
AcDbEntity
  8
0
100
AcDbBlockBegin
  2
*D32
 70
    65
 10
0.0
 20
0.0
 30
0.0
  3
*D32
  1

  0
LINE
  5
D4E
100
AcDbEntity
  8
0
  6
BYBLOCK
 62
     0
100
AcDbLine
 10
-1608.096473
 20
-1506.161327
 30
0.0
 11
-1624.538038
 21
-1489.719762
 31
0.0
  0
LINE
  5
D4F
100
AcDbEntity
  8
0
  6
BYBLOCK
 62
     0
100
AcDbLine
 10
-1608.096473
 20
-1510.64521
 30
0.0
 11
-1624.538038
 21
-1527.086775
 31
0.0
  0
ARC
  5
D50
100
AcDbEntity
  8
0
  6
BYBLOCK
 62
     0
100
AcDbCircle
 10
-1605.854531
 20
-1508.403269
 30
0.0
 40
25.172469
100
AcDbArc
 50
140.692663
 51
219.307337
  0
SOLID
  5
D51
100
AcDbEntity
  8
0
  6
BYBLOCK
 62
     0
100
AcDbTrace
 10
-1625.640852
 20
-1492.17738
 30
0.0
 11
-1625.023063
 21
-1492.736648
 31
0.0
 12
-1623.654154
 22
-1490.603645
 32
0.0
 13
-1623.654154
 23
-1490.603645
 33
0.0
  0
SOLID
  5
D52
100
AcDbEntity
  8
0
  6
BYBLOCK
 62
     0
100
AcDbTrace
 10
-1625.023063
 20
-1524.069889
 30
0.0
 11
-1625.640852
 21
-1524.629157
 31
0.0
 12
-1623.654154
 22
-1526.202892
 32
0.0
 13
-1623.654154
 23
-1526.202892
 33
0.0
  0
MTEXT
  5
D53
100
AcDbEntity
  8
0
  6
BYBLOCK
 62
     0
100
AcDbMText
 10
-1633.152
 20
-1508.403269
 30
0.0
 40
3.0
 41
0.0
 71
     5
 72
     1
  1
\A1;90°
 11
0.0
 21
1.0
 31
0.0
  0
POINT
  5
D54
100
AcDbEntity
  8
DEFPOINTS
  6
BYBLOCK
 62
     0
100
AcDbPoint
 10
-1630.169268
 20
-1501.888154
 30
0.0
  0
POINT
  5
D55
100
AcDbEntity
  8
DEFPOINTS
  6
BYBLOCK
 62
     0
100
AcDbPoint
 10
-1607.654531
 20
-1506.603269
 30
0.0
  0
POINT
  5
D56
100
AcDbEntity
  8
DEFPOINTS
  6
BYBLOCK
 62
     0
100
AcDbPoint
 10
-1607.654531
 20
-1510.203269
 30
0.0
  0
POINT
  5
D57
100
AcDbEntity
  8
DEFPOINTS
  6
BYBLOCK
 62
     0
100
AcDbPoint
 10
-1605.854531
 20
-1508.403269
 30
0.0
  0
POINT
  5
D58
100
AcDbEntity
  8
DEFPOINTS
  6
BYBLOCK
 62
     0
100
AcDbPoint
 10
-1605.854531
 20
-1508.403269
 30
0.0
  0
ENDBLK
  5
D59
100
AcDbEntity
  8
0
100
AcDbBlockEnd
  0
BLOCK
  5
D73
100
AcDbEntity
  8
0
100
AcDbBlockBegin
  2
*D33
 70
    65
 10
0.0
 20
0.0
 30
0.0
  3
*D33
  1

  0
LINE
  5
D74
100
AcDbEntity
  8
0
  6
BYBLOCK
 62
     0
100
AcDbLine
 10
-1583.929531
 20
-1445.903269
 30
0.0
 11
-1533.271112
 21
-1445.903269
 31
0.0
  0
LINE
  5
D75
100
AcDbEntity
  8
0
  6
BYBLOCK
 62
     0
100
AcDbLine
 10
-1587.429531
 20
-1536.703269
 30
0.0
 11
-1533.271112
 21
-1536.703269
 31
0.0
  0
LINE
  5
D76
100
AcDbEntity
  8
0
  6
BYBLOCK
 62
     0
100
AcDbLine
 10
-1534.521112
 20
-1448.403269
 30
0.0
 11
-1534.521112
 21
-1534.203269
 31
0.0
  0
SOLID
  5
D77
100
AcDbEntity
  8
0
  6
BYBLOCK
 62
     0
100
AcDbTrace
 10
-1534.937779
 20
-1448.403269
 30
0.0
 11
-1534.104445
 21
-1448.403269
 31
0.0
 12
-1534.521112
 22
-1445.903269
 32
0.0
 13
-1534.521112
 23
-1445.903269
 33
0.0
  0
SOLID
  5
D78
100
AcDbEntity
  8
0
  6
BYBLOCK
 62
     0
100
AcDbTrace
 10
-1534.937779
 20
-1534.203269
 30
0.0
 11
-1534.104445
 21
-1534.203269
 31
0.0
 12
-1534.521112
 22
-1536.703269
 32
0.0
 13
-1534.521112
 23
-1536.703269
 33
0.0
  0
MTEXT
  5
D79
100
AcDbEntity
  8
0
  6
BYBLOCK
 62
     0
100
AcDbMText
 10
-1538.497293
 20
-1491.303269
 30
0.0
 40
3.0
 41
0.0
 71
     5
 72
     1
  1
\A1;90.8\S+0.1^  0;
 11
0.0
 21
1.0
 31
0.0
  0
POINT
  5
D7A
100
AcDbEntity
  8
DEFPOINTS
  6
BYBLOCK
 62
     0
100
AcDbPoint
 10
-1584.554531
 20
-1445.903269
 30
0.0
  0
POINT
  5
D7B
100
AcDbEntity
  8
DEFPOINTS
  6
BYBLOCK
 62
     0
100
AcDbPoint
 10
-1588.054531
 20
-1536.703269
 30
0.0
  0
POINT
  5
D7C
100
AcDbEntity
  8
DEFPOINTS
  6
BYBLOCK
 62
     0
100
AcDbPoint
 10
-1534.521112
 20
-1536.703269
 30
0.0
  0
ENDBLK
  5
D7D
100
AcDbEntity
  8
0
100
AcDbBlockEnd
  0
BLOCK
  5
D7E
100
AcDbEntity
  8
0
100
AcDbBlockBegin
  2
*D34
 70
    65
 10
0.0
 20
0.0
 30
0.0
  3
*D34
  1

  0
LINE
  5
D7F
100
AcDbEntity
  8
0
  6
BYBLOCK
 62
     0
100
AcDbLine
 10
-1603.510686
 20
-1516.261327
 30
0.0
 11
-1606.041909
 21
-1513.730105
 31
0.0
  0
LINE
  5
D80
100
AcDbEntity
  8
0
  6
BYBLOCK
 62
     0
100
AcDbLine
 10
-1602.150026
 20
-1514.900667
 30
0.0
 11
-1604.681248
 21
-1512.369444
 31
0.0
  0
LINE
  5
D81
100
AcDbEntity
  8
0
  6
BYBLOCK
 62
     0
100
AcDbLine
 10
-1606.925792
 20
-1516.381755
 30
0.0
 11
-1608.693559
 21
-1518.149522
 31
0.0
  0
LINE
  5
D82
100
AcDbEntity
  8
0
  6
BYBLOCK
 62
     0
100
AcDbLine
 10
-1602.029598
 20
-1511.485561
 30
0.0
 11
-1594.736834
 21
-1504.192797
 31
0.0
  0
SOLID
  5
D83
100
AcDbEntity
  8
0
  6
BYBLOCK
 62
     0
100
AcDbTrace
 10
-1607.22042
 20
-1516.087127
 30
0.0
 11
-1606.631164
 21
-1516.676383
 31
0.0
 12
-1605.158025
 22
-1514.613988
 32
0.0
 13
-1605.158025
 23
-1514.613988
 33
0.0
  0
SOLID
  5
D84
100
AcDbEntity
  8
0
  6
BYBLOCK
 62
     0
100
AcDbTrace
 10
-1602.324226
 20
-1511.190933
 30
0.0
 11
-1601.73497
 21
-1511.780189
 31
0.0
 12
-1603.797365
 22
-1513.253328
 32
0.0
 13
-1603.797365
 23
-1513.253328
 33
0.0
  0
MTEXT
  5
D85
100
AcDbEntity
  8
0
  6
BYBLOCK
 62
     0
100
AcDbMText
 10
-1599.002143
 20
-1505.452485
 30
0.0
 40
3.0
 41
0.0
 71
     5
 72
     1
  1
\A1;1.92
 11
0.707107
 21
0.707107
 31
0.0
  0
POINT
  5
D86
100
AcDbEntity
  8
DEFPOINTS
  6
BYBLOCK
 62
     0
100
AcDbPoint
 10
-1603.068745
 20
-1516.703269
 30
0.0
  0
POINT
  5
D87
100
AcDbEntity
  8
DEFPOINTS
  6
BYBLOCK
 62
     0
100
AcDbPoint
 10
-1601.708084
 20
-1515.342608
 30
0.0
  0
POINT
  5
D88
100
AcDbEntity
  8
DEFPOINTS
  6
BYBLOCK
 62
     0
100
AcDbPoint
 10
-1603.797365
 20
-1513.253328
 30
0.0
  0
ENDBLK
  5
D89
100
AcDbEntity
  8
0
100
AcDbBlockEnd
  0
BLOCK
  5
D8A
100
AcDbEntity
  8
0
100
AcDbBlockBegin
  2
*D35
 70
    65
 10
0.0
 20
0.0
 30
0.0
  3
*D35
  1

  0
LINE
  5
D8B
100
AcDbEntity
  8
0
  6
BYBLOCK
 62
     0
100
AcDbLine
 10
-1608.279531
 20
-1506.603269
 30
0.0
 11
-1617.49796
 21
-1506.603269
 31
0.0
  0
LINE
  5
D8C
100
AcDbEntity
  8
0
  6
BYBLOCK
 62
     0
100
AcDbLine
 10
-1608.279531
 20
-1510.203269
 30
0.0
 11
-1617.49796
 21
-1510.203269
 31
0.0
  0
LINE
  5
D8D
100
AcDbEntity
  8
0
  6
BYBLOCK
 62
     0
100
AcDbLine
 10
-1616.24796
 20
-1504.103269
 30
0.0
 11
-1616.24796
 21
-1501.603269
 31
0.0
  0
LINE
  5
D8E
100
AcDbEntity
  8
0
  6
BYBLOCK
 62
     0
100
AcDbLine
 10
-1616.24796
 20
-1512.703269
 30
0.0
 11
-1616.24796
 21
-1529.893832
 31
0.0
  0
SOLID
  5
D8F
100
AcDbEntity
  8
0
  6
BYBLOCK
 62
     0
100
AcDbTrace
 10
-1616.664626
 20
-1504.103269
 30
0.0
 11
-1615.831293
 21
-1504.103269
 31
0.0
 12
-1616.24796
 22
-1506.603269
 32
0.0
 13
-1616.24796
 23
-1506.603269
 33
0.0
  0
SOLID
  5
D90
100
AcDbEntity
  8
0
  6
BYBLOCK
 62
     0
100
AcDbTrace
 10
-1616.664626
 20
-1512.703269
 30
0.0
 11
-1615.831293
 21
-1512.703269
 31
0.0
 12
-1616.24796
 22
-1510.203269
 32
0.0
 13
-1616.24796
 23
-1510.203269
 33
0.0
  0
MTEXT
  5
D91
100
AcDbEntity
  8
0
  6
BYBLOCK
 62
     0
100
AcDbMText
 10
-1618.37296
 20
-1526.778241
 30
0.0
 40
3.0
 41
0.0
 71
     5
 72
     1
  1
\A1;3.6
 11
0.0
 21
1.0
 31
0.0
  0
POINT
  5
D92
100
AcDbEntity
  8
DEFPOINTS
  6
BYBLOCK
 62
     0
100
AcDbPoint
 10
-1607.654531
 20
-1506.603269
 30
0.0
  0
POINT
  5
D93
100
AcDbEntity
  8
DEFPOINTS
  6
BYBLOCK
 62
     0
100
AcDbPoint
 10
-1607.654531
 20
-1510.203269
 30
0.0
  0
POINT
  5
D94
100
AcDbEntity
  8
DEFPOINTS
  6
BYBLOCK
 62
     0
100
AcDbPoint
 10
-1616.24796
 20
-1510.203269
 30
0.0
  0
ENDBLK
  5
D95
100
AcDbEntity
  8
0
100
AcDbBlockEnd
  0
BLOCK
  5
D96
100
AcDbEntity
  8
0
100
AcDbBlockBegin
  2
*D36
 70
    65
 10
0.0
 20
0.0
 30
0.0
  3
*D36
  1

  0
LINE
  5
D97
100
AcDbEntity
  8
0
  6
BYBLOCK
 62
     0
100
AcDbLine
 10
-1608.279531
 20
-1516.703269
 30
0.0
 11
-1624.507722
 21
-1516.703269
 31
0.0
  0
LINE
  5
D98
100
AcDbEntity
  8
0
  6
BYBLOCK
 62
     0
100
AcDbLine
 10
-1620.775961
 20
-1508.403269
 30
0.0
 11
-1624.507722
 21
-1508.403269
 31
0.0
  0
LINE
  5
D99
100
AcDbEntity
  8
0
  6
BYBLOCK
 62
     0
100
AcDbLine
 10
-1623.257722
 20
-1519.203269
 30
0.0
 11
-1623.257722
 21
-1521.703269
 31
0.0
  0
LINE
  5
D9A
100
AcDbEntity
  8
0
  6
BYBLOCK
 62
     0
100
AcDbLine
 10
-1623.257722
 20
-1505.903269
 30
0.0
 11
-1623.257722
 21
-1503.403269
 31
0.0
  0
SOLID
  5
D9B
100
AcDbEntity
  8
0
  6
BYBLOCK
 62
     0
100
AcDbTrace
 10
-1623.674389
 20
-1519.203269
 30
0.0
 11
-1622.841055
 21
-1519.203269
 31
0.0
 12
-1623.257722
 22
-1516.703269
 32
0.0
 13
-1623.257722
 23
-1516.703269
 33
0.0
  0
SOLID
  5
D9C
100
AcDbEntity
  8
0
  6
BYBLOCK
 62
     0
100
AcDbTrace
 10
-1623.674389
 20
-1505.903269
 30
0.0
 11
-1622.841055
 21
-1505.903269
 31
0.0
 12
-1623.257722
 22
-1508.403269
 32
0.0
 13
-1623.257722
 23
-1508.403269
 33
0.0
  0
MTEXT
  5
D9D
100
AcDbEntity
  8
0
  6
BYBLOCK
 62
     0
100
AcDbMText
 10
-1625.382722
 20
-1512.553269
 30
0.0
 40
3.0
 41
0.0
 71
     5
 72
     1
  1
\A1;8.3
 11
0.0
 21
1.0
 31
0.0
  0
POINT
  5
D9E
100
AcDbEntity
  8
DEFPOINTS
  6
BYBLOCK
 62
     0
100
AcDbPoint
 10
-1607.654531
 20
-1516.703269
 30
0.0
  0
POINT
  5
D9F
100
AcDbEntity
  8
DEFPOINTS
  6
BYBLOCK
 62
     0
100
AcDbPoint
 10
-1620.150961
 20
-1508.403269
 30
0.0
  0
POINT
  5
DA0
100
AcDbEntity
  8
DEFPOINTS
  6
BYBLOCK
 62
     0
100
AcDbPoint
 10
-1623.257722
 20
-1508.403269
 30
0.0
  0
ENDBLK
  5
DA1
100
AcDbEntity
  8
0
100
AcDbBlockEnd
  0
BLOCK
  5
DA2
100
AcDbEntity
  8
0
100
AcDbBlockBegin
  2
*D37
 70
    65
 10
0.0
 20
0.0
 30
0.0
  3
*D37
  1

  0
LINE
  5
DA3
100
AcDbEntity
  8
0
  6
BYBLOCK
 62
     0
100
AcDbLine
 10
-1582.054531
 20
-1517.328269
 30
0.0
 11
-1582.054531
 21
-1571.78027
 31
0.0
  0
LINE
  5
DA4
100
AcDbEntity
  8
0
  6
BYBLOCK
 62
     0
100
AcDbLine
 10
-1607.654531
 20
-1517.328269
 30
0.0
 11
-1607.654531
 21
-1571.78027
 31
0.0
  0
LINE
  5
DA5
100
AcDbEntity
  8
0
  6
BYBLOCK
 62
     0
100
AcDbLine
 10
-1584.554531
 20
-1570.53027
 30
0.0
 11
-1605.154531
 21
-1570.53027
 31
0.0
  0
SOLID
  5
DA6
100
AcDbEntity
  8
0
  6
BYBLOCK
 62
     0
100
AcDbTrace
 10
-1584.554531
 20
-1570.113604
 30
0.0
 11
-1584.554531
 21
-1570.946937
 31
0.0
 12
-1582.054531
 22
-1570.53027
 32
0.0
 13
-1582.054531
 23
-1570.53027
 33
0.0
  0
SOLID
  5
DA7
100
AcDbEntity
  8
0
  6
BYBLOCK
 62
     0
100
AcDbTrace
 10
-1605.154531
 20
-1570.113604
 30
0.0
 11
-1605.154531
 21
-1570.946937
 31
0.0
 12
-1607.654531
 22
-1570.53027
 32
0.0
 13
-1607.654531
 23
-1570.53027
 33
0.0
  0
MTEXT
  5
DA8
100
AcDbEntity
  8
0
  6
BYBLOCK
 62
     0
100
AcDbMText
 10
-1594.854531
 20
-1566.554089
 30
0.0
 40
3.0
 41
0.0
 71
     5
 72
     1
  1
\A1;25.6\S+0.1^  0;
  0
POINT
  5
DA9
100
AcDbEntity
  8
DEFPOINTS
  6
BYBLOCK
 62
     0
100
AcDbPoint
 10
-1582.054531
 20
-1516.703269
 30
0.0
  0
POINT
  5
DAA
100
AcDbEntity
  8
DEFPOINTS
  6
BYBLOCK
 62
     0
100
AcDbPoint
 10
-1607.654531
 20
-1516.703269
 30
0.0
  0
POINT
  5
DAB
100
AcDbEntity
  8
DEFPOINTS
  6
BYBLOCK
 62
     0
100
AcDbPoint
 10
-1607.654531
 20
-1570.53027
 30
0.0
  0
ENDBLK
  5
DAC
100
AcDbEntity
  8
0
100
AcDbBlockEnd
  0
BLOCK
  5
DAD
100
AcDbEntity
  8
0
100
AcDbBlockBegin
  2
*D38
 70
    65
 10
0.0
 20
0.0
 30
0.0
  3
*D38
  1

  0
LINE
  5
DAE
100
AcDbEntity
  8
0
  6
BYBLOCK
 62
     0
100
AcDbLine
 10
-1581.429531
 20
-1516.703269
 30
0.0
 11
-1550.369238
 21
-1516.703269
 31
0.0
  0
LINE
  5
DAF
100
AcDbEntity
  8
0
  6
BYBLOCK
 62
     0
100
AcDbLine
 10
-1587.429531
 20
-1536.703269
 30
0.0
 11
-1550.369238
 21
-1536.703269
 31
0.0
  0
LINE
  5
DB0
100
AcDbEntity
  8
0
  6
BYBLOCK
 62
     0
100
AcDbLine
 10
-1551.619238
 20
-1519.203269
 30
0.0
 11
-1551.619238
 21
-1534.203269
 31
0.0
  0
SOLID
  5
DB1
100
AcDbEntity
  8
0
  6
BYBLOCK
 62
     0
100
AcDbTrace
 10
-1552.035905
 20
-1519.203269
 30
0.0
 11
-1551.202572
 21
-1519.203269
 31
0.0
 12
-1551.619238
 22
-1516.703269
 32
0.0
 13
-1551.619238
 23
-1516.703269
 33
0.0
  0
SOLID
  5
DB2
100
AcDbEntity
  8
0
  6
BYBLOCK
 62
     0
100
AcDbTrace
 10
-1552.035905
 20
-1534.203269
 30
0.0
 11
-1551.202572
 21
-1534.203269
 31
0.0
 12
-1551.619238
 22
-1536.703269
 32
0.0
 13
-1551.619238
 23
-1536.703269
 33
0.0
  0
MTEXT
  5
DB3
100
AcDbEntity
  8
0
  6
BYBLOCK
 62
     0
100
AcDbMText
 10
-1553.744238
 20
-1526.703269
 30
0.0
 40
3.0
 41
0.0
 71
     5
 72
     1
  1
\A1;20
 11
0.0
 21
1.0
 31
0.0
  0
POINT
  5
DB4
100
AcDbEntity
  8
DEFPOINTS
  6
BYBLOCK
 62
     0
100
AcDbPoint
 10
-1582.054531
 20
-1516.703269
 30
0.0
  0
POINT
  5
DB5
100
AcDbEntity
  8
DEFPOINTS
  6
BYBLOCK
 62
     0
100
AcDbPoint
 10
-1588.054531
 20
-1536.703269
 30
0.0
  0
POINT
  5
DB6
100
AcDbEntity
  8
DEFPOINTS
  6
BYBLOCK
 62
     0
100
AcDbPoint
 10
-1551.619238
 20
-1536.703269
 30
0.0
  0
ENDBLK
  5
DB7
100
AcDbEntity
  8
0
100
AcDbBlockEnd
  0
BLOCK
  5
DB8
100
AcDbEntity
  8
0
100
AcDbBlockBegin
  2
*D39
 70
    65
 10
0.0
 20
0.0
 30
0.0
  3
*D39
  1

  0
LINE
  5
DB9
100
AcDbEntity
  8
0
  6
BYBLOCK
 62
     0
100
AcDbLine
 10
-1601.654531
 20
-1537.328269
 30
0.0
 11
-1601.654531
 21
-1559.365193
 31
0.0
  0
LINE
  5
DBA
100
AcDbEntity
  8
0
  6
BYBLOCK
 62
     0
100
AcDbLine
 10
-1588.054531
 20
-1537.328269
 30
0.0
 11
-1588.054531
 21
-1559.365193
 31
0.0
  0
LINE
  5
DBB
100
AcDbEntity
  8
0
  6
BYBLOCK
 62
     0
100
AcDbLine
 10
-1599.154531
 20
-1558.115193
 30
0.0
 11
-1590.554531
 21
-1558.115193
 31
0.0
  0
LINE
  5
DBC
100
AcDbEntity
  8
0
  6
BYBLOCK
 62
     0
100
AcDbLine
 10
-1588.054531
 20
-1558.115193
 30
0.0
 11
-1561.872828
 21
-1558.115193
 31
0.0
  0
SOLID
  5
DBD
100
AcDbEntity
  8
0
  6
BYBLOCK
 62
     0
100
AcDbTrace
 10
-1599.154531
 20
-1557.698526
 30
0.0
 11
-1599.154531
 21
-1558.53186
 31
0.0
 12
-1601.654531
 22
-1558.115193
 32
0.0
 13
-1601.654531
 23
-1558.115193
 33
0.0
  0
SOLID
  5
DBE
100
AcDbEntity
  8
0
  6
BYBLOCK
 62
     0
100
AcDbTrace
 10
-1590.554531
 20
-1557.698526
 30
0.0
 11
-1590.554531
 21
-1558.53186
 31
0.0
 12
-1588.054531
 22
-1558.115193
 32
0.0
 13
-1588.054531
 23
-1558.115193
 33
0.0
  0
MTEXT
  5
DBF
100
AcDbEntity
  8
0
  6
BYBLOCK
 62
     0
100
AcDbMText
 10
-1569.757828
 20
-1554.139012
 30
0.0
 40
3.0
 41
0.0
 71
     5
 72
     1
  1
\A1;13.6\S+0.1^  0;
  0
POINT
  5
DC0
100
AcDbEntity
  8
DEFPOINTS
  6
BYBLOCK
 62
     0
100
AcDbPoint
 10
-1601.654531
 20
-1536.703269
 30
0.0
  0
POINT
  5
DC1
100
AcDbEntity
  8
DEFPOINTS
  6
BYBLOCK
 62
     0
100
AcDbPoint
 10
-1588.054531
 20
-1536.703269
 30
0.0
  0
POINT
  5
DC2
100
AcDbEntity
  8
DEFPOINTS
  6
BYBLOCK
 62
     0
100
AcDbPoint
 10
-1588.054531
 20
-1558.115193
 30
0.0
  0
ENDBLK
  5
DC3
100
AcDbEntity
  8
0
100
AcDbBlockEnd
  0
BLOCK
  5
DC4
100
AcDbEntity
  8
0
100
AcDbBlockBegin
  2
*D40
 70
    65
 10
0.0
 20
0.0
 30
0.0
  3
*D40
  1

  0
LINE
  5
DC5
100
AcDbEntity
  8
0
  6
BYBLOCK
 62
     0
100
AcDbLine
 10
-1589.857133
 20
-1516.31488
 30
0.0
 11
-1593.10844
 21
-1513.063573
 31
0.0
  0
LINE
  5
DC6
100
AcDbEntity
  8
0
  6
BYBLOCK
 62
     0
100
AcDbLine
 10
-1588.442919
 20
-1514.900667
 30
0.0
 11
-1591.694226
 21
-1511.64936
 31
0.0
  0
LINE
  5
DC7
100
AcDbEntity
  8
0
  6
BYBLOCK
 62
     0
100
AcDbLine
 10
-1593.992323
 20
-1515.715224
 30
0.0
 11
-1595.76009
 21
-1517.482991
 31
0.0
  0
LINE
  5
DC8
100
AcDbEntity
  8
0
  6
BYBLOCK
 62
     0
100
AcDbLine
 10
-1589.042576
 20
-1510.765476
 30
0.0
 11
-1585.258145
 21
-1506.981045
 31
0.0
  0
SOLID
  5
DC9
100
AcDbEntity
  8
0
  6
BYBLOCK
 62
     0
100
AcDbTrace
 10
-1594.286951
 20
-1515.420596
 30
0.0
 11
-1593.697696
 21
-1516.009852
 31
0.0
 12
-1592.224556
 22
-1513.947457
 32
0.0
 13
-1592.224556
 23
-1513.947457
 33
0.0
  0
SOLID
  5
DCA
100
AcDbEntity
  8
0
  6
BYBLOCK
 62
     0
100
AcDbTrace
 10
-1589.337204
 20
-1510.470848
 30
0.0
 11
-1588.747948
 21
-1511.060104
 31
0.0
 12
-1590.810343
 22
-1512.533243
 32
0.0
 13
-1590.810343
 23
-1512.533243
 33
0.0
  0
MTEXT
  5
DCB
100
AcDbEntity
  8
0
  6
BYBLOCK
 62
     0
100
AcDbMText
 10
-1587.769287
 20
-1506.486566
 30
0.0
 40
3.0
 41
0.0
 71
     5
 72
     1
  1
\A1;2
 11
0.707107
 21
0.707107
 31
0.0
  0
POINT
  5
DCC
100
AcDbEntity
  8
DEFPOINTS
  6
BYBLOCK
 62
     0
100
AcDbPoint
 10
-1589.415191
 20
-1516.756822
 30
0.0
  0
POINT
  5
DCD
100
AcDbEntity
  8
DEFPOINTS
  6
BYBLOCK
 62
     0
100
AcDbPoint
 10
-1588.000978
 20
-1515.342608
 30
0.0
  0
POINT
  5
DCE
100
AcDbEntity
  8
DEFPOINTS
  6
BYBLOCK
 62
     0
100
AcDbPoint
 10
-1590.810343
 20
-1512.533243
 30
0.0
  0
ENDBLK
  5
DCF
100
AcDbEntity
  8
0
100
AcDbBlockEnd
  0
BLOCK
  5
DD0
100
AcDbEntity
  8
0
100
AcDbBlockBegin
  2
*D41
 70
    65
 10
0.0
 20
0.0
 30
0.0
  3
*D41
  1

  0
LINE
  5
DD1
100
AcDbEntity
  8
0
  6
BYBLOCK
 62
     0
100
AcDbLine
 10
-1584.554531
 20
-1482.017913
 30
0.0
 11
-1584.554531
 21
-1483.597919
 31
0.0
  0
LINE
  5
DD2
100
AcDbEntity
  8
0
  6
BYBLOCK
 62
     0
100
AcDbLine
 10
-1605.154531
 20
-1482.654584
 30
0.0
 11
-1605.154531
 21
-1483.597919
 31
0.0
  0
LINE
  5
DD3
100
AcDbEntity
  8
0
  6
BYBLOCK
 62
     0
100
AcDbLine
 10
-1587.054531
 20
-1482.347919
 30
0.0
 11
-1602.654531
 21
-1482.347919
 31
0.0
  0
LINE
  5
DD4
100
AcDbEntity
  8
0
  6
BYBLOCK
 62
     0
100
AcDbLine
 10
-1605.154531
 20
-1482.347919
 30
0.0
 11
-1622.711121
 21
-1482.347919
 31
0.0
  0
SOLID
  5
DD5
100
AcDbEntity
  8
0
  6
BYBLOCK
 62
     0
100
AcDbTrace
 10
-1587.054531
 20
-1481.931252
 30
0.0
 11
-1587.054531
 21
-1482.764586
 31
0.0
 12
-1584.554531
 22
-1482.347919
 32
0.0
 13
-1584.554531
 23
-1482.347919
 33
0.0
  0
SOLID
  5
DD6
100
AcDbEntity
  8
0
  6
BYBLOCK
 62
     0
100
AcDbTrace
 10
-1602.654531
 20
-1481.931252
 30
0.0
 11
-1602.654531
 21
-1482.764586
 31
0.0
 12
-1605.154531
 22
-1482.347919
 32
0.0
 13
-1605.154531
 23
-1482.347919
 33
0.0
  0
MTEXT
  5
DD7
100
AcDbEntity
  8
0
  6
BYBLOCK
 62
     0
100
AcDbMText
 10
-1614.496121
 20
-1478.371738
 30
0.0
 40
3.0
 41
0.0
 71
     5
 72
     1
  1
\A1;20.6\S+0.1^  0;
  0
POINT
  5
DD8
100
AcDbEntity
  8
DEFPOINTS
  6
BYBLOCK
 62
     0
100
AcDbPoint
 10
-1584.554531
 20
-1481.392913
 30
0.0
  0
POINT
  5
DD9
100
AcDbEntity
  8
DEFPOINTS
  6
BYBLOCK
 62
     0
100
AcDbPoint
 10
-1605.154531
 20
-1482.029584
 30
0.0
  0
POINT
  5
DDA
100
AcDbEntity
  8
DEFPOINTS
  6
BYBLOCK
 62
     0
100
AcDbPoint
 10
-1605.154531
 20
-1482.347919
 30
0.0
  0
ENDBLK
  5
DDB
100
AcDbEntity
  8
0
100
AcDbBlockEnd
  0
BLOCK
  5
DE3
100
AcDbEntity
  8
0
100
AcDbBlockBegin
  2
*D42
 70
    65
 10
0.0
 20
0.0
 30
0.0
  3
*D42
  1

  0
LINE
  5
DE4
100
AcDbEntity
  8
0
  6
BYBLOCK
 62
     0
100
AcDbLine
 10
-1583.929531
 20
-1445.903269
 30
0.0
 11
-1550.47689
 21
-1445.903269
 31
0.0
  0
LINE
  5
DE5
100
AcDbEntity
  8
0
  6
BYBLOCK
 62
     0
100
AcDbLine
 10
-1581.429531
 20
-1516.703269
 30
0.0
 11
-1550.47689
 21
-1516.703269
 31
0.0
  0
LINE
  5
DE6
100
AcDbEntity
  8
0
  6
BYBLOCK
 62
     0
100
AcDbLine
 10
-1551.72689
 20
-1448.403269
 30
0.0
 11
-1551.72689
 21
-1514.203269
 31
0.0
  0
SOLID
  5
DE7
100
AcDbEntity
  8
0
  6
BYBLOCK
 62
     0
100
AcDbTrace
 10
-1552.143557
 20
-1448.403269
 30
0.0
 11
-1551.310223
 21
-1448.403269
 31
0.0
 12
-1551.72689
 22
-1445.903269
 32
0.0
 13
-1551.72689
 23
-1445.903269
 33
0.0
  0
SOLID
  5
DE8
100
AcDbEntity
  8
0
  6
BYBLOCK
 62
     0
100
AcDbTrace
 10
-1552.143557
 20
-1514.203269
 30
0.0
 11
-1551.310223
 21
-1514.203269
 31
0.0
 12
-1551.72689
 22
-1516.703269
 32
0.0
 13
-1551.72689
 23
-1516.703269
 33
0.0
  0
MTEXT
  5
DE9
100
AcDbEntity
  8
0
  6
BYBLOCK
 62
     0
100
AcDbMText
 10
-1555.703071
 20
-1481.303269
 30
0.0
 40
3.0
 41
0.0
 71
     5
 72
     1
  1
\A1;70.8\S+0.1^  0;
 11
0.0
 21
1.0
 31
0.0
  0
POINT
  5
DEA
100
AcDbEntity
  8
DEFPOINTS
  6
BYBLOCK
 62
     0
100
AcDbPoint
 10
-1584.554531
 20
-1445.903269
 30
0.0
  0
POINT
  5
DEB
100
AcDbEntity
  8
DEFPOINTS
  6
BYBLOCK
 62
     0
100
AcDbPoint
 10
-1582.054531
 20
-1516.703269
 30
0.0
  0
POINT
  5
DEC
100
AcDbEntity
  8
DEFPOINTS
  6
BYBLOCK
 62
     0
100
AcDbPoint
 10
-1551.72689
 20
-1516.703269
 30
0.0
  0
ENDBLK
  5
DED
100
AcDbEntity
  8
0
100
AcDbBlockEnd
  0
BLOCK
  5
DEE
100
AcDbEntity
  8
0
100
AcDbBlockBegin
  2
*D43
 70
    65
 10
0.0
 20
0.0
 30
0.0
  3
*D43
  1

  0
LINE
  5
DEF
100
AcDbEntity
  8
0
  6
BYBLOCK
 62
     0
100
AcDbLine
 10
-1581.429531
 20
-1516.703269
 30
0.0
 11
-1566.913737
 21
-1516.703269
 31
0.0
  0
LINE
  5
DF0
100
AcDbEntity
  8
0
  6
BYBLOCK
 62
     0
100
AcDbLine
 10
-1581.429531
 20
-1501.403269
 30
0.0
 11
-1566.913737
 21
-1501.403269
 31
0.0
  0
LINE
  5
DF1
100
AcDbEntity
  8
0
  6
BYBLOCK
 62
     0
100
AcDbLine
 10
-1568.163737
 20
-1514.203269
 30
0.0
 11
-1568.163737
 21
-1503.903269
 31
0.0
  0
SOLID
  5
DF2
100
AcDbEntity
  8
0
  6
BYBLOCK
 62
     0
100
AcDbTrace
 10
-1568.580404
 20
-1514.203269
 30
0.0
 11
-1567.74707
 21
-1514.203269
 31
0.0
 12
-1568.163737
 22
-1516.703269
 32
0.0
 13
-1568.163737
 23
-1516.703269
 33
0.0
  0
SOLID
  5
DF3
100
AcDbEntity
  8
0
  6
BYBLOCK
 62
     0
100
AcDbTrace
 10
-1568.580404
 20
-1503.903269
 30
0.0
 11
-1567.74707
 21
-1503.903269
 31
0.0
 12
-1568.163737
 22
-1501.403269
 32
0.0
 13
-1568.163737
 23
-1501.403269
 33
0.0
  0
MTEXT
  5
DF4
100
AcDbEntity
  8
0
  6
BYBLOCK
 62
     0
100
AcDbMText
 10
-1570.288737
 20
-1509.053269
 30
0.0
 40
3.0
 41
0.0
 71
     5
 72
     1
  1
\A1;15.3
 11
0.0
 21
1.0
 31
0.0
  0
POINT
  5
DF5
100
AcDbEntity
  8
DEFPOINTS
  6
BYBLOCK
 62
     0
100
AcDbPoint
 10
-1582.054531
 20
-1516.703269
 30
0.0
  0
POINT
  5
DF6
100
AcDbEntity
  8
DEFPOINTS
  6
BYBLOCK
 62
     0
100
AcDbPoint
 10
-1582.054531
 20
-1501.403269
 30
0.0
  0
POINT
  5
DF7
100
AcDbEntity
  8
DEFPOINTS
  6
BYBLOCK
 62
     0
100
AcDbPoint
 10
-1568.163737
 20
-1501.403269
 30
0.0
  0
ENDBLK
  5
DF8
100
AcDbEntity
  8
0
100
AcDbBlockEnd
  0
BLOCK
  5
E2C
100
AcDbEntity
  8
0
100
AcDbBlockBegin
  2
*D44
 70
    65
 10
0.0
 20
0.0
 30
0.0
  3
*D44
  1

  0
LINE
  5
E2D
100
AcDbEntity
  8
0
  6
BYBLOCK
 62
     0
100
AcDbLine
 10
-1919.167484
 20
-1542.434823
 30
0.0
 11
-1919.167484
 21
-1526.972917
 31
0.0
  0
LINE
  5
E2E
100
AcDbEntity
  8
0
  6
BYBLOCK
 62
     0
100
AcDbLine
 10
-1911.167484
 20
-1546.434823
 30
0.0
 11
-1911.167484
 21
-1526.972917
 31
0.0
  0
LINE
  5
E2F
100
AcDbEntity
  8
0
  6
BYBLOCK
 62
     0
100
AcDbLine
 10
-1921.667484
 20
-1528.222917
 30
0.0
 11
-1924.167484
 21
-1528.222917
 31
0.0
  0
LINE
  5
E30
100
AcDbEntity
  8
0
  6
BYBLOCK
 62
     0
100
AcDbLine
 10
-1908.667484
 20
-1528.222917
 30
0.0
 11
-1906.167484
 21
-1528.222917
 31
0.0
  0
SOLID
  5
E31
100
AcDbEntity
  8
0
  6
BYBLOCK
 62
     0
100
AcDbTrace
 10
-1921.667484
 20
-1527.80625
 30
0.0
 11
-1921.667484
 21
-1528.639584
 31
0.0
 12
-1919.167484
 22
-1528.222917
 32
0.0
 13
-1919.167484
 23
-1528.222917
 33
0.0
  0
SOLID
  5
E32
100
AcDbEntity
  8
0
  6
BYBLOCK
 62
     0
100
AcDbTrace
 10
-1908.667484
 20
-1527.80625
 30
0.0
 11
-1908.667484
 21
-1528.639584
 31
0.0
 12
-1911.167484
 22
-1528.222917
 32
0.0
 13
-1911.167484
 23
-1528.222917
 33
0.0
  0
MTEXT
  5
E33
100
AcDbEntity
  8
0
  6
BYBLOCK
 62
     0
100
AcDbMText
 10
-1915.167484
 20
-1526.097917
 30
0.0
 40
3.0
 41
0.0
 71
     5
 72
     1
  1
\A1;{50}
  0
POINT
  5
E34
100
AcDbEntity
  8
DEFPOINTS
  6
BYBLOCK
 62
     0
100
AcDbPoint
 10
-1919.167484
 20
-1543.059823
 30
0.0
  0
POINT
  5
E35
100
AcDbEntity
  8
DEFPOINTS
  6
BYBLOCK
 62
     0
100
AcDbPoint
 10
-1911.167484
 20
-1547.059823
 30
0.0
  0
POINT
  5
E36
100
AcDbEntity
  8
DEFPOINTS
  6
BYBLOCK
 62
     0
100
AcDbPoint
 10
-1911.167484
 20
-1528.222917
 30
0.0
  0
ENDBLK
  5
E37
100
AcDbEntity
  8
0
100
AcDbBlockEnd
  0
BLOCK
  5
E5E
100
AcDbEntity
  8
0
100
AcDbBlockBegin
  2
*D45
 70
    65
 10
0.0
 20
0.0
 30
0.0
  3
*D45
  1

  0
LINE
  5
E5F
100
AcDbEntity
  8
0
  6
BYBLOCK
 62
     0
100
AcDbLine
 10
-1902.542484
 20
-1547.059823
 30
0.0
 11
-1892.108818
 21
-1547.059823
 31
0.0
  0
LINE
  5
E60
100
AcDbEntity
  8
0
  6
BYBLOCK
 62
     0
100
AcDbLine
 10
-1893.052443
 20
-1543.059823
 30
0.0
 11
-1892.108818
 21
-1543.059823
 31
0.0
  0
LINE
  5
E61
100
AcDbEntity
  8
0
  6
BYBLOCK
 62
     0
100
AcDbLine
 10
-1893.358818
 20
-1549.559823
 30
0.0
 11
-1893.358818
 21
-1552.059823
 31
0.0
  0
LINE
  5
E62
100
AcDbEntity
  8
0
  6
BYBLOCK
 62
     0
100
AcDbLine
 10
-1893.358818
 20
-1540.559823
 30
0.0
 11
-1893.358818
 21
-1533.174626
 31
0.0
  0
SOLID
  5
E63
100
AcDbEntity
  8
0
  6
BYBLOCK
 62
     0
100
AcDbTrace
 10
-1893.775484
 20
-1549.559823
 30
0.0
 11
-1892.942151
 21
-1549.559823
 31
0.0
 12
-1893.358818
 22
-1547.059823
 32
0.0
 13
-1893.358818
 23
-1547.059823
 33
0.0
  0
SOLID
  5
E64
100
AcDbEntity
  8
0
  6
BYBLOCK
 62
     0
100
AcDbTrace
 10
-1893.775484
 20
-1540.559823
 30
0.0
 11
-1892.942151
 21
-1540.559823
 31
0.0
 12
-1893.358818
 22
-1543.059823
 32
0.0
 13
-1893.358818
 23
-1543.059823
 33
0.0
  0
MTEXT
  5
E65
100
AcDbEntity
  8
0
  6
BYBLOCK
 62
     0
100
AcDbMText
 10
-1895.483818
 20
-1535.617224
 30
0.0
 40
3.0
 41
0.0
 71
     5
 72
     1
  1
\A1;{20}
 11
0.0
 21
1.0
 31
0.0
  0
POINT
  5
E66
100
AcDbEntity
  8
DEFPOINTS
  6
BYBLOCK
 62
     0
100
AcDbPoint
 10
-1903.167484
 20
-1547.059823
 30
0.0
  0
POINT
  5
E67
100
AcDbEntity
  8
DEFPOINTS
  6
BYBLOCK
 62
     0
100
AcDbPoint
 10
-1893.677443
 20
-1543.059823
 30
0.0
  0
POINT
  5
E68
100
AcDbEntity
  8
DEFPOINTS
  6
BYBLOCK
 62
     0
100
AcDbPoint
 10
-1893.358818
 20
-1543.059823
 30
0.0
  0
ENDBLK
  5
E69
100
AcDbEntity
  8
0
100
AcDbBlockEnd
  0
BLOCK
  5
F3A
100
AcDbEntity
  8
0
100
AcDbBlockBegin
  2
*D46
 70
    65
 10
0.0
 20
0.0
 30
0.0
  3
*D46
  1

  0
LINE
  5
F3B
100
AcDbEntity
  8
0
  6
BYBLOCK
 62
     0
100
AcDbLine
 10
-1815.02658
 20
-1429.654197
 30
0.0
 11
-1815.02658
 21
-1408.828522
 31
0.0
  0
LINE
  5
F3C
100
AcDbEntity
  8
0
  6
BYBLOCK
 62
     0
100
AcDbLine
 10
-1823.02658
 20
-1429.654197
 30
0.0
 11
-1823.02658
 21
-1408.828522
 31
0.0
  0
LINE
  5
F3D
100
AcDbEntity
  8
0
  6
BYBLOCK
 62
     0
100
AcDbLine
 10
-1820.52658
 20
-1410.078522
 30
0.0
 11
-1817.52658
 21
-1410.078522
 31
0.0
  0
LINE
  5
F3E
100
AcDbEntity
  8
0
  6
BYBLOCK
 62
     0
100
AcDbLine
 10
-1815.02658
 20
-1410.078522
 30
0.0
 11
-1797.210243
 21
-1410.078522
 31
0.0
  0
SOLID
  5
F3F
100
AcDbEntity
  8
0
  6
BYBLOCK
 62
     0
100
AcDbTrace
 10
-1820.52658
 20
-1409.661856
 30
0.0
 11
-1820.52658
 21
-1410.495189
 31
0.0
 12
-1823.02658
 22
-1410.078522
 32
0.0
 13
-1823.02658
 23
-1410.078522
 33
0.0
  0
SOLID
  5
F40
100
AcDbEntity
  8
0
  6
BYBLOCK
 62
     0
100
AcDbTrace
 10
-1817.52658
 20
-1409.661856
 30
0.0
 11
-1817.52658
 21
-1410.495189
 31
0.0
 12
-1815.02658
 22
-1410.078522
 32
0.0
 13
-1815.02658
 23
-1410.078522
 33
0.0
  0
MTEXT
  5
F41
100
AcDbEntity
  8
0
  6
BYBLOCK
 62
     0
100
AcDbMText
 10
-1802.422243
 20
-1407.953522
 30
0.0
 40
3.0
 41
0.0
 71
     5
 72
     1
  1
\A2;8{\H2.400000;±0.01}
  0
POINT
  5
F42
100
AcDbEntity
  8
DEFPOINTS
  6
BYBLOCK
 62
     0
100
AcDbPoint
 10
-1815.02658
 20
-1430.279197
 30
0.0
  0
POINT
  5
F43
100
AcDbEntity
  8
DEFPOINTS
  6
BYBLOCK
 62
     0
100
AcDbPoint
 10
-1823.02658
 20
-1430.279197
 30
0.0
  0
POINT
  5
F44
100
AcDbEntity
  8
DEFPOINTS
  6
BYBLOCK
 62
     0
100
AcDbPoint
 10
-1823.02658
 20
-1410.078522
 30
0.0
  0
ENDBLK
  5
F45
100
AcDbEntity
  8
0
100
AcDbBlockEnd
  0
BLOCK
  5
E9D
100
AcDbEntity
  8
0
100
AcDbBlockBegin
  2
*D47
 70
    65
 10
0.0
 20
0.0
 30
0.0
  3
*D47
  1

  0
LINE
  5
E9E
100
AcDbEntity
  8
0
  6
BYBLOCK
 62
     0
100
AcDbLine
 10
-1814.864818
 20
-1429.675493
 30
0.0
 11
-1806.443354
 21
-1398.246161
 31
0.0
  0
LINE
  5
E9F
100
AcDbEntity
  8
0
  6
BYBLOCK
 62
     0
100
AcDbLine
 10
-1823.188342
 20
-1429.675493
 30
0.0
 11
-1831.609806
 21
-1398.246161
 31
0.0
  0
ARC
  5
EA0
100
AcDbEntity
  8
0
  6
BYBLOCK
 62
     0
100
AcDbCircle
 10
-1819.02658
 20
-1445.2074
 30
0.0
 40
47.367852
100
AcDbArc
 50
78.024331
 51
101.975669
  0
SOLID
  5
EA1
100
AcDbEntity
  8
0
  6
BYBLOCK
 62
     0
100
AcDbTrace
 10
-1809.100744
 20
-1398.465297
 30
0.0
 11
-1809.29511
 21
-1399.275646
 31
0.0
 12
-1806.766878
 22
-1399.453569
 32
0.0
 13
-1806.766878
 23
-1399.453569
 33
0.0
  0
SOLID
  5
EA2
100
AcDbEntity
  8
0
  6
BYBLOCK
 62
     0
100
AcDbTrace
 10
-1828.758051
 20
-1399.275646
 30
0.0
 11
-1828.952417
 21
-1398.465297
 31
0.0
 12
-1831.286282
 22
-1399.453569
 32
0.0
 13
-1831.286282
 23
-1399.453569
 33
0.0
  0
MTEXT
  5
EA3
100
AcDbEntity
  8
0
  6
BYBLOCK
 62
     0
100
AcDbMText
 10
-1819.02658
 20
-1395.714548
 30
0.0
 40
3.0
 41
0.0
 71
     5
 72
     1
  1
\A1;30°
  0
POINT
  5
EA4
100
AcDbEntity
  8
DEFPOINTS
  6
BYBLOCK
 62
     0
100
AcDbPoint
 10
-1823.154961
 20
-1398.019797
 30
0.0
  0
POINT
  5
EA5
100
AcDbEntity
  8
DEFPOINTS
  6
BYBLOCK
 62
     0
100
AcDbPoint
 10
-1823.02658
 20
-1430.279197
 30
0.0
  0
POINT
  5
EA6
100
AcDbEntity
  8
DEFPOINTS
  6
BYBLOCK
 62
     0
100
AcDbPoint
 10
-1815.02658
 20
-1430.279197
 30
0.0
  0
POINT
  5
EA7
100
AcDbEntity
  8
DEFPOINTS
  6
BYBLOCK
 62
     0
100
AcDbPoint
 10
-1818.060654
 20
-1441.602516
 30
0.0
  0
POINT
  5
EA8
100
AcDbEntity
  8
DEFPOINTS
  6
BYBLOCK
 62
     0
100
AcDbPoint
 10
-1819.992506
 20
-1441.602516
 30
0.0
  0
ENDBLK
  5
EA9
100
AcDbEntity
  8
0
100
AcDbBlockEnd
  0
BLOCK
  5
EAC
100
AcDbEntity
  8
0
100
AcDbBlockBegin
  2
*D48
 70
    65
 10
0.0
 20
0.0
 30
0.0
  3
*D48
  1

  0
LINE
  5
EAD
100
AcDbEntity
  8
0
  6
BYBLOCK
 62
     0
100
AcDbLine
 10
-1820.965022
 20
-1444.257877
 30
0.0
 11
-1824.869597
 21
-1450.127867
 31
0.0
  0
SOLID
  5
EAE
100
AcDbEntity
  8
0
  6
BYBLOCK
 62
     0
100
AcDbTrace
 10
-1821.311948
 20
-1444.02711
 30
0.0
 11
-1820.618096
 21
-1444.488643
 31
0.0
 12
-1819.580421
 22
-1442.176319
 32
0.0
 13
-1819.580421
 23
-1442.176319
 33
0.0
  0
MTEXT
  5
EAF
100
AcDbEntity
  8
0
  6
BYBLOCK
 62
     0
100
AcDbMText
 10
-1825.378933
 20
-1447.05674
 30
0.0
 40
3.0
 41
0.0
 71
     5
 72
     1
  1
\A1;R1
 11
0.55384
 21
0.832623
 31
0.0
  0
POINT
  5
EB0
100
AcDbEntity
  8
DEFPOINTS
  6
BYBLOCK
 62
     0
100
AcDbPoint
 10
-1819.580421
 20
-1442.176319
 30
0.0
  0
POINT
  5
EB1
100
AcDbEntity
  8
DEFPOINTS
  6
BYBLOCK
 62
     0
100
AcDbPoint
 10
-1819.02658
 20
-1441.343697
 30
0.0
  0
ENDBLK
  5
EB2
100
AcDbEntity
  8
0
100
AcDbBlockEnd
  0
BLOCK
  5
EB7
100
AcDbEntity
  8
0
100
AcDbBlockBegin
  2
*D49
 70
    65
 10
0.0
 20
0.0
 30
0.0
  3
*D49
  1

  0
LINE
  5
EB8
100
AcDbEntity
  8
0
  6
BYBLOCK
 62
     0
100
AcDbLine
 10
-1821.965325
 20
-1428.221431
 30
0.0
 11
-1815.188325
 21
-1416.595822
 31
0.0
  0
SOLID
  5
EB9
100
AcDbEntity
  8
0
  6
BYBLOCK
 62
     0
100
AcDbTrace
 10
-1822.325295
 20
-1428.011591
 30
0.0
 11
-1821.605355
 21
-1428.431271
 31
0.0
 12
-1823.224364
 22
-1430.381251
 32
0.0
 13
-1823.224364
 23
-1430.381251
 33
0.0
  0
MTEXT
  5
EBA
100
AcDbEntity
  8
0
  6
BYBLOCK
 62
     0
100
AcDbMText
 10
-1819.783152
 20
-1420.258533
 30
0.0
 40
3.0
 41
0.0
 71
     5
 72
     1
  1
\A1;R0.75
 11
0.503616
 21
0.863928
 31
0.0
  0
POINT
  5
EBB
100
AcDbEntity
  8
DEFPOINTS
  6
BYBLOCK
 62
     0
100
AcDbPoint
 10
-1823.224364
 20
-1430.381251
 30
0.0
  0
POINT
  5
EBC
100
AcDbEntity
  8
DEFPOINTS
  6
BYBLOCK
 62
     0
100
AcDbPoint
 10
-1823.602075
 20
-1431.029197
 30
0.0
  0
ENDBLK
  5
EBD
100
AcDbEntity
  8
0
100
AcDbBlockEnd
  0
BLOCK
  5
EDE
100
AcDbEntity
  8
0
100
AcDbBlockBegin
  2
*X50
 70
    65
 10
0.0
 20
0.0
 30
0.0
  3
*X50
  1

  0
LINE
  5
EE0
100
AcDbEntity
  8
0
 62
     0
100
AcDbLine
 10
-1822.221635
 20
-1434.050064
 30
0.0
 11
-1822.059597
 21
-1433.888026
 31
0.0
  0
LINE
  5
EE1
100
AcDbEntity
  8
0
 62
     0
100
AcDbLine
 10
-1822.463067
 20
-1433.977187
 30
0.0
 11
-1822.126019
 21
-1433.640139
 31
0.0
  0
LINE
  5
EE2
100
AcDbEntity
  8
0
 62
     0
100
AcDbLine
 10
-1822.704499
 20
-1433.90431
 30
0.0
 11
-1822.19244
 21
-1433.392251
 31
0.0
  0
LINE
  5
EE3
100
AcDbEntity
  8
0
 62
     0
100
AcDbLine
 10
-1822.945931
 20
-1433.831433
 30
0.0
 11
-1822.258861
 21
-1433.144363
 31
0.0
  0
LINE
  5
EE4
100
AcDbEntity
  8
0
 62
     0
100
AcDbLine
 10
-1823.187363
 20
-1433.758556
 30
0.0
 11
-1822.325282
 21
-1432.896476
 31
0.0
  0
LINE
  5
EE5
100
AcDbEntity
  8
0
 62
     0
100
AcDbLine
 10
-1823.428795
 20
-1433.685679
 30
0.0
 11
-1822.391704
 21
-1432.648588
 31
0.0
  0
LINE
  5
EE6
100
AcDbEntity
  8
0
 62
     0
100
AcDbLine
 10
-1823.670226
 20
-1433.612802
 30
0.0
 11
-1822.458125
 21
-1432.4007
 31
0.0
  0
LINE
  5
EE7
100
AcDbEntity
  8
0
 62
     0
100
AcDbLine
 10
-1823.911658
 20
-1433.539925
 30
0.0
 11
-1822.524546
 21
-1432.152813
 31
0.0
  0
LINE
  5
EE8
100
AcDbEntity
  8
0
 62
     0
100
AcDbLine
 10
-1824.15309
 20
-1433.467048
 30
0.0
 11
-1822.590968
 21
-1431.904925
 31
0.0
  0
LINE
  5
EE9
100
AcDbEntity
  8
0
 62
     0
100
AcDbLine
 10
-1824.394522
 20
-1433.39417
 30
0.0
 11
-1822.657389
 21
-1431.657037
 31
0.0
  0
LINE
  5
EEA
100
AcDbEntity
  8
0
 62
     0
100
AcDbLine
 10
-1824.635954
 20
-1433.321293
 30
0.0
 11
-1822.72381
 21
-1431.40915
 31
0.0
  0
LINE
  5
EEB
100
AcDbEntity
  8
0
 62
     0
100
AcDbLine
 10
-1824.877386
 20
-1433.248416
 30
0.0
 11
-1822.790232
 21
-1431.161262
 31
0.0
  0
LINE
  5
EEC
100
AcDbEntity
  8
0
 62
     0
100
AcDbLine
 10
-1825.118818
 20
-1433.175539
 30
0.0
 11
-1822.856653
 21
-1430.913374
 31
0.0
  0
LINE
  5
EED
100
AcDbEntity
  8
0
 62
     0
100
AcDbLine
 10
-1825.360249
 20
-1433.102662
 30
0.0
 11
-1822.938072
 21
-1430.680485
 31
0.0
  0
LINE
  5
EEE
100
AcDbEntity
  8
0
 62
     0
100
AcDbLine
 10
-1825.601681
 20
-1433.029785
 30
0.0
 11
-1823.071254
 21
-1430.499358
 31
0.0
  0
LINE
  5
EEF
100
AcDbEntity
  8
0
 62
     0
100
AcDbLine
 10
-1825.843113
 20
-1432.956908
 30
0.0
 11
-1823.252077
 21
-1430.365871
 31
0.0
  0
LINE
  5
EF0
100
AcDbEntity
  8
0
 62
     0
100
AcDbLine
 10
-1826.084545
 20
-1432.884031
 30
0.0
 11
-1823.488379
 21
-1430.287865
 31
0.0
  0
LINE
  5
EF1
100
AcDbEntity
  8
0
 62
     0
100
AcDbLine
 10
-1826.325977
 20
-1432.811154
 30
0.0
 11
-1823.79402
 21
-1430.279197
 31
0.0
  0
LINE
  5
EF2
100
AcDbEntity
  8
0
 62
     0
100
AcDbLine
 10
-1826.567409
 20
-1432.738277
 30
0.0
 11
-1824.108329
 21
-1430.279197
 31
0.0
  0
LINE
  5
EF3
100
AcDbEntity
  8
0
 62
     0
100
AcDbLine
 10
-1826.808841
 20
-1432.665399
 30
0.0
 11
-1824.422638
 21
-1430.279197
 31
0.0
  0
LINE
  5
EF4
100
AcDbEntity
  8
0
 62
     0
100
AcDbLine
 10
-1827.050272
 20
-1432.592522
 30
0.0
 11
-1824.736947
 21
-1430.279197
 31
0.0
  0
LINE
  5
EF5
100
AcDbEntity
  8
0
 62
     0
100
AcDbLine
 10
-1827.291704
 20
-1432.519645
 30
0.0
 11
-1825.051256
 21
-1430.279197
 31
0.0
  0
LINE
  5
EF6
100
AcDbEntity
  8
0
 62
     0
100
AcDbLine
 10
-1827.533136
 20
-1432.446768
 30
0.0
 11
-1825.365565
 21
-1430.279197
 31
0.0
  0
LINE
  5
EF7
100
AcDbEntity
  8
0
 62
     0
100
AcDbLine
 10
-1827.774568
 20
-1432.373891
 30
0.0
 11
-1825.679874
 21
-1430.279197
 31
0.0
  0
LINE
  5
EF8
100
AcDbEntity
  8
0
 62
     0
100
AcDbLine
 10
-1828.016
 20
-1432.301014
 30
0.0
 11
-1825.994183
 21
-1430.279197
 31
0.0
  0
LINE
  5
EF9
100
AcDbEntity
  8
0
 62
     0
100
AcDbLine
 10
-1828.257432
 20
-1432.228137
 30
0.0
 11
-1826.308492
 21
-1430.279197
 31
0.0
  0
LINE
  5
EFA
100
AcDbEntity
  8
0
 62
     0
100
AcDbLine
 10
-1828.498864
 20
-1432.15526
 30
0.0
 11
-1826.622801
 21
-1430.279197
 31
0.0
  0
LINE
  5
EFB
100
AcDbEntity
  8
0
 62
     0
100
AcDbLine
 10
-1828.740295
 20
-1432.082383
 30
0.0
 11
-1826.93711
 21
-1430.279197
 31
0.0
  0
LINE
  5
EFC
100
AcDbEntity
  8
0
 62
     0
100
AcDbLine
 10
-1828.981727
 20
-1432.009506
 30
0.0
 11
-1827.251419
 21
-1430.279197
 31
0.0
  0
LINE
  5
EFD
100
AcDbEntity
  8
0
 62
     0
100
AcDbLine
 10
-1829.02658
 20
-1431.740049
 30
0.0
 11
-1827.565728
 21
-1430.279197
 31
0.0
  0
LINE
  5
EFE
100
AcDbEntity
  8
0
 62
     0
100
AcDbLine
 10
-1829.02658
 20
-1431.42574
 30
0.0
 11
-1827.880036
 21
-1430.279197
 31
0.0
  0
LINE
  5
EFF
100
AcDbEntity
  8
0
 62
     0
100
AcDbLine
 10
-1815.145356
 20
-1430.745493
 30
0.0
 11
-1814.734789
 21
-1430.334926
 31
0.0
  0
LINE
  5
F00
100
AcDbEntity
  8
0
 62
     0
100
AcDbLine
 10
-1815.268827
 20
-1431.183272
 30
0.0
 11
-1814.364751
 21
-1430.279197
 31
0.0
  0
LINE
  5
F01
100
AcDbEntity
  8
0
 62
     0
100
AcDbLine
 10
-1815.383872
 20
-1431.612626
 30
0.0
 11
-1814.050442
 21
-1430.279197
 31
0.0
  0
LINE
  5
F02
100
AcDbEntity
  8
0
 62
     0
100
AcDbLine
 10
-1815.498917
 20
-1432.04198
 30
0.0
 11
-1813.736133
 21
-1430.279197
 31
0.0
  0
LINE
  5
F03
100
AcDbEntity
  8
0
 62
     0
100
AcDbLine
 10
-1815.613962
 20
-1432.471334
 30
0.0
 11
-1813.421824
 21
-1430.279197
 31
0.0
  0
LINE
  5
F04
100
AcDbEntity
  8
0
 62
     0
100
AcDbLine
 10
-1815.729007
 20
-1432.900688
 30
0.0
 11
-1813.107515
 21
-1430.279197
 31
0.0
  0
LINE
  5
F05
100
AcDbEntity
  8
0
 62
     0
100
AcDbLine
 10
-1815.844052
 20
-1433.330042
 30
0.0
 11
-1812.793206
 21
-1430.279197
 31
0.0
  0
LINE
  5
F06
100
AcDbEntity
  8
0
 62
     0
100
AcDbLine
 10
-1815.959097
 20
-1433.759396
 30
0.0
 11
-1812.478897
 21
-1430.279197
 31
0.0
  0
LINE
  5
F07
100
AcDbEntity
  8
0
 62
     0
100
AcDbLine
 10
-1815.980392
 20
-1434.095
 30
0.0
 11
-1812.164588
 21
-1430.279197
 31
0.0
  0
LINE
  5
F08
100
AcDbEntity
  8
0
 62
     0
100
AcDbLine
 10
-1815.530187
 20
-1433.959104
 30
0.0
 11
-1811.850279
 21
-1430.279197
 31
0.0
  0
LINE
  5
F09
100
AcDbEntity
  8
0
 62
     0
100
AcDbLine
 10
-1815.079982
 20
-1433.823208
 30
0.0
 11
-1811.53597
 21
-1430.279197
 31
0.0
  0
LINE
  5
F0A
100
AcDbEntity
  8
0
 62
     0
100
AcDbLine
 10
-1814.629777
 20
-1433.687312
 30
0.0
 11
-1811.221661
 21
-1430.279197
 31
0.0
  0
LINE
  5
F0B
100
AcDbEntity
  8
0
 62
     0
100
AcDbLine
 10
-1814.179572
 20
-1433.551416
 30
0.0
 11
-1810.907352
 21
-1430.279197
 31
0.0
  0
LINE
  5
F0C
100
AcDbEntity
  8
0
 62
     0
100
AcDbLine
 10
-1813.729367
 20
-1433.41552
 30
0.0
 11
-1810.593043
 21
-1430.279197
 31
0.0
  0
LINE
  5
F0D
100
AcDbEntity
  8
0
 62
     0
100
AcDbLine
 10
-1813.279162
 20
-1433.279624
 30
0.0
 11
-1810.278734
 21
-1430.279197
 31
0.0
  0
LINE
  5
F0E
100
AcDbEntity
  8
0
 62
     0
100
AcDbLine
 10
-1812.828957
 20
-1433.143728
 30
0.0
 11
-1809.995503
 21
-1430.310274
 31
0.0
  0
LINE
  5
F0F
100
AcDbEntity
  8
0
 62
     0
100
AcDbLine
 10
-1812.378752
 20
-1433.007832
 30
0.0
 11
-1809.838348
 21
-1430.467429
 31
0.0
  0
LINE
  5
F10
100
AcDbEntity
  8
0
 62
     0
100
AcDbLine
 10
-1811.928547
 20
-1432.871936
 30
0.0
 11
-1809.681194
 21
-1430.624583
 31
0.0
  0
LINE
  5
F11
100
AcDbEntity
  8
0
 62
     0
100
AcDbLine
 10
-1811.478342
 20
-1432.73604
 30
0.0
 11
-1809.524039
 21
-1430.781738
 31
0.0
  0
LINE
  5
F12
100
AcDbEntity
  8
0
 62
     0
100
AcDbLine
 10
-1811.028137
 20
-1432.600144
 30
0.0
 11
-1809.366885
 21
-1430.938892
 31
0.0
  0
LINE
  5
F13
100
AcDbEntity
  8
0
 62
     0
100
AcDbLine
 10
-1810.577932
 20
-1432.464248
 30
0.0
 11
-1809.20973
 21
-1431.096046
 31
0.0
  0
LINE
  5
F14
100
AcDbEntity
  8
0
 62
     0
100
AcDbLine
 10
-1810.127727
 20
-1432.328352
 30
0.0
 11
-1809.052576
 21
-1431.253201
 31
0.0
  0
LINE
  5
F15
100
AcDbEntity
  8
0
 62
     0
100
AcDbLine
 10
-1809.677522
 20
-1432.192456
 30
0.0
 11
-1809.02658
 21
-1431.541514
 31
0.0
  0
LINE
  5
F16
100
AcDbEntity
  8
0
 62
     0
100
AcDbLine
 10
-1809.227317
 20
-1432.05656
 30
0.0
 11
-1809.02658
 21
-1431.855823
 31
0.0
  0
ENDBLK
  5
F17
100
AcDbEntity
  8
0
100
AcDbBlockEnd
  0
BLOCK
  5
F62
100
AcDbEntity
  8
0
100
AcDbBlockBegin
  2
*X51
 70
    65
 10
0.0
 20
0.0
 30
0.0
  3
*X51
  1

  0
LINE
  5
F64
100
AcDbEntity
  8
0
 62
     0
100
AcDbLine
 10
-1597.413552
 20
-1451.574193
 30
0.0
 11
-1597.130673
 21
-1451.291313
 31
0.0
  0
LINE
  5
F65
100
AcDbEntity
  8
0
 62
     0
100
AcDbLine
 10
-1597.633078
 20
-1451.479409
 30
0.0
 11
-1597.197094
 21
-1451.043426
 31
0.0
  0
LINE
  5
F66
100
AcDbEntity
  8
0
 62
     0
100
AcDbLine
 10
-1597.852603
 20
-1451.384626
 30
0.0
 11
-1597.263515
 21
-1450.795538
 31
0.0
  0
LINE
  5
F67
100
AcDbEntity
  8
0
 62
     0
100
AcDbLine
 10
-1598.072128
 20
-1451.289842
 30
0.0
 11
-1597.329937
 21
-1450.54765
 31
0.0
  0
LINE
  5
F68
100
AcDbEntity
  8
0
 62
     0
100
AcDbLine
 10
-1598.291654
 20
-1451.195058
 30
0.0
 11
-1597.396358
 21
-1450.299763
 31
0.0
  0
LINE
  5
F69
100
AcDbEntity
  8
0
 62
     0
100
AcDbLine
 10
-1598.511179
 20
-1451.100275
 30
0.0
 11
-1597.462779
 21
-1450.051875
 31
0.0
  0
LINE
  5
F6A
100
AcDbEntity
  8
0
 62
     0
100
AcDbLine
 10
-1598.730704
 20
-1451.005491
 30
0.0
 11
-1597.529201
 21
-1449.803987
 31
0.0
  0
LINE
  5
F6B
100
AcDbEntity
  8
0
 62
     0
100
AcDbLine
 10
-1598.95023
 20
-1450.910707
 30
0.0
 11
-1597.595622
 21
-1449.5561
 31
0.0
  0
LINE
  5
F6C
100
AcDbEntity
  8
0
 62
     0
100
AcDbLine
 10
-1599.169755
 20
-1450.815924
 30
0.0
 11
-1597.662043
 21
-1449.308212
 31
0.0
  0
LINE
  5
F6D
100
AcDbEntity
  8
0
 62
     0
100
AcDbLine
 10
-1599.38928
 20
-1450.72114
 30
0.0
 11
-1597.728465
 21
-1449.060324
 31
0.0
  0
LINE
  5
F6E
100
AcDbEntity
  8
0
 62
     0
100
AcDbLine
 10
-1599.608805
 20
-1450.626356
 30
0.0
 11
-1597.794886
 21
-1448.812437
 31
0.0
  0
LINE
  5
F6F
100
AcDbEntity
  8
0
 62
     0
100
AcDbLine
 10
-1599.828331
 20
-1450.531573
 30
0.0
 11
-1597.861307
 21
-1448.564549
 31
0.0
  0
LINE
  5
F70
100
AcDbEntity
  8
0
 62
     0
100
AcDbLine
 10
-1600.047856
 20
-1450.436789
 30
0.0
 11
-1597.927728
 21
-1448.316661
 31
0.0
  0
LINE
  5
F71
100
AcDbEntity
  8
0
 62
     0
100
AcDbLine
 10
-1600.267381
 20
-1450.342005
 30
0.0
 11
-1597.99415
 21
-1448.068774
 31
0.0
  0
LINE
  5
F72
100
AcDbEntity
  8
0
 62
     0
100
AcDbLine
 10
-1600.486907
 20
-1450.247222
 30
0.0
 11
-1598.060571
 21
-1447.820886
 31
0.0
  0
LINE
  5
F73
100
AcDbEntity
  8
0
 62
     0
100
AcDbLine
 10
-1600.706432
 20
-1450.152438
 30
0.0
 11
-1598.126992
 21
-1447.572998
 31
0.0
  0
LINE
  5
F74
100
AcDbEntity
  8
0
 62
     0
100
AcDbLine
 10
-1600.925957
 20
-1450.057655
 30
0.0
 11
-1598.193414
 21
-1447.325111
 31
0.0
  0
LINE
  5
F75
100
AcDbEntity
  8
0
 62
     0
100
AcDbLine
 10
-1601.145483
 20
-1449.962871
 30
0.0
 11
-1598.259835
 21
-1447.077223
 31
0.0
  0
LINE
  5
F76
100
AcDbEntity
  8
0
 62
     0
100
AcDbLine
 10
-1601.365008
 20
-1449.868087
 30
0.0
 11
-1598.326256
 21
-1446.829336
 31
0.0
  0
LINE
  5
F77
100
AcDbEntity
  8
0
 62
     0
100
AcDbLine
 10
-1601.584533
 20
-1449.773304
 30
0.0
 11
-1598.392678
 21
-1446.581448
 31
0.0
  0
LINE
  5
F78
100
AcDbEntity
  8
0
 62
     0
100
AcDbLine
 10
-1601.804059
 20
-1449.67852
 30
0.0
 11
-1598.459099
 21
-1446.33356
 31
0.0
  0
LINE
  5
F79
100
AcDbEntity
  8
0
 62
     0
100
AcDbLine
 10
-1602.023584
 20
-1449.583736
 30
0.0
 11
-1598.52552
 21
-1446.085673
 31
0.0
  0
LINE
  5
F7A
100
AcDbEntity
  8
0
 62
     0
100
AcDbLine
 10
-1602.243109
 20
-1449.488953
 30
0.0
 11
-1598.657425
 21
-1445.903269
 31
0.0
  0
LINE
  5
F7B
100
AcDbEntity
  8
0
 62
     0
100
AcDbLine
 10
-1602.462635
 20
-1449.394169
 30
0.0
 11
-1598.971734
 21
-1445.903269
 31
0.0
  0
LINE
  5
F7C
100
AcDbEntity
  8
0
 62
     0
100
AcDbLine
 10
-1602.68216
 20
-1449.299385
 30
0.0
 11
-1599.286043
 21
-1445.903269
 31
0.0
  0
LINE
  5
F7D
100
AcDbEntity
  8
0
 62
     0
100
AcDbLine
 10
-1602.901685
 20
-1449.204602
 30
0.0
 11
-1599.600352
 21
-1445.903269
 31
0.0
  0
LINE
  5
F7E
100
AcDbEntity
  8
0
 62
     0
100
AcDbLine
 10
-1603.121211
 20
-1449.109818
 30
0.0
 11
-1599.914661
 21
-1445.903269
 31
0.0
  0
LINE
  5
F7F
100
AcDbEntity
  8
0
 62
     0
100
AcDbLine
 10
-1603.340736
 20
-1449.015034
 30
0.0
 11
-1600.22897
 21
-1445.903269
 31
0.0
  0
LINE
  5
F80
100
AcDbEntity
  8
0
 62
     0
100
AcDbLine
 10
-1603.560261
 20
-1448.920251
 30
0.0
 11
-1600.543279
 21
-1445.903269
 31
0.0
  0
LINE
  5
F81
100
AcDbEntity
  8
0
 62
     0
100
AcDbLine
 10
-1603.779786
 20
-1448.825467
 30
0.0
 11
-1600.857588
 21
-1445.903269
 31
0.0
  0
LINE
  5
F82
100
AcDbEntity
  8
0
 62
     0
100
AcDbLine
 10
-1603.999312
 20
-1448.730683
 30
0.0
 11
-1601.171897
 21
-1445.903269
 31
0.0
  0
LINE
  5
F83
100
AcDbEntity
  8
0
 62
     0
100
AcDbLine
 10
-1604.218837
 20
-1448.6359
 30
0.0
 11
-1601.486206
 21
-1445.903269
 31
0.0
  0
LINE
  5
F84
100
AcDbEntity
  8
0
 62
     0
100
AcDbLine
 10
-1604.438362
 20
-1448.541116
 30
0.0
 11
-1601.800515
 21
-1445.903269
 31
0.0
  0
LINE
  5
F85
100
AcDbEntity
  8
0
 62
     0
100
AcDbLine
 10
-1604.657888
 20
-1448.446333
 30
0.0
 11
-1602.114824
 21
-1445.903269
 31
0.0
  0
LINE
  5
F86
100
AcDbEntity
  8
0
 62
     0
100
AcDbLine
 10
-1604.877413
 20
-1448.351549
 30
0.0
 11
-1602.429133
 21
-1445.903269
 31
0.0
  0
LINE
  5
F87
100
AcDbEntity
  8
0
 62
     0
100
AcDbLine
 10
-1605.096938
 20
-1448.256765
 30
0.0
 11
-1602.743442
 21
-1445.903269
 31
0.0
  0
LINE
  5
F88
100
AcDbEntity
  8
0
 62
     0
100
AcDbLine
 10
-1605.154531
 20
-1448.000049
 30
0.0
 11
-1603.057751
 21
-1445.903269
 31
0.0
  0
LINE
  5
F89
100
AcDbEntity
  8
0
 62
     0
100
AcDbLine
 10
-1605.154531
 20
-1447.68574
 30
0.0
 11
-1603.37206
 21
-1445.903269
 31
0.0
  0
LINE
  5
F8A
100
AcDbEntity
  8
0
 62
     0
100
AcDbLine
 10
-1605.154531
 20
-1447.371431
 30
0.0
 11
-1603.686369
 21
-1445.903269
 31
0.0
  0
LINE
  5
F8B
100
AcDbEntity
  8
0
 62
     0
100
AcDbLine
 10
-1605.154531
 20
-1447.057122
 30
0.0
 11
-1604.000678
 21
-1445.903269
 31
0.0
  0
LINE
  5
F8C
100
AcDbEntity
  8
0
 62
     0
100
AcDbLine
 10
-1597.194027
 20
-1451.668977
 30
0.0
 11
-1597.064252
 21
-1451.539201
 31
0.0
  0
LINE
  5
F8D
100
AcDbEntity
  8
0
 62
     0
100
AcDbLine
 10
-1591.142228
 20
-1445.931486
 30
0.0
 11
-1591.11401
 21
-1445.903269
 31
0.0
  0
LINE
  5
F8E
100
AcDbEntity
  8
0
 62
     0
100
AcDbLine
 10
-1591.257273
 20
-1446.36084
 30
0.0
 11
-1590.799701
 21
-1445.903269
 31
0.0
  0
LINE
  5
F8F
100
AcDbEntity
  8
0
 62
     0
100
AcDbLine
 10
-1591.372318
 20
-1446.790194
 30
0.0
 11
-1590.485392
 21
-1445.903269
 31
0.0
  0
LINE
  5
F90
100
AcDbEntity
  8
0
 62
     0
100
AcDbLine
 10
-1591.487363
 20
-1447.219548
 30
0.0
 11
-1590.171083
 21
-1445.903269
 31
0.0
  0
LINE
  5
F91
100
AcDbEntity
  8
0
 62
     0
100
AcDbLine
 10
-1591.602408
 20
-1447.648903
 30
0.0
 11
-1589.856774
 21
-1445.903269
 31
0.0
  0
LINE
  5
F92
100
AcDbEntity
  8
0
 62
     0
100
AcDbLine
 10
-1591.717453
 20
-1448.078257
 30
0.0
 11
-1589.542465
 21
-1445.903269
 31
0.0
  0
LINE
  5
F93
100
AcDbEntity
  8
0
 62
     0
100
AcDbLine
 10
-1591.832498
 20
-1448.507611
 30
0.0
 11
-1589.228156
 21
-1445.903269
 31
0.0
  0
LINE
  5
F94
100
AcDbEntity
  8
0
 62
     0
100
AcDbLine
 10
-1591.947543
 20
-1448.936965
 30
0.0
 11
-1588.913847
 21
-1445.903269
 31
0.0
  0
LINE
  5
F95
100
AcDbEntity
  8
0
 62
     0
100
AcDbLine
 10
-1592.062588
 20
-1449.366319
 30
0.0
 11
-1588.599538
 21
-1445.903269
 31
0.0
  0
LINE
  5
F96
100
AcDbEntity
  8
0
 62
     0
100
AcDbLine
 10
-1592.177633
 20
-1449.795673
 30
0.0
 11
-1588.285229
 21
-1445.903269
 31
0.0
  0
LINE
  5
F97
100
AcDbEntity
  8
0
 62
     0
100
AcDbLine
 10
-1592.292679
 20
-1450.225027
 30
0.0
 11
-1587.97092
 21
-1445.903269
 31
0.0
  0
LINE
  5
F98
100
AcDbEntity
  8
0
 62
     0
100
AcDbLine
 10
-1592.407724
 20
-1450.654381
 30
0.0
 11
-1587.656611
 21
-1445.903269
 31
0.0
  0
LINE
  5
F99
100
AcDbEntity
  8
0
 62
     0
100
AcDbLine
 10
-1592.522769
 20
-1451.083735
 30
0.0
 11
-1587.342302
 21
-1445.903269
 31
0.0
  0
LINE
  5
F9A
100
AcDbEntity
  8
0
 62
     0
100
AcDbLine
 10
-1592.637814
 20
-1451.513089
 30
0.0
 11
-1587.027993
 21
-1445.903269
 31
0.0
  0
LINE
  5
F9B
100
AcDbEntity
  8
0
 62
     0
100
AcDbLine
 10
-1592.45231
 20
-1451.641894
 30
0.0
 11
-1586.713685
 21
-1445.903269
 31
0.0
  0
LINE
  5
F9C
100
AcDbEntity
  8
0
 62
     0
100
AcDbLine
 10
-1591.899177
 20
-1451.403069
 30
0.0
 11
-1586.399376
 21
-1445.903269
 31
0.0
  0
LINE
  5
F9D
100
AcDbEntity
  8
0
 62
     0
100
AcDbLine
 10
-1591.346043
 20
-1451.164245
 30
0.0
 11
-1586.085067
 21
-1445.903269
 31
0.0
  0
LINE
  5
F9E
100
AcDbEntity
  8
0
 62
     0
100
AcDbLine
 10
-1590.79291
 20
-1450.925421
 30
0.0
 11
-1585.770758
 21
-1445.903269
 31
0.0
  0
LINE
  5
F9F
100
AcDbEntity
  8
0
 62
     0
100
AcDbLine
 10
-1590.239777
 20
-1450.686596
 30
0.0
 11
-1585.50549
 21
-1445.95231
 31
0.0
  0
LINE
  5
FA0
100
AcDbEntity
  8
0
 62
     0
100
AcDbLine
 10
-1589.686643
 20
-1450.447772
 30
0.0
 11
-1585.348335
 21
-1446.109464
 31
0.0
  0
LINE
  5
FA1
100
AcDbEntity
  8
0
 62
     0
100
AcDbLine
 10
-1589.13351
 20
-1450.208948
 30
0.0
 11
-1585.191181
 21
-1446.266619
 31
0.0
  0
LINE
  5
FA2
100
AcDbEntity
  8
0
 62
     0
100
AcDbLine
 10
-1588.580377
 20
-1449.970123
 30
0.0
 11
-1585.034026
 21
-1446.423773
 31
0.0
  0
LINE
  5
FA3
100
AcDbEntity
  8
0
 62
     0
100
AcDbLine
 10
-1588.027243
 20
-1449.731299
 30
0.0
 11
-1584.876872
 21
-1446.580928
 31
0.0
  0
LINE
  5
FA4
100
AcDbEntity
  8
0
 62
     0
100
AcDbLine
 10
-1587.47411
 20
-1449.492475
 30
0.0
 11
-1584.719717
 21
-1446.738082
 31
0.0
  0
LINE
  5
FA5
100
AcDbEntity
  8
0
 62
     0
100
AcDbLine
 10
-1586.920977
 20
-1449.25365
 30
0.0
 11
-1584.562563
 21
-1446.895237
 31
0.0
  0
LINE
  5
FA6
100
AcDbEntity
  8
0
 62
     0
100
AcDbLine
 10
-1586.367843
 20
-1449.014826
 30
0.0
 11
-1584.554531
 21
-1447.201514
 31
0.0
  0
LINE
  5
FA7
100
AcDbEntity
  8
0
 62
     0
100
AcDbLine
 10
-1585.81471
 20
-1448.776002
 30
0.0
 11
-1584.554531
 21
-1447.515823
 31
0.0
  0
LINE
  5
FA8
100
AcDbEntity
  8
0
 62
     0
100
AcDbLine
 10
-1585.261577
 20
-1448.537177
 30
0.0
 11
-1584.554531
 21
-1447.830132
 31
0.0
  0
LINE
  5
FA9
100
AcDbEntity
  8
0
 62
     0
100
AcDbLine
 10
-1584.708443
 20
-1448.298353
 30
0.0
 11
-1584.554531
 21
-1448.144441
 31
0.0
  0
ENDBLK
  5
FAA
100
AcDbEntity
  8
0
100
AcDbBlockEnd
  0
BLOCK
  5
FE1
100
AcDbEntity
  8
0
100
AcDbBlockBegin
  2
*D52
 70
    65
 10
0.0
 20
0.0
 30
0.0
  3
*D52
  1

  0
LINE
  5
FE2
100
AcDbEntity
  8
0
  6
BYBLOCK
 62
     0
100
AcDbLine
 10
-1591.134667
 20
-1445.278269
 30
0.0
 11
-1591.134667
 21
-1423.693164
 31
0.0
  0
LINE
  5
FE3
100
AcDbEntity
  8
0
  6
BYBLOCK
 62
     0
100
AcDbLine
 10
-1598.574395
 20
-1445.278269
 30
0.0
 11
-1598.574395
 21
-1423.693164
 31
0.0
  0
LINE
  5
FE4
100
AcDbEntity
  8
0
  6
BYBLOCK
 62
     0
100
AcDbLine
 10
-1596.074395
 20
-1424.943164
 30
0.0
 11
-1593.634667
 21
-1424.943164
 31
0.0
  0
LINE
  5
FE5
100
AcDbEntity
  8
0
  6
BYBLOCK
 62
     0
100
AcDbLine
 10
-1591.134667
 20
-1424.943164
 30
0.0
 11
-1566.318556
 21
-1424.943164
 31
0.0
  0
SOLID
  5
FE6
100
AcDbEntity
  8
0
  6
BYBLOCK
 62
     0
100
AcDbTrace
 10
-1596.074395
 20
-1424.526498
 30
0.0
 11
-1596.074395
 21
-1425.359831
 31
0.0
 12
-1598.574395
 22
-1424.943164
 32
0.0
 13
-1598.574395
 23
-1424.943164
 33
0.0
  0
SOLID
  5
FE7
100
AcDbEntity
  8
0
  6
BYBLOCK
 62
     0
100
AcDbTrace
 10
-1593.634667
 20
-1424.526498
 30
0.0
 11
-1593.634667
 21
-1425.359831
 31
0.0
 12
-1591.134667
 22
-1424.943164
 32
0.0
 13
-1591.134667
 23
-1424.943164
 33
0.0
  0
MTEXT
  5
FE8
100
AcDbEntity
  8
0
  6
BYBLOCK
 62
     0
100
AcDbMText
 10
-1574.863556
 20
-1420.966983
 30
0.0
 40
3.0
 41
0.0
 71
     5
 72
     1
  1
\A1;7.44\S-0.1^  0;
  0
POINT
  5
FE9
100
AcDbEntity
  8
DEFPOINTS
  6
BYBLOCK
 62
     0
100
AcDbPoint
 10
-1591.134667
 20
-1445.903269
 30
0.0
  0
POINT
  5
FEA
100
AcDbEntity
  8
DEFPOINTS
  6
BYBLOCK
 62
     0
100
AcDbPoint
 10
-1598.574395
 20
-1445.903269
 30
0.0
  0
POINT
  5
FEB
100
AcDbEntity
  8
DEFPOINTS
  6
BYBLOCK
 62
     0
100
AcDbPoint
 10
-1598.574395
 20
-1424.943164
 30
0.0
  0
ENDBLK
  5
FEC
100
AcDbEntity
  8
0
100
AcDbBlockEnd
  0
BLOCK
  5
FC7
100
AcDbEntity
  8
0
100
AcDbBlockBegin
  2
*D53
 70
    65
 10
0.0
 20
0.0
 30
0.0
  3
*D53
  1

  0
LINE
  5
FC8
100
AcDbEntity
  8
0
  6
BYBLOCK
 62
     0
100
AcDbLine
 10
-1590.972905
 20
-1445.299565
 30
0.0
 11
-1582.876828
 21
-1415.084594
 31
0.0
  0
LINE
  5
FC9
100
AcDbEntity
  8
0
  6
BYBLOCK
 62
     0
100
AcDbLine
 10
-1598.736157
 20
-1445.299565
 30
0.0
 11
-1606.832234
 21
-1415.084594
 31
0.0
  0
ARC
  5
FCA
100
AcDbEntity
  8
0
  6
BYBLOCK
 62
     0
100
AcDbCircle
 10
-1594.854531
 20
-1459.78599
 30
0.0
 40
45.028291
100
AcDbArc
 50
78.181508
 51
101.818492
  0
SOLID
  5
FCB
100
AcDbEntity
  8
0
  6
BYBLOCK
 62
     0
100
AcDbTrace
 10
-1585.535571
 20
-1415.306932
 30
0.0
 11
-1585.728825
 21
-1416.117547
 31
0.0
 12
-1583.200352
 22
-1416.292001
 32
0.0
 13
-1583.200352
 23
-1416.292001
 33
0.0
  0
SOLID
  5
FCC
100
AcDbEntity
  8
0
  6
BYBLOCK
 62
     0
100
AcDbTrace
 10
-1603.980237
 20
-1416.117547
 30
0.0
 11
-1604.173491
 21
-1415.306932
 31
0.0
 12
-1606.50871
 22
-1416.292001
 32
0.0
 13
-1606.50871
 23
-1416.292001
 33
0.0
  0
MTEXT
  5
FCD
100
AcDbEntity
  8
0
  6
BYBLOCK
 62
     0
100
AcDbMText
 10
-1594.854531
 20
-1412.6327
 30
0.0
 40
3.0
 41
0.0
 71
     5
 72
     1
  1
\A1;30°
  0
POINT
  5
FCE
100
AcDbEntity
  8
DEFPOINTS
  6
BYBLOCK
 62
     0
100
AcDbPoint
 10
-1598.779005
 20
-1414.929046
 30
0.0
  0
POINT
  5
FCF
100
AcDbEntity
  8
DEFPOINTS
  6
BYBLOCK
 62
     0
100
AcDbPoint
 10
-1598.574395
 20
-1445.903269
 30
0.0
  0
POINT
  5
FD0
100
AcDbEntity
  8
DEFPOINTS
  6
BYBLOCK
 62
     0
100
AcDbPoint
 10
-1591.134667
 20
-1445.903269
 30
0.0
  0
POINT
  5
FD1
100
AcDbEntity
  8
DEFPOINTS
  6
BYBLOCK
 62
     0
100
AcDbPoint
 10
-1593.888605
 20
-1456.181106
 30
0.0
  0
POINT
  5
FD2
100
AcDbEntity
  8
DEFPOINTS
  6
BYBLOCK
 62
     0
100
AcDbPoint
 10
-1595.820457
 20
-1456.181106
 30
0.0
  0
ENDBLK
  5
FD3
100
AcDbEntity
  8
0
100
AcDbBlockEnd
  0
BLOCK
  5
FEE
100
AcDbEntity
  8
0
100
AcDbBlockBegin
  2
*D54
 70
    65
 10
0.0
 20
0.0
 30
0.0
  3
*D54
  1

  0
LINE
  5
FEF
100
AcDbEntity
  8
0
  6
BYBLOCK
 62
     0
100
AcDbLine
 10
-1596.370036
 20
-1459.077163
 30
0.0
 11
-1599.422697
 21
-1465.431986
 31
0.0
  0
SOLID
  5
FF0
100
AcDbEntity
  8
0
  6
BYBLOCK
 62
     0
100
AcDbTrace
 10
-1596.745617
 20
-1458.896746
 30
0.0
 11
-1595.994456
 21
-1459.257581
 31
0.0
 12
-1595.287532
 22
-1456.82368
 32
0.0
 13
-1595.287532
 23
-1456.82368
 33
0.0
  0
MTEXT
  5
FF1
100
AcDbEntity
  8
0
  6
BYBLOCK
 62
     0
100
AcDbMText
 10
-1600.353079
 20
-1462.461188
 30
0.0
 40
3.0
 41
0.0
 71
     5
 72
     1
  1
\A1;R1
 11
0.433001
 21
0.901393
 31
0.0
  0
POINT
  5
FF2
100
AcDbEntity
  8
DEFPOINTS
  6
BYBLOCK
 62
     0
100
AcDbPoint
 10
-1595.287532
 20
-1456.82368
 30
0.0
  0
POINT
  5
FF3
100
AcDbEntity
  8
DEFPOINTS
  6
BYBLOCK
 62
     0
100
AcDbPoint
 10
-1594.854531
 20
-1455.922287
 30
0.0
  0
ENDBLK
  5
FF4
100
AcDbEntity
  8
0
100
AcDbBlockEnd
  0
ENDSEC
  0
SECTION
  2
ENTITIES
  0
LINE
  5
554
100
AcDbEntity
  8
DISEGNO
100
AcDbLine
 10
-1824.52658
 20
-1520.279197
 30
0.0
 11
-1813.52658
 21
-1520.279197
 31
0.0
  0
LINE
  5
555
100
AcDbEntity
  8
DISEGNO
100
AcDbLine
 10
-1812.52658
 20
-1519.279197
 30
0.0
 11
-1812.52658
 21
-1501.69341
 31
0.0
  0
LINE
  5
556
100
AcDbEntity
  8
DISEGNO
100
AcDbLine
 10
-1811.112367
 20
-1500.279197
 30
0.0
 11
-1807.52658
 21
-1500.279197
 31
0.0
  0
LINE
  5
557
100
AcDbEntity
  8
DISEGNO
100
AcDbLine
 10
-1806.52658
 20
-1499.279197
 30
0.0
 11
-1806.52658
 21
-1486.279197
 31
0.0
1001
ACAD
1000
ASC_BOUNDS
1002
{
1070
    19
1002
}
  0
LINE
  5
559
100
AcDbEntity
  8
DISEGNO
100
AcDbLine
 10
-1829.02658
 20
-1431.279197
 30
0.0
 11
-1829.02658
 21
-1485.279197
 31
0.0
1001
ACAD
1000
ASC_BOUNDS
1002
{
1070
    19
1002
}
  0
LINE
  5
55A
100
AcDbEntity
  8
DISEGNO
100
AcDbLine
 10
-1830.52658
 20
-1500.279197
 30
0.0
 11
-1826.940794
 21
-1500.279197
 31
0.0
  0
LINE
  5
55B
100
AcDbEntity
  8
DISEGNO
100
AcDbLine
 10
-1825.52658
 20
-1501.69341
 30
0.0
 11
-1825.52658
 21
-1519.279197
 31
0.0
  0
LINE
  5
635
100
AcDbEntity
  8
DISEGNO
100
AcDbLine
 10
-1826.940794
 20
-1500.279197
 30
0.0
 11
-1825.880134
 21
-1499.218537
 31
0.0
  0
LINE
  5
636
100
AcDbEntity
  8
DISEGNO
100
AcDbLine
 10
-1825.52658
 20
-1501.69341
 30
0.0
 11
-1824.46592
 21
-1500.63275
 31
0.0
  0
LINE
  5
637
100
AcDbEntity
  8
DISEGNO
100
AcDbLine
 10
-1824.46592
 20
-1500.63275
 30
0.0
 11
-1825.880134
 21
-1499.218537
 31
0.0
  0
LINE
  5
638
100
AcDbEntity
  8
DISEGNO
100
AcDbLine
 10
-1812.52658
 20
-1501.69341
 30
0.0
 11
-1813.58724
 21
-1500.63275
 31
0.0
  0
LINE
  5
639
100
AcDbEntity
  8
DISEGNO
100
AcDbLine
 10
-1811.112367
 20
-1500.279197
 30
0.0
 11
-1812.173027
 21
-1499.218537
 31
0.0
  0
LINE
  5
63A
100
AcDbEntity
  8
DISEGNO
100
AcDbLine
 10
-1813.58724
 20
-1500.63275
 30
0.0
 11
-1812.173027
 21
-1499.218537
 31
0.0
  0
LINE
  5
697
100
AcDbEntity
  8
DISEGNO
100
AcDbLine
 10
-1831.52658
 20
-1490.779197
 30
0.0
 11
-1830.02658
 21
-1492.279197
 31
0.0
  0
LINE
  5
698
100
AcDbEntity
  8
DISEGNO
100
AcDbLine
 10
-1831.52658
 20
-1493.779197
 30
0.0
 11
-1830.02658
 21
-1492.279197
 31
0.0
  0
LINE
  5
699
100
AcDbEntity
  8
DISEGNO
100
AcDbLine
 10
-1831.52658
 20
-1493.779197
 30
0.0
 11
-1831.52658
 21
-1499.279197
 31
0.0
  0
LINE
  5
6D2
100
AcDbEntity
  8
DISEGNO
100
AcDbLine
 10
-1825.52658
 20
-1519.279197
 30
0.0
 11
-1824.52658
 21
-1520.279197
 31
0.0
  0
LINE
  5
6D3
100
AcDbEntity
  8
DISEGNO
100
AcDbLine
 10
-1813.52658
 20
-1520.279197
 30
0.0
 11
-1812.52658
 21
-1519.279197
 31
0.0
  0
LINE
  5
6D4
100
AcDbEntity
  8
DISEGNO
100
AcDbLine
 10
-1807.52658
 20
-1500.279197
 30
0.0
 11
-1806.52658
 21
-1499.279197
 31
0.0
  0
LINE
  5
6D5
100
AcDbEntity
  8
DISEGNO
100
AcDbLine
 10
-1831.52658
 20
-1499.279197
 30
0.0
 11
-1830.52658
 21
-1500.279197
 31
0.0
  0
LINE
  5
6D6
100
AcDbEntity
  8
DISEGNO
100
AcDbLine
 10
-1829.02658
 20
-1431.279197
 30
0.0
 11
-1828.02658
 21
-1430.279197
 31
0.0
1001
ACAD
1000
ASC_BOUNDS
1002
{
1070
    19
1002
}
  0
LINE
  5
6D7
100
AcDbEntity
  8
DISEGNO
100
AcDbLine
 10
-1810.02658
 20
-1430.279197
 30
0.0
 11
-1809.02658
 21
-1431.279197
 31
0.0
1001
ACAD
1000
ASC_BOUNDS
1002
{
1070
    19
1002
}
  0
LINE
  5
7E0
100
AcDbEntity
  8
DISEGNO
100
AcDbLine
 10
-1807.52658
 20
-1485.279197
 30
0.0
 11
-1809.02658
 21
-1485.279197
 31
0.0
  0
LINE
  5
7E1
100
AcDbEntity
  8
DISEGNO
100
AcDbLine
 10
-1809.02658
 20
-1485.279197
 30
0.0
 11
-1809.02658
 21
-1431.279197
 31
0.0
1001
ACAD
1000
ASC_BOUNDS
1002
{
1070
    19
1002
}
  0
LINE
  5
7E2
100
AcDbEntity
  8
DISEGNO
100
AcDbLine
 10
-1831.52658
 20
-1486.279197
 30
0.0
 11
-1831.52658
 21
-1490.779197
 31
0.0
1001
ACAD
1000
ASC_BOUNDS
1002
{
1070
    19
1002
}
  0
LINE
  5
7E3
100
AcDbEntity
  8
DISEGNO
100
AcDbLine
 10
-1829.02658
 20
-1485.279197
 30
0.0
 11
-1830.52658
 21
-1485.279197
 31
0.0
  0
LINE
  5
7E4
100
AcDbEntity
  8
DISEGNO
100
AcDbLine
 10
-1828.02658
 20
-1430.279197
 30
0.0
 11
-1823.602075
 21
-1430.279197
 31
0.0
1001
ACAD
1000
ASC_BOUNDS
1002
{
1070
    19
1002
}
  0
LINE
  5
7E6
100
AcDbEntity
  8
DISEGNO
100
AcDbLine
 10
-1815.175529
 20
-1430.835082
 30
0.0
 11
-1818.060654
 21
-1441.602516
 31
0.0
1001
ACAD
1000
ASC_BOUNDS
1002
{
1070
    19
1002
}
  0
LINE
  5
7E7
100
AcDbEntity
  8
DISEGNO
100
AcDbLine
 10
-1822.877631
 20
-1430.835082
 30
0.0
 11
-1819.992506
 21
-1441.602516
 31
0.0
1001
ACAD
1000
ASC_BOUNDS
1002
{
1070
    19
1002
}
  0
LINE
  5
7E8
100
AcDbEntity
  8
DISEGNO
100
AcDbLine
 10
-1814.451085
 20
-1430.279197
 30
0.0
 11
-1810.02658
 21
-1430.279197
 31
0.0
1001
ACAD
1000
ASC_BOUNDS
1002
{
1070
    19
1002
}
  0
LINE
  5
84D
100
AcDbEntity
  8
DISEGNO
100
AcDbLine
 10
-1831.52658
 20
-1486.279197
 30
0.0
 11
-1830.52658
 21
-1485.279197
 31
0.0
  0
LINE
  5
84E
100
AcDbEntity
  8
DISEGNO
100
AcDbLine
 10
-1807.52658
 20
-1485.279197
 30
0.0
 11
-1806.52658
 21
-1486.279197
 31
0.0
1001
ACAD
1000
ASC_BOUNDS
1002
{
1070
    19
1002
}
  0
ARC
  5
E83
100
AcDbEntity
  8
DISEGNO
100
AcDbCircle
 10
-1819.02658
 20
-1441.343697
 30
0.0
 40
1.0
100
AcDbArc
 50
195.0
 51
345.0
1001
ACAD
1000
ASC_BOUNDS
1002
{
1070
    19
1002
}
  0
ARC
  5
EB4
100
AcDbEntity
  8
DISEGNO
100
AcDbCircle
 10
-1823.602075
 20
-1431.029197
 30
0.0
 40
0.75
100
AcDbArc
 50
15.0
 51
90.0
1001
ACAD
1000
ASC_BOUNDS
1002
{
1070
    19
1002
}
  0
ARC
  5
EB5
100
AcDbEntity
  8
DISEGNO
100
AcDbCircle
 10
-1814.451085
 20
-1431.029197
 30
0.0
 40
0.75
100
AcDbArc
 50
90.0
 51
165.0
1001
ACAD
1000
ASC_BOUNDS
1002
{
1070
    19
1002
}
  0
ENDSEC
  0
SECTION
  2
OBJECTS
  0
DICTIONARY
  5
C
100
AcDbDictionary
  3
ACAD_GROUP
350
D
  3
ACAD_MLINESTYLE
350
E
  0
DICTIONARY
  5
D
102
{ACAD_REACTORS
330
C
102
}
100
AcDbDictionary
  0
DICTIONARY
  5
E
102
{ACAD_REACTORS
330
C
102
}
100
AcDbDictionary
  3
STANDARD
350
1C
  0
MLINESTYLE
  5
1C
102
{ACAD_REACTORS
330
E
102
}
100
AcDbMlineStyle
  2
STANDARD
 70
     0
  3

 62
     0
 51
90.0
 52
90.0
 71
     2
 49
0.5
 62
   256
  6
BYLAYER
 49
-0.5
 62
   256
  6
BYLAYER
  0
ENDSEC
  0
EOF
