  0
SECTION
  2
HEADER
  9
$ACADVER
  1
AC1012
  9
$DWGCODEPAGE
  3
iso8859-1
  9
$INSBASE
 10
0.0
 20
0.0
 30
0.0
  9
$EXTMIN
 10
232.489001
 20
0.319173
 30
0.0
  9
$EXTMAX
 10
432.489001
 20
287.533479
 30
0.0
  9
$LIMMIN
 10
0.0
 20
0.0
  9
$LIMMAX
 10
210.0
 20
297.0
  9
$ORTHOMODE
 70
     0
  9
$REGENMODE
 70
     1
  9
$FILLMODE
 70
     1
  9
$QTEXTMODE
 70
     0
  9
$MIRRTEXT
 70
     1
  9
$DRAGMODE
 70
     2
  9
$LTSCALE
 40
1.0
  9
$OSMODE
 70
     0
  9
$ATTMODE
 70
     1
  9
$TEXTSIZE
 40
3.0
  9
$TRACEWID
 40
0.05
  9
$TEXTSTYLE
  7
STANDARD
  9
$CLAYER
  8
TRATTO
  9
$CELTYPE
  6
BYLAYER
  9
$CECOLOR
 62
   256
  9
$CELTSCALE
 40
1.0
  9
$DELOBJ
 70
     1
  9
$DISPSILH
 70
     0
  9
$DIMSCALE
 40
1.0
  9
$DIMASZ
 40
2.5
  9
$DIMEXO
 40
0.625
  9
$DIMDLI
 40
3.75
  9
$DIMRND
 40
0.0
  9
$DIMDLE
 40
0.0
  9
$DIMEXE
 40
1.25
  9
$DIMTP
 40
0.0
  9
$DIMTM
 40
0.0
  9
$DIMTXT
 40
3.0
  9
$DIMCEN
 40
2.5
  9
$DIMTSZ
 40
0.0
  9
$DIMTOL
 70
     0
  9
$DIMLIM
 70
     0
  9
$DIMTIH
 70
     0
  9
$DIMTOH
 70
     0
  9
$DIMSE1
 70
     0
  9
$DIMSE2
 70
     0
  9
$DIMTAD
 70
     1
  9
$DIMZIN
 70
     8
  9
$DIMBLK
  1

  9
$DIMASO
 70
     1
  9
$DIMSHO
 70
     1
  9
$DIMPOST
  1

  9
$DIMAPOST
  1

  9
$DIMALT
 70
     0
  9
$DIMALTD
 70
     2
  9
$DIMALTF
 40
0.03937
  9
$DIMLFAC
 40
1.0
  9
$DIMTOFL
 70
     0
  9
$DIMTVP
 40
0.0
  9
$DIMTIX
 70
     0
  9
$DIMSOXD
 70
     0
  9
$DIMSAH
 70
     0
  9
$DIMBLK1
  1

  9
$DIMBLK2
  1

  9
$DIMSTYLE
  2
STANDARD
  9
$DIMCLRD
 70
     0
  9
$DIMCLRE
 70
     0
  9
$DIMCLRT
 70
     0
  9
$DIMTFAC
 40
1.0
  9
$DIMGAP
 40
0.625
  9
$DIMJUST
 70
     0
  9
$DIMSD1
 70
     0
  9
$DIMSD2
 70
     0
  9
$DIMTOLJ
 70
     1
  9
$DIMTZIN
 70
     8
  9
$DIMALTZ
 70
     0
  9
$DIMALTTZ
 70
     0
  9
$DIMFIT
 70
     3
  9
$DIMUPT
 70
     0
  9
$DIMUNIT
 70
     2
  9
$DIMDEC
 70
     2
  9
$DIMTDEC
 70
     2
  9
$DIMALTU
 70
     2
  9
$DIMALTTD
 70
     2
  9
$DIMTXSTY
  7
STANDARD
  9
$DIMAUNIT
 70
     0
  9
$LUNITS
 70
     2
  9
$LUPREC
 70
     4
  9
$SKETCHINC
 40
0.1
  9
$FILLETRAD
 40
10.0
  9
$AUNITS
 70
     0
  9
$AUPREC
 70
     0
  9
$MENU
  1
acad
  9
$ELEVATION
 40
0.0
  9
$PELEVATION
 40
0.0
  9
$THICKNESS
 40
0.0
  9
$LIMCHECK
 70
     0
  9
$BLIPMODE
 70
     1
  9
$CHAMFERA
 40
0.8
  9
$CHAMFERB
 40
0.8
  9
$CHAMFERC
 40
20.0
  9
$CHAMFERD
 40
0.0
  9
$SKPOLY
 70
     0
  9
$TDCREATE
 40
2451655.478177893
  9
$TDUPDATE
 40
2452630.491101852
  9
$TDINDWG
 40
0.0989700231
  9
$TDUSRTIMER
 40
0.0989700231
  9
$USRTIMER
 70
     1
  9
$ANGBASE
 50
0.0
  9
$ANGDIR
 70
     0
  9
$PDMODE
 70
     0
  9
$PDSIZE
 40
0.0
  9
$PLINEWID
 40
0.0
  9
$COORDS
 70
     1
  9
$SPLFRAME
 70
     0
  9
$SPLINETYPE
 70
     6
  9
$SPLINESEGS
 70
     8
  9
$ATTDIA
 70
     0
  9
$ATTREQ
 70
     1
  9
$HANDLING
 70
     1
  9
$HANDSEED
  5
F49
  9
$SURFTAB1
 70
     6
  9
$SURFTAB2
 70
     6
  9
$SURFTYPE
 70
     6
  9
$SURFU
 70
     6
  9
$SURFV
 70
     6
  9
$UCSNAME
  2

  9
$UCSORG
 10
0.0
 20
0.0
 30
0.0
  9
$UCSXDIR
 10
1.0
 20
0.0
 30
0.0
  9
$UCSYDIR
 10
0.0
 20
1.0
 30
0.0
  9
$PUCSNAME
  2

  9
$PUCSORG
 10
0.0
 20
0.0
 30
0.0
  9
$PUCSXDIR
 10
1.0
 20
0.0
 30
0.0
  9
$PUCSYDIR
 10
0.0
 20
1.0
 30
0.0
  9
$USERI1
 70
     0
  9
$USERI2
 70
     0
  9
$USERI3
 70
     0
  9
$USERI4
 70
     0
  9
$USERI5
 70
     0
  9
$USERR1
 40
0.0
  9
$USERR2
 40
0.0
  9
$USERR3
 40
0.0
  9
$USERR4
 40
0.0
  9
$USERR5
 40
0.0
  9
$WORLDVIEW
 70
     1
  9
$SHADEDGE
 70
     3
  9
$SHADEDIF
 70
    70
  9
$TILEMODE
 70
     1
  9
$MAXACTVP
 70
    16
  9
$PINSBASE
 10
0.0
 20
0.0
 30
0.0
  9
$PLIMCHECK
 70
     0
  9
$PEXTMIN
 10
1.000000E+20
 20
1.000000E+20
 30
1.000000E+20
  9
$PEXTMAX
 10
-1.000000E+20
 20
-1.000000E+20
 30
-1.000000E+20
  9
$PLIMMIN
 10
0.0
 20
0.0
  9
$PLIMMAX
 10
12.0
 20
9.0
  9
$UNITMODE
 70
     0
  9
$VISRETAIN
 70
     0
  9
$PLINEGEN
 70
     0
  9
$PSLTSCALE
 70
     1
  9
$TREEDEPTH
 70
  3020
  9
$PICKSTYLE
 70
     1
  9
$CMLSTYLE
  2
STANDARD
  9
$CMLJUST
 70
     0
  9
$CMLSCALE
 40
20.0
  9
$SAVEIMAGES
 70
     0
  0
ENDSEC
  0
SECTION
  2
CLASSES
  0
ENDSEC
  0
SECTION
  2
TABLES
  0
TABLE
  2
VPORT
  5
8
100
AcDbSymbolTable
 70
     3
  0
VPORT
  5
F48
100
AcDbSymbolTableRecord
100
AcDbViewportTableRecord
  2
*ACTIVE
 70
     0
 10
0.0
 20
0.0
 11
1.0
 21
1.0
 12
345.803947
 22
169.010328
 13
0.0
 23
0.0
 14
10.0
 24
10.0
 15
10.0
 25
10.0
 16
0.0
 26
0.0
 36
1.0
 17
0.0
 27
0.0
 37
0.0
 40
262.349738
 41
1.873134
 42
50.0
 43
0.0
 44
0.0
 50
0.0
 51
0.0
 71
     0
 72
   100
 73
     1
 74
     0
 75
     0
 76
     0
 77
     0
 78
     0
  0
ENDTAB
  0
TABLE
  2
LTYPE
  5
5
100
AcDbSymbolTable
 70
     6
  0
LTYPE
  5
13
100
AcDbSymbolTableRecord
100
AcDbLinetypeTableRecord
  2
BYBLOCK
 70
     0
  3

 72
    65
 73
     0
 40
0.0
  0
LTYPE
  5
14
100
AcDbSymbolTableRecord
100
AcDbLinetypeTableRecord
  2
BYLAYER
 70
     0
  3

 72
    65
 73
     0
 40
0.0
  0
LTYPE
  5
15
100
AcDbSymbolTableRecord
100
AcDbLinetypeTableRecord
  2
CONTINUOUS
 70
    64
  3
Solid line
 72
    65
 73
     0
 40
0.0
  0
LTYPE
  5
94
100
AcDbSymbolTableRecord
100
AcDbLinetypeTableRecord
  2
ACAD_ISO04W100
 70
    64
  3
____ . ____ . ____ . ____ . ____ . ____ . ____ 
 72
    65
 73
     4
 40
30.5
 49
24.0
 74
     0
 49
-3.0
 74
     0
 49
0.5
 74
     0
 49
-3.0
 74
     0
  0
LTYPE
  5
225
100
AcDbSymbolTableRecord
100
AcDbLinetypeTableRecord
  2
TRATTEGGIATAX2
 70
    64
  3
____  ____  ____  ____  ____  ____  ____  ____ 
 72
    65
 73
     2
 40
1.5
 49
1.0
 74
     0
 49
-0.5
 74
     0
  0
LTYPE
  5
226
100
AcDbSymbolTableRecord
100
AcDbLinetypeTableRecord
  2
NASCOSTA
 70
    64
  3
__ __ __ __ __ __ __ __ __ __ __ __ __ __ __ __
 72
    65
 73
     2
 40
0.375
 49
0.25
 74
     0
 49
-0.125
 74
     0
  0
LTYPE
  5
995
100
AcDbSymbolTableRecord
100
AcDbLinetypeTableRecord
  2
LINEA-LINEETTEX2
 70
    64
  3
____________    ____    ____    ____________   
 72
    65
 73
     6
 40
5.0
 49
2.5
 74
     0
 49
-0.5
 74
     0
 49
0.5
 74
     0
 49
-0.5
 74
     0
 49
0.5
 74
     0
 49
-0.5
 74
     0
  0
LTYPE
  5
996
100
AcDbSymbolTableRecord
100
AcDbLinetypeTableRecord
  2
TRATTEGGIATA
 70
    64
  3
__ __ __ __ __ __ __ __ __ __ __ __ __ __ __ __
 72
    65
 73
     2
 40
0.75
 49
0.5
 74
     0
 49
-0.25
 74
     0
  0
ENDTAB
  0
TABLE
  2
LAYER
  5
2
100
AcDbSymbolTable
 70
    17
  0
LAYER
  5
F
100
AcDbSymbolTableRecord
100
AcDbLayerTableRecord
  2
0
 70
     0
 62
     7
  6
CONTINUOUS
  0
LAYER
  5
95
100
AcDbSymbolTableRecord
100
AcDbLayerTableRecord
  2
DISEGNO
 70
    64
 62
     7
  6
CONTINUOUS
  0
LAYER
  5
96
100
AcDbSymbolTableRecord
100
AcDbLayerTableRecord
  2
ASSI
 70
    64
 62
     1
  6
ACAD_ISO04W100
  0
LAYER
  5
97
100
AcDbSymbolTableRecord
100
AcDbLayerTableRecord
  2
SEZIONE
 70
    64
 62
     3
  6
CONTINUOUS
  0
LAYER
  5
98
100
AcDbSymbolTableRecord
100
AcDbLayerTableRecord
  2
TEMPRA
 70
    64
 62
     2
  6
CONTINUOUS
  0
LAYER
  5
99
100
AcDbSymbolTableRecord
100
AcDbLayerTableRecord
  2
QUOTE
 70
    64
 62
     5
  6
CONTINUOUS
  0
LAYER
  5
9A
100
AcDbSymbolTableRecord
100
AcDbLayerTableRecord
  2
FOGLIO
 70
    64
 62
     8
  6
CONTINUOUS
  0
LAYER
  5
1A3
100
AcDbSymbolTableRecord
100
AcDbLayerTableRecord
  2
TRATTO
 70
    64
 62
     6
  6
NASCOSTA
  0
LAYER
  5
26F
100
AcDbSymbolTableRecord
100
AcDbLayerTableRecord
  2
DEFPOINTS
 70
    64
 62
     7
  6
CONTINUOUS
  0
LAYER
  5
997
100
AcDbSymbolTableRecord
100
AcDbLayerTableRecord
  2
OGGETTO
 70
    64
 62
   250
  6
CONTINUOUS
  0
LAYER
  5
998
100
AcDbSymbolTableRecord
100
AcDbLayerTableRecord
  2
CENTRO
 70
    64
 62
     3
  6
LINEA-LINEETTEX2
  0
LAYER
  5
999
100
AcDbSymbolTableRecord
100
AcDbLayerTableRecord
  2
TESTOTAB
 70
    64
 62
   184
  6
CONTINUOUS
  0
LAYER
  5
99A
100
AcDbSymbolTableRecord
100
AcDbLayerTableRecord
  2
TABELLA
 70
    64
 62
   167
  6
CONTINUOUS
  0
LAYER
  5
99B
100
AcDbSymbolTableRecord
100
AcDbLayerTableRecord
  2
INTABELLA
 70
    64
 62
   234
  6
CONTINUOUS
  0
LAYER
  5
99C
100
AcDbSymbolTableRecord
100
AcDbLayerTableRecord
  2
MARCHIO
 70
    64
 62
   251
  6
CONTINUOUS
  0
LAYER
  5
99D
100
AcDbSymbolTableRecord
100
AcDbLayerTableRecord
  2
MARCHIOR
 70
    64
 62
    10
  6
CONTINUOUS
  0
LAYER
  5
99E
100
AcDbSymbolTableRecord
100
AcDbLayerTableRecord
  2
TESTO
 70
    64
 62
     6
  6
CONTINUOUS
  0
ENDTAB
  0
TABLE
  2
STYLE
  5
3
100
AcDbSymbolTable
 70
     2
  0
STYLE
  5
10
100
AcDbSymbolTableRecord
100
AcDbTextStyleTableRecord
  2
STANDARD
 70
    64
 40
0.0
 41
1.1
 50
0.0
 71
     0
 42
3.0
  3
C:\Programmi\AutoCAD LT\isocp.shx
  4

  0
STYLE
  5
B0
100
AcDbSymbolTableRecord
100
AcDbTextStyleTableRecord
  2
STYLE3
 70
    64
 40
0.0
 41
1.5
 50
0.0
 71
     0
 42
4.0
  3
C:\Programmi\AutoCAD LT\isocp3.shx
  4

  0
ENDTAB
  0
TABLE
  2
VIEW
  5
6
100
AcDbSymbolTable
 70
     0
  0
ENDTAB
  0
TABLE
  2
UCS
  5
7
100
AcDbSymbolTable
 70
     0
  0
ENDTAB
  0
TABLE
  2
APPID
  5
9
100
AcDbSymbolTable
 70
     1
  0
APPID
  5
11
100
AcDbSymbolTableRecord
100
AcDbRegAppTableRecord
  2
ACAD
 70
     0
  0
ENDTAB
  0
TABLE
  2
DIMSTYLE
  5
A
100
AcDbSymbolTable
 70
    11
  0
DIMSTYLE
105
1D
100
AcDbSymbolTableRecord
100
AcDbDimStyleTableRecord
  2
STANDARD
 70
     0
  3

  4

  5

  6

  7

 40
1.0
 41
2.5
 42
0.625
 43
3.75
 44
1.25
 45
0.0
 46
0.0
 47
0.0
 48
0.0
140
3.0
141
2.5
142
0.0
143
0.03937
144
1.0
145
0.0
146
1.0
147
0.625
 71
     0
 72
     0
 73
     0
 74
     0
 75
     0
 76
     0
 77
     1
 78
     8
170
     0
171
     2
172
     0
173
     0
174
     0
175
     0
176
     0
177
     0
178
     0
270
     2
271
     2
272
     2
273
     2
274
     2
340
10
275
     0
280
     0
281
     0
282
     0
283
     1
284
     8
285
     0
286
     0
287
     3
288
     0
  0
DIMSTYLE
105
198
100
AcDbSymbolTableRecord
100
AcDbDimStyleTableRecord
  2
TOLL-06
 70
     0
  3

  4

  5

  6

  7

 40
1.0
 41
2.5
 42
0.625
 43
3.75
 44
1.25
 45
0.0
 46
0.0
 47
0.1
 48
0.1
140
3.0
141
2.5
142
0.0
143
0.03937
144
1.0
145
0.0
146
0.8
147
0.625
 71
     1
 72
     0
 73
     0
 74
     0
 75
     0
 76
     0
 77
     1
 78
     8
170
     0
171
     2
172
     0
173
     0
174
     0
175
     0
176
     0
177
     0
178
     0
270
     2
271
     2
272
     2
273
     2
274
     2
340
10
275
     0
280
     0
281
     0
282
     0
283
     2
284
     8
285
     0
286
     0
287
     3
288
     0
  0
DIMSTYLE
105
20B
100
AcDbSymbolTableRecord
100
AcDbDimStyleTableRecord
  2
TOLL-01
 70
     0
  3

  4

  5

  6

  7

 40
1.0
 41
2.5
 42
0.625
 43
3.75
 44
1.25
 45
0.0
 46
0.0
 47
0.02
 48
0.0
140
3.0
141
2.5
142
0.0
143
0.03937
144
1.0
145
0.0
146
0.8
147
0.625
 71
     1
 72
     0
 73
     0
 74
     0
 75
     0
 76
     0
 77
     1
 78
     8
170
     0
171
     2
172
     0
173
     0
174
     0
175
     0
176
     0
177
     0
178
     0
270
     2
271
     2
272
     2
273
     2
274
     2
340
10
275
     0
280
     0
281
     0
282
     0
283
     2
284
     8
285
     0
286
     0
287
     3
288
     0
  0
DIMSTYLE
105
232
100
AcDbSymbolTableRecord
100
AcDbDimStyleTableRecord
  2
TOLL-02
 70
     0
  3

  4

  5

  6

  7

 40
1.0
 41
2.5
 42
0.625
 43
3.75
 44
1.25
 45
0.0
 46
0.0
 47
0.0
 48
-0.02
140
3.0
141
2.5
142
0.0
143
0.03937
144
1.0
145
0.0
146
0.8
147
0.625
 71
     1
 72
     0
 73
     0
 74
     0
 75
     0
 76
     0
 77
     1
 78
     8
170
     0
171
     2
172
     0
173
     0
174
     0
175
     0
176
     0
177
     0
178
     0
270
     2
271
     2
272
     2
273
     2
274
     2
340
10
275
     0
280
     0
281
     0
282
     0
283
     2
284
     8
285
     0
286
     0
287
     3
288
     0
  0
DIMSTYLE
105
233
100
AcDbSymbolTableRecord
100
AcDbDimStyleTableRecord
  2
TOLL-03
 70
     0
  3

  4

  5

  6

  7

 40
1.0
 41
2.5
 42
0.625
 43
3.75
 44
1.25
 45
0.0
 46
0.0
 47
0.01
 48
0.01
140
3.0
141
2.5
142
0.0
143
0.03937
144
1.0
145
0.0
146
0.8
147
0.625
 71
     1
 72
     0
 73
     0
 74
     0
 75
     0
 76
     0
 77
     1
 78
     8
170
     0
171
     2
172
     0
173
     0
174
     0
175
     0
176
     0
177
     0
178
     0
270
     2
271
     2
272
     2
273
     2
274
     2
340
10
275
     0
280
     0
281
     0
282
     0
283
     2
284
     8
285
     0
286
     0
287
     3
288
     0
  0
DIMSTYLE
105
234
100
AcDbSymbolTableRecord
100
AcDbDimStyleTableRecord
  2
TOLL-04
 70
     0
  3

  4

  5

  6

  7

 40
1.0
 41
2.5
 42
0.625
 43
3.75
 44
1.25
 45
0.0
 46
0.0
 47
0.05
 48
0.05
140
3.0
141
2.5
142
0.0
143
0.03937
144
1.0
145
0.0
146
0.8
147
0.625
 71
     1
 72
     0
 73
     0
 74
     0
 75
     0
 76
     0
 77
     1
 78
     8
170
     0
171
     2
172
     0
173
     0
174
     0
175
     0
176
     0
177
     0
178
     0
270
     2
271
     2
272
     2
273
     2
274
     2
340
10
275
     0
280
     0
281
     0
282
     0
283
     2
284
     8
285
     0
286
     0
287
     3
288
     0
  0
DIMSTYLE
105
235
100
AcDbSymbolTableRecord
100
AcDbDimStyleTableRecord
  2
TOLL-05
 70
     0
  3

  4

  5

  6

  7

 40
1.0
 41
2.5
 42
0.625
 43
3.75
 44
1.25
 45
0.0
 46
0.0
 47
0.1
 48
0.0
140
3.0
141
2.5
142
0.0
143
0.03937
144
1.0
145
0.0
146
0.8
147
0.625
 71
     1
 72
     0
 73
     0
 74
     0
 75
     0
 76
     0
 77
     1
 78
     8
170
     0
171
     2
172
     0
173
     0
174
     0
175
     0
176
     0
177
     0
178
     0
270
     2
271
     2
272
     2
273
     2
274
     2
340
10
275
     0
280
     0
281
     0
282
     0
283
     2
284
     8
285
     0
286
     0
287
     3
288
     0
  0
DIMSTYLE
105
247
100
AcDbSymbolTableRecord
100
AcDbDimStyleTableRecord
  2
TOLL-07
 70
     0
  3

  4

  5

  6

  7

 40
1.0
 41
2.5
 42
0.625
 43
3.75
 44
1.25
 45
0.0
 46
0.0
 47
-0.1
 48
0.0
140
3.0
141
2.5
142
0.0
143
0.03937
144
1.0
145
0.0
146
1.0
147
0.625
 71
     1
 72
     0
 73
     0
 74
     0
 75
     0
 76
     0
 77
     1
 78
     8
170
     0
171
     2
172
     0
173
     0
174
     0
175
     0
176
     0
177
     0
178
     0
270
     2
271
     2
272
     2
273
     2
274
     2
340
10
275
     0
280
     0
281
     0
282
     0
283
     1
284
     8
285
     0
286
     0
287
     3
288
     0
  0
DIMSTYLE
105
251
100
AcDbSymbolTableRecord
100
AcDbDimStyleTableRecord
  2
TOLL-08
 70
     0
  3

  4

  5

  6

  7

 40
1.0
 41
2.5
 42
0.625
 43
3.75
 44
1.25
 45
0.0
 46
0.0
 47
0.05
 48
0.0
140
3.0
141
2.5
142
0.0
143
0.03937
144
1.0
145
0.0
146
1.0
147
0.625
 71
     1
 72
     0
 73
     0
 74
     0
 75
     0
 76
     0
 77
     1
 78
     8
170
     0
171
     2
172
     0
173
     0
174
     0
175
     0
176
     0
177
     0
178
     0
270
     2
271
     2
272
     2
273
     2
274
     2
340
10
275
     0
280
     0
281
     0
282
     0
283
     1
284
     8
285
     0
286
     0
287
     3
288
     0
  0
DIMSTYLE
105
99F
100
AcDbSymbolTableRecord
100
AcDbDimStyleTableRecord
  2
ISO-25
 70
     0
  3

  4

  5

  6

  7

 40
1.0
 41
2.5
 42
0.625
 43
3.75
 44
1.25
 45
0.0
 46
0.0
 47
0.05
 48
0.05
140
2.0
141
2.5
142
0.0
143
0.0394
144
1.0
145
1.0
146
1.0
147
0.53
 71
     0
 72
     0
 73
     1
 74
     0
 75
     0
 76
     0
 77
     1
 78
     8
170
     0
171
     2
172
     1
173
     0
174
     0
175
     0
176
     0
177
     0
178
     0
270
     2
271
     2
272
     1
273
     2
274
     2
340
10
275
     0
280
     0
281
     0
282
     0
283
     1
284
     8
285
     0
286
     0
287
     3
288
     0
  0
DIMSTYLE
105
9A0
100
AcDbSymbolTableRecord
100
AcDbDimStyleTableRecord
  2
ISO2
 70
     0
  3

  4

  5

  6

  7

 40
1.0
 41
20.0
 42
5.0
 43
30.0
 44
10.0
 45
0.0
 46
0.0
 47
0.0
 48
0.0
140
20.0
141
20.0
142
0.0
143
0.0394
144
1.0
145
8.0
146
1.0
147
5.0
 71
     0
 72
     0
 73
     1
 74
     0
 75
     0
 76
     0
 77
     1
 78
     8
170
     0
171
     2
172
     1
173
     0
174
     0
175
     0
176
     0
177
     0
178
     0
270
     2
271
     4
272
     4
273
     2
274
     2
340
10
275
     0
280
     0
281
     0
282
     0
283
     1
284
     0
285
     0
286
     0
287
     3
288
     0
  0
ENDTAB
  0
TABLE
  2
BLOCK_RECORD
  5
1
100
AcDbSymbolTable
 70
    51
  0
BLOCK_RECORD
  5
19
100
AcDbSymbolTableRecord
100
AcDbBlockTableRecord
  2
*MODEL_SPACE
  0
BLOCK_RECORD
  5
16
100
AcDbSymbolTableRecord
100
AcDbBlockTableRecord
  2
*PAPER_SPACE
  0
BLOCK_RECORD
  5
827
100
AcDbSymbolTableRecord
100
AcDbBlockTableRecord
  2
*X0
  0
BLOCK_RECORD
  5
85C
100
AcDbSymbolTableRecord
100
AcDbBlockTableRecord
  2
RUGOSITA
  0
BLOCK_RECORD
  5
863
100
AcDbSymbolTableRecord
100
AcDbBlockTableRecord
  2
*D2
  0
BLOCK_RECORD
  5
86F
100
AcDbSymbolTableRecord
100
AcDbBlockTableRecord
  2
*D3
  0
BLOCK_RECORD
  5
87D
100
AcDbSymbolTableRecord
100
AcDbBlockTableRecord
  2
*D4
  0
BLOCK_RECORD
  5
885
100
AcDbSymbolTableRecord
100
AcDbBlockTableRecord
  2
*D5
  0
BLOCK_RECORD
  5
891
100
AcDbSymbolTableRecord
100
AcDbBlockTableRecord
  2
*D6
  0
BLOCK_RECORD
  5
89D
100
AcDbSymbolTableRecord
100
AcDbBlockTableRecord
  2
*D7
  0
BLOCK_RECORD
  5
8A9
100
AcDbSymbolTableRecord
100
AcDbBlockTableRecord
  2
*D8
  0
BLOCK_RECORD
  5
8B7
100
AcDbSymbolTableRecord
100
AcDbBlockTableRecord
  2
*D9
  0
BLOCK_RECORD
  5
8C5
100
AcDbSymbolTableRecord
100
AcDbBlockTableRecord
  2
*D10
  0
BLOCK_RECORD
  5
8D1
100
AcDbSymbolTableRecord
100
AcDbBlockTableRecord
  2
*D11
  0
BLOCK_RECORD
  5
8E0
100
AcDbSymbolTableRecord
100
AcDbBlockTableRecord
  2
*D12
  0
BLOCK_RECORD
  5
8EE
100
AcDbSymbolTableRecord
100
AcDbBlockTableRecord
  2
*D13
  0
BLOCK_RECORD
  5
8FA
100
AcDbSymbolTableRecord
100
AcDbBlockTableRecord
  2
*D14
  0
BLOCK_RECORD
  5
906
100
AcDbSymbolTableRecord
100
AcDbBlockTableRecord
  2
*D15
  0
BLOCK_RECORD
  5
914
100
AcDbSymbolTableRecord
100
AcDbBlockTableRecord
  2
*D16
  0
BLOCK_RECORD
  5
921
100
AcDbSymbolTableRecord
100
AcDbBlockTableRecord
  2
*D17
  0
BLOCK_RECORD
  5
92E
100
AcDbSymbolTableRecord
100
AcDbBlockTableRecord
  2
*D18
  0
BLOCK_RECORD
  5
93C
100
AcDbSymbolTableRecord
100
AcDbBlockTableRecord
  2
*D19
  0
BLOCK_RECORD
  5
94A
100
AcDbSymbolTableRecord
100
AcDbBlockTableRecord
  2
*D20
  0
BLOCK_RECORD
  5
958
100
AcDbSymbolTableRecord
100
AcDbBlockTableRecord
  2
*D21
  0
BLOCK_RECORD
  5
961
100
AcDbSymbolTableRecord
100
AcDbBlockTableRecord
  2
*D22
  0
BLOCK_RECORD
  5
96F
100
AcDbSymbolTableRecord
100
AcDbBlockTableRecord
  2
*D23
  0
BLOCK_RECORD
  5
97D
100
AcDbSymbolTableRecord
100
AcDbBlockTableRecord
  2
*D24
  0
BLOCK_RECORD
  5
989
100
AcDbSymbolTableRecord
100
AcDbBlockTableRecord
  2
*D25
  0
BLOCK_RECORD
  5
9A1
100
AcDbSymbolTableRecord
100
AcDbBlockTableRecord
  2
A$C83A0
  0
BLOCK_RECORD
  5
BF5
100
AcDbSymbolTableRecord
100
AcDbBlockTableRecord
  2
*D27
  0
BLOCK_RECORD
  5
C03
100
AcDbSymbolTableRecord
100
AcDbBlockTableRecord
  2
*D28
  0
BLOCK_RECORD
  5
C11
100
AcDbSymbolTableRecord
100
AcDbBlockTableRecord
  2
*D29
  0
BLOCK_RECORD
  5
C1F
100
AcDbSymbolTableRecord
100
AcDbBlockTableRecord
  2
*D30
  0
BLOCK_RECORD
  5
C2C
100
AcDbSymbolTableRecord
100
AcDbBlockTableRecord
  2
*D31
  0
BLOCK_RECORD
  5
C38
100
AcDbSymbolTableRecord
100
AcDbBlockTableRecord
  2
*D32
  0
BLOCK_RECORD
  5
C44
100
AcDbSymbolTableRecord
100
AcDbBlockTableRecord
  2
*D33
  0
BLOCK_RECORD
  5
C50
100
AcDbSymbolTableRecord
100
AcDbBlockTableRecord
  2
*D34
  0
BLOCK_RECORD
  5
C58
100
AcDbSymbolTableRecord
100
AcDbBlockTableRecord
  2
*D35
  0
BLOCK_RECORD
  5
C64
100
AcDbSymbolTableRecord
100
AcDbBlockTableRecord
  2
*D36
  0
BLOCK_RECORD
  5
C70
100
AcDbSymbolTableRecord
100
AcDbBlockTableRecord
  2
*D37
  0
BLOCK_RECORD
  5
C7E
100
AcDbSymbolTableRecord
100
AcDbBlockTableRecord
  2
*D38
  0
BLOCK_RECORD
  5
C8C
100
AcDbSymbolTableRecord
100
AcDbBlockTableRecord
  2
*D39
  0
BLOCK_RECORD
  5
C98
100
AcDbSymbolTableRecord
100
AcDbBlockTableRecord
  2
*D40
  0
BLOCK_RECORD
  5
CA6
100
AcDbSymbolTableRecord
100
AcDbBlockTableRecord
  2
*D41
  0
BLOCK_RECORD
  5
CB4
100
AcDbSymbolTableRecord
100
AcDbBlockTableRecord
  2
*D42
  0
BLOCK_RECORD
  5
CBD
100
AcDbSymbolTableRecord
100
AcDbBlockTableRecord
  2
*D43
  0
BLOCK_RECORD
  5
CC9
100
AcDbSymbolTableRecord
100
AcDbBlockTableRecord
  2
*D44
  0
BLOCK_RECORD
  5
CD6
100
AcDbSymbolTableRecord
100
AcDbBlockTableRecord
  2
*D45
  0
BLOCK_RECORD
  5
CE4
100
AcDbSymbolTableRecord
100
AcDbBlockTableRecord
  2
*D46
  0
BLOCK_RECORD
  5
CF2
100
AcDbSymbolTableRecord
100
AcDbBlockTableRecord
  2
*D47
  0
BLOCK_RECORD
  5
CFE
100
AcDbSymbolTableRecord
100
AcDbBlockTableRecord
  2
*D48
  0
BLOCK_RECORD
  5
D0C
100
AcDbSymbolTableRecord
100
AcDbBlockTableRecord
  2
*D49
  0
BLOCK_RECORD
  5
D1B
100
AcDbSymbolTableRecord
100
AcDbBlockTableRecord
  2
*D50
  0
ENDTAB
  0
ENDSEC
  0
SECTION
  2
BLOCKS
  0
BLOCK
  5
1A
100
AcDbEntity
  8
0
100
AcDbBlockBegin
  2
*MODEL_SPACE
 70
     0
 10
0.0
 20
0.0
 30
0.0
  3
*MODEL_SPACE
  1

  0
ENDBLK
  5
1B
100
AcDbEntity
  8
0
100
AcDbBlockEnd
  0
BLOCK
  5
17
100
AcDbEntity
 67
     1
  8
0
100
AcDbBlockBegin
  2
*PAPER_SPACE
 70
     0
 10
0.0
 20
0.0
 30
0.0
  3
*PAPER_SPACE
  1

  0
ENDBLK
  5
18
100
AcDbEntity
 67
     1
  8
0
100
AcDbBlockEnd
  0
BLOCK
  5
85A
100
AcDbEntity
  8
0
100
AcDbBlockBegin
  2
*X0
 70
    65
 10
0.0
 20
0.0
 30
0.0
  3
*X0
  1

  0
LINE
  5
828
100
AcDbEntity
  8
0
  6
CONTINUOUS
 62
     0
100
AcDbLine
 10
93.500033
 20
110.113506
 30
0.0
 11
97.22683
 21
113.840303
 31
0.0
  0
LINE
  5
829
100
AcDbEntity
  8
0
  6
CONTINUOUS
 62
     0
100
AcDbLine
 10
93.417858
 20
110.255838
 30
0.0
 11
96.906679
 21
113.744659
 31
0.0
  0
LINE
  5
82A
100
AcDbEntity
  8
0
  6
CONTINUOUS
 62
     0
100
AcDbLine
 10
93.335682
 20
110.398169
 30
0.0
 11
96.606996
 21
113.669483
 31
0.0
  0
LINE
  5
82B
100
AcDbEntity
  8
0
  6
CONTINUOUS
 62
     0
100
AcDbLine
 10
93.253507
 20
110.5405
 30
0.0
 11
96.323794
 21
113.610787
 31
0.0
  0
LINE
  5
82C
100
AcDbEntity
  8
0
  6
CONTINUOUS
 62
     0
100
AcDbLine
 10
93.171332
 20
110.682832
 30
0.0
 11
96.054295
 21
113.565795
 31
0.0
  0
LINE
  5
82D
100
AcDbEntity
  8
0
  6
CONTINUOUS
 62
     0
100
AcDbLine
 10
93.089157
 20
110.825163
 30
0.0
 11
95.796474
 21
113.532479
 31
0.0
  0
LINE
  5
82E
100
AcDbEntity
  8
0
  6
CONTINUOUS
 62
     0
100
AcDbLine
 10
93.006982
 20
110.967495
 30
0.0
 11
95.548795
 21
113.509308
 31
0.0
  0
LINE
  5
82F
100
AcDbEntity
  8
0
  6
CONTINUOUS
 62
     0
100
AcDbLine
 10
92.924807
 20
111.109826
 30
0.0
 11
95.310067
 21
113.495086
 31
0.0
  0
LINE
  5
830
100
AcDbEntity
  8
0
  6
CONTINUOUS
 62
     0
100
AcDbLine
 10
92.842632
 20
111.252157
 30
0.0
 11
95.079337
 21
113.488862
 31
0.0
  0
LINE
  5
831
100
AcDbEntity
  8
0
  6
CONTINUOUS
 62
     0
100
AcDbLine
 10
92.760457
 20
111.394489
 30
0.0
 11
94.855834
 21
113.489866
 31
0.0
  0
LINE
  5
832
100
AcDbEntity
  8
0
  6
CONTINUOUS
 62
     0
100
AcDbLine
 10
92.678282
 20
111.53682
 30
0.0
 11
94.638921
 21
113.497458
 31
0.0
  0
LINE
  5
833
100
AcDbEntity
  8
0
  6
CONTINUOUS
 62
     0
100
AcDbLine
 10
92.596107
 20
111.679151
 30
0.0
 11
94.428064
 21
113.511109
 31
0.0
  0
LINE
  5
834
100
AcDbEntity
  8
0
  6
CONTINUOUS
 62
     0
100
AcDbLine
 10
92.513932
 20
111.821483
 30
0.0
 11
94.222815
 21
113.530365
 31
0.0
  0
LINE
  5
835
100
AcDbEntity
  8
0
  6
CONTINUOUS
 62
     0
100
AcDbLine
 10
92.431757
 20
111.963814
 30
0.0
 11
94.022787
 21
113.554844
 31
0.0
  0
LINE
  5
836
100
AcDbEntity
  8
0
  6
CONTINUOUS
 62
     0
100
AcDbLine
 10
92.349582
 20
112.106145
 30
0.0
 11
93.827651
 21
113.584214
 31
0.0
  0
LINE
  5
837
100
AcDbEntity
  8
0
  6
CONTINUOUS
 62
     0
100
AcDbLine
 10
92.267407
 20
112.248477
 30
0.0
 11
93.637117
 21
113.618187
 31
0.0
  0
LINE
  5
838
100
AcDbEntity
  8
0
  6
CONTINUOUS
 62
     0
100
AcDbLine
 10
92.185232
 20
112.390808
 30
0.0
 11
93.450935
 21
113.656511
 31
0.0
  0
LINE
  5
839
100
AcDbEntity
  8
0
  6
CONTINUOUS
 62
     0
100
AcDbLine
 10
92.103057
 20
112.533139
 30
0.0
 11
93.268884
 21
113.698967
 31
0.0
  0
LINE
  5
83A
100
AcDbEntity
  8
0
  6
CONTINUOUS
 62
     0
100
AcDbLine
 10
92.020882
 20
112.675471
 30
0.0
 11
93.090769
 21
113.745358
 31
0.0
  0
LINE
  5
83B
100
AcDbEntity
  8
0
  6
CONTINUOUS
 62
     0
100
AcDbLine
 10
91.938707
 20
112.817802
 30
0.0
 11
92.916417
 21
113.795513
 31
0.0
  0
LINE
  5
83C
100
AcDbEntity
  8
0
  6
CONTINUOUS
 62
     0
100
AcDbLine
 10
91.856532
 20
112.960134
 30
0.0
 11
92.745675
 21
113.849276
 31
0.0
  0
LINE
  5
83D
100
AcDbEntity
  8
0
  6
CONTINUOUS
 62
     0
100
AcDbLine
 10
91.774357
 20
113.102465
 30
0.0
 11
92.578404
 21
113.906512
 31
0.0
  0
LINE
  5
83E
100
AcDbEntity
  8
0
  6
CONTINUOUS
 62
     0
100
AcDbLine
 10
91.692182
 20
113.244796
 30
0.0
 11
92.414483
 21
113.967097
 31
0.0
  0
LINE
  5
83F
100
AcDbEntity
  8
0
  6
CONTINUOUS
 62
     0
100
AcDbLine
 10
91.610006
 20
113.387128
 30
0.0
 11
92.2538
 21
114.030921
 31
0.0
  0
LINE
  5
840
100
AcDbEntity
  8
0
  6
CONTINUOUS
 62
     0
100
AcDbLine
 10
91.527831
 20
113.529459
 30
0.0
 11
92.096258
 21
114.097885
 31
0.0
  0
LINE
  5
841
100
AcDbEntity
  8
0
  6
CONTINUOUS
 62
     0
100
AcDbLine
 10
91.445656
 20
113.67179
 30
0.0
 11
91.941767
 21
114.167901
 31
0.0
  0
LINE
  5
842
100
AcDbEntity
  8
0
  6
CONTINUOUS
 62
     0
100
AcDbLine
 10
91.363481
 20
113.814122
 30
0.0
 11
91.790247
 21
114.240887
 31
0.0
  0
LINE
  5
843
100
AcDbEntity
  8
0
  6
CONTINUOUS
 62
     0
100
AcDbLine
 10
91.281306
 20
113.956453
 30
0.0
 11
91.641627
 21
114.316774
 31
0.0
  0
LINE
  5
844
100
AcDbEntity
  8
0
  6
CONTINUOUS
 62
     0
100
AcDbLine
 10
91.199131
 20
114.098784
 30
0.0
 11
91.495842
 21
114.395495
 31
0.0
  0
LINE
  5
845
100
AcDbEntity
  8
0
  6
CONTINUOUS
 62
     0
100
AcDbLine
 10
91.116956
 20
114.241116
 30
0.0
 11
91.352834
 21
114.476994
 31
0.0
  0
LINE
  5
846
100
AcDbEntity
  8
0
  6
CONTINUOUS
 62
     0
100
AcDbLine
 10
91.034781
 20
114.383447
 30
0.0
 11
91.212552
 21
114.561218
 31
0.0
  0
LINE
  5
847
100
AcDbEntity
  8
0
  6
CONTINUOUS
 62
     0
100
AcDbLine
 10
90.952606
 20
114.525778
 30
0.0
 11
91.074951
 21
114.648123
 31
0.0
  0
LINE
  5
848
100
AcDbEntity
  8
0
  6
CONTINUOUS
 62
     0
100
AcDbLine
 10
90.870431
 20
114.66811
 30
0.0
 11
90.939988
 21
114.737667
 31
0.0
  0
LINE
  5
849
100
AcDbEntity
  8
0
  6
CONTINUOUS
 62
     0
100
AcDbLine
 10
90.788256
 20
114.810441
 30
0.0
 11
90.807629
 21
114.829814
 31
0.0
  0
LINE
  5
84A
100
AcDbEntity
  8
0
  6
CONTINUOUS
 62
     0
100
AcDbLine
 10
93.582208
 20
109.971175
 30
0.0
 11
97.573556
 21
113.962523
 31
0.0
  0
LINE
  5
84B
100
AcDbEntity
  8
0
  6
CONTINUOUS
 62
     0
100
AcDbLine
 10
93.664383
 20
109.828844
 30
0.0
 11
97.957123
 21
114.121584
 31
0.0
  0
LINE
  5
84C
100
AcDbEntity
  8
0
  6
CONTINUOUS
 62
     0
100
AcDbLine
 10
93.746558
 20
109.686512
 30
0.0
 11
98.397552
 21
114.337506
 31
0.0
  0
LINE
  5
84D
100
AcDbEntity
  8
0
  6
CONTINUOUS
 62
     0
100
AcDbLine
 10
93.828733
 20
109.544181
 30
0.0
 11
98.946836
 21
114.662284
 31
0.0
  0
LINE
  5
84E
100
AcDbEntity
  8
0
  6
CONTINUOUS
 62
     0
100
AcDbLine
 10
93.910908
 20
109.40185
 30
0.0
 11
99.064547
 21
114.555489
 31
0.0
  0
LINE
  5
84F
100
AcDbEntity
  8
0
  6
CONTINUOUS
 62
     0
100
AcDbLine
 10
93.993083
 20
109.259518
 30
0.0
 11
98.757866
 21
114.024301
 31
0.0
  0
LINE
  5
850
100
AcDbEntity
  8
0
  6
CONTINUOUS
 62
     0
100
AcDbLine
 10
94.075258
 20
109.117187
 30
0.0
 11
98.451185
 21
113.493114
 31
0.0
  0
LINE
  5
851
100
AcDbEntity
  8
0
  6
CONTINUOUS
 62
     0
100
AcDbLine
 10
94.157433
 20
108.974856
 30
0.0
 11
98.144503
 21
112.961926
 31
0.0
  0
LINE
  5
852
100
AcDbEntity
  8
0
  6
CONTINUOUS
 62
     0
100
AcDbLine
 10
94.239608
 20
108.832524
 30
0.0
 11
97.837822
 21
112.430738
 31
0.0
  0
LINE
  5
853
100
AcDbEntity
  8
0
  6
CONTINUOUS
 62
     0
100
AcDbLine
 10
94.32217
 20
108.690579
 30
0.0
 11
97.53114
 21
111.89955
 31
0.0
  0
LINE
  5
854
100
AcDbEntity
  8
0
  6
CONTINUOUS
 62
     0
100
AcDbLine
 10
94.420285
 20
108.564188
 30
0.0
 11
97.224459
 21
111.368362
 31
0.0
  0
LINE
  5
855
100
AcDbEntity
  8
0
  6
CONTINUOUS
 62
     0
100
AcDbLine
 10
94.540921
 20
108.460318
 30
0.0
 11
96.917777
 21
110.837174
 31
0.0
  0
LINE
  5
856
100
AcDbEntity
  8
0
  6
CONTINUOUS
 62
     0
100
AcDbLine
 10
94.685155
 20
108.380046
 30
0.0
 11
96.611096
 21
110.305986
 31
0.0
  0
LINE
  5
857
100
AcDbEntity
  8
0
  6
CONTINUOUS
 62
     0
100
AcDbLine
 10
94.857835
 20
108.32822
 30
0.0
 11
96.304414
 21
109.774799
 31
0.0
  0
LINE
  5
858
100
AcDbEntity
  8
0
  6
CONTINUOUS
 62
     0
100
AcDbLine
 10
95.072941
 20
108.318819
 30
0.0
 11
95.997733
 21
109.243611
 31
0.0
  0
LINE
  5
859
100
AcDbEntity
  8
0
  6
CONTINUOUS
 62
     0
100
AcDbLine
 10
95.403085
 20
108.424457
 30
0.0
 11
95.69103
 21
108.712401
 31
0.0
  0
ENDBLK
  5
85B
100
AcDbEntity
  8
0
100
AcDbBlockEnd
  0
BLOCK
  5
861
100
AcDbEntity
  8
QUOTE
  6
CONTINUOUS
100
AcDbBlockBegin
  2
RUGOSITA
 70
     2
 10
0.0
 20
0.0
 30
0.0
  3
RUGOSITA
  1

  0
ATTDEF
  5
85D
100
AcDbEntity
  8
QUOTE
100
AcDbText
 10
-1.071886
 20
3.214106
 30
0.0
 40
1.5
  1
0.8
100
AcDbAttributeDefinition
  3
CHE RUGOSITA ?
  2
RUGOSITA
 70
     0
  0
LINE
  5
85E
100
AcDbEntity
  8
QUOTE
100
AcDbLine
 10
0.0
 20
0.0
 30
0.0
 11
4.0
 21
6.928203
 31
0.0
  0
LINE
  5
85F
100
AcDbEntity
  8
QUOTE
100
AcDbLine
 10
0.0
 20
0.0
 30
0.0
 11
-1.75
 21
3.031089
 31
0.0
  0
LINE
  5
860
100
AcDbEntity
  8
QUOTE
100
AcDbLine
 10
-1.75
 20
3.031089
 30
0.0
 11
1.75
 21
3.031089
 31
0.0
  0
ENDBLK
  5
862
100
AcDbEntity
  8
QUOTE
  6
CONTINUOUS
100
AcDbBlockEnd
  0
BLOCK
  5
86D
100
AcDbEntity
  8
0
100
AcDbBlockBegin
  2
*D2
 70
    65
 10
0.0
 20
0.0
 30
0.0
  3
*D2
  1

  0
LINE
  5
864
100
AcDbEntity
  8
0
  6
BYBLOCK
 62
     0
100
AcDbLine
 10
96.158312
 20
106.22413
 30
0.0
 11
115.848468
 21
93.03266
 31
0.0
  0
LINE
  5
865
100
AcDbEntity
  8
0
  6
BYBLOCK
 62
     0
100
AcDbLine
 10
89.743289
 20
96.648789
 30
0.0
 11
109.433444
 21
83.45732
 31
0.0
  0
LINE
  5
866
100
AcDbEntity
  8
0
  6
BYBLOCK
 62
     0
100
AcDbLine
 10
113.527182
 20
91.458254
 30
0.0
 11
110.00642
 21
86.203012
 31
0.0
  0
SOLID
  5
867
100
AcDbEntity
  8
0
  6
BYBLOCK
 62
     0
100
AcDbTrace
 10
113.167174
 20
91.699442
 30
0.0
 11
113.88719
 21
91.217065
 31
0.0
 12
114.974313
 22
93.618303
 32
0.0
 13
114.974313
 23
93.618303
 33
0.0
  0
SOLID
  5
868
100
AcDbEntity
  8
0
  6
BYBLOCK
 62
     0
100
AcDbTrace
 10
109.646411
 20
86.4442
 30
0.0
 11
110.366428
 21
85.961823
 31
0.0
 12
108.559289
 22
84.042962
 32
0.0
 13
108.559289
 23
84.042962
 33
0.0
  0
MTEXT
  5
869
100
AcDbEntity
  8
0
  6
BYBLOCK
 62
     0
100
AcDbMText
 10
110.097218
 20
89.978752
 30
0.0
 40
3.0
 41
0.0
 71
     5
 72
     1
  1
\A1;{11.5}
 11
0.556589
 21
0.830788
 31
0.0
  0
POINT
  5
86A
100
AcDbEntity
  8
DEFPOINTS
  6
BYBLOCK
 62
     0
100
AcDbPoint
 10
95.721235
 20
106.516951
 30
0.0
  0
POINT
  5
86B
100
AcDbEntity
  8
DEFPOINTS
  6
BYBLOCK
 62
     0
100
AcDbPoint
 10
89.306211
 20
96.941611
 30
0.0
  0
POINT
  5
86C
100
AcDbEntity
  8
DEFPOINTS
  6
BYBLOCK
 62
     0
100
AcDbPoint
 10
108.559289
 20
84.042962
 30
0.0
  0
ENDBLK
  5
86E
100
AcDbEntity
  8
0
100
AcDbBlockEnd
  0
BLOCK
  5
87B
100
AcDbEntity
  8
0
100
AcDbBlockBegin
  2
*D3
 70
    65
 10
0.0
 20
0.0
 30
0.0
  3
*D3
  1

  0
LINE
  5
870
100
AcDbEntity
  8
0
  6
BYBLOCK
 62
     0
100
AcDbLine
 10
89.613418
 20
96.648012
 30
0.0
 11
71.038199
 21
84.155524
 31
0.0
  0
LINE
  5
871
100
AcDbEntity
  8
0
  6
BYBLOCK
 62
     0
100
AcDbLine
 10
83.348394
 20
105.963545
 30
0.0
 11
64.773176
 21
93.471057
 31
0.0
  0
LINE
  5
872
100
AcDbEntity
  8
0
  6
BYBLOCK
 62
     0
100
AcDbLine
 10
73.362285
 20
82.585253
 30
0.0
 11
74.813259
 21
80.427783
 31
0.0
  0
LINE
  5
873
100
AcDbEntity
  8
0
  6
BYBLOCK
 62
     0
100
AcDbLine
 10
64.195313
 20
96.215724
 30
0.0
 11
62.744339
 21
98.373194
 31
0.0
  0
LINE
  5
874
100
AcDbEntity
  8
0
  6
BYBLOCK
 62
     0
100
AcDbLine
 10
71.911311
 20
84.742722
 30
0.0
 11
65.646287
 21
94.058255
 31
0.0
  0
SOLID
  5
875
100
AcDbEntity
  8
0
  6
BYBLOCK
 62
     0
100
AcDbTrace
 10
73.721863
 20
82.827082
 30
0.0
 11
73.002707
 21
82.343424
 31
0.0
 12
71.911311
 22
84.742722
 32
0.0
 13
71.911311
 23
84.742722
 33
0.0
  0
SOLID
  5
876
100
AcDbEntity
  8
0
  6
BYBLOCK
 62
     0
100
AcDbTrace
 10
64.554891
 20
96.457553
 30
0.0
 11
63.835735
 21
95.973895
 31
0.0
 12
65.646287
 22
94.058255
 32
0.0
 13
65.646287
 23
94.058255
 33
0.0
  0
MTEXT
  5
877
100
AcDbEntity
  8
0
  6
BYBLOCK
 62
     0
100
AcDbMText
 10
70.460293
 20
90.531353
 30
0.0
 40
3.0
 41
0.0
 71
     5
 72
     1
  1
\A1;{11.2}
 11
0.558067
 21
-0.829796
 31
0.0
  0
POINT
  5
878
100
AcDbEntity
  8
DEFPOINTS
  6
BYBLOCK
 62
     0
100
AcDbPoint
 10
90.049973
 20
96.941611
 30
0.0
  0
POINT
  5
879
100
AcDbEntity
  8
DEFPOINTS
  6
BYBLOCK
 62
     0
100
AcDbPoint
 10
83.78495
 20
106.257144
 30
0.0
  0
POINT
  5
87A
100
AcDbEntity
  8
DEFPOINTS
  6
BYBLOCK
 62
     0
100
AcDbPoint
 10
65.646287
 20
94.058255
 30
0.0
  0
ENDBLK
  5
87C
100
AcDbEntity
  8
0
100
AcDbBlockEnd
  0
BLOCK
  5
883
100
AcDbEntity
  8
0
100
AcDbBlockBegin
  2
*D4
 70
    65
 10
0.0
 20
0.0
 30
0.0
  3
*D4
  1

  0
LINE
  5
87E
100
AcDbEntity
  8
0
  6
BYBLOCK
 62
     0
100
AcDbLine
 10
148.617059
 20
133.719924
 30
0.0
 11
91.078076
 21
133.712492
 31
0.0
  0
SOLID
  5
87F
100
AcDbEntity
  8
0
  6
BYBLOCK
 62
     0
100
AcDbTrace
 10
91.07802
 20
134.145826
 30
0.0
 11
91.078132
 21
133.279159
 31
0.0
 12
88.478076
 22
133.712156
 32
0.0
 13
88.478076
 23
133.712156
 33
0.0
  0
MTEXT
  5
880
100
AcDbEntity
  8
0
  6
BYBLOCK
 62
     0
100
AcDbMText
 10
118.547306
 20
135.74214
 30
0.0
 40
3.0
 41
0.0
 71
     5
 72
     1
  1
\A1;{R60}
 11
1.0
 21
0.000129
 31
0.0
  0
POINT
  5
881
100
AcDbEntity
  8
DEFPOINTS
  6
BYBLOCK
 62
     0
100
AcDbPoint
 10
88.478076
 20
133.712156
 30
0.0
  0
POINT
  5
882
100
AcDbEntity
  8
DEFPOINTS
  6
BYBLOCK
 62
     0
100
AcDbPoint
 10
148.617059
 20
133.719924
 30
0.0
  0
ENDBLK
  5
884
100
AcDbEntity
  8
0
100
AcDbBlockEnd
  0
BLOCK
  5
88F
100
AcDbEntity
  8
0
100
AcDbBlockBegin
  2
*D5
 70
    65
 10
0.0
 20
0.0
 30
0.0
  3
*D5
  1

  0
LINE
  5
886
100
AcDbEntity
  8
0
  6
BYBLOCK
 62
     0
100
AcDbLine
 10
90.204192
 20
96.849922
 30
0.0
 11
132.148714
 21
96.849922
 31
0.0
  0
LINE
  5
887
100
AcDbEntity
  8
0
  6
BYBLOCK
 62
     0
100
AcDbLine
 10
148.090959
 20
133.719924
 30
0.0
 11
130.044314
 21
133.719924
 31
0.0
  0
LINE
  5
888
100
AcDbEntity
  8
0
  6
BYBLOCK
 62
     0
100
AcDbLine
 10
131.096514
 20
99.449922
 30
0.0
 11
131.096514
 21
131.119924
 31
0.0
  0
SOLID
  5
889
100
AcDbEntity
  8
0
  6
BYBLOCK
 62
     0
100
AcDbTrace
 10
130.663181
 20
99.449922
 30
0.0
 11
131.529848
 21
99.449922
 31
0.0
 12
131.096514
 22
96.849922
 32
0.0
 13
131.096514
 23
96.849922
 33
0.0
  0
SOLID
  5
88A
100
AcDbEntity
  8
0
  6
BYBLOCK
 62
     0
100
AcDbTrace
 10
130.663181
 20
131.119924
 30
0.0
 11
131.529848
 21
131.119924
 31
0.0
 12
131.096514
 22
133.719924
 32
0.0
 13
131.096514
 23
133.719924
 33
0.0
  0
MTEXT
  5
88B
100
AcDbEntity
  8
0
  6
BYBLOCK
 62
     0
100
AcDbMText
 10
129.070414
 20
115.284923
 30
0.0
 40
3.0
 41
0.0
 71
     5
 72
     1
  1
\A1;{36.9}
 11
0.0
 21
1.0
 31
0.0
  0
POINT
  5
88C
100
AcDbEntity
  8
DEFPOINTS
  6
BYBLOCK
 62
     0
100
AcDbPoint
 10
89.678092
 20
96.849922
 30
0.0
  0
POINT
  5
88D
100
AcDbEntity
  8
DEFPOINTS
  6
BYBLOCK
 62
     0
100
AcDbPoint
 10
148.617059
 20
133.719924
 30
0.0
  0
POINT
  5
88E
100
AcDbEntity
  8
DEFPOINTS
  6
BYBLOCK
 62
     0
100
AcDbPoint
 10
131.096514
 20
133.719924
 30
0.0
  0
ENDBLK
  5
890
100
AcDbEntity
  8
0
100
AcDbBlockEnd
  0
BLOCK
  5
89B
100
AcDbEntity
  8
0
100
AcDbBlockBegin
  2
*D6
 70
    65
 10
0.0
 20
0.0
 30
0.0
  3
*D6
  1

  0
LINE
  5
892
100
AcDbEntity
  8
0
  6
BYBLOCK
 62
     0
100
AcDbLine
 10
95.204192
 20
163.849922
 30
0.0
 11
165.168503
 21
163.849922
 31
0.0
  0
LINE
  5
893
100
AcDbEntity
  8
0
  6
BYBLOCK
 62
     0
100
AcDbLine
 10
90.204192
 20
96.849922
 30
0.0
 11
165.168503
 21
96.849922
 31
0.0
  0
LINE
  5
894
100
AcDbEntity
  8
0
  6
BYBLOCK
 62
     0
100
AcDbLine
 10
164.116303
 20
161.249922
 30
0.0
 11
164.116303
 21
99.449922
 31
0.0
  0
SOLID
  5
895
100
AcDbEntity
  8
0
  6
BYBLOCK
 62
     0
100
AcDbTrace
 10
163.682969
 20
161.249922
 30
0.0
 11
164.549636
 21
161.249922
 31
0.0
 12
164.116303
 22
163.849922
 32
0.0
 13
164.116303
 23
163.849922
 33
0.0
  0
SOLID
  5
896
100
AcDbEntity
  8
0
  6
BYBLOCK
 62
     0
100
AcDbTrace
 10
163.682969
 20
99.449922
 30
0.0
 11
164.549636
 21
99.449922
 31
0.0
 12
164.116303
 22
96.849922
 32
0.0
 13
164.116303
 23
96.849922
 33
0.0
  0
MTEXT
  5
897
100
AcDbEntity
  8
0
  6
BYBLOCK
 62
     0
100
AcDbMText
 10
155.690417
 20
130.349922
 30
0.0
 40
3.0
 41
0.0
 71
     5
 72
     1
  1
\A1;67\S+0.0200^  0.0000;
 11
0.0
 21
1.0
 31
0.0
  0
POINT
  5
898
100
AcDbEntity
  8
DEFPOINTS
  6
BYBLOCK
 62
     0
100
AcDbPoint
 10
94.678092
 20
163.849922
 30
0.0
  0
POINT
  5
899
100
AcDbEntity
  8
DEFPOINTS
  6
BYBLOCK
 62
     0
100
AcDbPoint
 10
89.678092
 20
96.849922
 30
0.0
  0
POINT
  5
89A
100
AcDbEntity
  8
DEFPOINTS
  6
BYBLOCK
 62
     0
100
AcDbPoint
 10
164.116303
 20
96.849922
 30
0.0
  0
ENDBLK
  5
89C
100
AcDbEntity
  8
0
100
AcDbBlockEnd
  0
BLOCK
  5
8A7
100
AcDbEntity
  8
0
100
AcDbBlockBegin
  2
*D7
 70
    65
 10
0.0
 20
0.0
 30
0.0
  3
*D7
  1

  0
LINE
  5
89E
100
AcDbEntity
  8
0
  6
BYBLOCK
 62
     0
100
AcDbLine
 10
82.204192
 20
193.849922
 30
0.0
 11
165.171427
 21
193.849922
 31
0.0
  0
LINE
  5
89F
100
AcDbEntity
  8
0
  6
BYBLOCK
 62
     0
100
AcDbLine
 10
95.204192
 20
163.849922
 30
0.0
 11
165.171427
 21
163.849922
 31
0.0
  0
LINE
  5
8A0
100
AcDbEntity
  8
0
  6
BYBLOCK
 62
     0
100
AcDbLine
 10
164.119227
 20
191.249922
 30
0.0
 11
164.119227
 21
166.449922
 31
0.0
  0
SOLID
  5
8A1
100
AcDbEntity
  8
0
  6
BYBLOCK
 62
     0
100
AcDbTrace
 10
163.685894
 20
191.249922
 30
0.0
 11
164.55256
 21
191.249922
 31
0.0
 12
164.119227
 22
193.849922
 32
0.0
 13
164.119227
 23
193.849922
 33
0.0
  0
SOLID
  5
8A2
100
AcDbEntity
  8
0
  6
BYBLOCK
 62
     0
100
AcDbTrace
 10
163.685894
 20
166.449922
 30
0.0
 11
164.55256
 21
166.449922
 31
0.0
 12
164.119227
 22
163.849922
 32
0.0
 13
164.119227
 23
163.849922
 33
0.0
  0
MTEXT
  5
8A3
100
AcDbEntity
  8
0
  6
BYBLOCK
 62
     0
100
AcDbMText
 10
162.089227
 20
176.774449
 30
0.0
 40
3.0
 41
0.0
 71
     5
 72
     1
  1
\A1;30
 11
0.0
 21
1.0
 31
0.0
  0
POINT
  5
8A4
100
AcDbEntity
  8
DEFPOINTS
  6
BYBLOCK
 62
     0
100
AcDbPoint
 10
81.678092
 20
193.849922
 30
0.0
  0
POINT
  5
8A5
100
AcDbEntity
  8
DEFPOINTS
  6
BYBLOCK
 62
     0
100
AcDbPoint
 10
94.678092
 20
163.849922
 30
0.0
  0
POINT
  5
8A6
100
AcDbEntity
  8
DEFPOINTS
  6
BYBLOCK
 62
     0
100
AcDbPoint
 10
164.119227
 20
163.849922
 30
0.0
  0
ENDBLK
  5
8A8
100
AcDbEntity
  8
0
100
AcDbBlockEnd
  0
BLOCK
  5
8B5
100
AcDbEntity
  8
0
100
AcDbBlockBegin
  2
*D8
 70
    65
 10
0.0
 20
0.0
 30
0.0
  3
*D8
  1

  0
LINE
  5
8AA
100
AcDbEntity
  8
0
  6
BYBLOCK
 62
     0
100
AcDbLine
 10
82.767169
 20
108.019992
 30
0.0
 11
78.118081
 21
116.072448
 31
0.0
  0
LINE
  5
8AB
100
AcDbEntity
  8
0
  6
BYBLOCK
 62
     0
100
AcDbLine
 10
83.459989
 20
108.419992
 30
0.0
 11
78.810901
 21
116.472448
 31
0.0
  0
LINE
  5
8AC
100
AcDbEntity
  8
0
  6
BYBLOCK
 62
     0
100
AcDbLine
 10
81.588667
 20
116.861216
 30
0.0
 11
83.840333
 21
118.161216
 31
0.0
  0
LINE
  5
8AD
100
AcDbEntity
  8
0
  6
BYBLOCK
 62
     0
100
AcDbLine
 10
76.392515
 20
113.861216
 30
0.0
 11
66.961498
 21
108.416216
 31
0.0
  0
LINE
  5
8AE
100
AcDbEntity
  8
0
  6
BYBLOCK
 62
     0
100
AcDbLine
 10
79.337001
 20
115.561216
 30
0.0
 11
78.644181
 21
115.161216
 31
0.0
  0
SOLID
  5
8AF
100
AcDbEntity
  8
0
  6
BYBLOCK
 62
     0
100
AcDbTrace
 10
81.372001
 20
117.236494
 30
0.0
 11
81.805334
 21
116.485939
 31
0.0
 12
79.337001
 22
115.561216
 32
0.0
 13
79.337001
 23
115.561216
 33
0.0
  0
SOLID
  5
8B0
100
AcDbEntity
  8
0
  6
BYBLOCK
 62
     0
100
AcDbTrace
 10
76.175848
 20
114.236494
 30
0.0
 11
76.609182
 21
113.485939
 31
0.0
 12
78.644181
 22
115.161216
 32
0.0
 13
78.644181
 23
115.161216
 33
0.0
  0
MTEXT
  5
8B1
100
AcDbEntity
  8
0
  6
BYBLOCK
 62
     0
100
AcDbMText
 10
68.224145
 20
111.489248
 30
0.0
 40
3.0
 41
0.0
 71
     5
 72
     1
  1
\A1;0.8
 11
0.866025
 21
0.5
 31
0.0
  0
POINT
  5
8B2
100
AcDbEntity
  8
DEFPOINTS
  6
BYBLOCK
 62
     0
100
AcDbPoint
 10
83.030219
 20
107.564376
 30
0.0
  0
POINT
  5
8B3
100
AcDbEntity
  8
DEFPOINTS
  6
BYBLOCK
 62
     0
100
AcDbPoint
 10
83.723039
 20
107.964376
 30
0.0
  0
POINT
  5
8B4
100
AcDbEntity
  8
DEFPOINTS
  6
BYBLOCK
 62
     0
100
AcDbPoint
 10
79.337001
 20
115.561216
 30
0.0
  0
ENDBLK
  5
8B6
100
AcDbEntity
  8
0
100
AcDbBlockEnd
  0
BLOCK
  5
8C3
100
AcDbEntity
  8
0
100
AcDbBlockBegin
  2
*D9
 70
    65
 10
0.0
 20
0.0
 30
0.0
  3
*D9
  1

  0
LINE
  5
8B8
100
AcDbEntity
  8
0
  6
BYBLOCK
 62
     0
100
AcDbLine
 10
84.213935
 20
107.858138
 30
0.0
 11
87.978431
 21
121.907429
 31
0.0
  0
ARC
  5
8B9
100
AcDbEntity
  8
0
  6
BYBLOCK
 62
     0
100
AcDbCircle
 10
84.07777
 20
107.349964
 30
0.0
 40
14.018797
100
AcDbArc
 50
62.192058
 51
75.0
  0
ARC
  5
8BA
100
AcDbEntity
  8
0
  6
BYBLOCK
 62
     0
100
AcDbCircle
 10
84.07777
 20
107.349964
 30
0.0
 40
14.018797
100
AcDbArc
 50
85.641667
 51
109.358333
  0
SOLID
  5
8BB
100
AcDbEntity
  8
0
  6
BYBLOCK
 62
     0
100
AcDbTrace
 10
85.21597
 20
121.755387
 30
0.0
 11
85.070257
 21
120.901058
 31
0.0
 12
87.706102
 22
120.891082
 32
0.0
 13
87.706102
 23
120.891082
 33
0.0
  0
SOLID
  5
8BC
100
AcDbEntity
  8
0
  6
BYBLOCK
 62
     0
100
AcDbTrace
 10
79.611821
 20
120.182441
 30
0.0
 11
79.249955
 21
120.969946
 31
0.0
 12
77.068372
 22
119.490598
 32
0.0
 13
77.068372
 23
119.490598
 33
0.0
  0
MTEXT
  5
8BD
100
AcDbEntity
  8
0
  6
BYBLOCK
 62
     0
100
AcDbMText
 10
94.42167
 20
120.038562
 30
0.0
 40
3.0
 41
0.0
 71
     5
 72
     1
  1
\A1;45°
 11
0.884516
 21
-0.466509
 31
0.0
  0
POINT
  5
8BE
100
AcDbEntity
  8
DEFPOINTS
  6
BYBLOCK
 62
     0
100
AcDbPoint
 10
80.449439
 20
120.891082
 30
0.0
  0
POINT
  5
8BF
100
AcDbEntity
  8
DEFPOINTS
  6
BYBLOCK
 62
     0
100
AcDbPoint
 10
84.07777
 20
107.349964
 30
0.0
  0
POINT
  5
8C0
100
AcDbEntity
  8
DEFPOINTS
  6
BYBLOCK
 62
     0
100
AcDbPoint
 10
83.78495
 20
106.257144
 30
0.0
  0
POINT
  5
8C1
100
AcDbEntity
  8
DEFPOINTS
  6
BYBLOCK
 62
     0
100
AcDbPoint
 10
84.07777
 20
107.349964
 30
0.0
  0
POINT
  5
8C2
100
AcDbEntity
  8
DEFPOINTS
  6
BYBLOCK
 62
     0
100
AcDbPoint
 10
74.878092
 20
123.284274
 30
0.0
  0
ENDBLK
  5
8C4
100
AcDbEntity
  8
0
100
AcDbBlockEnd
  0
BLOCK
  5
8CF
100
AcDbEntity
  8
0
100
AcDbBlockBegin
  2
*D10
 70
    65
 10
0.0
 20
0.0
 30
0.0
  3
*D10
  1

  0
LINE
  5
8C6
100
AcDbEntity
  8
0
  6
BYBLOCK
 62
     0
100
AcDbLine
 10
74.351992
 20
150.284274
 30
0.0
 11
54.432182
 21
150.284274
 31
0.0
  0
LINE
  5
8C7
100
AcDbEntity
  8
0
  6
BYBLOCK
 62
     0
100
AcDbLine
 10
74.351992
 20
123.284274
 30
0.0
 11
54.432182
 21
123.284274
 31
0.0
  0
LINE
  5
8C8
100
AcDbEntity
  8
0
  6
BYBLOCK
 62
     0
100
AcDbLine
 10
55.484382
 20
147.684274
 30
0.0
 11
55.484382
 21
125.884274
 31
0.0
  0
SOLID
  5
8C9
100
AcDbEntity
  8
0
  6
BYBLOCK
 62
     0
100
AcDbTrace
 10
55.051048
 20
147.684274
 30
0.0
 11
55.917715
 21
147.684274
 31
0.0
 12
55.484382
 22
150.284274
 32
0.0
 13
55.484382
 23
150.284274
 33
0.0
  0
SOLID
  5
8CA
100
AcDbEntity
  8
0
  6
BYBLOCK
 62
     0
100
AcDbTrace
 10
55.051048
 20
125.884274
 30
0.0
 11
55.917715
 21
125.884274
 31
0.0
 12
55.484382
 22
123.284274
 32
0.0
 13
55.484382
 23
123.284274
 33
0.0
  0
MTEXT
  5
8CB
100
AcDbEntity
  8
0
  6
BYBLOCK
 62
     0
100
AcDbMText
 10
53.454382
 20
136.784274
 30
0.0
 40
3.0
 41
0.0
 71
     5
 72
     1
  1
\A1;27
 11
0.0
 21
1.0
 31
0.0
  0
POINT
  5
8CC
100
AcDbEntity
  8
DEFPOINTS
  6
BYBLOCK
 62
     0
100
AcDbPoint
 10
74.878092
 20
150.284274
 30
0.0
  0
POINT
  5
8CD
100
AcDbEntity
  8
DEFPOINTS
  6
BYBLOCK
 62
     0
100
AcDbPoint
 10
74.878092
 20
123.284274
 30
0.0
  0
POINT
  5
8CE
100
AcDbEntity
  8
DEFPOINTS
  6
BYBLOCK
 62
     0
100
AcDbPoint
 10
55.484382
 20
123.284274
 30
0.0
  0
ENDBLK
  5
8D0
100
AcDbEntity
  8
0
100
AcDbBlockEnd
  0
BLOCK
  5
8DE
100
AcDbEntity
  8
0
100
AcDbBlockBegin
  2
*D11
 70
    65
 10
0.0
 20
0.0
 30
0.0
  3
*D11
  1

  0
LINE
  5
8D2
100
AcDbEntity
  8
0
  6
BYBLOCK
 62
     0
100
AcDbLine
 10
74.878092
 20
150.810374
 30
0.0
 11
74.878092
 21
161.762051
 31
0.0
  0
LINE
  5
8D3
100
AcDbEntity
  8
0
  6
BYBLOCK
 62
     0
100
AcDbLine
 10
69.306083
 20
155.856282
 30
0.0
 11
66.762078
 21
158.400288
 31
0.0
  0
ARC
  5
8D4
100
AcDbEntity
  8
0
  6
BYBLOCK
 62
     0
100
AcDbCircle
 10
74.878092
 20
150.284274
 30
0.0
 40
10.425578
100
AcDbArc
 50
72.760876
 51
90.0
  0
ARC
  5
8D5
100
AcDbEntity
  8
0
  6
BYBLOCK
 62
     0
100
AcDbCircle
 10
74.878092
 20
150.284274
 30
0.0
 40
10.425578
100
AcDbArc
 50
104.326093
 51
120.673907
  0
SOLID
  5
8D6
100
AcDbEntity
  8
0
  6
BYBLOCK
 62
     0
100
AcDbTrace
 10
72.244351
 20
160.8156
 30
0.0
 11
72.352418
 21
159.955697
 31
0.0
 12
74.878092
 22
160.709851
 32
0.0
 13
74.878092
 23
160.709851
 33
0.0
  0
SOLID
  5
8D7
100
AcDbEntity
  8
0
  6
BYBLOCK
 62
     0
100
AcDbTrace
 10
69.825284
 20
158.908924
 30
0.0
 11
69.293657
 21
159.593382
 31
0.0
 12
67.506096
 22
157.65627
 32
0.0
 13
67.506096
 23
157.65627
 33
0.0
  0
MTEXT
  5
8D8
100
AcDbEntity
  8
0
  6
BYBLOCK
 62
     0
100
AcDbMText
 10
81.654327
 20
161.223056
 30
0.0
 40
3.0
 41
0.0
 71
     5
 72
     1
  1
\A1;45°
 11
0.955076
 21
-0.29636
 31
0.0
  0
POINT
  5
8D9
100
AcDbEntity
  8
DEFPOINTS
  6
BYBLOCK
 62
     0
100
AcDbPoint
 10
69.665303
 20
159.313089
 30
0.0
  0
POINT
  5
8DA
100
AcDbEntity
  8
DEFPOINTS
  6
BYBLOCK
 62
     0
100
AcDbPoint
 10
74.878092
 20
150.284274
 30
0.0
  0
POINT
  5
8DB
100
AcDbEntity
  8
DEFPOINTS
  6
BYBLOCK
 62
     0
100
AcDbPoint
 10
74.878092
 20
150.284274
 30
0.0
  0
POINT
  5
8DC
100
AcDbEntity
  8
DEFPOINTS
  6
BYBLOCK
 62
     0
100
AcDbPoint
 10
74.878092
 20
123.284274
 30
0.0
  0
POINT
  5
8DD
100
AcDbEntity
  8
DEFPOINTS
  6
BYBLOCK
 62
     0
100
AcDbPoint
 10
69.678092
 20
155.484274
 30
0.0
  0
ENDBLK
  5
8DF
100
AcDbEntity
  8
0
100
AcDbBlockEnd
  0
BLOCK
  5
8EC
100
AcDbEntity
  8
0
100
AcDbBlockBegin
  2
*D12
 70
    65
 10
0.0
 20
0.0
 30
0.0
  3
*D12
  1

  0
LINE
  5
8E1
100
AcDbEntity
  8
0
  6
BYBLOCK
 62
     0
100
AcDbLine
 10
69.151992
 20
176.849922
 30
0.0
 11
56.020246
 21
176.849922
 31
0.0
  0
LINE
  5
8E2
100
AcDbEntity
  8
0
  6
BYBLOCK
 62
     0
100
AcDbLine
 10
69.151992
 20
168.449922
 30
0.0
 11
56.020246
 21
168.449922
 31
0.0
  0
LINE
  5
8E3
100
AcDbEntity
  8
0
  6
BYBLOCK
 62
     0
100
AcDbLine
 10
57.072446
 20
179.449922
 30
0.0
 11
57.072446
 21
182.049922
 31
0.0
  0
LINE
  5
8E4
100
AcDbEntity
  8
0
  6
BYBLOCK
 62
     0
100
AcDbLine
 10
57.072446
 20
165.849922
 30
0.0
 11
57.072446
 21
163.249922
 31
0.0
  0
LINE
  5
8E5
100
AcDbEntity
  8
0
  6
BYBLOCK
 62
     0
100
AcDbLine
 10
57.072446
 20
176.849922
 30
0.0
 11
57.072446
 21
168.449922
 31
0.0
  0
SOLID
  5
8E6
100
AcDbEntity
  8
0
  6
BYBLOCK
 62
     0
100
AcDbTrace
 10
56.639113
 20
179.449922
 30
0.0
 11
57.50578
 21
179.449922
 31
0.0
 12
57.072446
 22
176.849922
 32
0.0
 13
57.072446
 23
176.849922
 33
0.0
  0
SOLID
  5
8E7
100
AcDbEntity
  8
0
  6
BYBLOCK
 62
     0
100
AcDbTrace
 10
56.639113
 20
165.849922
 30
0.0
 11
57.50578
 21
165.849922
 31
0.0
 12
57.072446
 22
168.449922
 32
0.0
 13
57.072446
 23
168.449922
 33
0.0
  0
MTEXT
  5
8E8
100
AcDbEntity
  8
0
  6
BYBLOCK
 62
     0
100
AcDbMText
 10
55.042446
 20
172.649922
 30
0.0
 40
3.0
 41
0.0
 71
     5
 72
     1
  1
\A1;8.4
 11
0.0
 21
1.0
 31
0.0
  0
POINT
  5
8E9
100
AcDbEntity
  8
DEFPOINTS
  6
BYBLOCK
 62
     0
100
AcDbPoint
 10
69.678092
 20
176.849922
 30
0.0
  0
POINT
  5
8EA
100
AcDbEntity
  8
DEFPOINTS
  6
BYBLOCK
 62
     0
100
AcDbPoint
 10
69.678092
 20
168.449922
 30
0.0
  0
POINT
  5
8EB
100
AcDbEntity
  8
DEFPOINTS
  6
BYBLOCK
 62
     0
100
AcDbPoint
 10
57.072446
 20
168.449922
 30
0.0
  0
ENDBLK
  5
8ED
100
AcDbEntity
  8
0
100
AcDbBlockEnd
  0
BLOCK
  5
8F8
100
AcDbEntity
  8
0
100
AcDbBlockBegin
  2
*D13
 70
    65
 10
0.0
 20
0.0
 30
0.0
  3
*D13
  1

  0
LINE
  5
8EF
100
AcDbEntity
  8
0
  6
BYBLOCK
 62
     0
100
AcDbLine
 10
69.151992
 20
176.849922
 30
0.0
 11
44.518396
 21
176.849922
 31
0.0
  0
LINE
  5
8F0
100
AcDbEntity
  8
0
  6
BYBLOCK
 62
     0
100
AcDbLine
 10
81.714549
 20
163.849922
 30
0.0
 11
44.518396
 21
163.849922
 31
0.0
  0
LINE
  5
8F1
100
AcDbEntity
  8
0
  6
BYBLOCK
 62
     0
100
AcDbLine
 10
45.570596
 20
174.249922
 30
0.0
 11
45.570596
 21
166.449922
 31
0.0
  0
SOLID
  5
8F2
100
AcDbEntity
  8
0
  6
BYBLOCK
 62
     0
100
AcDbTrace
 10
45.137263
 20
174.249922
 30
0.0
 11
46.003929
 21
174.249922
 31
0.0
 12
45.570596
 22
176.849922
 32
0.0
 13
45.570596
 23
176.849922
 33
0.0
  0
SOLID
  5
8F3
100
AcDbEntity
  8
0
  6
BYBLOCK
 62
     0
100
AcDbTrace
 10
45.137263
 20
166.449922
 30
0.0
 11
46.003929
 21
166.449922
 31
0.0
 12
45.570596
 22
163.849922
 32
0.0
 13
45.570596
 23
163.849922
 33
0.0
  0
MTEXT
  5
8F4
100
AcDbEntity
  8
0
  6
BYBLOCK
 62
     0
100
AcDbMText
 10
43.540596
 20
170.349922
 30
0.0
 40
3.0
 41
0.0
 71
     5
 72
     1
  1
\A1;{13}
 11
0.0
 21
1.0
 31
0.0
  0
POINT
  5
8F5
100
AcDbEntity
  8
DEFPOINTS
  6
BYBLOCK
 62
     0
100
AcDbPoint
 10
69.678092
 20
176.849922
 30
0.0
  0
POINT
  5
8F6
100
AcDbEntity
  8
DEFPOINTS
  6
BYBLOCK
 62
     0
100
AcDbPoint
 10
82.240649
 20
163.849922
 30
0.0
  0
POINT
  5
8F7
100
AcDbEntity
  8
DEFPOINTS
  6
BYBLOCK
 62
     0
100
AcDbPoint
 10
45.570596
 20
163.849922
 30
0.0
  0
ENDBLK
  5
8F9
100
AcDbEntity
  8
0
100
AcDbBlockEnd
  0
BLOCK
  5
904
100
AcDbEntity
  8
0
100
AcDbBlockBegin
  2
*D14
 70
    65
 10
0.0
 20
0.0
 30
0.0
  3
*D14
  1

  0
LINE
  5
8FB
100
AcDbEntity
  8
0
  6
BYBLOCK
 62
     0
100
AcDbLine
 10
70.151992
 20
193.849922
 30
0.0
 11
31.063399
 21
193.849922
 31
0.0
  0
LINE
  5
8FC
100
AcDbEntity
  8
0
  6
BYBLOCK
 62
     0
100
AcDbLine
 10
89.151992
 20
96.849922
 30
0.0
 11
31.063399
 21
96.849922
 31
0.0
  0
LINE
  5
8FD
100
AcDbEntity
  8
0
  6
BYBLOCK
 62
     0
100
AcDbLine
 10
32.115599
 20
191.249922
 30
0.0
 11
32.115599
 21
99.449922
 31
0.0
  0
SOLID
  5
8FE
100
AcDbEntity
  8
0
  6
BYBLOCK
 62
     0
100
AcDbTrace
 10
31.682266
 20
191.249922
 30
0.0
 11
32.548932
 21
191.249922
 31
0.0
 12
32.115599
 22
193.849922
 32
0.0
 13
32.115599
 23
193.849922
 33
0.0
  0
SOLID
  5
8FF
100
AcDbEntity
  8
0
  6
BYBLOCK
 62
     0
100
AcDbTrace
 10
31.682266
 20
99.449922
 30
0.0
 11
32.548932
 21
99.449922
 31
0.0
 12
32.115599
 22
96.849922
 32
0.0
 13
32.115599
 23
96.849922
 33
0.0
  0
MTEXT
  5
900
100
AcDbEntity
  8
0
  6
BYBLOCK
 62
     0
100
AcDbMText
 10
30.085599
 20
145.349922
 30
0.0
 40
3.0
 41
0.0
 71
     5
 72
     1
  1
\A1;97
 11
0.0
 21
1.0
 31
0.0
  0
POINT
  5
901
100
AcDbEntity
  8
DEFPOINTS
  6
BYBLOCK
 62
     0
100
AcDbPoint
 10
70.678092
 20
193.849922
 30
0.0
  0
POINT
  5
902
100
AcDbEntity
  8
DEFPOINTS
  6
BYBLOCK
 62
     0
100
AcDbPoint
 10
89.678092
 20
96.849922
 30
0.0
  0
POINT
  5
903
100
AcDbEntity
  8
DEFPOINTS
  6
BYBLOCK
 62
     0
100
AcDbPoint
 10
32.115599
 20
96.849922
 30
0.0
  0
ENDBLK
  5
905
100
AcDbEntity
  8
0
100
AcDbBlockEnd
  0
BLOCK
  5
912
100
AcDbEntity
  8
0
100
AcDbBlockBegin
  2
*D15
 70
    65
 10
0.0
 20
0.0
 30
0.0
  3
*D15
  1

  0
LINE
  5
907
100
AcDbEntity
  8
0
  6
BYBLOCK
 62
     0
100
AcDbLine
 10
73.178092
 20
177.376022
 30
0.0
 11
73.178092
 21
206.173651
 31
0.0
  0
LINE
  5
908
100
AcDbEntity
  8
0
  6
BYBLOCK
 62
     0
100
AcDbLine
 10
69.678092
 20
193.376022
 30
0.0
 11
69.678092
 21
206.173651
 31
0.0
  0
LINE
  5
909
100
AcDbEntity
  8
0
  6
BYBLOCK
 62
     0
100
AcDbLine
 10
75.778092
 20
205.121451
 30
0.0
 11
78.378092
 21
205.121451
 31
0.0
  0
LINE
  5
90A
100
AcDbEntity
  8
0
  6
BYBLOCK
 62
     0
100
AcDbLine
 10
67.078092
 20
205.121451
 30
0.0
 11
59.093828
 21
205.121451
 31
0.0
  0
LINE
  5
90B
100
AcDbEntity
  8
0
  6
BYBLOCK
 62
     0
100
AcDbLine
 10
73.178092
 20
205.121451
 30
0.0
 11
69.678092
 21
205.121451
 31
0.0
  0
SOLID
  5
90C
100
AcDbEntity
  8
0
  6
BYBLOCK
 62
     0
100
AcDbTrace
 10
75.778092
 20
205.554784
 30
0.0
 11
75.778092
 21
204.688118
 31
0.0
 12
73.178092
 22
205.121451
 32
0.0
 13
73.178092
 23
205.121451
 33
0.0
  0
SOLID
  5
90D
100
AcDbEntity
  8
0
  6
BYBLOCK
 62
     0
100
AcDbTrace
 10
67.078092
 20
205.554784
 30
0.0
 11
67.078092
 21
204.688118
 31
0.0
 12
69.678092
 22
205.121451
 32
0.0
 13
69.678092
 23
205.121451
 33
0.0
  0
MTEXT
  5
90E
100
AcDbEntity
  8
0
  6
BYBLOCK
 62
     0
100
AcDbMText
 10
61.78596
 20
207.151451
 30
0.0
 40
3.0
 41
0.0
 71
     5
 72
     1
  1
\A1;3.5
  0
POINT
  5
90F
100
AcDbEntity
  8
DEFPOINTS
  6
BYBLOCK
 62
     0
100
AcDbPoint
 10
73.178092
 20
176.849922
 30
0.0
  0
POINT
  5
910
100
AcDbEntity
  8
DEFPOINTS
  6
BYBLOCK
 62
     0
100
AcDbPoint
 10
69.678092
 20
192.849922
 30
0.0
  0
POINT
  5
911
100
AcDbEntity
  8
DEFPOINTS
  6
BYBLOCK
 62
     0
100
AcDbPoint
 10
69.678092
 20
205.121451
 30
0.0
  0
ENDBLK
  5
913
100
AcDbEntity
  8
0
100
AcDbBlockEnd
  0
BLOCK
  5
91F
100
AcDbEntity
  8
0
100
AcDbBlockBegin
  2
*D16
 70
    65
 10
0.0
 20
0.0
 30
0.0
  3
*D16
  1

  0
LINE
  5
915
100
AcDbEntity
  8
0
  6
BYBLOCK
 62
     0
100
AcDbLine
 10
69.678092
 20
193.376022
 30
0.0
 11
69.678092
 21
214.743678
 31
0.0
  0
LINE
  5
916
100
AcDbEntity
  8
0
  6
BYBLOCK
 62
     0
100
AcDbLine
 10
82.678092
 20
193.376022
 30
0.0
 11
82.678092
 21
214.743678
 31
0.0
  0
LINE
  5
917
100
AcDbEntity
  8
0
  6
BYBLOCK
 62
     0
100
AcDbLine
 10
80.078092
 20
213.691478
 30
0.0
 11
72.278092
 21
213.691478
 31
0.0
  0
LINE
  5
918
100
AcDbEntity
  8
0
  6
BYBLOCK
 62
     0
100
AcDbLine
 10
69.678092
 20
213.691478
 30
0.0
 11
53.038092
 21
213.691478
 31
0.0
  0
SOLID
  5
919
100
AcDbEntity
  8
0
  6
BYBLOCK
 62
     0
100
AcDbTrace
 10
80.078092
 20
214.124811
 30
0.0
 11
80.078092
 21
213.258145
 31
0.0
 12
82.678092
 22
213.691478
 32
0.0
 13
82.678092
 23
213.691478
 33
0.0
  0
SOLID
  5
91A
100
AcDbEntity
  8
0
  6
BYBLOCK
 62
     0
100
AcDbTrace
 10
72.278092
 20
214.124811
 30
0.0
 11
72.278092
 21
213.258145
 31
0.0
 12
69.678092
 22
213.691478
 32
0.0
 13
69.678092
 23
213.691478
 33
0.0
  0
MTEXT
  5
91B
100
AcDbEntity
  8
0
  6
BYBLOCK
 62
     0
100
AcDbMText
 10
60.018092
 20
217.647364
 30
0.0
 40
3.0
 41
0.0
 71
     5
 72
     1
  1
\A1;13\S+0.02^ -0.05;
  0
POINT
  5
91C
100
AcDbEntity
  8
DEFPOINTS
  6
BYBLOCK
 62
     0
100
AcDbPoint
 10
69.678092
 20
192.849922
 30
0.0
  0
POINT
  5
91D
100
AcDbEntity
  8
DEFPOINTS
  6
BYBLOCK
 62
     0
100
AcDbPoint
 10
82.678092
 20
192.849922
 30
0.0
  0
POINT
  5
91E
100
AcDbEntity
  8
DEFPOINTS
  6
BYBLOCK
 62
     0
100
AcDbPoint
 10
82.678092
 20
213.691478
 30
0.0
  0
ENDBLK
  5
920
100
AcDbEntity
  8
0
100
AcDbBlockEnd
  0
BLOCK
  5
92C
100
AcDbEntity
  8
0
100
AcDbBlockBegin
  2
*D17
 70
    65
 10
0.0
 20
0.0
 30
0.0
  3
*D17
  1

  0
LINE
  5
922
100
AcDbEntity
  8
0
  6
BYBLOCK
 62
     0
100
AcDbLine
 10
82.678092
 20
193.376022
 30
0.0
 11
82.678092
 21
214.743678
 31
0.0
  0
LINE
  5
923
100
AcDbEntity
  8
0
  6
BYBLOCK
 62
     0
100
AcDbLine
 10
89.678092
 20
199.060535
 30
0.0
 11
89.678092
 21
214.743678
 31
0.0
  0
LINE
  5
924
100
AcDbEntity
  8
0
  6
BYBLOCK
 62
     0
100
AcDbLine
 10
85.278092
 20
213.691478
 30
0.0
 11
87.078092
 21
213.691478
 31
0.0
  0
LINE
  5
925
100
AcDbEntity
  8
0
  6
BYBLOCK
 62
     0
100
AcDbLine
 10
89.678092
 20
213.691478
 30
0.0
 11
109.283678
 21
213.691478
 31
0.0
  0
SOLID
  5
926
100
AcDbEntity
  8
0
  6
BYBLOCK
 62
     0
100
AcDbTrace
 10
85.278092
 20
214.124811
 30
0.0
 11
85.278092
 21
213.258145
 31
0.0
 12
82.678092
 22
213.691478
 32
0.0
 13
82.678092
 23
213.691478
 33
0.0
  0
SOLID
  5
927
100
AcDbEntity
  8
0
  6
BYBLOCK
 62
     0
100
AcDbTrace
 10
87.078092
 20
214.124811
 30
0.0
 11
87.078092
 21
213.258145
 31
0.0
 12
89.678092
 22
213.691478
 32
0.0
 13
89.678092
 23
213.691478
 33
0.0
  0
MTEXT
  5
928
100
AcDbEntity
  8
0
  6
BYBLOCK
 62
     0
100
AcDbMText
 10
103.441546
 20
215.721478
 30
0.0
 40
3.0
 41
0.0
 71
     5
 72
     1
  1
\A1;7±0.05
  0
POINT
  5
929
100
AcDbEntity
  8
DEFPOINTS
  6
BYBLOCK
 62
     0
100
AcDbPoint
 10
82.678092
 20
192.849922
 30
0.0
  0
POINT
  5
92A
100
AcDbEntity
  8
DEFPOINTS
  6
BYBLOCK
 62
     0
100
AcDbPoint
 10
89.678092
 20
198.534435
 30
0.0
  0
POINT
  5
92B
100
AcDbEntity
  8
DEFPOINTS
  6
BYBLOCK
 62
     0
100
AcDbPoint
 10
89.678092
 20
213.691478
 30
0.0
  0
ENDBLK
  5
92D
100
AcDbEntity
  8
0
100
AcDbBlockEnd
  0
BLOCK
  5
93A
100
AcDbEntity
  8
0
100
AcDbBlockBegin
  2
*D18
 70
    65
 10
0.0
 20
0.0
 30
0.0
  3
*D18
  1

  0
LINE
  5
92F
100
AcDbEntity
  8
0
  6
BYBLOCK
 62
     0
100
AcDbLine
 10
89.415042
 20
95.594306
 30
0.0
 11
81.061981
 21
81.12638
 31
0.0
  0
LINE
  5
930
100
AcDbEntity
  8
0
  6
BYBLOCK
 62
     0
100
AcDbLine
 10
89.941142
 20
95.594306
 30
0.0
 11
98.294203
 21
81.12638
 31
0.0
  0
ARC
  5
931
100
AcDbEntity
  8
0
  6
BYBLOCK
 62
     0
100
AcDbCircle
 10
89.678092
 20
96.049922
 30
0.0
 40
16.180021
100
AcDbArc
 50
249.216908
 51
290.783092
  0
SOLID
  5
932
100
AcDbEntity
  8
0
  6
BYBLOCK
 62
     0
100
AcDbTrace
 10
83.751104
 20
80.531255
 30
0.0
 11
84.122732
 21
81.3142
 31
0.0
 12
81.588081
 22
82.037612
 32
0.0
 13
81.588081
 23
82.037612
 33
0.0
  0
SOLID
  5
933
100
AcDbEntity
  8
0
  6
BYBLOCK
 62
     0
100
AcDbTrace
 10
95.233453
 20
81.3142
 30
0.0
 11
95.605081
 21
80.531255
 31
0.0
 12
97.768103
 22
82.037612
 32
0.0
 13
97.768103
 23
82.037612
 33
0.0
  0
MTEXT
  5
934
100
AcDbEntity
  8
0
  6
BYBLOCK
 62
     0
100
AcDbMText
 10
89.678092
 20
81.8999
 30
0.0
 40
3.0
 41
0.0
 71
     5
 72
     1
  1
\A1;60°
  0
POINT
  5
935
100
AcDbEntity
  8
DEFPOINTS
  6
BYBLOCK
 62
     0
100
AcDbPoint
 10
86.868461
 20
80.115711
 30
0.0
  0
POINT
  5
936
100
AcDbEntity
  8
DEFPOINTS
  6
BYBLOCK
 62
     0
100
AcDbPoint
 10
88.985272
 20
97.249922
 30
0.0
  0
POINT
  5
937
100
AcDbEntity
  8
DEFPOINTS
  6
BYBLOCK
 62
     0
100
AcDbPoint
 10
90.370913
 20
97.249922
 30
0.0
  0
POINT
  5
938
100
AcDbEntity
  8
DEFPOINTS
  6
BYBLOCK
 62
     0
100
AcDbPoint
 10
95.721235
 20
106.516951
 30
0.0
  0
POINT
  5
939
100
AcDbEntity
  8
DEFPOINTS
  6
BYBLOCK
 62
     0
100
AcDbPoint
 10
83.78495
 20
106.257144
 30
0.0
  0
ENDBLK
  5
93B
100
AcDbEntity
  8
0
100
AcDbBlockEnd
  0
BLOCK
  5
948
100
AcDbEntity
  8
0
100
AcDbBlockBegin
  2
*D19
 70
    65
 10
0.0
 20
0.0
 30
0.0
  3
*D19
  1

  0
LINE
  5
93D
100
AcDbEntity
  8
0
  6
BYBLOCK
 62
     0
100
AcDbLine
 10
96.247335
 20
106.516951
 30
0.0
 11
112.61008
 21
106.516951
 31
0.0
  0
LINE
  5
93E
100
AcDbEntity
  8
0
  6
BYBLOCK
 62
     0
100
AcDbLine
 10
96.247335
 20
107.585047
 30
0.0
 11
112.61008
 21
107.585047
 31
0.0
  0
LINE
  5
93F
100
AcDbEntity
  8
0
  6
BYBLOCK
 62
     0
100
AcDbLine
 10
111.55788
 20
103.916951
 30
0.0
 11
111.55788
 21
101.316951
 31
0.0
  0
LINE
  5
940
100
AcDbEntity
  8
0
  6
BYBLOCK
 62
     0
100
AcDbLine
 10
111.55788
 20
110.185047
 30
0.0
 11
111.55788
 21
116.845047
 31
0.0
  0
LINE
  5
941
100
AcDbEntity
  8
0
  6
BYBLOCK
 62
     0
100
AcDbLine
 10
111.55788
 20
106.516951
 30
0.0
 11
111.55788
 21
107.585047
 31
0.0
  0
SOLID
  5
942
100
AcDbEntity
  8
0
  6
BYBLOCK
 62
     0
100
AcDbTrace
 10
111.124547
 20
103.916951
 30
0.0
 11
111.991213
 21
103.916951
 31
0.0
 12
111.55788
 22
106.516951
 32
0.0
 13
111.55788
 23
106.516951
 33
0.0
  0
SOLID
  5
943
100
AcDbEntity
  8
0
  6
BYBLOCK
 62
     0
100
AcDbTrace
 10
111.124547
 20
110.185047
 30
0.0
 11
111.991213
 21
110.185047
 31
0.0
 12
111.55788
 22
107.585047
 32
0.0
 13
111.55788
 23
107.585047
 33
0.0
  0
MTEXT
  5
944
100
AcDbEntity
  8
0
  6
BYBLOCK
 62
     0
100
AcDbMText
 10
109.52788
 20
114.815047
 30
0.0
 40
3.0
 41
0.0
 71
     5
 72
     1
  1
\A1;{1.1}
 11
0.0
 21
1.0
 31
0.0
  0
POINT
  5
945
100
AcDbEntity
  8
DEFPOINTS
  6
BYBLOCK
 62
     0
100
AcDbPoint
 10
95.721235
 20
106.516951
 30
0.0
  0
POINT
  5
946
100
AcDbEntity
  8
DEFPOINTS
  6
BYBLOCK
 62
     0
100
AcDbPoint
 10
95.721235
 20
107.585047
 30
0.0
  0
POINT
  5
947
100
AcDbEntity
  8
DEFPOINTS
  6
BYBLOCK
 62
     0
100
AcDbPoint
 10
111.55788
 20
107.585047
 30
0.0
  0
ENDBLK
  5
949
100
AcDbEntity
  8
0
100
AcDbBlockEnd
  0
BLOCK
  5
956
100
AcDbEntity
  8
0
100
AcDbBlockBegin
  2
*D20
 70
    65
 10
0.0
 20
0.0
 30
0.0
  3
*D20
  1

  0
LINE
  5
94B
100
AcDbEntity
  8
0
  6
BYBLOCK
 62
     0
100
AcDbLine
 10
95.204192
 20
163.849922
 30
0.0
 11
112.899435
 21
163.849922
 31
0.0
  0
LINE
  5
94C
100
AcDbEntity
  8
0
  6
BYBLOCK
 62
     0
100
AcDbLine
 10
96.204192
 20
159.7673
 30
0.0
 11
112.899435
 21
159.7673
 31
0.0
  0
LINE
  5
94D
100
AcDbEntity
  8
0
  6
BYBLOCK
 62
     0
100
AcDbLine
 10
111.847235
 20
166.449922
 30
0.0
 11
111.847235
 21
169.049922
 31
0.0
  0
LINE
  5
94E
100
AcDbEntity
  8
0
  6
BYBLOCK
 62
     0
100
AcDbLine
 10
111.847235
 20
157.1673
 30
0.0
 11
111.847235
 21
148.883036
 31
0.0
  0
LINE
  5
94F
100
AcDbEntity
  8
0
  6
BYBLOCK
 62
     0
100
AcDbLine
 10
111.847235
 20
163.849922
 30
0.0
 11
111.847235
 21
159.7673
 31
0.0
  0
SOLID
  5
950
100
AcDbEntity
  8
0
  6
BYBLOCK
 62
     0
100
AcDbTrace
 10
111.413901
 20
166.449922
 30
0.0
 11
112.280568
 21
166.449922
 31
0.0
 12
111.847235
 22
163.849922
 32
0.0
 13
111.847235
 23
163.849922
 33
0.0
  0
SOLID
  5
951
100
AcDbEntity
  8
0
  6
BYBLOCK
 62
     0
100
AcDbTrace
 10
111.413901
 20
157.1673
 30
0.0
 11
112.280568
 21
157.1673
 31
0.0
 12
111.847235
 22
159.7673
 32
0.0
 13
111.847235
 23
159.7673
 33
0.0
  0
MTEXT
  5
952
100
AcDbEntity
  8
0
  6
BYBLOCK
 62
     0
100
AcDbMText
 10
109.817235
 20
151.725168
 30
0.0
 40
3.0
 41
0.0
 71
     5
 72
     1
  1
\A1;{4.5}
 11
0.0
 21
1.0
 31
0.0
  0
POINT
  5
953
100
AcDbEntity
  8
DEFPOINTS
  6
BYBLOCK
 62
     0
100
AcDbPoint
 10
94.678092
 20
163.849922
 30
0.0
  0
POINT
  5
954
100
AcDbEntity
  8
DEFPOINTS
  6
BYBLOCK
 62
     0
100
AcDbPoint
 10
95.678092
 20
159.7673
 30
0.0
  0
POINT
  5
955
100
AcDbEntity
  8
DEFPOINTS
  6
BYBLOCK
 62
     0
100
AcDbPoint
 10
111.847235
 20
159.7673
 30
0.0
  0
ENDBLK
  5
957
100
AcDbEntity
  8
0
100
AcDbBlockEnd
  0
BLOCK
  5
95F
100
AcDbEntity
  8
0
100
AcDbBlockBegin
  2
*D21
 70
    65
 10
0.0
 20
0.0
 30
0.0
  3
*D21
  1

  0
LINE
  5
959
100
AcDbEntity
  8
0
  6
BYBLOCK
 62
     0
100
AcDbLine
 10
29.267788
 20
218.094912
 30
0.0
 11
28.057097
 21
217.391899
 31
0.0
  0
LINE
  5
95A
100
AcDbEntity
  8
0
  6
BYBLOCK
 62
     0
100
AcDbLine
 10
25.808671
 20
216.086304
 30
0.0
 11
10.665675
 21
207.293206
 31
0.0
  0
SOLID
  5
95B
100
AcDbEntity
  8
0
  6
BYBLOCK
 62
     0
100
AcDbTrace
 10
27.839498
 20
217.766637
 30
0.0
 11
28.274697
 21
217.017162
 31
0.0
 12
25.808671
 22
216.086304
 32
0.0
 13
25.808671
 23
216.086304
 33
0.0
  0
MTEXT
  5
95C
100
AcDbEntity
  8
0
  6
BYBLOCK
 62
     0
100
AcDbMText
 10
13.477278
 20
211.273242
 30
0.0
 40
3.0
 41
0.0
 71
     5
 72
     1
  1
\A1;{R 0.8}
 11
0.864779
 21
0.502152
 31
0.0
  0
POINT
  5
95D
100
AcDbEntity
  8
DEFPOINTS
  6
BYBLOCK
 62
     0
100
AcDbPoint
 10
25.808671
 20
216.086304
 30
0.0
  0
POINT
  5
95E
100
AcDbEntity
  8
DEFPOINTS
  6
BYBLOCK
 62
     0
100
AcDbPoint
 10
29.267788
 20
218.094912
 30
0.0
  0
ENDBLK
  5
960
100
AcDbEntity
  8
0
100
AcDbBlockEnd
  0
BLOCK
  5
96D
100
AcDbEntity
  8
0
100
AcDbBlockBegin
  2
*D22
 70
    65
 10
0.0
 20
0.0
 30
0.0
  3
*D22
  1

  0
LINE
  5
962
100
AcDbEntity
  8
0
  6
BYBLOCK
 62
     0
100
AcDbLine
 10
83.204192
 20
168.849922
 30
0.0
 11
128.78516
 21
168.849922
 31
0.0
  0
LINE
  5
963
100
AcDbEntity
  8
0
  6
BYBLOCK
 62
     0
100
AcDbLine
 10
95.204192
 20
163.849922
 30
0.0
 11
128.78516
 21
163.849922
 31
0.0
  0
LINE
  5
964
100
AcDbEntity
  8
0
  6
BYBLOCK
 62
     0
100
AcDbLine
 10
127.73296
 20
171.449922
 30
0.0
 11
127.73296
 21
174.049922
 31
0.0
  0
LINE
  5
965
100
AcDbEntity
  8
0
  6
BYBLOCK
 62
     0
100
AcDbLine
 10
127.73296
 20
161.249922
 30
0.0
 11
127.73296
 21
158.649922
 31
0.0
  0
LINE
  5
966
100
AcDbEntity
  8
0
  6
BYBLOCK
 62
     0
100
AcDbLine
 10
127.73296
 20
168.849922
 30
0.0
 11
127.73296
 21
163.849922
 31
0.0
  0
SOLID
  5
967
100
AcDbEntity
  8
0
  6
BYBLOCK
 62
     0
100
AcDbTrace
 10
127.299626
 20
171.449922
 30
0.0
 11
128.166293
 21
171.449922
 31
0.0
 12
127.73296
 22
168.849922
 32
0.0
 13
127.73296
 23
168.849922
 33
0.0
  0
SOLID
  5
968
100
AcDbEntity
  8
0
  6
BYBLOCK
 62
     0
100
AcDbTrace
 10
127.299626
 20
161.249922
 30
0.0
 11
128.166293
 21
161.249922
 31
0.0
 12
127.73296
 22
163.849922
 32
0.0
 13
127.73296
 23
163.849922
 33
0.0
  0
MTEXT
  5
969
100
AcDbEntity
  8
0
  6
BYBLOCK
 62
     0
100
AcDbMText
 10
125.70296
 20
166.349922
 30
0.0
 40
3.0
 41
0.0
 71
     5
 72
     1
  1
\A1;5
 11
0.0
 21
1.0
 31
0.0
  0
POINT
  5
96A
100
AcDbEntity
  8
DEFPOINTS
  6
BYBLOCK
 62
     0
100
AcDbPoint
 10
82.678092
 20
168.849922
 30
0.0
  0
POINT
  5
96B
100
AcDbEntity
  8
DEFPOINTS
  6
BYBLOCK
 62
     0
100
AcDbPoint
 10
94.678092
 20
163.849922
 30
0.0
  0
POINT
  5
96C
100
AcDbEntity
  8
DEFPOINTS
  6
BYBLOCK
 62
     0
100
AcDbPoint
 10
127.73296
 20
163.849922
 30
0.0
  0
ENDBLK
  5
96E
100
AcDbEntity
  8
0
100
AcDbBlockEnd
  0
BLOCK
  5
97B
100
AcDbEntity
  8
0
100
AcDbBlockBegin
  2
*D23
 70
    65
 10
0.0
 20
0.0
 30
0.0
  3
*D23
  1

  0
LINE
  5
970
100
AcDbEntity
  8
0
  6
BYBLOCK
 62
     0
100
AcDbLine
 10
74.878092
 20
133.232426
 30
0.0
 11
74.878092
 21
132.682699
 31
0.0
  0
LINE
  5
971
100
AcDbEntity
  8
0
  6
BYBLOCK
 62
     0
100
AcDbLine
 10
69.678092
 20
154.958174
 30
0.0
 11
69.678092
 21
132.682699
 31
0.0
  0
LINE
  5
972
100
AcDbEntity
  8
0
  6
BYBLOCK
 62
     0
100
AcDbLine
 10
77.478092
 20
133.734899
 30
0.0
 11
80.078092
 21
133.734899
 31
0.0
  0
LINE
  5
973
100
AcDbEntity
  8
0
  6
BYBLOCK
 62
     0
100
AcDbLine
 10
67.078092
 20
133.734899
 30
0.0
 11
58.961734
 21
133.734899
 31
0.0
  0
LINE
  5
974
100
AcDbEntity
  8
0
  6
BYBLOCK
 62
     0
100
AcDbLine
 10
74.878092
 20
133.734899
 30
0.0
 11
69.678092
 21
133.734899
 31
0.0
  0
SOLID
  5
975
100
AcDbEntity
  8
0
  6
BYBLOCK
 62
     0
100
AcDbTrace
 10
77.478092
 20
134.168232
 30
0.0
 11
77.478092
 21
133.301565
 31
0.0
 12
74.878092
 22
133.734899
 32
0.0
 13
74.878092
 23
133.734899
 33
0.0
  0
SOLID
  5
976
100
AcDbEntity
  8
0
  6
BYBLOCK
 62
     0
100
AcDbTrace
 10
67.078092
 20
134.168232
 30
0.0
 11
67.078092
 21
133.301565
 31
0.0
 12
69.678092
 22
133.734899
 32
0.0
 13
69.678092
 23
133.734899
 33
0.0
  0
MTEXT
  5
977
100
AcDbEntity
  8
0
  6
BYBLOCK
 62
     0
100
AcDbMText
 10
61.719913
 20
135.765194
 30
0.0
 40
3.0
 41
0.0
 71
     5
 72
     1
  1
\A1;{5.2}
  0
POINT
  5
978
100
AcDbEntity
  8
DEFPOINTS
  6
BYBLOCK
 62
     0
100
AcDbPoint
 10
74.878092
 20
133.758526
 30
0.0
  0
POINT
  5
979
100
AcDbEntity
  8
DEFPOINTS
  6
BYBLOCK
 62
     0
100
AcDbPoint
 10
69.678092
 20
155.484274
 30
0.0
  0
POINT
  5
97A
100
AcDbEntity
  8
DEFPOINTS
  6
BYBLOCK
 62
     0
100
AcDbPoint
 10
69.678092
 20
133.734899
 30
0.0
  0
ENDBLK
  5
97C
100
AcDbEntity
  8
0
100
AcDbBlockEnd
  0
BLOCK
  5
987
100
AcDbEntity
  8
0
100
AcDbBlockBegin
  2
*D24
 70
    65
 10
0.0
 20
0.0
 30
0.0
  3
*D24
  1

  0
LINE
  5
97E
100
AcDbEntity
  8
0
  6
BYBLOCK
 62
     0
100
AcDbLine
 10
86.205785
 20
52.229231
 30
0.0
 11
86.205785
 21
59.698027
 31
0.0
  0
LINE
  5
97F
100
AcDbEntity
  8
0
  6
BYBLOCK
 62
     0
100
AcDbLine
 10
30.792444
 20
52.229231
 30
0.0
 11
30.792444
 21
59.698027
 31
0.0
  0
LINE
  5
980
100
AcDbEntity
  8
0
  6
BYBLOCK
 62
     0
100
AcDbLine
 10
83.605785
 20
58.645827
 30
0.0
 11
33.392444
 21
58.645827
 31
0.0
  0
SOLID
  5
981
100
AcDbEntity
  8
0
  6
BYBLOCK
 62
     0
100
AcDbTrace
 10
83.605785
 20
59.07916
 30
0.0
 11
83.605785
 21
58.212493
 31
0.0
 12
86.205785
 22
58.645827
 32
0.0
 13
86.205785
 23
58.645827
 33
0.0
  0
SOLID
  5
982
100
AcDbEntity
  8
0
  6
BYBLOCK
 62
     0
100
AcDbTrace
 10
33.392444
 20
59.07916
 30
0.0
 11
33.392444
 21
58.212493
 31
0.0
 12
30.792444
 22
58.645827
 32
0.0
 13
30.792444
 23
58.645827
 33
0.0
  0
MTEXT
  5
983
100
AcDbEntity
  8
0
  6
BYBLOCK
 62
     0
100
AcDbMText
 10
58.499115
 20
60.671927
 30
0.0
 40
3.0
 41
0.0
 71
     5
 72
     1
  1
\A1;{835}
  0
POINT
  5
984
100
AcDbEntity
  8
DEFPOINTS
  6
BYBLOCK
 62
     0
100
AcDbPoint
 10
86.205785
 20
51.703131
 30
0.0
  0
POINT
  5
985
100
AcDbEntity
  8
DEFPOINTS
  6
BYBLOCK
 62
     0
100
AcDbPoint
 10
30.792444
 20
51.703131
 30
0.0
  0
POINT
  5
986
100
AcDbEntity
  8
DEFPOINTS
  6
BYBLOCK
 62
     0
100
AcDbPoint
 10
30.792444
 20
58.645827
 30
0.0
  0
ENDBLK
  5
988
100
AcDbEntity
  8
0
100
AcDbBlockEnd
  0
BLOCK
  5
993
100
AcDbEntity
  8
0
100
AcDbBlockBegin
  2
*D25
 70
    65
 10
0.0
 20
0.0
 30
0.0
  3
*D25
  1

  0
LINE
  5
98A
100
AcDbEntity
  8
0
  6
BYBLOCK
 62
     0
100
AcDbLine
 10
69.678092
 20
193.474922
 30
0.0
 11
69.678092
 21
226.896028
 31
0.0
  0
LINE
  5
98B
100
AcDbEntity
  8
0
  6
BYBLOCK
 62
     0
100
AcDbLine
 10
95.678092
 20
163.474922
 30
0.0
 11
95.678092
 21
226.896028
 31
0.0
  0
LINE
  5
98C
100
AcDbEntity
  8
0
  6
BYBLOCK
 62
     0
100
AcDbLine
 10
72.178092
 20
225.646028
 30
0.0
 11
93.178092
 21
225.646028
 31
0.0
  0
SOLID
  5
98D
100
AcDbEntity
  8
0
  6
BYBLOCK
 62
     0
100
AcDbTrace
 10
72.178092
 20
226.062694
 30
0.0
 11
72.178092
 21
225.229361
 31
0.0
 12
69.678092
 22
225.646028
 32
0.0
 13
69.678092
 23
225.646028
 33
0.0
  0
SOLID
  5
98E
100
AcDbEntity
  8
0
  6
BYBLOCK
 62
     0
100
AcDbTrace
 10
93.178092
 20
226.062694
 30
0.0
 11
93.178092
 21
225.229361
 31
0.0
 12
95.678092
 22
225.646028
 32
0.0
 13
95.678092
 23
225.646028
 33
0.0
  0
MTEXT
  5
98F
100
AcDbEntity
  8
0
  6
BYBLOCK
 62
     0
100
AcDbMText
 10
82.678092
 20
229.601913
 30
0.0
 40
3.0
 41
0.0
 71
     5
 72
     1
  1
\A1;26\S+0.02^  0;
  0
POINT
  5
990
100
AcDbEntity
  8
DEFPOINTS
  6
BYBLOCK
 62
     0
100
AcDbPoint
 10
69.678092
 20
192.849922
 30
0.0
  0
POINT
  5
991
100
AcDbEntity
  8
DEFPOINTS
  6
BYBLOCK
 62
     0
100
AcDbPoint
 10
95.678092
 20
162.849922
 30
0.0
  0
POINT
  5
992
100
AcDbEntity
  8
DEFPOINTS
  6
BYBLOCK
 62
     0
100
AcDbPoint
 10
95.678092
 20
225.646028
 30
0.0
  0
ENDBLK
  5
994
100
AcDbEntity
  8
0
100
AcDbBlockEnd
  0
BLOCK
  5
ACA
100
AcDbEntity
  8
QUOTE
100
AcDbBlockBegin
  2
A$C83A0
 70
     0
 10
0.0
 20
0.0
 30
0.0
  3
A$C83A0
  1

  0
TEXT
  5
9A2
100
AcDbEntity
  8
OGGETTO
  6
CONTINUOUS
100
AcDbText
 10
77.227653
 20
26.577899
 30
0.0
 40
2.5
  1
GAZZOLA M.      ROLLERI  M.        ROLLERI M. 13-02-2001    1:1
100
AcDbText
  0
TEXT
  5
9A3
100
AcDbEntity
  8
OGGETTO
  6
CONTINUOUS
100
AcDbText
 10
89.199671
 20
40.586915
 30
0.0
 40
2.5
  1
LAM.C45 UNI
100
AcDbText
  0
LEADER
  5
9A4
100
AcDbEntity
  8
TESTO
  6
CONTINUOUS
100
AcDbLeader
  3
ISO-25
 76
     4
 10
77.225132
 20
64.661992
 30
0.0
 10
77.225132
 20
55.269102
 30
0.0
 10
105.786946
 20
55.269102
 30
0.0
 10
105.786946
 20
70.986533
 30
0.0
 77
   256
1001
ACAD
1000
DSTYLE
1002
{
1070
   140
1040
2.6
1070
    73
1070
     0
1070
   272
1070
     2
1070
   147
1040
0.5261
1070
    42
1040
0.5261
1070
    44
1040
1.0522
1070
    43
1040
3.1566
1070
   271
1070
     2
1070
   141
1040
2.1044
1070
    41
1040
2.6
1002
}
  0
TOLERANCE
  5
9A5
100
AcDbEntity
  8
TESTO
  6
CONTINUOUS
100
AcDbFcf
  3
ISO-25
 10
99.520457
 20
73.463738
 30
0.0
  1
{\Fgdt;b}%%v0.05%%v%%v%%v%%v
1001
ACAD
1000
DSTYLE
1002
{
1070
   140
1040
2.6
1070
    73
1070
     0
1070
   272
1070
     2
1070
   147
1040
0.5261
1070
    42
1040
0.5261
1070
    44
1040
1.0522
1070
    43
1040
3.1566
1070
   271
1070
     2
1070
   141
1040
2.1044
1070
    41
1040
2.6
1002
}
  0
DIMENSION
  5
9A6
100
AcDbEntity
  8
QUOTE
  6
CONTINUOUS
100
AcDbDimension
  2
*D22
 10
128.086151
 20
196.208783
 30
0.0
 11
126.056151
 21
198.708783
 31
0.0
 12
0.353191
 22
32.358861
 32
0.0
  3
ISO-25
100
AcDbAlignedDimension
 13
83.031284
 23
201.208783
 33
0.0
 14
95.031284
 24
196.208783
 34
0.0
 50
90.0
100
AcDbRotatedDimension
1001
ACAD
1000
DSTYLE
1002
{
1070
   140
1040
2.6
1070
    47
1040
0.05
1070
    48
1040
0.05
1070
    73
1070
     0
1070
   272
1070
     2
1070
   147
1040
0.53
1070
    42
1040
0.5261
1070
    44
1040
1.0522
1070
    43
1040
3.1566
1070
   271
1070
     2
1070
   141
1040
2.1044
1070
    41
1040
2.6
1002
}
  0
LEADER
  5
9A7
100
AcDbEntity
  8
TESTO
  6
CONTINUOUS
100
AcDbLeader
  3
ISO-25
 73
     0
 74
     0
 40
2.6
 41
56.021157
 76
     3
 10
90.031284
 20
129.166271
 30
0.0
 10
111.911073
 20
104.780759
 30
0.0
 10
114.225911
 20
104.780759
 30
0.0
 77
   256
1001
ACAD
1000
DSTYLE
1002
{
1070
   140
1040
2.6
1070
    47
1040
0.05
1070
    48
1040
0.05
1070
    73
1070
     0
1070
   272
1070
     2
1070
   147
1040
0.53
1070
    42
1040
0.5261
1070
    44
1040
1.0522
1070
    43
1040
3.1566
1070
   271
1070
     2
1070
   141
1040
2.1044
1070
    41
1040
2.6
1002
}
  0
CIRCLE
  5
9A8
100
AcDbEntity
  8
TESTO
  6
CONTINUOUS
100
AcDbCircle
 10
90.031284
 20
136.655323
 30
0.0
 40
11.295704
  0
DIMENSION
  5
9A9
100
AcDbEntity
  8
QUOTE
  6
CONTINUOUS
100
AcDbDimension
  2
*D20
 10
112.200426
 20
192.126161
 30
0.0
 11
110.170426
 21
184.084029
 31
0.0
 12
0.353191
 22
32.358861
 32
0.0
  1
{4.5}
  3
ISO-25
100
AcDbAlignedDimension
 13
95.031284
 23
196.208783
 33
0.0
 14
96.031284
 24
192.126161
 34
0.0
 50
90.0
100
AcDbRotatedDimension
1001
ACAD
1000
DSTYLE
1002
{
1070
   140
1040
2.6
1070
    47
1040
0.05
1070
    48
1040
0.05
1070
    73
1070
     0
1070
   272
1070
     2
1070
   147
1040
0.53
1070
    42
1040
0.5261
1070
    44
1040
1.0522
1070
    43
1040
3.1566
1070
   271
1070
     2
1070
   141
1040
2.1044
1070
    41
1040
2.6
1002
}
  0
DIMENSION
  5
9AA
100
AcDbEntity
  8
QUOTE
  6
CONTINUOUS
100
AcDbDimension
  2
*D19
 10
111.911071
 20
139.943908
 30
0.0
 11
109.881071
 21
147.173908
 31
0.0
 12
0.353191
 22
32.358861
 32
0.0
  1
{1.1}
  3
ISO-25
100
AcDbAlignedDimension
 13
96.074426
 23
138.875812
 33
0.0
 14
96.074426
 24
139.943908
 34
0.0
 50
90.0
100
AcDbRotatedDimension
1001
ACAD
1000
DSTYLE
1002
{
1070
   140
1040
2.6
1070
    47
1040
0.05
1070
    48
1040
0.05
1070
    73
1070
     0
1070
   272
1070
     2
1070
   147
1040
0.53
1070
    42
1040
0.5261
1070
    44
1040
1.0522
1070
    43
1040
3.1566
1070
   271
1070
     2
1070
   141
1040
2.1044
1070
    41
1040
2.6
1002
}
  0
LEADER
  5
9AB
100
AcDbEntity
  8
QUOTE
  6
CONTINUOUS
100
AcDbLeader
  3
ISO-25
 73
     0
 74
     0
 40
2.6
 41
13.78
 76
     3
 10
95.531284
 20
195.708783
 30
0.0
 10
107.643089
 20
205.232082
 30
0.0
 10
109.523896
 20
205.232082
 30
0.0
 77
   256
1001
ACAD
1000
DSTYLE
1002
{
1070
   140
1040
2.6
1070
    47
1040
0.05
1070
    48
1040
0.05
1070
    73
1070
     0
1070
   272
1070
     2
1070
   147
1040
0.53
1070
    42
1040
0.5261
1070
    44
1040
1.0522
1070
    43
1040
3.1566
1070
   271
1070
     2
1070
   141
1040
2.1044
1070
    41
1040
2.6
1002
}
  0
LEADER
  5
9AC
100
AcDbEntity
  8
QUOTE
  6
CONTINUOUS
100
AcDbLeader
  3
ISO-25
 73
     0
 74
     0
 40
2.6
 41
13.78
 76
     3
 10
82.531284
 20
225.708783
 30
0.0
 10
99.960788
 20
232.919679
 30
0.0
 10
101.407562
 20
232.919679
 30
0.0
 77
   256
1001
ACAD
1000
DSTYLE
1002
{
1070
   140
1040
2.6
1070
    47
1040
0.05
1070
    48
1040
0.05
1070
    73
1070
     0
1070
   272
1070
     2
1070
   147
1040
0.53
1070
    42
1040
0.5261
1070
    44
1040
1.0522
1070
    43
1040
3.1566
1070
   271
1070
     2
1070
   141
1040
2.1044
1070
    41
1040
2.6
1002
}
  0
DIMENSION
  5
9AD
100
AcDbEntity
  8
QUOTE
  6
CONTINUOUS
100
AcDbDimension
  2
*D17
 10
90.031284
 20
246.050339
 30
0.0
 11
103.794737
 21
246.050339
 31
0.0
 12
0.353191
 22
32.358861
 32
0.0
 70
   128
  3
ISO-25
100
AcDbAlignedDimension
 13
83.031284
 23
225.208783
 33
0.0
 14
90.031284
 24
230.893296
 34
0.0
100
AcDbRotatedDimension
1001
ACAD
1000
DSTYLE
1002
{
1070
   140
1040
2.6
1070
    47
1040
0.05
1070
    71
1070
     1
1070
    48
1040
0.05
1070
    73
1070
     0
1070
   272
1070
     2
1070
   147
1040
0.53
1070
    42
1040
0.5261
1070
    44
1040
1.0522
1070
    43
1040
3.1566
1070
   271
1070
     2
1070
   141
1040
2.1044
1070
    41
1040
2.6
1002
}
  0
DIMENSION
  5
9AE
100
AcDbEntity
  8
QUOTE
  6
CONTINUOUS
100
AcDbDimension
  2
*D7
 10
164.472419
 20
196.208783
 30
0.0
 11
164.472419
 21
209.13331
 31
0.0
 12
0.353191
 22
32.358861
 32
0.0
 70
   128
  3
ISO-25
100
AcDbAlignedDimension
 13
82.031284
 23
226.208783
 33
0.0
 14
95.031284
 24
196.208783
 34
0.0
 50
90.0
100
AcDbRotatedDimension
1001
ACAD
1000
DSTYLE
1002
{
1070
   140
1040
2.6
1070
    47
1040
0.02
1070
    73
1070
     0
1070
   272
1070
     2
1070
   147
1040
0.53
1070
    42
1040
0.5261
1070
    44
1040
1.0522
1070
    43
1040
3.1566
1070
   271
1070
     2
1070
   141
1040
2.1044
1070
    41
1040
2.6
1002
}
  0
DIMENSION
  5
9AF
100
AcDbEntity
  8
QUOTE
  6
CONTINUOUS
100
AcDbDimension
  2
*D6
 10
164.469494
 20
129.208783
 30
0.0
 11
164.469494
 21
162.708783
 31
0.0
 12
0.353191
 22
32.358861
 32
0.0
 70
   128
  3
ISO2
100
AcDbAlignedDimension
 13
95.031284
 23
196.208783
 33
0.0
 14
90.031284
 24
129.208783
 34
0.0
 50
90.0
100
AcDbRotatedDimension
1001
ACAD
1000
DSTYLE
1002
{
1070
   140
1040
2.6
1070
    47
1040
0.02
1070
    71
1070
     1
1070
    73
1070
     0
1070
    42
1040
0.5261
1070
    44
1040
1.0522
1070
    43
1040
3.1566
1070
   141
1040
2.1044
1070
    41
1040
2.6
1002
}
  0
DIMENSION
  5
9B0
100
AcDbEntity
  8
QUOTE
  6
CONTINUOUS
100
AcDbDimension
  2
*D5
 10
131.449706
 20
166.078785
 30
0.0
 11
129.423606
 21
147.643784
 31
0.0
 12
0.353191
 22
32.358861
 32
0.0
  1
{36.9}
  3
ISO-25
100
AcDbAlignedDimension
 13
90.031284
 23
129.208783
 33
0.0
 14
148.97025
 24
166.078785
 34
0.0
 50
90.0
100
AcDbRotatedDimension
1001
ACAD
1000
DSTYLE
1002
{
1070
   140
1040
2.6
1070
    73
1070
     0
1070
   272
1070
     2
1070
   147
1040
0.5261
1070
    42
1040
0.5261
1070
    44
1040
1.0522
1070
    43
1040
3.1566
1070
   271
1070
     2
1070
   141
1040
2.1044
1070
    41
1040
2.6
1002
}
  0
DIMENSION
  5
9B1
100
AcDbEntity
  8
QUOTE
  6
CONTINUOUS
100
AcDbDimension
  2
*D4
 10
148.97025
 20
166.078785
 30
0.0
 11
118.900497
 21
168.101001
 31
0.0
 12
0.353191
 22
32.358861
 32
0.0
 70
     4
  1
{R60}
  3
ISO-25
100
AcDbRadialDimension
 15
88.831267
 25
166.071017
 35
0.0
 40
0.0
1001
ACAD
1000
DSTYLE
1002
{
1070
   140
1040
2.6
1070
    73
1070
     0
1070
   272
1070
     2
1070
   147
1040
0.5261
1070
    42
1040
0.5261
1070
    44
1040
1.0522
1070
    43
1040
3.1566
1070
   271
1070
     2
1070
   141
1040
2.1044
1070
    41
1040
2.6
1002
}
  0
DIMENSION
  5
9B2
100
AcDbEntity
  8
QUOTE
  6
CONTINUOUS
100
AcDbDimension
  2
*D2
 10
108.912481
 20
116.401823
 30
0.0
 11
112.133669
 21
121.209908
 31
0.0
 12
0.353191
 22
32.358861
 32
0.0
 70
   129
  1
{11.5}
  3
ISO-25
100
AcDbAlignedDimension
 13
96.074426
 23
138.875812
 33
0.0
 14
89.659402
 24
129.300472
 34
0.0
1001
ACAD
1000
DSTYLE
1002
{
1070
   140
1040
2.6
1070
    73
1070
     0
1070
   272
1070
     2
1070
   147
1040
0.5261
1070
    42
1040
0.5261
1070
    44
1040
1.0522
1070
    43
1040
3.1566
1070
   271
1070
     2
1070
   141
1040
2.1044
1070
    41
1040
2.6
1002
}
  0
LINE
  5
9B3
100
AcDbEntity
  8
TESTOTAB
  6
CONTINUOUS
100
AcDbLine
 10
100.352191
 20
5.358861
 30
0.0
 11
102.852191
 21
0.358861
 31
0.0
  0
LINE
  5
9B4
100
AcDbEntity
  8
TESTOTAB
  6
CONTINUOUS
100
AcDbLine
 10
100.352191
 20
0.358861
 30
0.0
 11
102.852191
 21
0.358861
 31
0.0
  0
LINE
  5
9B5
100
AcDbEntity
  8
TESTOTAB
  6
CONTINUOUS
100
AcDbLine
 10
102.852191
 20
287.358861
 30
0.0
 11
100.352191
 21
282.358861
 31
0.0
  0
LINE
  5
9B6
100
AcDbEntity
  8
TESTOTAB
  6
CONTINUOUS
100
AcDbLine
 10
100.352191
 20
287.358861
 30
0.0
 11
102.852191
 21
287.358861
 31
0.0
  0
TEXT
  5
9B7
100
AcDbEntity
  8
MARCHIOR
  6
CONTINUOUS
100
AcDbText
 10
83.462354
 20
14.095377
 30
0.0
 40
6.0
  1
ROLLERI
100
AcDbText
  0
LINE
  5
9B8
100
AcDbEntity
  8
MARCHIO
  6
CONTINUOUS
100
AcDbLine
 10
115.278096
 20
22.584055
 30
0.0
 11
83.678511
 21
22.584055
 31
0.0
1001
ACAD
1000
ASC_BOUNDS
1002
{
1070
    19
1002
}
  0
LINE
  5
9B9
100
AcDbEntity
  8
MARCHIO
  6
CONTINUOUS
100
AcDbLine
 10
81.62639
 20
11.428358
 30
0.0
 11
113.225975
 21
11.428358
 31
0.0
1001
ACAD
1000
ASC_BOUNDS
1002
{
1070
    19
1002
}
  0
LINE
  5
9BA
100
AcDbEntity
  8
MARCHIO
  6
CONTINUOUS
100
AcDbLine
 10
115.978303
 20
23.584055
 30
0.0
 11
82.978303
 21
23.584055
 31
0.0
1001
ACAD
1000
ASC_BOUNDS
1002
{
1070
    19
1002
}
  0
LINE
  5
9BB
100
AcDbEntity
  8
MARCHIO
  6
CONTINUOUS
100
AcDbLine
 10
80.926182
 20
10.428358
 30
0.0
 11
113.926182
 21
10.428358
 31
0.0
1001
ACAD
1000
ASC_BOUNDS
1002
{
1070
    19
1002
}
  0
TEXT
  5
9BC
100
AcDbEntity
  8
TESTOTAB
  6
CONTINUOUS
100
AcDbText
 10
79.341943
 20
6.651086
 30
0.0
 40
2.0
  1
Vigolzone ( Piacenza ) - ITALIA
100
AcDbText
  0
LINE
  5
9BD
100
AcDbEntity
  8
INTABELLA
  6
CONTINUOUS
100
AcDbLine
 10
125.353191
 20
35.358861
 30
0.0
 11
75.353191
 21
35.358861
 31
0.0
  0
LINE
  5
9BE
100
AcDbEntity
  8
TABELLA
  6
CONTINUOUS
100
AcDbLine
 10
195.353191
 20
45.358861
 30
0.0
 11
5.268185
 21
45.367145
 31
0.0
  0
LINE
  5
9BF
100
AcDbEntity
  8
INTABELLA
  6
CONTINUOUS
100
AcDbLine
 10
125.353191
 20
25.358861
 30
0.0
 11
75.353191
 21
25.358861
 31
0.0
  0
LINE
  5
9C0
100
AcDbEntity
  8
TABELLA
  6
CONTINUOUS
100
AcDbLine
 10
195.353191
 20
5.358861
 30
0.0
 11
5.353191
 21
5.358861
 31
0.0
  0
LINE
  5
9C1
100
AcDbEntity
  8
TABELLA
  6
CONTINUOUS
100
AcDbLine
 10
5.353191
 20
282.358861
 30
0.0
 11
195.353191
 21
282.358861
 31
0.0
  0
POLYLINE
  5
9C2
100
AcDbEntity
  8
OGGETTO
  6
CONTINUOUS
100
AcDb2dPolyline
 66
     1
 10
0.0
 20
0.0
 30
0.0
  0
VERTEX
  5
9C3
100
AcDbEntity
  8
OGGETTO
  6
CONTINUOUS
100
AcDbVertex
100
AcDb2dVertex
 10
90.724104
 20
129.608783
 30
0.0
  0
VERTEX
  5
9C4
100
AcDbEntity
  8
OGGETTO
  6
CONTINUOUS
100
AcDbVertex
100
AcDb2dVertex
 10
96.074426
 20
138.875812
 30
0.0
  0
VERTEX
  5
9C5
100
AcDbEntity
  8
OGGETTO
  6
CONTINUOUS
100
AcDbVertex
100
AcDb2dVertex
 10
96.074426
 20
139.943908
 30
0.0
 42
-0.276783
  0
VERTEX
  5
9C6
100
AcDbEntity
  8
OGGETTO
  6
CONTINUOUS
100
AcDbVertex
100
AcDb2dVertex
 10
96.031284
 20
192.126161
 30
0.0
  0
VERTEX
  5
9C7
100
AcDbEntity
  8
OGGETTO
  6
CONTINUOUS
100
AcDbVertex
100
AcDb2dVertex
 10
96.031284
 20
195.208783
 30
0.0
  0
VERTEX
  5
9C8
100
AcDbEntity
  8
OGGETTO
  6
CONTINUOUS
100
AcDbVertex
100
AcDb2dVertex
 10
95.031284
 20
196.208783
 30
0.0
  0
VERTEX
  5
9C9
100
AcDbEntity
  8
OGGETTO
  6
CONTINUOUS
100
AcDbVertex
100
AcDb2dVertex
 10
83.031284
 20
196.208783
 30
0.0
  0
VERTEX
  5
9CA
100
AcDbEntity
  8
OGGETTO
  6
CONTINUOUS
100
AcDbVertex
100
AcDb2dVertex
 10
83.031284
 20
225.208783
 30
0.0
  0
VERTEX
  5
9CB
100
AcDbEntity
  8
OGGETTO
  6
CONTINUOUS
100
AcDbVertex
100
AcDb2dVertex
 10
82.031284
 20
226.208783
 30
0.0
  0
VERTEX
  5
9CC
100
AcDbEntity
  8
OGGETTO
  6
CONTINUOUS
100
AcDbVertex
100
AcDb2dVertex
 10
71.031284
 20
226.208783
 30
0.0
  0
VERTEX
  5
9CD
100
AcDbEntity
  8
OGGETTO
  6
CONTINUOUS
100
AcDbVertex
100
AcDb2dVertex
 10
70.031284
 20
225.208783
 30
0.0
  0
VERTEX
  5
9CE
100
AcDbEntity
  8
OGGETTO
  6
CONTINUOUS
100
AcDbVertex
100
AcDb2dVertex
 10
70.031284
 20
209.208783
 30
0.0
  0
VERTEX
  5
9CF
100
AcDbEntity
  8
OGGETTO
  6
CONTINUOUS
100
AcDbVertex
100
AcDb2dVertex
 10
73.531284
 20
209.208783
 30
0.0
  0
VERTEX
  5
9D0
100
AcDbEntity
  8
OGGETTO
  6
CONTINUOUS
100
AcDbVertex
100
AcDb2dVertex
 10
73.531284
 20
200.808783
 30
0.0
  0
VERTEX
  5
9D1
100
AcDbEntity
  8
OGGETTO
  6
CONTINUOUS
100
AcDbVertex
100
AcDb2dVertex
 10
70.031284
 20
200.808783
 30
0.0
  0
VERTEX
  5
9D2
100
AcDbEntity
  8
OGGETTO
  6
CONTINUOUS
100
AcDbVertex
100
AcDb2dVertex
 10
70.031284
 20
187.843135
 30
0.0
  0
VERTEX
  5
9D3
100
AcDbEntity
  8
OGGETTO
  6
CONTINUOUS
100
AcDbVertex
100
AcDb2dVertex
 10
75.231284
 20
182.643135
 30
0.0
  0
VERTEX
  5
9D4
100
AcDbEntity
  8
OGGETTO
  6
CONTINUOUS
100
AcDbVertex
100
AcDb2dVertex
 10
75.231284
 20
155.643135
 30
0.0
  0
VERTEX
  5
9D5
100
AcDbEntity
  8
OGGETTO
  6
CONTINUOUS
100
AcDbVertex
100
AcDb2dVertex
 10
84.430962
 20
139.708825
 30
0.0
  0
VERTEX
  5
9D6
100
AcDbEntity
  8
OGGETTO
  6
CONTINUOUS
100
AcDbVertex
100
AcDb2dVertex
 10
84.138141
 20
138.616005
 30
0.0
  0
VERTEX
  5
9D7
100
AcDbEntity
  8
OGGETTO
  6
CONTINUOUS
100
AcDbVertex
100
AcDb2dVertex
 10
89.338463
 20
129.608783
 30
0.0
  0
VERTEX
  5
9D8
100
AcDbEntity
  8
OGGETTO
  6
CONTINUOUS
100
AcDbVertex
100
AcDb2dVertex
 10
85.786633
 20
135.760733
 30
0.0
 42
0.324882
  0
VERTEX
  5
9D9
100
AcDbEntity
  8
OGGETTO
  6
CONTINUOUS
100
AcDbVertex
100
AcDb2dVertex
 10
94.275934
 20
135.760733
 30
0.0
  0
VERTEX
  5
9DA
100
AcDbEntity
  8
OGGETTO
  6
CONTINUOUS
100
AcDbVertex
100
AcDb2dVertex
 10
90.724104
 20
129.608783
 30
0.0
 42
-0.57735
  0
VERTEX
  5
9DB
100
AcDbEntity
  8
OGGETTO
  6
CONTINUOUS
100
AcDbVertex
100
AcDb2dVertex
 10
89.338463
 20
129.608783
 30
0.0
  0
SEQEND
  5
9DC
100
AcDbEntity
  8
OGGETTO
  6
CONTINUOUS
  0
DIMENSION
  5
9DD
100
AcDbEntity
  8
QUOTE
  6
CONTINUOUS
100
AcDbDimension
  2
*D14
 10
32.46879
 20
129.208783
 30
0.0
 11
30.43879
 21
177.708783
 31
0.0
 12
0.353191
 22
32.358861
 32
0.0
  3
ISO-25
100
AcDbAlignedDimension
 13
71.031284
 23
226.208783
 33
0.0
 14
90.031284
 24
129.208783
 34
0.0
 50
90.0
100
AcDbRotatedDimension
1001
ACAD
1000
DSTYLE
1002
{
1070
   140
1040
2.6
1070
    47
1040
0.2
1070
    73
1070
     0
1070
   272
1070
     2
1070
   147
1040
0.53
1070
    42
1040
0.5261
1070
    44
1040
1.0522
1070
    43
1040
3.1566
1070
   271
1070
     2
1070
   141
1040
2.1044
1070
    41
1040
2.6
1002
}
  0
DIMENSION
  5
9DE
100
AcDbEntity
  8
QUOTE
  6
CONTINUOUS
100
AcDbDimension
  2
*D9
 10
75.231284
 20
155.643135
 30
0.0
 11
94.774861
 21
152.397423
 31
0.0
 12
0.353191
 22
32.358861
 32
0.0
 70
     2
  3
ISO-25
100
AcDb2LineAngularDimension
 13
84.138141
 23
138.616005
 33
0.0
 14
84.430962
 24
139.708825
 34
0.0
 15
84.430962
 25
139.708825
 35
0.0
 16
80.80263
 26
153.249943
 36
0.0
1001
ACAD
1000
DSTYLE
1002
{
1070
   140
1040
2.6
1070
    47
1040
0.02
1070
    73
1070
     0
1070
   272
1070
     2
1070
   147
1040
0.53
1070
    42
1040
0.5261
1070
    44
1040
1.0522
1070
    43
1040
3.1566
1070
   271
1070
     2
1070
   141
1040
2.1044
1070
    41
1040
2.6
1002
}
  0
DIMENSION
  5
9DF
100
AcDbEntity
  8
QUOTE
  6
CONTINUOUS
100
AcDbDimension
  2
*D8
 10
79.690193
 20
147.920077
 30
0.0
 11
69.592337
 21
142.090077
 31
0.0
 12
0.353191
 22
32.358861
 32
0.0
 70
   129
  3
ISO-25
100
AcDbAlignedDimension
 13
83.38341
 23
139.923237
 33
0.0
 14
84.076231
 24
140.323237
 34
0.0
1001
ACAD
1000
DSTYLE
1002
{
1070
   140
1040
2.6
1070
    47
1040
0.02
1070
    73
1070
     0
1070
   272
1070
     2
1070
   147
1040
0.53
1070
    42
1040
0.5261
1070
    44
1040
1.0522
1070
    43
1040
3.1566
1070
   271
1070
     2
1070
   141
1040
2.1044
1070
    41
1040
2.6
1002
}
  0
LINE
  5
9E0
100
AcDbEntity
  8
CENTRO
  6
LINEA-LINEETTEX2
100
AcDbLine
 10
90.031284
 20
230.893296
 30
0.0
 11
90.031284
 21
118.893296
 31
0.0
  0
LINE
  5
9E1
100
AcDbEntity
  8
TESTOTAB
  6
CONTINUOUS
100
AcDbLine
 10
5.353191
 20
143.858861
 30
0.0
 11
0.353191
 21
141.358861
 31
0.0
  0
LINE
  5
9E2
100
AcDbEntity
  8
TESTOTAB
  6
CONTINUOUS
100
AcDbLine
 10
0.353191
 20
143.858861
 30
0.0
 11
0.353191
 21
141.358861
 31
0.0
  0
LINE
  5
9E3
100
AcDbEntity
  8
TABELLA
  6
CONTINUOUS
100
AcDbLine
 10
5.353191
 20
5.358861
 30
0.0
 11
5.353191
 21
282.358861
 31
0.0
  0
LEADER
  5
9E4
100
AcDbEntity
  8
TESTO
  6
CONTINUOUS
100
AcDbLeader
  3
ISO-25
 76
     2
 10
86.558977
 20
73.036633
 30
0.0
 10
99.62991
 20
73.036633
 30
0.0
 77
   256
1001
ACAD
1000
DSTYLE
1002
{
1070
   140
1040
2.6
1070
    73
1070
     0
1070
   272
1070
     2
1070
   147
1040
0.5261
1070
    42
1040
0.5261
1070
    44
1040
1.0522
1070
    43
1040
3.1566
1070
   271
1070
     2
1070
   141
1040
2.1044
1070
    41
1040
2.6
1002
}
  0
TEXT
  5
9E5
100
AcDbEntity
  8
TESTO
  6
CONTINUOUS
100
AcDbText
 10
19.266686
 20
98.123385
 30
0.0
 40
3.0
  1
VISTA DA "B" SCALA 1 : 5
100
AcDbText
  0
POLYLINE
  5
9E6
100
AcDbEntity
  8
TESTO
  6
CONTINUOUS
100
AcDb2dPolyline
 66
     1
 10
0.0
 20
0.0
 30
0.0
  0
VERTEX
  5
9E7
100
AcDbEntity
  8
TESTO
  6
CONTINUOUS
100
AcDbVertex
100
AcDb2dVertex
 10
58.367732
 20
66.341992
 30
0.0
  0
VERTEX
  5
9E8
100
AcDbEntity
  8
TESTO
  6
CONTINUOUS
100
AcDbVertex
100
AcDb2dVertex
 10
31.145636
 20
66.341992
 30
0.0
  0
SEQEND
  5
9E9
100
AcDbEntity
  8
TESTO
  6
CONTINUOUS
  0
POLYLINE
  5
9EA
100
AcDbEntity
  8
TESTO
  6
CONTINUOUS
100
AcDb2dPolyline
 66
     1
 10
0.0
 20
0.0
 30
0.0
  0
VERTEX
  5
9EB
100
AcDbEntity
  8
TESTO
  6
CONTINUOUS
100
AcDbVertex
100
AcDb2dVertex
 10
58.103443
 20
64.661992
 30
0.0
  0
VERTEX
  5
9EC
100
AcDbEntity
  8
TESTO
  6
CONTINUOUS
100
AcDbVertex
100
AcDb2dVertex
 10
31.145636
 20
64.661992
 30
0.0
  0
VERTEX
  5
9ED
100
AcDbEntity
  8
TESTO
  6
CONTINUOUS
100
AcDbVertex
100
AcDb2dVertex
 10
31.145636
 20
84.061992
 30
0.0
  0
VERTEX
  5
9EE
100
AcDbEntity
  8
TESTO
  6
CONTINUOUS
100
AcDbVertex
100
AcDb2dVertex
 10
61.155356
 20
84.061992
 30
0.0
  0
VERTEX
  5
9EF
100
AcDbEntity
  8
TESTO
  6
CONTINUOUS
100
AcDbVertex
100
AcDb2dVertex
 10
59.963993
 20
84.061992
 30
0.0
  0
SEQEND
  5
9F0
100
AcDbEntity
  8
TESTO
  6
CONTINUOUS
  0
DIMENSION
  5
9F1
100
AcDbEntity
  8
QUOTE
  6
CONTINUOUS
100
AcDbDimension
  2
*D24
 10
31.145636
 20
91.004688
 30
0.0
 11
58.852306
 21
93.030788
 31
0.0
 12
0.353191
 22
32.358861
 32
0.0
  1
{835}
  3
ISO-25
100
AcDbAlignedDimension
 13
86.558977
 23
84.061992
 33
0.0
 14
31.145636
 24
84.061992
 34
0.0
100
AcDbRotatedDimension
1001
ACAD
1000
DSTYLE
1002
{
1070
   140
1040
2.6
1070
    73
1070
     0
1070
   272
1070
     2
1070
   147
1040
0.5261
1070
    42
1040
0.5261
1070
    44
1040
1.0522
1070
    43
1040
3.1566
1070
   271
1070
     2
1070
   141
1040
2.1044
1070
    41
1040
2.6
1002
}
  0
LEADER
  5
9F2
100
AcDbEntity
  8
TESTO
  6
CONTINUOUS
100
AcDbLeader
  3
ISO-25
 76
     4
 10
39.745882
 20
64.661992
 30
0.0
 10
39.745882
 20
55.269102
 30
0.0
 10
17.341106
 20
55.269102
 30
0.0
 10
17.341106
 20
70.986533
 30
0.0
 77
   256
1001
ACAD
1000
DSTYLE
1002
{
1070
   140
1040
2.6
1070
    73
1070
     0
1070
   272
1070
     2
1070
   147
1040
0.5261
1070
    42
1040
0.5261
1070
    44
1040
1.0522
1070
    43
1040
3.1566
1070
   271
1070
     2
1070
   141
1040
2.1044
1070
    41
1040
2.6
1002
}
  0
LINE
  5
9F3
100
AcDbEntity
  8
TESTO
  6
CONTINUOUS
100
AcDbLine
 10
31.145636
 20
70.661992
 30
0.0
 11
59.047334
 21
70.661992
 31
0.0
  0
LINE
  5
9F4
100
AcDbEntity
  8
TESTO
  6
CONTINUOUS
100
AcDbLine
 10
31.145636
 20
75.861992
 30
0.0
 11
59.865372
 21
75.861992
 31
0.0
  0
LINE
  5
9F5
100
AcDbEntity
  8
TESTO
  6
CONTINUOUS
100
AcDbLine
 10
31.145636
 20
76.861992
 30
0.0
 11
60.022687
 21
76.861992
 31
0.0
  0
LINE
  5
9F6
100
AcDbEntity
  8
TESTO
  6
CONTINUOUS
100
AcDbLine
 10
31.145636
 20
78.981992
 30
0.0
 11
60.356195
 21
78.981992
 31
0.0
  0
LINE
  5
9F7
100
AcDbEntity
  8
TESTO
  6
CONTINUOUS
100
AcDbLine
 10
31.145636
 20
80.661992
 30
0.0
 11
60.620485
 21
80.661992
 31
0.0
  0
TEXT
  5
9F8
100
AcDbEntity
  8
TESTOTAB
  6
CONTINUOUS
100
AcDbText
 10
6.84293
 20
15.703194
 30
0.0
 40
2.0
  1
- Angoli su superfici lavorate = +/- 30'
100
AcDbText
  0
TEXT
  5
9F9
100
AcDbEntity
  8
TESTOTAB
  6
CONTINUOUS
100
AcDbText
 10
6.84293
 20
23.303194
 30
0.0
 40
2.0
  1
   da mm 151 a mm 500 = +/- 0.4
100
AcDbText
  0
TEXT
  5
9FA
100
AcDbEntity
  8
TESTOTAB
  6
CONTINUOUS
100
AcDbText
 10
6.84293
 20
27.103194
 30
0.0
 40
2.0
  1
   da mm 51 a mm 150 = +/- 0.3
100
AcDbText
  0
TEXT
  5
9FB
100
AcDbEntity
  8
TESTOTAB
  6
CONTINUOUS
100
AcDbText
 10
6.84293
 20
30.903194
 30
0.0
 40
2.0
  1
- Superfici lavorate da mm 1 a mm 50 = +/- 0.2
100
AcDbText
  0
TEXT
  5
9FC
100
AcDbEntity
  8
TESTOTAB
  6
CONTINUOUS
100
AcDbText
 10
6.84293
 20
34.703194
 30
0.0
 40
2.0
  1
- Parti fuse con spessori >10 mm = +/- 10%
100
AcDbText
  0
TEXT
  5
9FD
100
AcDbEntity
  8
TESTOTAB
  6
CONTINUOUS
100
AcDbText
 10
6.84293
 20
38.503194
 30
0.0
 40
2.0
  1
- Parti fuse con spessori <10 mm = +/- 1 mm
100
AcDbText
  0
TEXT
  5
9FE
100
AcDbEntity
  8
TESTOTAB
  6
CONTINUOUS
100
AcDbText
 10
0.340469
 20
51.231657
 30
0.0
 40
4.0
  1
B
100
AcDbText
  0
TEXT
  5
9FF
100
AcDbEntity
  8
TESTOTAB
  6
CONTINUOUS
100
AcDbText
 10
-0.075685
 20
15.072607
 30
0.0
 40
4.0
  1
A
100
AcDbText
  0
LINE
  5
A00
100
AcDbEntity
  8
INTABELLA
  6
CONTINUOUS
100
AcDbLine
 10
5.353191
 20
36.233861
 30
0.0
 11
0.353191
 21
36.233861
 31
0.0
  0
TEXT
  5
A01
100
AcDbEntity
  8
TESTOTAB
  6
CONTINUOUS
100
AcDbText
 10
15.154351
 20
0.11024
 30
0.0
 40
4.0
  1
6
100
AcDbText
  0
LINE
  5
A02
100
AcDbEntity
  8
INTABELLA
  6
CONTINUOUS
100
AcDbLine
 10
33.686191
 20
5.358861
 30
0.0
 11
33.686191
 21
0.358861
 31
0.0
  0
TEXT
  5
A03
100
AcDbEntity
  8
TESTOTAB
  6
CONTINUOUS
100
AcDbText
 10
6.84293
 20
11.903194
 30
0.0
 40
2.0
  1
- Interassi fori = +/- 0.25
100
AcDbText
  0
TEXT
  5
A04
100
AcDbEntity
  8
TESTOTAB
  6
CONTINUOUS
100
AcDbText
 10
6.84293
 20
19.503194
 30
0.0
 40
2.0
  1
   oltre 500 mm = +/- 0.5
100
AcDbText
  0
TEXT
  5
A05
100
AcDbEntity
  8
TESTOTAB
  6
CONTINUOUS
100
AcDbText
 10
6.84293
 20
42.303194
 30
0.0
 40
2.0
  1
TOLLERANZE GENERALI :
100
AcDbText
  0
LINE
  5
A06
100
AcDbEntity
  8
INTABELLA
  6
CONTINUOUS
100
AcDbLine
 10
5.353191
 20
72.108861
 30
0.0
 11
0.353191
 21
72.108861
 31
0.0
  0
TEXT
  5
A07
100
AcDbEntity
  8
TESTOTAB
  6
CONTINUOUS
100
AcDbText
 10
0.340469
 20
87.431519
 30
0.0
 40
4.0
  1
C
100
AcDbText
  0
LINE
  5
A08
100
AcDbEntity
  8
INTABELLA
  6
CONTINUOUS
100
AcDbLine
 10
5.353191
 20
107.983861
 30
0.0
 11
0.353191
 21
107.983861
 31
0.0
  0
TEXT
  5
A09
100
AcDbEntity
  8
TESTOTAB
  6
CONTINUOUS
100
AcDbText
 10
0.340469
 20
124.006191
 30
0.0
 40
4.0
  1
D
100
AcDbText
  0
TOLERANCE
  5
A0A
100
AcDbEntity
  8
TESTO
  6
CONTINUOUS
100
AcDbFcf
  3
ISO-25
 10
10.585468
 20
73.463738
 30
0.0
  1
{\Fgdt;b}%%v0.05%%v%%v%%v%%v
1001
ACAD
1000
DSTYLE
1002
{
1070
   140
1040
2.6
1070
    73
1070
     0
1070
   272
1070
     2
1070
   147
1040
0.5261
1070
    42
1040
0.5261
1070
    44
1040
1.0522
1070
    43
1040
3.1566
1070
   271
1070
     2
1070
   141
1040
2.1044
1070
    41
1040
2.6
1002
}
  0
LEADER
  5
A0B
100
AcDbEntity
  8
TESTO
  6
CONTINUOUS
100
AcDbLeader
  3
ISO-25
 76
     2
 10
31.145636
 20
73.036633
 30
0.0
 10
23.498142
 20
73.036633
 30
0.0
 77
   256
1001
ACAD
1000
DSTYLE
1002
{
1070
   140
1040
2.6
1070
    73
1070
     0
1070
   272
1070
     2
1070
   147
1040
0.5261
1070
    42
1040
0.5261
1070
    44
1040
1.0522
1070
    43
1040
3.1566
1070
   271
1070
     2
1070
   141
1040
2.1044
1070
    41
1040
2.6
1002
}
  0
LEADER
  5
A0C
100
AcDbEntity
  8
TESTO
  6
CONTINUOUS
100
AcDbLeader
  3
ISO-25
 76
     2
 10
70.512048
 20
64.661992
 30
0.0
 10
70.512048
 20
52.566677
 30
0.0
 77
   256
1001
ACAD
1000
DSTYLE
1002
{
1070
   140
1040
2.6
1070
    73
1070
     0
1070
   272
1070
     2
1070
   147
1040
0.5261
1070
    42
1040
0.5261
1070
    44
1040
1.0522
1070
    43
1040
3.1566
1070
   271
1070
     2
1070
   141
1040
2.1044
1070
    41
1040
2.6
1002
}
  0
TOLERANCE
  5
A0D
100
AcDbEntity
  8
TESTO
  6
CONTINUOUS
100
AcDbFcf
  3
ISO-25
 10
67.433528
 20
50.858259
 30
0.0
  1
{\Fgdt;u}%%v0.05%%v%%v%%v%%v
1001
ACAD
1000
DSTYLE
1002
{
1070
   140
1040
2.6
1070
    73
1070
     0
1070
   272
1070
     2
1070
   147
1040
0.5261
1070
    42
1040
0.5261
1070
    44
1040
1.0522
1070
    43
1040
3.1566
1070
   271
1070
     2
1070
   141
1040
2.1044
1070
    41
1040
2.6
1002
}
  0
LINE
  5
A0E
100
AcDbEntity
  8
TABELLA
  6
CONTINUOUS
100
AcDbLine
 10
65.363571
 20
45.366685
 30
0.0
 11
65.353192
 21
5.361456
 31
0.0
  0
TEXT
  5
A0F
100
AcDbEntity
  8
TESTOTAB
  6
CONTINUOUS
100
AcDbText
 10
68.009683
 20
7.425822
 30
0.0
 40
1.5
  1
A termine di legge la Rolleri si riserva la
 50
90.0
100
AcDbText
  0
TEXT
  5
A10
100
AcDbEntity
  8
TESTOTAB
  6
CONTINUOUS
100
AcDbText
 10
48.862887
 20
0.11024
 30
0.0
 40
4.0
  1
5
100
AcDbText
  0
LINE
  5
A11
100
AcDbEntity
  8
INTABELLA
  6
CONTINUOUS
100
AcDbLine
 10
67.019191
 20
5.358861
 30
0.0
 11
67.019191
 21
0.358861
 31
0.0
  0
LINE
  5
A12
100
AcDbEntity
  8
INTABELLA
  6
CONTINUOUS
100
AcDbLine
 10
75.36357
 20
45.358861
 30
0.0
 11
75.36357
 21
5.358861
 31
0.0
  0
TEXT
  5
A13
100
AcDbEntity
  8
TESTOTAB
  6
CONTINUOUS
100
AcDbText
 10
73.709683
 20
7.425822
 30
0.0
 40
1.5
  1
di riprodurlo e di comunicarlo a terzi.
 50
90.0
100
AcDbText
  0
TEXT
  5
A14
100
AcDbEntity
  8
TESTOTAB
  6
CONTINUOUS
100
AcDbText
 10
70.859683
 20
7.425822
 30
0.0
 40
1.5
  1
proprietà di questo disegno, con divieto
 50
90.0
100
AcDbText
  0
TEXT
  5
A15
100
AcDbEntity
  8
TESTOTAB
  6
CONTINUOUS
100
AcDbText
 10
82.987579
 20
0.525862
 30
0.0
 40
4.0
  1
4
100
AcDbText
  0
LINE
  5
A16
100
AcDbEntity
  8
TESTOTAB
  6
CONTINUOUS
100
AcDbLine
 10
97.852191
 20
0.358861
 30
0.0
 11
100.352191
 21
5.358861
 31
0.0
  0
LINE
  5
A17
100
AcDbEntity
  8
INTABELLA
  6
CONTINUOUS
100
AcDbLine
 10
100.352191
 20
5.358861
 30
0.0
 11
100.352191
 21
0.358861
 31
0.0
  0
LINE
  5
A18
100
AcDbEntity
  8
TESTOTAB
  6
CONTINUOUS
100
AcDbLine
 10
100.352191
 20
0.358861
 30
0.0
 11
97.852191
 21
0.358861
 31
0.0
  0
TEXT
  5
A19
100
AcDbEntity
  8
OGGETTO
  6
CONTINUOUS
100
AcDbText
 10
78.937941
 20
36.145032
 30
0.0
 40
2.5
  1
EN  10083-93                   
100
AcDbText
  0
TEXT
  5
A1A
100
AcDbEntity
  8
TESTOTAB
  6
CONTINUOUS
100
AcDbText
 10
76.751454
 20
42.456637
 30
0.0
 40
2.0
  1
Materiale
100
AcDbText
  0
TEXT
  5
A1B
100
AcDbEntity
  8
TESTOTAB
  6
CONTINUOUS
100
AcDbText
 10
76.520145
 20
32.292481
 30
0.0
 40
2.0
  1
Disegnato da
100
AcDbText
  0
LINE
  5
A1C
100
AcDbEntity
  8
MARCHIO
  6
CONTINUOUS
100
AcDbLine
 10
83.678511
 20
22.584055
 30
0.0
 11
80.622279
 21
14.187129
 31
0.0
1001
ACAD
1000
ASC_BOUNDS
1002
{
1070
    19
1002
}
  0
LINE
  5
A1D
100
AcDbEntity
  8
MARCHIO
  6
CONTINUOUS
100
AcDbLine
 10
82.978303
 20
23.584055
 30
0.0
 11
79.558102
 21
14.187129
 31
0.0
1001
ACAD
1000
ASC_BOUNDS
1002
{
1070
    19
1002
}
  0
LINE
  5
A1E
100
AcDbEntity
  8
MARCHIO
  6
CONTINUOUS
100
AcDbLine
 10
80.622279
 20
14.187129
 30
0.0
 11
81.62639
 21
11.428358
 31
0.0
1001
ACAD
1000
ASC_BOUNDS
1002
{
1070
    19
1002
}
  0
LINE
  5
A1F
100
AcDbEntity
  8
MARCHIO
  6
CONTINUOUS
100
AcDbLine
 10
79.558102
 20
14.187129
 30
0.0
 11
80.926182
 21
10.428358
 31
0.0
1001
ACAD
1000
ASC_BOUNDS
1002
{
1070
    19
1002
}
  0
LINE
  5
A20
100
AcDbEntity
  8
INTABELLA
  6
CONTINUOUS
100
AcDbLine
 10
100.353191
 20
35.358861
 30
0.0
 11
100.353191
 21
25.358861
 31
0.0
  0
LINE
  5
A21
100
AcDbEntity
  8
TESTO
  6
CONTINUOUS
100
AcDbLine
 10
60.565781
 20
70.661992
 30
0.0
 11
86.558977
 21
70.661992
 31
0.0
  0
LINE
  5
A22
100
AcDbEntity
  8
TESTO
  6
CONTINUOUS
100
AcDbLine
 10
61.38382
 20
75.861992
 30
0.0
 11
86.558977
 21
75.861992
 31
0.0
  0
LINE
  5
A23
100
AcDbEntity
  8
TESTO
  6
CONTINUOUS
100
AcDbLine
 10
61.541135
 20
76.861992
 30
0.0
 11
86.558977
 21
76.861992
 31
0.0
  0
LINE
  5
A24
100
AcDbEntity
  8
TESTO
  6
CONTINUOUS
100
AcDbLine
 10
61.874643
 20
78.981992
 30
0.0
 11
86.558977
 21
78.981992
 31
0.0
  0
LINE
  5
A25
100
AcDbEntity
  8
TESTO
  6
CONTINUOUS
100
AcDbLine
 10
62.138932
 20
80.661992
 30
0.0
 11
86.558977
 21
80.661992
 31
0.0
  0
LINE
  5
A26
100
AcDbEntity
  8
TESTO
  6
CONTINUOUS
100
AcDbLine
 10
62.673804
 20
84.061992
 30
0.0
 11
86.558977
 21
84.061992
 31
0.0
  0
LINE
  5
A27
100
AcDbEntity
  8
OGGETTO
  6
CONTINUOUS
100
AcDbLine
 10
86.558977
 20
84.061992
 30
0.0
 11
62.673804
 21
84.061992
 31
0.0
  0
LINE
  5
A28
100
AcDbEntity
  8
TESTO
  6
CONTINUOUS
100
AcDbLine
 10
86.558977
 20
66.341992
 30
0.0
 11
59.88618
 21
66.341992
 31
0.0
  0
LINE
  5
A29
100
AcDbEntity
  8
TESTO
  6
CONTINUOUS
100
AcDbLine
 10
86.558977
 20
64.661992
 30
0.0
 11
59.621891
 21
64.661992
 31
0.0
  0
MTEXT
  5
A2A
100
AcDbEntity
  8
TESTO
  6
CONTINUOUS
100
AcDbMText
 10
70.243986
 20
105.357931
 30
0.0
 40
2.6
 41
0.0
 71
     9
 72
     1
  1
{" A "}
  0
LEADER
  5
A2C
100
AcDbEntity
  8
TESTO
  6
CONTINUOUS
100
AcDbLeader
  3
ISO-25
 73
     0
 40
2.6
 41
6.76
 76
     3
 10
86.738063
 20
125.850341
 30
0.0
 10
71.401405
 20
104.780759
 30
0.0
 10
68.507857
 20
104.780759
 30
0.0
 77
   256
1001
ACAD
1000
DSTYLE
1002
{
1070
   140
1040
2.6
1070
    47
1040
0.05
1070
    48
1040
0.05
1070
    73
1070
     0
1070
   272
1070
     2
1070
   147
1040
0.53
1070
    42
1040
0.5261
1070
    44
1040
1.0522
1070
    43
1040
3.1566
1070
   271
1070
     2
1070
   141
1040
2.1044
1070
    41
1040
2.6
1002
}
  0
DIMENSION
  5
A2D
100
AcDbEntity
  8
QUOTE
  6
CONTINUOUS
100
AcDbDimension
  2
*D3
 10
65.999479
 20
126.417116
 30
0.0
 11
69.13199
 21
121.75935
 31
0.0
 12
0.353191
 22
32.358861
 32
0.0
 70
   129
  1
{11.2}
  3
ISO-25
100
AcDbAlignedDimension
 13
90.403165
 23
129.300472
 33
0.0
 14
84.138141
 24
138.616005
 34
0.0
1001
ACAD
1000
DSTYLE
1002
{
1070
   140
1040
2.6
1070
    73
1070
     0
1070
   272
1070
     2
1070
   147
1040
0.5261
1070
    42
1040
0.5261
1070
    44
1040
1.0522
1070
    43
1040
3.1566
1070
   271
1070
     2
1070
   141
1040
2.1044
1070
    41
1040
2.6
1002
}
  0
LINE
  5
A2E
100
AcDbEntity
  8
TESTO
  6
TRATTEGGIATA
 48
3.0
100
AcDbLine
 10
62.98503
 20
86.040356
 30
0.0
 11
59.222394
 21
62.122524
 31
0.0
  0
LINE
  5
A2F
100
AcDbEntity
  8
TESTO
  6
TRATTEGGIATA
 48
3.0
100
AcDbLine
 10
61.503254
 20
86.273462
 30
0.0
 11
57.740617
 21
62.35563
 31
0.0
  0
TEXT
  5
A30
100
AcDbEntity
  8
QUOTE
  6
CONTINUOUS
100
AcDbText
 10
64.267963
 20
92.193668
 30
0.0
 40
1.5
  1
0.5
100
AcDbText
  0
TEXT
  5
A31
100
AcDbEntity
  8
QUOTE
  6
CONTINUOUS
100
AcDbText
 10
62.643189
 20
92.877036
 30
0.0
 40
1.5
  1
+
100
AcDbText
  0
TEXT
  5
A32
100
AcDbEntity
  8
QUOTE
  6
CONTINUOUS
100
AcDbText
 10
62.643189
 20
91.937407
 30
0.0
 40
1.5
  1
-
100
AcDbText
  0
LINE
  5
A33
100
AcDbEntity
  8
TESTO
  6
CONTINUOUS
100
AcDbLine
 10
86.558977
 20
84.061992
 30
0.0
 11
86.558977
 21
64.661992
 31
0.0
  0
DIMENSION
  5
A34
100
AcDbEntity
  8
QUOTE
  6
CONTINUOUS
100
AcDbDimension
  2
*D18
 10
84.138141
 20
138.616005
 30
0.0
 11
90.031284
 21
114.258761
 31
0.0
 12
0.353191
 22
32.358861
 32
0.0
 70
     2
  3
ISO-25
100
AcDb2LineAngularDimension
 13
90.724104
 23
129.608783
 33
0.0
 14
96.074426
 24
138.875812
 34
0.0
 15
89.338463
 25
129.608783
 35
0.0
 16
87.221652
 26
112.474572
 36
0.0
1001
ACAD
1000
DSTYLE
1002
{
1070
   140
1040
2.6
1070
    47
1040
0.05
1070
    48
1040
0.05
1070
    73
1070
     0
1070
   272
1070
     2
1070
   147
1040
0.53
1070
    42
1040
0.5261
1070
    44
1040
1.0522
1070
    43
1040
3.1566
1070
   271
1070
     2
1070
   141
1040
2.1044
1070
    41
1040
2.6
1002
}
  0
INSERT
  5
A35
100
AcDbEntity
  8
OGGETTO
  6
CONTINUOUS
100
AcDbBlockReference
  2
*X0
 10
-4.968716
 20
20.893296
 30
0.0
1001
ACAD
1000
HATCH
1002
{
1070
    19
1000
ANSI31
1040
0.05
1040
0.0
1000
ASC_BOUNDS
1070
     1
1070
     2
1070
     4
1005
0
1005
0
1005
0
1005
0
1000
ASC_SEEDPOINT
1011
-4.968716
1021
20.893296
1031
0.0
1002
}
  0
TEXT
  5
A36
100
AcDbEntity
  8
TESTO
  6
CONTINUOUS
100
AcDbText
 10
37.142362
 20
163.765757
 30
0.0
 40
3.0
  1
" B "
100
AcDbText
  0
LINE
  5
A37
100
AcDbEntity
  8
TESTO
  6
CONTINUOUS
100
AcDbLine
 10
36.853007
 20
162.322828
 30
0.0
 11
51.853007
 21
162.322828
 31
0.0
  0
TEXT
  5
A38
100
AcDbEntity
  8
TESTO
  6
CONTINUOUS
100
AcDbText
 10
12.795561
 20
265.192864
 30
0.0
 40
3.0
  1
      SCALA 5 : 1
100
AcDbText
  0
TEXT
  5
A39
100
AcDbEntity
  8
TESTO
  6
CONTINUOUS
100
AcDbText
 10
15.978462
 20
270.964583
 30
0.0
 40
3.0
  1
PARTICOLARE " A "
100
AcDbText
  0
POLYLINE
  5
A3A
100
AcDbEntity
  8
SEZIONE
  6
CONTINUOUS
100
AcDb2dPolyline
 66
     1
 10
0.0
 20
0.0
 30
0.0
  0
VERTEX
  5
A3B
100
AcDbEntity
  8
SEZIONE
  6
CONTINUOUS
100
AcDbVertex
100
AcDb2dVertex
 10
19.62098
 20
259.774281
 30
0.0
  0
VERTEX
  5
A3C
100
AcDbEntity
  8
SEZIONE
  6
CONTINUOUS
100
AcDbVertex
100
AcDb2dVertex
 10
23.241127
 20
261.500446
 30
0.0
  0
VERTEX
  5
A3D
100
AcDbEntity
  8
SEZIONE
  6
CONTINUOUS
100
AcDbVertex
100
AcDb2dVertex
 10
26.279352
 20
260.634688
 30
0.0
  0
VERTEX
  5
A3E
100
AcDbEntity
  8
SEZIONE
  6
CONTINUOUS
100
AcDbVertex
100
AcDb2dVertex
 10
32.066447
 20
257.460242
 30
0.0
  0
VERTEX
  5
A3F
100
AcDbEntity
  8
SEZIONE
  6
CONTINUOUS
100
AcDbVertex
100
AcDb2dVertex
 10
35.683381
 20
259.191758
 30
0.0
  0
VERTEX
  5
A40
100
AcDbEntity
  8
SEZIONE
  6
CONTINUOUS
100
AcDbVertex
100
AcDb2dVertex
 10
39.62098
 20
259.774281
 30
0.0
  0
SEQEND
  5
A41
100
AcDbEntity
  8
SEZIONE
  6
CONTINUOUS
  0
LINE
  5
A42
100
AcDbEntity
  8
OGGETTO
  6
CONTINUOUS
100
AcDbLine
 10
33.085081
 20
248.453773
 30
0.0
 11
39.62098
 21
259.774281
 31
0.0
  0
TEXT
  5
A43
100
AcDbEntity
  8
TESTOTAB
  6
CONTINUOUS
100
AcDbText
 10
0.756624
 20
230.77253
 30
0.0
 40
4.0
  1
G
100
AcDbText
  0
LINE
  5
A44
100
AcDbEntity
  8
TESTOTAB
  6
CONTINUOUS
100
AcDbLine
 10
0.353191
 20
146.358861
 30
0.0
 11
5.353191
 21
143.858861
 31
0.0
  0
LINE
  5
A45
100
AcDbEntity
  8
INTABELLA
  6
CONTINUOUS
100
AcDbLine
 10
5.353191
 20
143.858861
 30
0.0
 11
0.353191
 21
143.858861
 31
0.0
  0
LINE
  5
A46
100
AcDbEntity
  8
TESTOTAB
  6
CONTINUOUS
100
AcDbLine
 10
0.353191
 20
143.858861
 30
0.0
 11
0.353191
 21
146.358861
 31
0.0
  0
TEXT
  5
A47
100
AcDbEntity
  8
TESTOTAB
  6
CONTINUOUS
100
AcDbText
 10
1.172779
 20
158.291187
 30
0.0
 40
4.0
  1
E
100
AcDbText
  0
LINE
  5
A48
100
AcDbEntity
  8
INTABELLA
  6
CONTINUOUS
100
AcDbLine
 10
5.353191
 20
179.733861
 30
0.0
 11
0.353191
 21
179.733861
 31
0.0
  0
TEXT
  5
A49
100
AcDbEntity
  8
TESTOTAB
  6
CONTINUOUS
100
AcDbText
 10
0.756624
 20
195.281481
 30
0.0
 40
4.0
  1
F
100
AcDbText
  0
LINE
  5
A4A
100
AcDbEntity
  8
INTABELLA
  6
CONTINUOUS
100
AcDbLine
 10
5.353191
 20
215.608861
 30
0.0
 11
0.353191
 21
215.608861
 31
0.0
  0
LINE
  5
A4B
100
AcDbEntity
  8
INTABELLA
  6
CONTINUOUS
100
AcDbLine
 10
5.353191
 20
251.483861
 30
0.0
 11
0.353191
 21
251.483861
 31
0.0
  0
TEXT
  5
A4C
100
AcDbEntity
  8
TESTOTAB
  6
CONTINUOUS
100
AcDbText
 10
0.756624
 20
268.178445
 30
0.0
 40
4.0
  1
H
100
AcDbText
  0
DIMENSION
  5
A4D
100
AcDbEntity
  8
QUOTE
  6
CONTINUOUS
100
AcDbDimension
  2
*D21
 10
29.62098
 20
250.453773
 30
0.0
 11
14.849839
 21
241.876601
 31
0.0
 12
0.353191
 22
32.358861
 32
0.0
 70
   132
  1
{R 0.8}
  3
ISO-25
100
AcDbRadialDimension
 15
26.161863
 25
248.445165
 35
0.0
 40
0.0
1001
ACAD
1000
DSTYLE
1002
{
1070
   140
1040
2.6
1070
    47
1040
0.05
1070
    48
1040
0.05
1070
    73
1070
     0
1070
   272
1070
     2
1070
   147
1040
0.53
1070
    42
1040
0.5261
1070
    44
1040
1.0522
1070
    43
1040
3.1566
1070
   271
1070
     2
1070
   141
1040
2.1044
1070
    41
1040
2.6
1002
}
  0
LINE
  5
A4E
100
AcDbEntity
  8
OGGETTO
  6
CONTINUOUS
100
AcDbLine
 10
26.156878
 20
248.453773
 30
0.0
 11
19.62098
 21
259.774281
 31
0.0
  0
LINE
  5
A4F
100
AcDbEntity
  8
CENTRO
  6
LINEA-LINEETTEX2
100
AcDbLine
 10
29.62098
 20
263.984257
 30
0.0
 11
29.62098
 21
238.984257
 31
0.0
  0
ARC
  5
A50
100
AcDbEntity
  8
OGGETTO
  6
CONTINUOUS
100
AcDbCircle
 10
29.62098
 20
250.453773
 30
0.0
 40
4.0
100
AcDbArc
 50
210.0
 51
330.0
  0
TEXT
  5
A51
100
AcDbEntity
  8
TESTOTAB
  6
CONTINUOUS
100
AcDbText
 10
15.154352
 20
283.181621
 30
0.0
 40
4.0
  1
6
100
AcDbText
  0
LINE
  5
A52
100
AcDbEntity
  8
INTABELLA
  6
CONTINUOUS
100
AcDbLine
 10
33.686191
 20
282.358861
 30
0.0
 11
33.686191
 21
287.358861
 31
0.0
  0
DIMENSION
  5
A53
100
AcDbEntity
  8
QUOTE
  6
CONTINUOUS
100
AcDbDimension
  2
*D25
 10
96.031284
 20
258.004889
 30
0.0
 11
83.031284
 21
261.960774
 31
0.0
 12
0.353191
 22
32.358861
 32
0.0
  3
ISO-25
100
AcDbAlignedDimension
 13
70.031284
 23
225.208783
 33
0.0
 14
96.031284
 24
195.208783
 34
0.0
100
AcDbRotatedDimension
1001
ACAD
1000
DSTYLE
1002
{
1070
    47
1040
0.02
1070
    71
1070
     1
1070
    48
1040
0.0
1070
   272
1070
     2
1002
}
  0
DIMENSION
  5
A54
100
AcDbEntity
  8
QUOTE
  6
CONTINUOUS
100
AcDbDimension
  2
*D16
 10
83.031284
 20
246.050339
 30
0.0
 11
60.371284
 21
246.050339
 31
0.0
 12
0.353191
 22
32.358861
 32
0.0
 70
   128
  3
ISO-25
100
AcDbAlignedDimension
 13
70.031284
 23
225.208783
 33
0.0
 14
83.031284
 24
225.208783
 34
0.0
100
AcDbRotatedDimension
1001
ACAD
1000
DSTYLE
1002
{
1070
   140
1040
2.6
1070
    47
1040
0.02
1070
    71
1070
     1
1070
    73
1070
     0
1070
   272
1070
     2
1070
   147
1040
0.53
1070
    42
1040
0.5261
1070
    44
1040
1.0522
1070
    43
1040
3.1566
1070
   271
1070
     2
1070
   141
1040
2.1044
1070
    41
1040
2.6
1002
}
  0
DIMENSION
  5
A55
100
AcDbEntity
  8
QUOTE
  6
CONTINUOUS
100
AcDbDimension
  2
*D15
 10
70.031284
 20
237.480312
 30
0.0
 11
62.139152
 21
239.510312
 31
0.0
 12
0.353191
 22
32.358861
 32
0.0
  3
ISO-25
100
AcDbAlignedDimension
 13
73.531284
 23
209.208783
 33
0.0
 14
70.031284
 24
225.208783
 34
0.0
100
AcDbRotatedDimension
1001
ACAD
1000
DSTYLE
1002
{
1070
   140
1040
2.6
1070
    47
1040
0.2
1070
    73
1070
     0
1070
   272
1070
     2
1070
   147
1040
0.53
1070
    42
1040
0.5261
1070
    44
1040
1.0522
1070
    43
1040
3.1566
1070
   271
1070
     2
1070
   141
1040
2.1044
1070
    41
1040
2.6
1002
}
  0
DIMENSION
  5
A56
100
AcDbEntity
  8
QUOTE
  6
CONTINUOUS
100
AcDbDimension
  2
*D23
 10
70.031284
 20
166.09376
 30
0.0
 11
62.073104
 21
168.124055
 31
0.0
 12
0.353191
 22
32.358861
 32
0.0
  1
{5.2}
  3
ISO-25
100
AcDbAlignedDimension
 13
75.231284
 23
166.117387
 33
0.0
 14
70.031284
 24
187.843135
 34
0.0
100
AcDbRotatedDimension
1001
ACAD
1000
DSTYLE
1002
{
1070
   140
1040
2.6
1070
    47
1040
0.05
1070
    48
1040
0.05
1070
    73
1070
     0
1070
   272
1070
     2
1070
   147
1040
0.53
1070
    42
1040
0.5261
1070
    44
1040
1.0522
1070
    43
1040
3.1566
1070
   271
1070
     2
1070
   141
1040
2.1044
1070
    41
1040
2.6
1002
}
  0
LEADER
  5
A57
100
AcDbEntity
  8
QUOTE
  6
CONTINUOUS
100
AcDbLeader
  3
ISO-25
 73
     0
 40
2.6
 41
13.78
 76
     3
 10
70.531284
 20
225.708783
 30
0.0
 10
56.991606
 20
232.919679
 30
0.0
 10
54.922932
 20
232.919679
 30
0.0
 77
   256
1001
ACAD
1000
DSTYLE
1002
{
1070
   140
1040
2.6
1070
    47
1040
0.05
1070
    48
1040
0.05
1070
    73
1070
     0
1070
   272
1070
     2
1070
   147
1040
0.53
1070
    42
1040
0.5261
1070
    44
1040
1.0522
1070
    43
1040
3.1566
1070
   271
1070
     2
1070
   141
1040
2.1044
1070
    41
1040
2.6
1002
}
  0
DIMENSION
  5
A58
100
AcDbEntity
  8
QUOTE
  6
CONTINUOUS
100
AcDbDimension
  2
*D13
 10
45.923788
 20
196.208783
 30
0.0
 11
43.893788
 21
202.708783
 31
0.0
 12
0.353191
 22
32.358861
 32
0.0
  1
{13}
  3
ISO-25
100
AcDbAlignedDimension
 13
70.031284
 23
209.208783
 33
0.0
 14
82.59384
 24
196.208783
 34
0.0
 50
90.0
100
AcDbRotatedDimension
1001
ACAD
1000
DSTYLE
1002
{
1070
   140
1040
2.6
1070
    47
1040
0.2
1070
    71
1070
     1
1070
    73
1070
     0
1070
   272
1070
     2
1070
   147
1040
0.53
1070
    42
1040
0.5261
1070
    44
1040
1.0522
1070
    43
1040
3.1566
1070
   271
1070
     2
1070
   141
1040
2.1044
1070
    41
1040
2.6
1002
}
  0
DIMENSION
  5
A59
100
AcDbEntity
  8
QUOTE
  6
CONTINUOUS
100
AcDbDimension
  2
*D12
 10
57.425638
 20
200.808783
 30
0.0
 11
55.395638
 21
205.008783
 31
0.0
 12
0.353191
 22
32.358861
 32
0.0
  3
ISO-25
100
AcDbAlignedDimension
 13
70.031284
 23
209.208783
 33
0.0
 14
70.031284
 24
200.808783
 34
0.0
 50
90.0
100
AcDbRotatedDimension
1001
ACAD
1000
DSTYLE
1002
{
1070
   140
1040
2.6
1070
    47
1040
0.02
1070
    73
1070
     0
1070
   272
1070
     2
1070
   147
1040
0.53
1070
    42
1040
0.5261
1070
    44
1040
1.0522
1070
    43
1040
3.1566
1070
   271
1070
     2
1070
   141
1040
2.1044
1070
    41
1040
2.6
1002
}
  0
DIMENSION
  5
A5A
100
AcDbEntity
  8
QUOTE
  6
CONTINUOUS
100
AcDbDimension
  2
*D11
 10
70.031284
 20
187.843135
 30
0.0
 11
82.007518
 21
193.581917
 31
0.0
 12
0.353191
 22
32.358861
 32
0.0
 70
     2
  3
ISO-25
100
AcDb2LineAngularDimension
 13
75.231284
 23
182.643135
 33
0.0
 14
75.231284
 24
155.643135
 34
0.0
 15
75.231284
 25
182.643135
 35
0.0
 16
70.018495
 26
191.67195
 36
0.0
1001
ACAD
1000
DSTYLE
1002
{
1070
   140
1040
2.6
1070
    47
1040
0.02
1070
    73
1070
     0
1070
   272
1070
     2
1070
   147
1040
0.53
1070
    42
1040
0.5261
1070
    44
1040
1.0522
1070
    43
1040
3.1566
1070
   271
1070
     2
1070
   141
1040
2.1044
1070
    41
1040
2.6
1002
}
  0
DIMENSION
  5
A5B
100
AcDbEntity
  8
QUOTE
  6
CONTINUOUS
100
AcDbDimension
  2
*D10
 10
55.837573
 20
155.643135
 30
0.0
 11
53.807573
 21
169.143135
 31
0.0
 12
0.353191
 22
32.358861
 32
0.0
  3
ISO-25
100
AcDbAlignedDimension
 13
75.231284
 23
182.643135
 33
0.0
 14
75.231284
 24
155.643135
 34
0.0
 50
90.0
100
AcDbRotatedDimension
1001
ACAD
1000
DSTYLE
1002
{
1070
   140
1040
2.6
1070
    47
1040
0.02
1070
    73
1070
     0
1070
   272
1070
     2
1070
   147
1040
0.53
1070
    42
1040
0.5261
1070
    44
1040
1.0522
1070
    43
1040
3.1566
1070
   271
1070
     2
1070
   141
1040
2.1044
1070
    41
1040
2.6
1002
}
  0
LINE
  5
A5C
100
AcDbEntity
  8
TESTO
  6
CONTINUOUS
100
AcDbLine
 10
47.559134
 20
166.940203
 30
0.0
 11
47.559134
 21
157.994038
 31
0.0
  0
LINE
  5
A5D
100
AcDbEntity
  8
TESTO
  6
CONTINUOUS
100
AcDbLine
 10
51.853007
 20
162.322828
 30
0.0
 11
47.559134
 21
166.940203
 31
0.0
  0
LINE
  5
A5E
100
AcDbEntity
  8
TESTO
  6
CONTINUOUS
100
AcDbLine
 10
47.559134
 20
157.994038
 30
0.0
 11
51.899455
 21
162.322828
 31
0.0
  0
MTEXT
  5
A5F
100
AcDbEntity
  8
QUOTE
  6
CONTINUOUS
100
AcDbMText
 10
56.65906
 20
233.641144
 30
0.0
 40
2.6
 41
0.0
 71
     9
 72
     1
  1
{SM 1X45°}
  0
TEXT
  5
A60
100
AcDbEntity
  8
TESTOTAB
  6
CONTINUOUS
100
AcDbText
 10
49.695198
 20
283.222431
 30
0.0
 40
4.0
  1
5
100
AcDbText
  0
LINE
  5
A61
100
AcDbEntity
  8
INTABELLA
  6
CONTINUOUS
100
AcDbLine
 10
67.019191
 20
282.358861
 30
0.0
 11
67.019191
 21
287.358861
 31
0.0
  0
TEXT
  5
A62
100
AcDbEntity
  8
TESTOTAB
  6
CONTINUOUS
100
AcDbText
 10
83.403735
 20
283.222431
 30
0.0
 40
4.0
  1
4
100
AcDbText
  0
LINE
  5
A63
100
AcDbEntity
  8
TESTOTAB
  6
CONTINUOUS
100
AcDbLine
 10
100.352191
 20
282.358861
 30
0.0
 11
97.852191
 21
287.358861
 31
0.0
  0
LINE
  5
A64
100
AcDbEntity
  8
INTABELLA
  6
CONTINUOUS
100
AcDbLine
 10
100.352191
 20
282.358861
 30
0.0
 11
100.352191
 21
287.358861
 31
0.0
  0
LINE
  5
A65
100
AcDbEntity
  8
TESTOTAB
  6
CONTINUOUS
100
AcDbLine
 10
100.352191
 20
287.358861
 30
0.0
 11
97.852191
 21
287.358861
 31
0.0
  0
LINE
  5
A66
100
AcDbEntity
  8
TESTOTAB
  6
CONTINUOUS
100
AcDbLine
 10
200.353191
 20
141.358861
 30
0.0
 11
195.353191
 21
143.858861
 31
0.0
  0
LINE
  5
A67
100
AcDbEntity
  8
TESTOTAB
  6
CONTINUOUS
100
AcDbLine
 10
200.353191
 20
143.858861
 30
0.0
 11
200.353191
 21
141.358861
 31
0.0
  0
LINE
  5
A68
100
AcDbEntity
  8
INTABELLA
  6
CONTINUOUS
100
AcDbLine
 10
191.352354
 20
165.359035
 30
0.0
 11
191.352354
 21
45.359035
 31
0.0
  0
LINE
  5
A69
100
AcDbEntity
  8
TABELLA
  6
CONTINUOUS
100
AcDbLine
 10
195.353191
 20
5.358861
 30
0.0
 11
195.353191
 21
282.358861
 31
0.0
  0
TEXT
  5
A6A
100
AcDbEntity
  8
OGGETTO
  6
CONTINUOUS
100
AcDbText
 10
122.037205
 20
7.101951
 30
0.0
 40
2.5
  1
P.97.60.R08                       13-02-2001      A4
100
AcDbText
  0
TEXT
  5
A6B
100
AcDbEntity
  8
OGGETTO
  6
CONTINUOUS
100
AcDbText
 10
117.932514
 20
36.828398
 30
0.0
 40
2.5
  1
100X30 L.=840       TEMPRA IND. 54HRC
100
AcDbText
  0
TEXT
  5
A6C
100
AcDbEntity
  8
TESTO
  6
CONTINUOUS
100
AcDbText
 10
110.319626
 20
91.737666
 30
0.0
 40
3.0
  1
SMUSSI NON QUOTATI 0.2X45°
100
AcDbText
  0
MTEXT
  5
A6D
100
AcDbEntity
  8
TESTO
  6
CONTINUOUS
100
AcDbMText
 10
112.200427
 20
105.357931
 30
0.0
 40
2.6
 41
0.0
 71
     7
 72
     1
  1
{ZONA TEMPRA AD INDUZIONE 54 HRC}
  0
INSERT
  5
A6E
100
AcDbEntity
  8
QUOTE
  6
CONTINUOUS
100
AcDbBlockReference
 66
     1
  2
RUGOSITA
 10
156.235865
 20
53.677143
 30
0.0
 41
1.879259
 42
1.879259
 43
1.879259
  0
ATTRIB
  5
A6F
100
AcDbEntity
  8
QUOTE
100
AcDbText
 10
154.221514
 20
59.717279
 30
0.0
 40
2.818888
  1
0.8
100
AcDbAttribute
  2
RUGOSITA
 70
     0
  0
SEQEND
  5
A70
100
AcDbEntity
  8
QUOTE
  6
CONTINUOUS
  0
LINE
  5
A71
100
AcDbEntity
  8
QUOTE
  6
CONTINUOUS
100
AcDbLine
 10
167.806532
 20
53.677143
 30
0.0
 11
109.335872
 21
53.677143
 31
0.0
  0
TEXT
  5
A72
100
AcDbEntity
  8
TESTOTAB
  6
CONTINUOUS
100
AcDbText
 10
146.838296
 20
42.456637
 30
0.0
 40
2.0
  1
Trattamento Termico
100
AcDbText
  0
TEXT
  5
A73
100
AcDbEntity
  8
TESTOTAB
  6
CONTINUOUS
100
AcDbText
 10
161.410808
 20
32.061477
 30
0.0
 40
2.0
  1
Scala
100
AcDbText
  0
TEXT
  5
A74
100
AcDbEntity
  8
TESTOTAB
  6
CONTINUOUS
100
AcDbText
 10
161.642119
 20
12.195171
 30
0.0
 40
2.0
  1
Data
100
AcDbText
  0
LINE
  5
A75
100
AcDbEntity
  8
INTABELLA
  6
CONTINUOUS
100
AcDbLine
 10
125.353191
 20
35.358861
 30
0.0
 11
195.353191
 21
35.358861
 31
0.0
  0
LINE
  5
A76
100
AcDbEntity
  8
INTABELLA
  6
CONTINUOUS
100
AcDbLine
 10
125.353191
 20
25.358861
 30
0.0
 11
195.353191
 21
25.358861
 31
0.0
  0
LINE
  5
A77
100
AcDbEntity
  8
INTABELLA
  6
CONTINUOUS
100
AcDbLine
 10
120.237679
 20
15.429221
 30
0.0
 11
195.353191
 21
15.358861
 31
0.0
  0
ARC
  5
A78
100
AcDbEntity
  8
QUOTE
  6
CONTINUOUS
100
AcDbCircle
 10
148.331892
 20
59.636006
 30
0.0
 40
18.129056
100
AcDbArc
 50
146.729396
 51
208.504234
  0
INSERT
  5
A79
100
AcDbEntity
  8
QUOTE
  6
CONTINUOUS
100
AcDbBlockReference
 66
     1
  2
RUGOSITA
 10
120.238239
 20
53.677143
 30
0.0
 41
1.879259
 42
1.879259
 43
1.879259
  0
ATTRIB
  5
A7A
100
AcDbEntity
  8
QUOTE
100
AcDbText
 10
118.223888
 20
59.717279
 30
0.0
 40
2.818888
  1
3.2
100
AcDbAttribute
  2
RUGOSITA
 70
     0
  0
SEQEND
  5
A7B
100
AcDbEntity
  8
QUOTE
  6
CONTINUOUS
  0
INSERT
  5
A7C
100
AcDbEntity
  8
QUOTE
  6
CONTINUOUS
100
AcDbBlockReference
 66
     1
  2
RUGOSITA
 10
136.951423
 20
53.677143
 30
0.0
 41
1.879259
 42
1.879259
 43
1.879259
  0
ATTRIB
  5
A7D
100
AcDbEntity
  8
QUOTE
100
AcDbText
 10
134.937072
 20
59.717279
 30
0.0
 40
2.818888
  1
1.6
100
AcDbAttribute
  2
RUGOSITA
 70
     0
  0
SEQEND
  5
A7E
100
AcDbEntity
  8
QUOTE
  6
CONTINUOUS
  0
TEXT
  5
A7F
100
AcDbEntity
  8
OGGETTO
  6
CONTINUOUS
100
AcDbText
 10
122.379263
 20
16.669083
 30
0.0
 40
2.5
  1
PUNZONE
100
AcDbText
  0
TEXT
  5
A80
100
AcDbEntity
  8
TESTOTAB
  6
CONTINUOUS
100
AcDbText
 10
116.536724
 20
42.456637
 30
0.0
 40
2.0
  1
Dimensioni di prelievo
100
AcDbText
  0
TEXT
  5
A81
100
AcDbEntity
  8
TESTOTAB
  6
CONTINUOUS
100
AcDbText
 10
126.483042
 20
32.061477
 30
0.0
 40
2.0
  1
Approvato da - data
100
AcDbText
  0
TEXT
  5
A82
100
AcDbEntity
  8
TESTOTAB
  6
CONTINUOUS
100
AcDbText
 10
121.394229
 20
22.359328
 30
0.0
 40
2.0
  1
Particolare
100
AcDbText
  0
LINE
  5
A83
100
AcDbEntity
  8
INTABELLA
  6
CONTINUOUS
100
AcDbLine
 10
120.353191
 20
15.358861
 30
0.0
 11
120.353191
 21
5.358861
 31
0.0
  0
TEXT
  5
A84
100
AcDbEntity
  8
TESTOTAB
  6
CONTINUOUS
100
AcDbText
 10
116.279961
 20
0.11024
 30
0.0
 40
4.0
  1
3
100
AcDbText
  0
LINE
  5
A85
100
AcDbEntity
  8
MARCHIO
  6
CONTINUOUS
100
AcDbLine
 10
116.282206
 20
19.825285
 30
0.0
 11
115.278096
 21
22.584055
 31
0.0
1001
ACAD
1000
ASC_BOUNDS
1002
{
1070
    19
1002
}
  0
LINE
  5
A86
100
AcDbEntity
  8
MARCHIO
  6
CONTINUOUS
100
AcDbLine
 10
113.225975
 20
11.428358
 30
0.0
 11
116.282206
 21
19.825285
 31
0.0
1001
ACAD
1000
ASC_BOUNDS
1002
{
1070
    19
1002
}
  0
LINE
  5
A87
100
AcDbEntity
  8
MARCHIO
  6
CONTINUOUS
100
AcDbLine
 10
113.926182
 20
10.428358
 30
0.0
 11
117.346384
 21
19.825285
 31
0.0
1001
ACAD
1000
ASC_BOUNDS
1002
{
1070
    19
1002
}
  0
TEXT
  5
A88
100
AcDbEntity
  8
TESTOTAB
  6
CONTINUOUS
100
AcDbText
 10
101.501593
 20
32.061477
 30
0.0
 40
2.0
  1
Controllato da
100
AcDbText
  0
LINE
  5
A89
100
AcDbEntity
  8
INTABELLA
  6
CONTINUOUS
100
AcDbLine
 10
115.353191
 20
35.358861
 30
0.0
 11
115.353191
 21
45.358861
 31
0.0
  0
LINE
  5
A8A
100
AcDbEntity
  8
INTABELLA
  6
CONTINUOUS
100
AcDbLine
 10
125.353191
 20
35.358861
 30
0.0
 11
125.353191
 21
25.358861
 31
0.0
  0
TEXT
  5
A8B
100
AcDbEntity
  8
TESTOTAB
  6
CONTINUOUS
100
AcDbText
 10
121.162918
 20
12.195171
 30
0.0
 40
2.0
  1
Disegno
100
AcDbText
  0
LINE
  5
A8C
100
AcDbEntity
  8
MARCHIO
  6
CONTINUOUS
100
AcDbLine
 10
117.346384
 20
19.825285
 30
0.0
 11
115.978303
 21
23.584055
 31
0.0
1001
ACAD
1000
ASC_BOUNDS
1002
{
1070
    19
1002
}
  0
LINE
  5
A8D
100
AcDbEntity
  8
INTABELLA
  6
CONTINUOUS
100
AcDbLine
 10
120.353191
 20
25.358861
 30
0.0
 11
120.353191
 21
15.358861
 31
0.0
  0
LINE
  5
A8E
100
AcDbEntity
  8
INTABELLA
  6
CONTINUOUS
100
AcDbLine
 10
160.353191
 20
15.358861
 30
0.0
 11
160.353191
 21
5.358861
 31
0.0
  0
LINE
  5
A8F
100
AcDbEntity
  8
INTABELLA
  6
CONTINUOUS
100
AcDbLine
 10
133.685191
 20
5.358861
 30
0.0
 11
133.685191
 21
0.358861
 31
0.0
  0
TEXT
  5
A90
100
AcDbEntity
  8
TESTOTAB
  6
CONTINUOUS
100
AcDbText
 10
149.988497
 20
0.11024
 30
0.0
 40
4.0
  1
2
100
AcDbText
  0
LINE
  5
A91
100
AcDbEntity
  8
INTABELLA
  6
CONTINUOUS
100
AcDbLine
 10
145.353191
 20
35.358861
 30
0.0
 11
145.353191
 21
45.358861
 31
0.0
  0
LINE
  5
A92
100
AcDbEntity
  8
INTABELLA
  6
CONTINUOUS
100
AcDbLine
 10
160.353191
 20
35.358861
 30
0.0
 11
160.353191
 21
25.358861
 31
0.0
  0
TEXT
  5
A93
100
AcDbEntity
  8
TESTO
  6
CONTINUOUS
100
AcDbText
 10
132.098395
 20
78.250476
 30
0.0
 40
4.0
  1
L.=835mm.
100
AcDbText
  0
TEXT
  5
A94
100
AcDbEntity
  8
TESTO
  6
CONTINUOUS
100
AcDbText
 10
189.245941
 20
47.119223
 30
0.0
 40
1.5
  1
CORRELATO  DI  DIS.  P.97.60.R08/FR
 50
90.0
100
AcDbText
  0
ARC
  5
A95
100
AcDbEntity
  8
QUOTE
  6
CONTINUOUS
100
AcDbCircle
 10
149.761994
 20
59.728193
 30
0.0
 40
18.129056
100
AcDbArc
 50
331.163042
 51
32.937881
  0
TEXT
  5
A96
100
AcDbEntity
  8
TESTOTAB
  6
CONTINUOUS
100
AcDbText
 10
196.597831
 20
51.231657
 30
0.0
 40
4.0
  1
B
100
AcDbText
  0
TEXT
  5
A97
100
AcDbEntity
  8
TESTOTAB
  6
CONTINUOUS
100
AcDbText
 10
194.572944
 20
46.275372
 30
0.0
 40
2.0
  1
N° rev.
 50
90.0
100
AcDbText
  0
LINE
  5
A98
100
AcDbEntity
  8
TESTOTAB
  6
LINEA-LINEETTEX2
100
AcDbLine
 10
176.318539
 20
30.445976
 30
0.0
 11
194.245041
 21
30.445976
 31
0.0
  0
LINE
  5
A99
100
AcDbEntity
  8
INTABELLA
  6
CONTINUOUS
100
AcDbLine
 10
180.353191
 20
15.358861
 30
0.0
 11
180.353191
 21
5.358861
 31
0.0
  0
LINE
  5
A9A
100
AcDbEntity
  8
INTABELLA
  6
CONTINUOUS
100
AcDbLine
 10
167.018191
 20
5.358861
 30
0.0
 11
167.018191
 21
0.358861
 31
0.0
  0
TEXT
  5
A9B
100
AcDbEntity
  8
TESTOTAB
  6
CONTINUOUS
100
AcDbText
 10
184.113189
 20
0.11024
 30
0.0
 40
4.0
  1
1
100
AcDbText
  0
LINE
  5
A9C
100
AcDbEntity
  8
TESTOTAB
  6
CONTINUOUS
100
AcDbLine
 10
176.318539
 20
31.945976
 30
0.0
 11
182.227385
 21
32.987865
 31
0.0
  0
LINE
  5
A9D
100
AcDbEntity
  8
TESTOTAB
  6
CONTINUOUS
100
AcDbLine
 10
176.318539
 20
28.945976
 30
0.0
 11
182.227385
 21
27.904086
 31
0.0
  0
LINE
  5
A9E
100
AcDbEntity
  8
TESTOTAB
  6
CONTINUOUS
100
AcDbLine
 10
176.318539
 20
31.945976
 30
0.0
 11
176.318539
 21
28.945976
 31
0.0
  0
LINE
  5
A9F
100
AcDbEntity
  8
INTABELLA
  6
CONTINUOUS
100
AcDbLine
 10
175.353191
 20
35.358861
 30
0.0
 11
175.353191
 21
25.358861
 31
0.0
  0
CIRCLE
  5
AA0
100
AcDbEntity
  8
TESTOTAB
  6
CONTINUOUS
100
AcDbCircle
 10
189.503193
 20
30.445976
 30
0.0
 40
1.5
  0
LINE
  5
AA1
100
AcDbEntity
  8
TESTOTAB
  6
CONTINUOUS
100
AcDbLine
 10
189.503193
 20
28.341576
 30
0.0
 11
189.503193
 21
32.550376
 31
0.0
  0
CIRCLE
  5
AA2
100
AcDbEntity
  8
TESTOTAB
  6
CONTINUOUS
100
AcDbCircle
 10
189.503193
 20
30.445976
 30
0.0
 40
2.54
  0
LINE
  5
AA3
100
AcDbEntity
  8
TESTOTAB
  6
CONTINUOUS
100
AcDbLine
 10
182.227385
 20
32.987865
 30
0.0
 11
182.227385
 21
27.904086
 31
0.0
  0
TEXT
  5
AA4
100
AcDbEntity
  8
TESTOTAB
  6
CONTINUOUS
100
AcDbText
 10
181.534753
 20
11.964168
 30
0.0
 40
2.0
  1
Formato
100
AcDbText
  0
LINE
  5
AA5
100
AcDbEntity
  8
TESTOTAB
  6
CONTINUOUS
100
AcDbLine
 10
187.398793
 20
30.445976
 30
0.0
 11
191.607593
 21
30.445976
 31
0.0
  0
LINE
  5
AA6
100
AcDbEntity
  8
TABELLA
  6
CONTINUOUS
100
AcDbLine
 10
195.353191
 20
5.358861
 30
0.0
 11
195.353191
 21
35.358861
 31
0.0
  0
TEXT
  5
AA7
100
AcDbEntity
  8
TESTOTAB
  6
CONTINUOUS
100
AcDbText
 10
196.597831
 20
14.656985
 30
0.0
 40
4.0
  1
A
100
AcDbText
  0
LINE
  5
AA8
100
AcDbEntity
  8
INTABELLA
  6
CONTINUOUS
100
AcDbLine
 10
195.353191
 20
36.233861
 30
0.0
 11
200.353191
 21
36.233861
 31
0.0
  0
TEXT
  5
AA9
100
AcDbEntity
  8
TESTOTAB
  6
CONTINUOUS
100
AcDbText
 10
194.781021
 20
130.956311
 30
0.0
 40
2.0
  1
Data
 50
90.0
100
AcDbText
  0
TEXT
  5
AAA
100
AcDbEntity
  8
TESTOTAB
  6
CONTINUOUS
100
AcDbText
 10
194.781021
 20
56.25028
 30
0.0
 40
2.0
  1
Nota di revisione
 50
90.0
100
AcDbText
  0
LINE
  5
AAB
100
AcDbEntity
  8
INTABELLA
  6
CONTINUOUS
100
AcDbLine
 10
191.352354
 20
55.359035
 30
0.0
 11
195.353191
 21
55.359035
 31
0.0
  0
LINE
  5
AAC
100
AcDbEntity
  8
INTABELLA
  6
CONTINUOUS
100
AcDbLine
 10
191.352354
 20
130.359035
 30
0.0
 11
195.353191
 21
130.359035
 31
0.0
  0
LINE
  5
AAD
100
AcDbEntity
  8
INTABELLA
  6
CONTINUOUS
100
AcDbLine
 10
195.353191
 20
72.108861
 30
0.0
 11
200.353191
 21
72.108861
 31
0.0
  0
TEXT
  5
AAE
100
AcDbEntity
  8
TESTOTAB
  6
CONTINUOUS
100
AcDbText
 10
197.013986
 20
87.431519
 30
0.0
 40
4.0
  1
C
100
AcDbText
  0
LINE
  5
AAF
100
AcDbEntity
  8
INTABELLA
  6
CONTINUOUS
100
AcDbLine
 10
195.353191
 20
107.983861
 30
0.0
 11
200.353191
 21
107.983861
 31
0.0
  0
TEXT
  5
AB0
100
AcDbEntity
  8
TESTOTAB
  6
CONTINUOUS
100
AcDbText
 10
197.013986
 20
123.59057
 30
0.0
 40
4.0
  1
D
100
AcDbText
  0
MTEXT
  5
AB1
100
AcDbEntity
  8
QUOTE
  6
CONTINUOUS
100
AcDbMText
 10
100.684174
 20
233.352558
 30
0.0
 40
2.6
 41
0.0
 71
     7
 72
     1
  1
{SM 1X45°}
  0
MTEXT
  5
AB2
100
AcDbEntity
  8
QUOTE
  6
CONTINUOUS
100
AcDbMText
 10
109.089863
 20
205.809254
 30
0.0
 40
2.6
 41
0.0
 71
     7
 72
     1
  1
{SM 1X45°}
  0
LINE
  5
AB3
100
AcDbEntity
  8
QUOTE
  6
CONTINUOUS
100
AcDbLine
 10
146.86585
 20
166.078785
 30
0.0
 11
151.07465
 21
166.078785
 31
0.0
  0
LINE
  5
AB4
100
AcDbEntity
  8
QUOTE
  6
CONTINUOUS
100
AcDbLine
 10
148.97025
 20
163.974385
 30
0.0
 11
148.97025
 21
168.183185
 31
0.0
  0
TEXT
  5
AB5
100
AcDbEntity
  8
TESTOTAB
  6
CONTINUOUS
100
AcDbText
 10
116.279963
 20
283.222431
 30
0.0
 40
4.0
  1
3
100
AcDbText
  0
LINE
  5
AB6
100
AcDbEntity
  8
INTABELLA
  6
CONTINUOUS
100
AcDbLine
 10
133.685191
 20
282.358861
 30
0.0
 11
133.685191
 21
287.358861
 31
0.0
  0
TEXT
  5
AB7
100
AcDbEntity
  8
TESTOTAB
  6
CONTINUOUS
100
AcDbText
 10
149.988499
 20
283.222431
 30
0.0
 40
4.0
  1
2
100
AcDbText
  0
TEXT
  5
AB8
100
AcDbEntity
  8
TESTOTAB
  6
CONTINUOUS
100
AcDbText
 10
196.597831
 20
230.77253
 30
0.0
 40
4.0
  1
G
100
AcDbText
  0
TEXT
  5
AB9
100
AcDbEntity
  8
TESTOTAB
  6
CONTINUOUS
100
AcDbText
 10
194.781021
 20
155.767394
 30
0.0
 40
2.0
  1
Control.
 50
90.0
100
AcDbText
  0
TEXT
  5
ABA
100
AcDbEntity
  8
TESTOTAB
  6
CONTINUOUS
100
AcDbText
 10
194.781021
 20
146.000296
 30
0.0
 40
2.0
  1
Firma
 50
90.0
100
AcDbText
  0
LINE
  5
ABB
100
AcDbEntity
  8
INTABELLA
  6
CONTINUOUS
100
AcDbLine
 10
191.352354
 20
145.359035
 30
0.0
 11
195.353191
 21
145.359035
 31
0.0
  0
LINE
  5
ABC
100
AcDbEntity
  8
INTABELLA
  6
CONTINUOUS
100
AcDbLine
 10
191.352354
 20
155.359035
 30
0.0
 11
195.353191
 21
155.359035
 31
0.0
  0
LINE
  5
ABD
100
AcDbEntity
  8
INTABELLA
  6
CONTINUOUS
100
AcDbLine
 10
191.352354
 20
165.359035
 30
0.0
 11
195.353191
 21
165.359035
 31
0.0
  0
LINE
  5
ABE
100
AcDbEntity
  8
TESTOTAB
  6
CONTINUOUS
100
AcDbLine
 10
195.353191
 20
143.858861
 30
0.0
 11
200.353191
 21
146.358861
 31
0.0
  0
LINE
  5
ABF
100
AcDbEntity
  8
INTABELLA
  6
CONTINUOUS
100
AcDbLine
 10
195.353191
 20
143.858861
 30
0.0
 11
200.353191
 21
143.858861
 31
0.0
  0
LINE
  5
AC0
100
AcDbEntity
  8
TESTOTAB
  6
CONTINUOUS
100
AcDbLine
 10
200.353191
 20
143.858861
 30
0.0
 11
200.353191
 21
146.358861
 31
0.0
  0
TEXT
  5
AC1
100
AcDbEntity
  8
TESTOTAB
  6
CONTINUOUS
100
AcDbText
 10
197.013986
 20
158.291187
 30
0.0
 40
4.0
  1
E
100
AcDbText
  0
LINE
  5
AC2
100
AcDbEntity
  8
INTABELLA
  6
CONTINUOUS
100
AcDbLine
 10
195.353191
 20
179.733861
 30
0.0
 11
200.353191
 21
179.733861
 31
0.0
  0
TEXT
  5
AC3
100
AcDbEntity
  8
TESTOTAB
  6
CONTINUOUS
100
AcDbText
 10
197.430141
 20
195.281481
 30
0.0
 40
4.0
  1
F
100
AcDbText
  0
LINE
  5
AC4
100
AcDbEntity
  8
INTABELLA
  6
CONTINUOUS
100
AcDbLine
 10
195.353191
 20
215.608861
 30
0.0
 11
200.353191
 21
215.608861
 31
0.0
  0
LINE
  5
AC5
100
AcDbEntity
  8
INTABELLA
  6
CONTINUOUS
100
AcDbLine
 10
167.018191
 20
282.358861
 30
0.0
 11
167.018191
 21
287.358861
 31
0.0
  0
TEXT
  5
AC6
100
AcDbEntity
  8
TESTOTAB
  6
CONTINUOUS
100
AcDbText
 10
184.529345
 20
283.222431
 30
0.0
 40
4.0
  1
1
100
AcDbText
  0
LINE
  5
AC7
100
AcDbEntity
  8
INTABELLA
  6
CONTINUOUS
100
AcDbLine
 10
195.353191
 20
282.358861
 30
0.0
 11
195.353191
 21
278.358861
 31
0.0
  0
LINE
  5
AC8
100
AcDbEntity
  8
INTABELLA
  6
CONTINUOUS
100
AcDbLine
 10
195.353191
 20
251.483861
 30
0.0
 11
200.353191
 21
251.483861
 31
0.0
  0
TEXT
  5
AC9
100
AcDbEntity
  8
TESTOTAB
  6
CONTINUOUS
100
AcDbText
 10
196.597831
 20
268.178445
 30
0.0
 40
4.0
  1
H
100
AcDbText
  0
ENDBLK
  5
ACB
100
AcDbEntity
  8
QUOTE
100
AcDbBlockEnd
  0
BLOCK
  5
D27
100
AcDbEntity
  8
0
100
AcDbBlockBegin
  2
*D27
 70
    65
 10
0.0
 20
0.0
 30
0.0
  3
*D27
  1

  0
LINE
  5
D28
100
AcDbEntity
  8
0
  6
BYBLOCK
 62
     0
100
AcDbLine
 10
315.693193
 20
201.383401
 30
0.0
 11
361.274161
 21
201.383401
 31
0.0
  0
LINE
  5
D29
100
AcDbEntity
  8
0
  6
BYBLOCK
 62
     0
100
AcDbLine
 10
327.693193
 20
196.383401
 30
0.0
 11
361.274161
 21
196.383401
 31
0.0
  0
LINE
  5
D2A
100
AcDbEntity
  8
0
  6
BYBLOCK
 62
     0
100
AcDbLine
 10
360.221961
 20
203.983401
 30
0.0
 11
360.221961
 21
206.583401
 31
0.0
  0
LINE
  5
D2B
100
AcDbEntity
  8
0
  6
BYBLOCK
 62
     0
100
AcDbLine
 10
360.221961
 20
193.783401
 30
0.0
 11
360.221961
 21
191.183401
 31
0.0
  0
LINE
  5
D2C
100
AcDbEntity
  8
0
  6
BYBLOCK
 62
     0
100
AcDbLine
 10
360.221961
 20
201.383401
 30
0.0
 11
360.221961
 21
196.383401
 31
0.0
  0
SOLID
  5
D2D
100
AcDbEntity
  8
0
  6
BYBLOCK
 62
     0
100
AcDbTrace
 10
359.788627
 20
203.983401
 30
0.0
 11
360.655294
 21
203.983401
 31
0.0
 12
360.221961
 22
201.383401
 32
0.0
 13
360.221961
 23
201.383401
 33
0.0
  0
SOLID
  5
D2E
100
AcDbEntity
  8
0
  6
BYBLOCK
 62
     0
100
AcDbTrace
 10
359.788627
 20
193.783401
 30
0.0
 11
360.655294
 21
193.783401
 31
0.0
 12
360.221961
 22
196.383401
 32
0.0
 13
360.221961
 23
196.383401
 33
0.0
  0
MTEXT
  5
D2F
100
AcDbEntity
  8
0
  6
BYBLOCK
 62
     0
100
AcDbMText
 10
358.391961
 20
198.883401
 30
0.0
 40
2.6
 41
0.0
 71
     5
 72
     1
  1
\A1;5
 11
0.0
 21
1.0
 31
0.0
  0
POINT
  5
D30
100
AcDbEntity
  8
DEFPOINTS
  6
BYBLOCK
 62
     0
100
AcDbPoint
 10
315.167093
 20
201.383401
 30
0.0
  0
POINT
  5
D31
100
AcDbEntity
  8
DEFPOINTS
  6
BYBLOCK
 62
     0
100
AcDbPoint
 10
327.167093
 20
196.383401
 30
0.0
  0
POINT
  5
D32
100
AcDbEntity
  8
DEFPOINTS
  6
BYBLOCK
 62
     0
100
AcDbPoint
 10
360.221961
 20
196.383401
 30
0.0
  0
ENDBLK
  5
D33
100
AcDbEntity
  8
0
100
AcDbBlockEnd
  0
BLOCK
  5
D34
100
AcDbEntity
  8
0
100
AcDbBlockBegin
  2
*D28
 70
    65
 10
0.0
 20
0.0
 30
0.0
  3
*D28
  1

  0
LINE
  5
D35
100
AcDbEntity
  8
0
  6
BYBLOCK
 62
     0
100
AcDbLine
 10
327.693193
 20
196.383401
 30
0.0
 11
345.388436
 21
196.383401
 31
0.0
  0
LINE
  5
D36
100
AcDbEntity
  8
0
  6
BYBLOCK
 62
     0
100
AcDbLine
 10
328.693193
 20
192.30078
 30
0.0
 11
345.388436
 21
192.30078
 31
0.0
  0
LINE
  5
D37
100
AcDbEntity
  8
0
  6
BYBLOCK
 62
     0
100
AcDbLine
 10
344.336236
 20
198.983401
 30
0.0
 11
344.336236
 21
201.583401
 31
0.0
  0
LINE
  5
D38
100
AcDbEntity
  8
0
  6
BYBLOCK
 62
     0
100
AcDbLine
 10
344.336236
 20
189.70078
 30
0.0
 11
344.336236
 21
181.632315
 31
0.0
  0
LINE
  5
D39
100
AcDbEntity
  8
0
  6
BYBLOCK
 62
     0
100
AcDbLine
 10
344.336236
 20
196.383401
 30
0.0
 11
344.336236
 21
192.30078
 31
0.0
  0
SOLID
  5
D3A
100
AcDbEntity
  8
0
  6
BYBLOCK
 62
     0
100
AcDbTrace
 10
343.902902
 20
198.983401
 30
0.0
 11
344.769569
 21
198.983401
 31
0.0
 12
344.336236
 22
196.383401
 32
0.0
 13
344.336236
 23
196.383401
 33
0.0
  0
SOLID
  5
D3B
100
AcDbEntity
  8
0
  6
BYBLOCK
 62
     0
100
AcDbTrace
 10
343.902902
 20
189.70078
 30
0.0
 11
344.769569
 21
189.70078
 31
0.0
 12
344.336236
 22
192.30078
 32
0.0
 13
344.336236
 23
192.30078
 33
0.0
  0
MTEXT
  5
D3C
100
AcDbEntity
  8
0
  6
BYBLOCK
 62
     0
100
AcDbMText
 10
342.506236
 20
184.366547
 30
0.0
 40
2.6
 41
0.0
 71
     5
 72
     1
  1
\A1;{4.5}
 11
0.0
 21
1.0
 31
0.0
  0
POINT
  5
D3D
100
AcDbEntity
  8
DEFPOINTS
  6
BYBLOCK
 62
     0
100
AcDbPoint
 10
327.167093
 20
196.383401
 30
0.0
  0
POINT
  5
D3E
100
AcDbEntity
  8
DEFPOINTS
  6
BYBLOCK
 62
     0
100
AcDbPoint
 10
328.167093
 20
192.30078
 30
0.0
  0
POINT
  5
D3F
100
AcDbEntity
  8
DEFPOINTS
  6
BYBLOCK
 62
     0
100
AcDbPoint
 10
344.336236
 20
192.30078
 30
0.0
  0
ENDBLK
  5
D40
100
AcDbEntity
  8
0
100
AcDbBlockEnd
  0
BLOCK
  5
D41
100
AcDbEntity
  8
0
100
AcDbBlockBegin
  2
*D29
 70
    65
 10
0.0
 20
0.0
 30
0.0
  3
*D29
  1

  0
LINE
  5
D42
100
AcDbEntity
  8
0
  6
BYBLOCK
 62
     0
100
AcDbLine
 10
328.736336
 20
139.050431
 30
0.0
 11
345.099081
 21
139.050431
 31
0.0
  0
LINE
  5
D43
100
AcDbEntity
  8
0
  6
BYBLOCK
 62
     0
100
AcDbLine
 10
328.736336
 20
140.118527
 30
0.0
 11
345.099081
 21
140.118527
 31
0.0
  0
LINE
  5
D44
100
AcDbEntity
  8
0
  6
BYBLOCK
 62
     0
100
AcDbLine
 10
344.046881
 20
136.450431
 30
0.0
 11
344.046881
 21
133.850431
 31
0.0
  0
LINE
  5
D45
100
AcDbEntity
  8
0
  6
BYBLOCK
 62
     0
100
AcDbLine
 10
344.046881
 20
142.718527
 30
0.0
 11
344.046881
 21
149.238527
 31
0.0
  0
LINE
  5
D46
100
AcDbEntity
  8
0
  6
BYBLOCK
 62
     0
100
AcDbLine
 10
344.046881
 20
139.050431
 30
0.0
 11
344.046881
 21
140.118527
 31
0.0
  0
SOLID
  5
D47
100
AcDbEntity
  8
0
  6
BYBLOCK
 62
     0
100
AcDbTrace
 10
343.613548
 20
136.450431
 30
0.0
 11
344.480214
 21
136.450431
 31
0.0
 12
344.046881
 22
139.050431
 32
0.0
 13
344.046881
 23
139.050431
 33
0.0
  0
SOLID
  5
D48
100
AcDbEntity
  8
0
  6
BYBLOCK
 62
     0
100
AcDbTrace
 10
343.613548
 20
142.718527
 30
0.0
 11
344.480214
 21
142.718527
 31
0.0
 12
344.046881
 22
140.118527
 32
0.0
 13
344.046881
 23
140.118527
 33
0.0
  0
MTEXT
  5
D49
100
AcDbEntity
  8
0
  6
BYBLOCK
 62
     0
100
AcDbMText
 10
342.216881
 20
147.278527
 30
0.0
 40
2.6
 41
0.0
 71
     5
 72
     1
  1
\A1;{1.1}
 11
0.0
 21
1.0
 31
0.0
  0
POINT
  5
D4A
100
AcDbEntity
  8
DEFPOINTS
  6
BYBLOCK
 62
     0
100
AcDbPoint
 10
328.210236
 20
139.050431
 30
0.0
  0
POINT
  5
D4B
100
AcDbEntity
  8
DEFPOINTS
  6
BYBLOCK
 62
     0
100
AcDbPoint
 10
328.210236
 20
140.118527
 30
0.0
  0
POINT
  5
D4C
100
AcDbEntity
  8
DEFPOINTS
  6
BYBLOCK
 62
     0
100
AcDbPoint
 10
344.046881
 20
140.118527
 30
0.0
  0
ENDBLK
  5
D4D
100
AcDbEntity
  8
0
100
AcDbBlockEnd
  0
BLOCK
  5
EF3
100
AcDbEntity
  8
0
100
AcDbBlockBegin
  2
*D30
 70
    65
 10
0.0
 20
0.0
 30
0.0
  3
*D30
  1

  0
LINE
  5
EF4
100
AcDbEntity
  8
0
  6
BYBLOCK
 62
     0
100
AcDbLine
 10
315.167093
 20
225.909501
 30
0.0
 11
315.167093
 21
247.277157
 31
0.0
  0
LINE
  5
EF5
100
AcDbEntity
  8
0
  6
BYBLOCK
 62
     0
100
AcDbLine
 10
322.167093
 20
231.594014
 30
0.0
 11
322.167093
 21
247.277157
 31
0.0
  0
LINE
  5
EF6
100
AcDbEntity
  8
0
  6
BYBLOCK
 62
     0
100
AcDbLine
 10
317.767093
 20
246.224957
 30
0.0
 11
319.567093
 21
246.224957
 31
0.0
  0
LINE
  5
EF7
100
AcDbEntity
  8
0
  6
BYBLOCK
 62
     0
100
AcDbLine
 10
322.167093
 20
246.224957
 30
0.0
 11
341.102947
 21
246.224957
 31
0.0
  0
SOLID
  5
EF8
100
AcDbEntity
  8
0
  6
BYBLOCK
 62
     0
100
AcDbTrace
 10
317.767093
 20
246.658291
 30
0.0
 11
317.767093
 21
245.791624
 31
0.0
 12
315.167093
 22
246.224957
 32
0.0
 13
315.167093
 23
246.224957
 33
0.0
  0
SOLID
  5
EF9
100
AcDbEntity
  8
0
  6
BYBLOCK
 62
     0
100
AcDbTrace
 10
319.567093
 20
246.658291
 30
0.0
 11
319.567093
 21
245.791624
 31
0.0
 12
322.167093
 22
246.224957
 32
0.0
 13
322.167093
 23
246.224957
 33
0.0
  0
MTEXT
  5
EFA
100
AcDbEntity
  8
0
  6
BYBLOCK
 62
     0
100
AcDbMText
 10
335.930547
 20
249.225238
 30
0.0
 40
2.6
 41
0.0
 71
     5
 72
     1
  1
\A2;7{\H2.080000;\S+0.02^  0;}
  0
POINT
  5
EFB
100
AcDbEntity
  8
DEFPOINTS
  6
BYBLOCK
 62
     0
100
AcDbPoint
 10
315.167093
 20
225.383401
 30
0.0
  0
POINT
  5
EFC
100
AcDbEntity
  8
DEFPOINTS
  6
BYBLOCK
 62
     0
100
AcDbPoint
 10
322.167093
 20
231.067914
 30
0.0
  0
POINT
  5
EFD
100
AcDbEntity
  8
DEFPOINTS
  6
BYBLOCK
 62
     0
100
AcDbPoint
 10
322.167093
 20
246.224957
 30
0.0
  0
ENDBLK
  5
EFE
100
AcDbEntity
  8
0
100
AcDbBlockEnd
  0
BLOCK
  5
D5A
100
AcDbEntity
  8
0
100
AcDbBlockBegin
  2
*D31
 70
    65
 10
0.0
 20
0.0
 30
0.0
  3
*D31
  1

  0
LINE
  5
D5B
100
AcDbEntity
  8
0
  6
BYBLOCK
 62
     0
100
AcDbLine
 10
314.693193
 20
226.383401
 30
0.0
 11
397.660428
 21
226.383401
 31
0.0
  0
LINE
  5
D5C
100
AcDbEntity
  8
0
  6
BYBLOCK
 62
     0
100
AcDbLine
 10
327.693193
 20
196.383401
 30
0.0
 11
397.660428
 21
196.383401
 31
0.0
  0
LINE
  5
D5D
100
AcDbEntity
  8
0
  6
BYBLOCK
 62
     0
100
AcDbLine
 10
396.608228
 20
223.783401
 30
0.0
 11
396.608228
 21
198.983401
 31
0.0
  0
SOLID
  5
D5E
100
AcDbEntity
  8
0
  6
BYBLOCK
 62
     0
100
AcDbTrace
 10
396.174895
 20
223.783401
 30
0.0
 11
397.041562
 21
223.783401
 31
0.0
 12
396.608228
 22
226.383401
 32
0.0
 13
396.608228
 23
226.383401
 33
0.0
  0
SOLID
  5
D5F
100
AcDbEntity
  8
0
  6
BYBLOCK
 62
     0
100
AcDbTrace
 10
396.174895
 20
198.983401
 30
0.0
 11
397.041562
 21
198.983401
 31
0.0
 12
396.608228
 22
196.383401
 32
0.0
 13
396.608228
 23
196.383401
 33
0.0
  0
MTEXT
  5
D60
100
AcDbEntity
  8
0
  6
BYBLOCK
 62
     0
100
AcDbMText
 10
394.778228
 20
209.307928
 30
0.0
 40
2.6
 41
0.0
 71
     5
 72
     1
  1
\A1;30
 11
0.0
 21
1.0
 31
0.0
  0
POINT
  5
D61
100
AcDbEntity
  8
DEFPOINTS
  6
BYBLOCK
 62
     0
100
AcDbPoint
 10
314.167093
 20
226.383401
 30
0.0
  0
POINT
  5
D62
100
AcDbEntity
  8
DEFPOINTS
  6
BYBLOCK
 62
     0
100
AcDbPoint
 10
327.167093
 20
196.383401
 30
0.0
  0
POINT
  5
D63
100
AcDbEntity
  8
DEFPOINTS
  6
BYBLOCK
 62
     0
100
AcDbPoint
 10
396.608228
 20
196.383401
 30
0.0
  0
ENDBLK
  5
D64
100
AcDbEntity
  8
0
100
AcDbBlockEnd
  0
BLOCK
  5
F0A
100
AcDbEntity
  8
0
100
AcDbBlockBegin
  2
*D32
 70
    65
 10
0.0
 20
0.0
 30
0.0
  3
*D32
  1

  0
LINE
  5
F0B
100
AcDbEntity
  8
0
  6
BYBLOCK
 62
     0
100
AcDbLine
 10
327.693193
 20
196.383401
 30
0.0
 11
397.657504
 21
196.383401
 31
0.0
  0
LINE
  5
F0C
100
AcDbEntity
  8
0
  6
BYBLOCK
 62
     0
100
AcDbLine
 10
322.693193
 20
129.383401
 30
0.0
 11
397.657504
 21
129.383401
 31
0.0
  0
LINE
  5
F0D
100
AcDbEntity
  8
0
  6
BYBLOCK
 62
     0
100
AcDbLine
 10
396.605304
 20
193.783401
 30
0.0
 11
396.605304
 21
131.983401
 31
0.0
  0
SOLID
  5
F0E
100
AcDbEntity
  8
0
  6
BYBLOCK
 62
     0
100
AcDbTrace
 10
396.171971
 20
193.783401
 30
0.0
 11
397.038637
 21
193.783401
 31
0.0
 12
396.605304
 22
196.383401
 32
0.0
 13
396.605304
 23
196.383401
 33
0.0
  0
SOLID
  5
F0F
100
AcDbEntity
  8
0
  6
BYBLOCK
 62
     0
100
AcDbTrace
 10
396.171971
 20
131.983401
 30
0.0
 11
397.038637
 21
131.983401
 31
0.0
 12
396.605304
 22
129.383401
 32
0.0
 13
396.605304
 23
129.383401
 33
0.0
  0
MTEXT
  5
F10
100
AcDbEntity
  8
0
  6
BYBLOCK
 62
     0
100
AcDbMText
 10
393.605023
 20
162.883401
 30
0.0
 40
2.6
 41
0.0
 71
     5
 72
     1
  1
\A2;67{\H2.080000;\S+0.02^  0;}
 11
0.0
 21
1.0
 31
0.0
  0
POINT
  5
F11
100
AcDbEntity
  8
DEFPOINTS
  6
BYBLOCK
 62
     0
100
AcDbPoint
 10
327.167093
 20
196.383401
 30
0.0
  0
POINT
  5
F12
100
AcDbEntity
  8
DEFPOINTS
  6
BYBLOCK
 62
     0
100
AcDbPoint
 10
322.167093
 20
129.383401
 30
0.0
  0
POINT
  5
F13
100
AcDbEntity
  8
DEFPOINTS
  6
BYBLOCK
 62
     0
100
AcDbPoint
 10
396.605304
 20
129.383401
 30
0.0
  0
ENDBLK
  5
F14
100
AcDbEntity
  8
0
100
AcDbBlockEnd
  0
BLOCK
  5
D70
100
AcDbEntity
  8
0
100
AcDbBlockBegin
  2
*D33
 70
    65
 10
0.0
 20
0.0
 30
0.0
  3
*D33
  1

  0
LINE
  5
D71
100
AcDbEntity
  8
0
  6
BYBLOCK
 62
     0
100
AcDbLine
 10
322.693193
 20
129.383401
 30
0.0
 11
364.637716
 21
129.383401
 31
0.0
  0
LINE
  5
D72
100
AcDbEntity
  8
0
  6
BYBLOCK
 62
     0
100
AcDbLine
 10
380.57996
 20
166.253403
 30
0.0
 11
362.533316
 21
166.253403
 31
0.0
  0
LINE
  5
D73
100
AcDbEntity
  8
0
  6
BYBLOCK
 62
     0
100
AcDbLine
 10
363.585516
 20
131.983401
 30
0.0
 11
363.585516
 21
163.653403
 31
0.0
  0
SOLID
  5
D74
100
AcDbEntity
  8
0
  6
BYBLOCK
 62
     0
100
AcDbTrace
 10
363.152182
 20
131.983401
 30
0.0
 11
364.018849
 21
131.983401
 31
0.0
 12
363.585516
 22
129.383401
 32
0.0
 13
363.585516
 23
129.383401
 33
0.0
  0
SOLID
  5
D75
100
AcDbEntity
  8
0
  6
BYBLOCK
 62
     0
100
AcDbTrace
 10
363.152182
 20
163.653403
 30
0.0
 11
364.018849
 21
163.653403
 31
0.0
 12
363.585516
 22
166.253403
 32
0.0
 13
363.585516
 23
166.253403
 33
0.0
  0
MTEXT
  5
D76
100
AcDbEntity
  8
0
  6
BYBLOCK
 62
     0
100
AcDbMText
 10
361.759416
 20
147.818402
 30
0.0
 40
2.6
 41
0.0
 71
     5
 72
     1
  1
\A1;{36.9}
 11
0.0
 21
1.0
 31
0.0
  0
POINT
  5
D77
100
AcDbEntity
  8
DEFPOINTS
  6
BYBLOCK
 62
     0
100
AcDbPoint
 10
322.167093
 20
129.383401
 30
0.0
  0
POINT
  5
D78
100
AcDbEntity
  8
DEFPOINTS
  6
BYBLOCK
 62
     0
100
AcDbPoint
 10
381.10606
 20
166.253403
 30
0.0
  0
POINT
  5
D79
100
AcDbEntity
  8
DEFPOINTS
  6
BYBLOCK
 62
     0
100
AcDbPoint
 10
363.585516
 20
166.253403
 30
0.0
  0
ENDBLK
  5
D7A
100
AcDbEntity
  8
0
100
AcDbBlockEnd
  0
BLOCK
  5
D7B
100
AcDbEntity
  8
0
100
AcDbBlockBegin
  2
*D34
 70
    65
 10
0.0
 20
0.0
 30
0.0
  3
*D34
  1

  0
LINE
  5
D7C
100
AcDbEntity
  8
0
  6
BYBLOCK
 62
     0
100
AcDbLine
 10
381.10606
 20
166.253403
 30
0.0
 11
323.567077
 21
166.245972
 31
0.0
  0
SOLID
  5
D7D
100
AcDbEntity
  8
0
  6
BYBLOCK
 62
     0
100
AcDbTrace
 10
323.567021
 20
166.679305
 30
0.0
 11
323.567133
 21
165.812638
 31
0.0
 12
320.967077
 22
166.245636
 32
0.0
 13
320.967077
 23
166.245636
 33
0.0
  0
MTEXT
  5
D7E
100
AcDbEntity
  8
0
  6
BYBLOCK
 62
     0
100
AcDbMText
 10
351.036332
 20
168.07562
 30
0.0
 40
2.6
 41
0.0
 71
     5
 72
     1
  1
\A1;{R60}
 11
1.0
 21
0.000129
 31
0.0
  0
POINT
  5
D7F
100
AcDbEntity
  8
DEFPOINTS
  6
BYBLOCK
 62
     0
100
AcDbPoint
 10
320.967077
 20
166.245636
 30
0.0
  0
POINT
  5
D80
100
AcDbEntity
  8
DEFPOINTS
  6
BYBLOCK
 62
     0
100
AcDbPoint
 10
381.10606
 20
166.253403
 30
0.0
  0
ENDBLK
  5
D81
100
AcDbEntity
  8
0
100
AcDbBlockEnd
  0
BLOCK
  5
D82
100
AcDbEntity
  8
0
100
AcDbBlockBegin
  2
*D35
 70
    65
 10
0.0
 20
0.0
 30
0.0
  3
*D35
  1

  0
LINE
  5
D83
100
AcDbEntity
  8
0
  6
BYBLOCK
 62
     0
100
AcDbLine
 10
328.647313
 20
138.757609
 30
0.0
 11
348.337469
 21
125.56614
 31
0.0
  0
LINE
  5
D84
100
AcDbEntity
  8
0
  6
BYBLOCK
 62
     0
100
AcDbLine
 10
322.23229
 20
129.182269
 30
0.0
 11
341.922446
 21
115.990799
 31
0.0
  0
LINE
  5
D85
100
AcDbEntity
  8
0
  6
BYBLOCK
 62
     0
100
AcDbLine
 10
346.016183
 20
123.991733
 30
0.0
 11
342.495421
 21
118.736491
 31
0.0
  0
SOLID
  5
D86
100
AcDbEntity
  8
0
  6
BYBLOCK
 62
     0
100
AcDbTrace
 10
345.656175
 20
124.232921
 30
0.0
 11
346.376192
 21
123.750545
 31
0.0
 12
347.463314
 22
126.151782
 32
0.0
 13
347.463314
 23
126.151782
 33
0.0
  0
SOLID
  5
D87
100
AcDbEntity
  8
0
  6
BYBLOCK
 62
     0
100
AcDbTrace
 10
342.135412
 20
118.97768
 30
0.0
 11
342.855429
 21
118.495303
 31
0.0
 12
341.04829
 22
116.576442
 32
0.0
 13
341.04829
 23
116.576442
 33
0.0
  0
MTEXT
  5
D88
100
AcDbEntity
  8
0
  6
BYBLOCK
 62
     0
100
AcDbMText
 10
342.820224
 20
122.502186
 30
0.0
 40
2.6
 41
0.0
 71
     5
 72
     1
  1
\A1;{11.5}
 11
0.556589
 21
0.830788
 31
0.0
  0
POINT
  5
D89
100
AcDbEntity
  8
DEFPOINTS
  6
BYBLOCK
 62
     0
100
AcDbPoint
 10
328.210236
 20
139.050431
 30
0.0
  0
POINT
  5
D8A
100
AcDbEntity
  8
DEFPOINTS
  6
BYBLOCK
 62
     0
100
AcDbPoint
 10
321.795212
 20
129.47509
 30
0.0
  0
POINT
  5
D8B
100
AcDbEntity
  8
DEFPOINTS
  6
BYBLOCK
 62
     0
100
AcDbPoint
 10
341.04829
 20
116.576442
 30
0.0
  0
ENDBLK
  5
D8C
100
AcDbEntity
  8
0
100
AcDbBlockEnd
  0
BLOCK
  5
D8D
100
AcDbEntity
  8
0
100
AcDbBlockBegin
  2
*D36
 70
    65
 10
0.0
 20
0.0
 30
0.0
  3
*D36
  1

  0
LINE
  5
D8E
100
AcDbEntity
  8
0
  6
BYBLOCK
 62
     0
100
AcDbLine
 10
302.640993
 20
226.383401
 30
0.0
 11
263.5524
 21
226.383401
 31
0.0
  0
LINE
  5
D8F
100
AcDbEntity
  8
0
  6
BYBLOCK
 62
     0
100
AcDbLine
 10
321.640993
 20
129.383401
 30
0.0
 11
263.5524
 21
129.383401
 31
0.0
  0
LINE
  5
D90
100
AcDbEntity
  8
0
  6
BYBLOCK
 62
     0
100
AcDbLine
 10
264.6046
 20
223.783401
 30
0.0
 11
264.6046
 21
131.983401
 31
0.0
  0
SOLID
  5
D91
100
AcDbEntity
  8
0
  6
BYBLOCK
 62
     0
100
AcDbTrace
 10
264.171267
 20
223.783401
 30
0.0
 11
265.037934
 21
223.783401
 31
0.0
 12
264.6046
 22
226.383401
 32
0.0
 13
264.6046
 23
226.383401
 33
0.0
  0
SOLID
  5
D92
100
AcDbEntity
  8
0
  6
BYBLOCK
 62
     0
100
AcDbTrace
 10
264.171267
 20
131.983401
 30
0.0
 11
265.037934
 21
131.983401
 31
0.0
 12
264.6046
 22
129.383401
 32
0.0
 13
264.6046
 23
129.383401
 33
0.0
  0
MTEXT
  5
D93
100
AcDbEntity
  8
0
  6
BYBLOCK
 62
     0
100
AcDbMText
 10
262.7746
 20
177.883401
 30
0.0
 40
2.6
 41
0.0
 71
     5
 72
     1
  1
\A1;97
 11
0.0
 21
1.0
 31
0.0
  0
POINT
  5
D94
100
AcDbEntity
  8
DEFPOINTS
  6
BYBLOCK
 62
     0
100
AcDbPoint
 10
303.167093
 20
226.383401
 30
0.0
  0
POINT
  5
D95
100
AcDbEntity
  8
DEFPOINTS
  6
BYBLOCK
 62
     0
100
AcDbPoint
 10
322.167093
 20
129.383401
 30
0.0
  0
POINT
  5
D96
100
AcDbEntity
  8
DEFPOINTS
  6
BYBLOCK
 62
     0
100
AcDbPoint
 10
264.6046
 20
129.383401
 30
0.0
  0
ENDBLK
  5
D97
100
AcDbEntity
  8
0
100
AcDbBlockEnd
  0
BLOCK
  5
D98
100
AcDbEntity
  8
0
100
AcDbBlockBegin
  2
*D37
 70
    65
 10
0.0
 20
0.0
 30
0.0
  3
*D37
  1

  0
LINE
  5
D99
100
AcDbEntity
  8
0
  6
BYBLOCK
 62
     0
100
AcDbLine
 10
316.702936
 20
140.391617
 30
0.0
 11
320.467432
 21
154.440908
 31
0.0
  0
ARC
  5
D9A
100
AcDbEntity
  8
0
  6
BYBLOCK
 62
     0
100
AcDbCircle
 10
316.566771
 20
139.883443
 30
0.0
 40
14.018797
100
AcDbArc
 50
62.192058
 51
75.0
  0
ARC
  5
D9B
100
AcDbEntity
  8
0
  6
BYBLOCK
 62
     0
100
AcDbCircle
 10
316.566771
 20
139.883443
 30
0.0
 40
14.018797
100
AcDbArc
 50
85.641667
 51
109.358333
  0
SOLID
  5
D9C
100
AcDbEntity
  8
0
  6
BYBLOCK
 62
     0
100
AcDbTrace
 10
317.704971
 20
154.288866
 30
0.0
 11
317.559258
 21
153.434537
 31
0.0
 12
320.195103
 22
153.424561
 32
0.0
 13
320.195103
 23
153.424561
 33
0.0
  0
SOLID
  5
D9D
100
AcDbEntity
  8
0
  6
BYBLOCK
 62
     0
100
AcDbTrace
 10
312.100822
 20
152.71592
 30
0.0
 11
311.738956
 21
153.503426
 31
0.0
 12
309.557373
 22
152.024077
 32
0.0
 13
309.557373
 23
152.024077
 33
0.0
  0
MTEXT
  5
D9E
100
AcDbEntity
  8
0
  6
BYBLOCK
 62
     0
100
AcDbMText
 10
326.70592
 20
152.453918
 30
0.0
 40
2.6
 41
0.0
 71
     5
 72
     1
  1
\A1;45°
 11
0.884516
 21
-0.466509
 31
0.0
  0
POINT
  5
D9F
100
AcDbEntity
  8
DEFPOINTS
  6
BYBLOCK
 62
     0
100
AcDbPoint
 10
312.93844
 20
153.424561
 30
0.0
  0
POINT
  5
DA0
100
AcDbEntity
  8
DEFPOINTS
  6
BYBLOCK
 62
     0
100
AcDbPoint
 10
316.566771
 20
139.883443
 30
0.0
  0
POINT
  5
DA1
100
AcDbEntity
  8
DEFPOINTS
  6
BYBLOCK
 62
     0
100
AcDbPoint
 10
316.273951
 20
138.790623
 30
0.0
  0
POINT
  5
DA2
100
AcDbEntity
  8
DEFPOINTS
  6
BYBLOCK
 62
     0
100
AcDbPoint
 10
316.566771
 20
139.883443
 30
0.0
  0
POINT
  5
DA3
100
AcDbEntity
  8
DEFPOINTS
  6
BYBLOCK
 62
     0
100
AcDbPoint
 10
307.367093
 20
155.817753
 30
0.0
  0
ENDBLK
  5
DA4
100
AcDbEntity
  8
0
100
AcDbBlockEnd
  0
BLOCK
  5
DA5
100
AcDbEntity
  8
0
100
AcDbBlockBegin
  2
*D38
 70
    65
 10
0.0
 20
0.0
 30
0.0
  3
*D38
  1

  0
LINE
  5
DA6
100
AcDbEntity
  8
0
  6
BYBLOCK
 62
     0
100
AcDbLine
 10
315.25617
 20
140.553471
 30
0.0
 11
310.607082
 21
148.605928
 31
0.0
  0
LINE
  5
DA7
100
AcDbEntity
  8
0
  6
BYBLOCK
 62
     0
100
AcDbLine
 10
315.94899
 20
140.953471
 30
0.0
 11
311.299902
 21
149.005928
 31
0.0
  0
LINE
  5
DA8
100
AcDbEntity
  8
0
  6
BYBLOCK
 62
     0
100
AcDbLine
 10
314.077669
 20
149.394696
 30
0.0
 11
316.329335
 21
150.694696
 31
0.0
  0
LINE
  5
DA9
100
AcDbEntity
  8
0
  6
BYBLOCK
 62
     0
100
AcDbLine
 10
308.881516
 20
146.394696
 30
0.0
 11
299.53537
 21
140.998696
 31
0.0
  0
LINE
  5
DAA
100
AcDbEntity
  8
0
  6
BYBLOCK
 62
     0
100
AcDbLine
 10
311.826002
 20
148.094696
 30
0.0
 11
311.133182
 21
147.694696
 31
0.0
  0
SOLID
  5
DAB
100
AcDbEntity
  8
0
  6
BYBLOCK
 62
     0
100
AcDbTrace
 10
313.861002
 20
149.769973
 30
0.0
 11
314.294335
 21
149.019418
 31
0.0
 12
311.826002
 22
148.094696
 32
0.0
 13
311.826002
 23
148.094696
 33
0.0
  0
SOLID
  5
DAC
100
AcDbEntity
  8
0
  6
BYBLOCK
 62
     0
100
AcDbTrace
 10
308.664849
 20
146.769973
 30
0.0
 11
309.098183
 21
146.019418
 31
0.0
 12
311.133182
 22
147.694696
 32
0.0
 13
311.133182
 23
147.694696
 33
0.0
  0
MTEXT
  5
DAD
100
AcDbEntity
  8
0
  6
BYBLOCK
 62
     0
100
AcDbMText
 10
300.813146
 20
143.849522
 30
0.0
 40
2.6
 41
0.0
 71
     5
 72
     1
  1
\A1;0.8
 11
0.866025
 21
0.5
 31
0.0
  0
POINT
  5
DAE
100
AcDbEntity
  8
DEFPOINTS
  6
BYBLOCK
 62
     0
100
AcDbPoint
 10
315.51922
 20
140.097855
 30
0.0
  0
POINT
  5
DAF
100
AcDbEntity
  8
DEFPOINTS
  6
BYBLOCK
 62
     0
100
AcDbPoint
 10
316.21204
 20
140.497855
 30
0.0
  0
POINT
  5
DB0
100
AcDbEntity
  8
DEFPOINTS
  6
BYBLOCK
 62
     0
100
AcDbPoint
 10
311.826002
 20
148.094696
 30
0.0
  0
ENDBLK
  5
DB1
100
AcDbEntity
  8
0
100
AcDbBlockEnd
  0
BLOCK
  5
DB2
100
AcDbEntity
  8
0
100
AcDbBlockBegin
  2
*D39
 70
    65
 10
0.0
 20
0.0
 30
0.0
  3
*D39
  1

  0
LINE
  5
DB3
100
AcDbEntity
  8
0
  6
BYBLOCK
 62
     0
100
AcDbLine
 10
318.694786
 20
84.762711
 30
0.0
 11
318.694786
 21
92.231506
 31
0.0
  0
LINE
  5
DB4
100
AcDbEntity
  8
0
  6
BYBLOCK
 62
     0
100
AcDbLine
 10
263.281445
 20
84.762711
 30
0.0
 11
263.281445
 21
92.231506
 31
0.0
  0
LINE
  5
DB5
100
AcDbEntity
  8
0
  6
BYBLOCK
 62
     0
100
AcDbLine
 10
316.094786
 20
91.179306
 30
0.0
 11
265.881445
 21
91.179306
 31
0.0
  0
SOLID
  5
DB6
100
AcDbEntity
  8
0
  6
BYBLOCK
 62
     0
100
AcDbTrace
 10
316.094786
 20
91.612639
 30
0.0
 11
316.094786
 21
90.745973
 31
0.0
 12
318.694786
 22
91.179306
 32
0.0
 13
318.694786
 23
91.179306
 33
0.0
  0
SOLID
  5
DB7
100
AcDbEntity
  8
0
  6
BYBLOCK
 62
     0
100
AcDbTrace
 10
265.881445
 20
91.612639
 30
0.0
 11
265.881445
 21
90.745973
 31
0.0
 12
263.281445
 22
91.179306
 32
0.0
 13
263.281445
 23
91.179306
 33
0.0
  0
MTEXT
  5
DB8
100
AcDbEntity
  8
0
  6
BYBLOCK
 62
     0
100
AcDbMText
 10
290.988116
 20
93.005406
 30
0.0
 40
2.6
 41
0.0
 71
     5
 72
     1
  1
\A1;{835}
  0
POINT
  5
DB9
100
AcDbEntity
  8
DEFPOINTS
  6
BYBLOCK
 62
     0
100
AcDbPoint
 10
318.694786
 20
84.236611
 30
0.0
  0
POINT
  5
DBA
100
AcDbEntity
  8
DEFPOINTS
  6
BYBLOCK
 62
     0
100
AcDbPoint
 10
263.281445
 20
84.236611
 30
0.0
  0
POINT
  5
DBB
100
AcDbEntity
  8
DEFPOINTS
  6
BYBLOCK
 62
     0
100
AcDbPoint
 10
263.281445
 20
91.179306
 30
0.0
  0
ENDBLK
  5
DBC
100
AcDbEntity
  8
0
100
AcDbBlockEnd
  0
BLOCK
  5
DBD
100
AcDbEntity
  8
0
100
AcDbBlockBegin
  2
*D40
 70
    65
 10
0.0
 20
0.0
 30
0.0
  3
*D40
  1

  0
LINE
  5
DBE
100
AcDbEntity
  8
0
  6
BYBLOCK
 62
     0
100
AcDbLine
 10
322.102419
 20
129.181491
 30
0.0
 11
303.527201
 21
116.689003
 31
0.0
  0
LINE
  5
DBF
100
AcDbEntity
  8
0
  6
BYBLOCK
 62
     0
100
AcDbLine
 10
315.837395
 20
138.497024
 30
0.0
 11
297.262177
 21
126.004536
 31
0.0
  0
LINE
  5
DC0
100
AcDbEntity
  8
0
  6
BYBLOCK
 62
     0
100
AcDbLine
 10
305.851286
 20
115.118732
 30
0.0
 11
307.30226
 21
112.961263
 31
0.0
  0
LINE
  5
DC1
100
AcDbEntity
  8
0
  6
BYBLOCK
 62
     0
100
AcDbLine
 10
296.684314
 20
128.749204
 30
0.0
 11
295.23334
 21
130.906673
 31
0.0
  0
LINE
  5
DC2
100
AcDbEntity
  8
0
  6
BYBLOCK
 62
     0
100
AcDbLine
 10
304.400312
 20
117.276201
 30
0.0
 11
298.135288
 21
126.591734
 31
0.0
  0
SOLID
  5
DC3
100
AcDbEntity
  8
0
  6
BYBLOCK
 62
     0
100
AcDbTrace
 10
306.210864
 20
115.360561
 30
0.0
 11
305.491708
 21
114.876903
 31
0.0
 12
304.400312
 22
117.276201
 32
0.0
 13
304.400312
 23
117.276201
 33
0.0
  0
SOLID
  5
DC4
100
AcDbEntity
  8
0
  6
BYBLOCK
 62
     0
100
AcDbTrace
 10
297.043892
 20
128.991033
 30
0.0
 11
296.324736
 21
128.507375
 31
0.0
 12
298.135288
 22
126.591734
 32
0.0
 13
298.135288
 23
126.591734
 33
0.0
  0
MTEXT
  5
DC5
100
AcDbEntity
  8
0
  6
BYBLOCK
 62
     0
100
AcDbMText
 10
302.783303
 20
122.953197
 30
0.0
 40
2.6
 41
0.0
 71
     5
 72
     1
  1
\A1;{11.2}
 11
0.558067
 21
-0.829796
 31
0.0
  0
POINT
  5
DC6
100
AcDbEntity
  8
DEFPOINTS
  6
BYBLOCK
 62
     0
100
AcDbPoint
 10
322.538975
 20
129.47509
 30
0.0
  0
POINT
  5
DC7
100
AcDbEntity
  8
DEFPOINTS
  6
BYBLOCK
 62
     0
100
AcDbPoint
 10
316.273951
 20
138.790623
 30
0.0
  0
POINT
  5
DC8
100
AcDbEntity
  8
DEFPOINTS
  6
BYBLOCK
 62
     0
100
AcDbPoint
 10
298.135288
 20
126.591734
 30
0.0
  0
ENDBLK
  5
DC9
100
AcDbEntity
  8
0
100
AcDbBlockEnd
  0
BLOCK
  5
DCA
100
AcDbEntity
  8
0
100
AcDbBlockBegin
  2
*D41
 70
    65
 10
0.0
 20
0.0
 30
0.0
  3
*D41
  1

  0
LINE
  5
DCB
100
AcDbEntity
  8
0
  6
BYBLOCK
 62
     0
100
AcDbLine
 10
321.904043
 20
128.127785
 30
0.0
 11
313.550983
 21
113.659859
 31
0.0
  0
LINE
  5
DCC
100
AcDbEntity
  8
0
  6
BYBLOCK
 62
     0
100
AcDbLine
 10
322.430143
 20
128.127785
 30
0.0
 11
330.783204
 21
113.659859
 31
0.0
  0
ARC
  5
DCD
100
AcDbEntity
  8
0
  6
BYBLOCK
 62
     0
100
AcDbCircle
 10
322.167093
 20
128.583401
 30
0.0
 40
16.180021
100
AcDbArc
 50
249.216908
 51
290.783092
  0
SOLID
  5
DCE
100
AcDbEntity
  8
0
  6
BYBLOCK
 62
     0
100
AcDbTrace
 10
316.240105
 20
113.064734
 30
0.0
 11
316.611733
 21
113.847679
 31
0.0
 12
314.077083
 22
114.571091
 32
0.0
 13
314.077083
 23
114.571091
 33
0.0
  0
SOLID
  5
DCF
100
AcDbEntity
  8
0
  6
BYBLOCK
 62
     0
100
AcDbTrace
 10
327.722454
 20
113.847679
 30
0.0
 11
328.094082
 21
113.064734
 31
0.0
 12
330.257104
 22
114.571091
 32
0.0
 13
330.257104
 23
114.571091
 33
0.0
  0
MTEXT
  5
DD0
100
AcDbEntity
  8
0
  6
BYBLOCK
 62
     0
100
AcDbMText
 10
322.167093
 20
114.23338
 30
0.0
 40
2.6
 41
0.0
 71
     5
 72
     1
  1
\A1;60°
  0
POINT
  5
DD1
100
AcDbEntity
  8
DEFPOINTS
  6
BYBLOCK
 62
     0
100
AcDbPoint
 10
319.357462
 20
112.64919
 30
0.0
  0
POINT
  5
DD2
100
AcDbEntity
  8
DEFPOINTS
  6
BYBLOCK
 62
     0
100
AcDbPoint
 10
321.474273
 20
129.783401
 30
0.0
  0
POINT
  5
DD3
100
AcDbEntity
  8
DEFPOINTS
  6
BYBLOCK
 62
     0
100
AcDbPoint
 10
322.859914
 20
129.783401
 30
0.0
  0
POINT
  5
DD4
100
AcDbEntity
  8
DEFPOINTS
  6
BYBLOCK
 62
     0
100
AcDbPoint
 10
328.210236
 20
139.050431
 30
0.0
  0
POINT
  5
DD5
100
AcDbEntity
  8
DEFPOINTS
  6
BYBLOCK
 62
     0
100
AcDbPoint
 10
316.273951
 20
138.790623
 30
0.0
  0
ENDBLK
  5
DD6
100
AcDbEntity
  8
0
100
AcDbBlockEnd
  0
BLOCK
  5
DD7
100
AcDbEntity
  8
0
100
AcDbBlockBegin
  2
*D42
 70
    65
 10
0.0
 20
0.0
 30
0.0
  3
*D42
  1

  0
LINE
  5
DD8
100
AcDbEntity
  8
0
  6
BYBLOCK
 62
     0
100
AcDbLine
 10
261.756789
 20
250.628392
 30
0.0
 11
260.546098
 21
249.925379
 31
0.0
  0
LINE
  5
DD9
100
AcDbEntity
  8
0
  6
BYBLOCK
 62
     0
100
AcDbLine
 10
258.297672
 20
248.619783
 30
0.0
 11
243.312066
 21
239.918077
 31
0.0
  0
SOLID
  5
DDA
100
AcDbEntity
  8
0
  6
BYBLOCK
 62
     0
100
AcDbTrace
 10
260.328499
 20
250.300116
 30
0.0
 11
260.763698
 21
249.550641
 31
0.0
 12
258.297672
 22
248.619783
 32
0.0
 13
258.297672
 23
248.619783
 33
0.0
  0
MTEXT
  5
DDB
100
AcDbEntity
  8
0
  6
BYBLOCK
 62
     0
100
AcDbMText
 10
246.06671
 20
243.633766
 30
0.0
 40
2.6
 41
0.0
 71
     5
 72
     1
  1
\A1;{R 0.8}
 11
0.864779
 21
0.502152
 31
0.0
  0
POINT
  5
DDC
100
AcDbEntity
  8
DEFPOINTS
  6
BYBLOCK
 62
     0
100
AcDbPoint
 10
258.297672
 20
248.619783
 30
0.0
  0
POINT
  5
DDD
100
AcDbEntity
  8
DEFPOINTS
  6
BYBLOCK
 62
     0
100
AcDbPoint
 10
261.756789
 20
250.628392
 30
0.0
  0
ENDBLK
  5
DDE
100
AcDbEntity
  8
0
100
AcDbBlockEnd
  0
BLOCK
  5
DDF
100
AcDbEntity
  8
0
100
AcDbBlockBegin
  2
*D43
 70
    65
 10
0.0
 20
0.0
 30
0.0
  3
*D43
  1

  0
LINE
  5
DE0
100
AcDbEntity
  8
0
  6
BYBLOCK
 62
     0
100
AcDbLine
 10
302.167093
 20
226.008401
 30
0.0
 11
302.167093
 21
259.429507
 31
0.0
  0
LINE
  5
DE1
100
AcDbEntity
  8
0
  6
BYBLOCK
 62
     0
100
AcDbLine
 10
328.167093
 20
196.008401
 30
0.0
 11
328.167093
 21
259.429507
 31
0.0
  0
LINE
  5
DE2
100
AcDbEntity
  8
0
  6
BYBLOCK
 62
     0
100
AcDbLine
 10
304.667093
 20
258.179507
 30
0.0
 11
325.667093
 21
258.179507
 31
0.0
  0
SOLID
  5
DE3
100
AcDbEntity
  8
0
  6
BYBLOCK
 62
     0
100
AcDbTrace
 10
304.667093
 20
258.596174
 30
0.0
 11
304.667093
 21
257.76284
 31
0.0
 12
302.167093
 22
258.179507
 32
0.0
 13
302.167093
 23
258.179507
 33
0.0
  0
SOLID
  5
DE4
100
AcDbEntity
  8
0
  6
BYBLOCK
 62
     0
100
AcDbTrace
 10
325.667093
 20
258.596174
 30
0.0
 11
325.667093
 21
257.76284
 31
0.0
 12
328.167093
 22
258.179507
 32
0.0
 13
328.167093
 23
258.179507
 33
0.0
  0
MTEXT
  5
DE5
100
AcDbEntity
  8
0
  6
BYBLOCK
 62
     0
100
AcDbMText
 10
315.167093
 20
260.993431
 30
0.0
 40
2.0
 41
0.0
 71
     5
 72
     1
  1
\A1;26\S+0.02^  0;
  0
POINT
  5
DE6
100
AcDbEntity
  8
DEFPOINTS
  6
BYBLOCK
 62
     0
100
AcDbPoint
 10
302.167093
 20
225.383401
 30
0.0
  0
POINT
  5
DE7
100
AcDbEntity
  8
DEFPOINTS
  6
BYBLOCK
 62
     0
100
AcDbPoint
 10
328.167093
 20
195.383401
 30
0.0
  0
POINT
  5
DE8
100
AcDbEntity
  8
DEFPOINTS
  6
BYBLOCK
 62
     0
100
AcDbPoint
 10
328.167093
 20
258.179507
 30
0.0
  0
ENDBLK
  5
DE9
100
AcDbEntity
  8
0
100
AcDbBlockEnd
  0
BLOCK
  5
E7B
100
AcDbEntity
  8
0
100
AcDbBlockBegin
  2
*D44
 70
    65
 10
0.0
 20
0.0
 30
0.0
  3
*D44
  1

  0
LINE
  5
E7C
100
AcDbEntity
  8
0
  6
BYBLOCK
 62
     0
100
AcDbLine
 10
302.167093
 20
225.909501
 30
0.0
 11
302.167093
 21
247.277157
 31
0.0
  0
LINE
  5
E7D
100
AcDbEntity
  8
0
  6
BYBLOCK
 62
     0
100
AcDbLine
 10
315.167093
 20
225.909501
 30
0.0
 11
315.167093
 21
247.277157
 31
0.0
  0
LINE
  5
E7E
100
AcDbEntity
  8
0
  6
BYBLOCK
 62
     0
100
AcDbLine
 10
312.567093
 20
246.224957
 30
0.0
 11
304.767093
 21
246.224957
 31
0.0
  0
LINE
  5
E7F
100
AcDbEntity
  8
0
  6
BYBLOCK
 62
     0
100
AcDbLine
 10
302.167093
 20
246.224957
 30
0.0
 11
286.619693
 21
246.224957
 31
0.0
  0
SOLID
  5
E80
100
AcDbEntity
  8
0
  6
BYBLOCK
 62
     0
100
AcDbTrace
 10
312.567093
 20
246.658291
 30
0.0
 11
312.567093
 21
245.791624
 31
0.0
 12
315.167093
 22
246.224957
 32
0.0
 13
315.167093
 23
246.224957
 33
0.0
  0
SOLID
  5
E81
100
AcDbEntity
  8
0
  6
BYBLOCK
 62
     0
100
AcDbTrace
 10
304.767093
 20
246.658291
 30
0.0
 11
304.767093
 21
245.791624
 31
0.0
 12
302.167093
 22
246.224957
 32
0.0
 13
302.167093
 23
246.224957
 33
0.0
  0
MTEXT
  5
E82
100
AcDbEntity
  8
0
  6
BYBLOCK
 62
     0
100
AcDbMText
 10
292.507093
 20
249.225238
 30
0.0
 40
2.6
 41
0.0
 71
     5
 72
     1
  1
\A2;13{\H2.080000;\S+0.02^  0;}
  0
POINT
  5
E83
100
AcDbEntity
  8
DEFPOINTS
  6
BYBLOCK
 62
     0
100
AcDbPoint
 10
302.167093
 20
225.383401
 30
0.0
  0
POINT
  5
E84
100
AcDbEntity
  8
DEFPOINTS
  6
BYBLOCK
 62
     0
100
AcDbPoint
 10
315.167093
 20
225.383401
 30
0.0
  0
POINT
  5
E85
100
AcDbEntity
  8
DEFPOINTS
  6
BYBLOCK
 62
     0
100
AcDbPoint
 10
315.167093
 20
246.224957
 30
0.0
  0
ENDBLK
  5
E86
100
AcDbEntity
  8
0
100
AcDbBlockEnd
  0
BLOCK
  5
DF6
100
AcDbEntity
  8
0
100
AcDbBlockBegin
  2
*D45
 70
    65
 10
0.0
 20
0.0
 30
0.0
  3
*D45
  1

  0
LINE
  5
DF7
100
AcDbEntity
  8
0
  6
BYBLOCK
 62
     0
100
AcDbLine
 10
305.667093
 20
209.909501
 30
0.0
 11
305.667093
 21
238.70713
 31
0.0
  0
LINE
  5
DF8
100
AcDbEntity
  8
0
  6
BYBLOCK
 62
     0
100
AcDbLine
 10
302.167093
 20
225.909501
 30
0.0
 11
302.167093
 21
238.70713
 31
0.0
  0
LINE
  5
DF9
100
AcDbEntity
  8
0
  6
BYBLOCK
 62
     0
100
AcDbLine
 10
308.267093
 20
237.65493
 30
0.0
 11
310.867093
 21
237.65493
 31
0.0
  0
LINE
  5
DFA
100
AcDbEntity
  8
0
  6
BYBLOCK
 62
     0
100
AcDbLine
 10
299.567093
 20
237.65493
 30
0.0
 11
291.784628
 21
237.65493
 31
0.0
  0
LINE
  5
DFB
100
AcDbEntity
  8
0
  6
BYBLOCK
 62
     0
100
AcDbLine
 10
305.667093
 20
237.65493
 30
0.0
 11
302.167093
 21
237.65493
 31
0.0
  0
SOLID
  5
DFC
100
AcDbEntity
  8
0
  6
BYBLOCK
 62
     0
100
AcDbTrace
 10
308.267093
 20
238.088264
 30
0.0
 11
308.267093
 21
237.221597
 31
0.0
 12
305.667093
 22
237.65493
 32
0.0
 13
305.667093
 23
237.65493
 33
0.0
  0
SOLID
  5
DFD
100
AcDbEntity
  8
0
  6
BYBLOCK
 62
     0
100
AcDbTrace
 10
299.567093
 20
238.088264
 30
0.0
 11
299.567093
 21
237.221597
 31
0.0
 12
302.167093
 22
237.65493
 32
0.0
 13
302.167093
 23
237.65493
 33
0.0
  0
MTEXT
  5
DFE
100
AcDbEntity
  8
0
  6
BYBLOCK
 62
     0
100
AcDbMText
 10
294.375861
 20
239.48493
 30
0.0
 40
2.6
 41
0.0
 71
     5
 72
     1
  1
\A1;3.5
  0
POINT
  5
DFF
100
AcDbEntity
  8
DEFPOINTS
  6
BYBLOCK
 62
     0
100
AcDbPoint
 10
305.667093
 20
209.383401
 30
0.0
  0
POINT
  5
E00
100
AcDbEntity
  8
DEFPOINTS
  6
BYBLOCK
 62
     0
100
AcDbPoint
 10
302.167093
 20
225.383401
 30
0.0
  0
POINT
  5
E01
100
AcDbEntity
  8
DEFPOINTS
  6
BYBLOCK
 62
     0
100
AcDbPoint
 10
302.167093
 20
237.65493
 30
0.0
  0
ENDBLK
  5
E02
100
AcDbEntity
  8
0
100
AcDbBlockEnd
  0
BLOCK
  5
E03
100
AcDbEntity
  8
0
100
AcDbBlockBegin
  2
*D46
 70
    65
 10
0.0
 20
0.0
 30
0.0
  3
*D46
  1

  0
LINE
  5
E04
100
AcDbEntity
  8
0
  6
BYBLOCK
 62
     0
100
AcDbLine
 10
307.367093
 20
165.765906
 30
0.0
 11
307.367093
 21
165.216178
 31
0.0
  0
LINE
  5
E05
100
AcDbEntity
  8
0
  6
BYBLOCK
 62
     0
100
AcDbLine
 10
302.167093
 20
187.491653
 30
0.0
 11
302.167093
 21
165.216178
 31
0.0
  0
LINE
  5
E06
100
AcDbEntity
  8
0
  6
BYBLOCK
 62
     0
100
AcDbLine
 10
309.967093
 20
166.268378
 30
0.0
 11
312.567093
 21
166.268378
 31
0.0
  0
LINE
  5
E07
100
AcDbEntity
  8
0
  6
BYBLOCK
 62
     0
100
AcDbLine
 10
299.567093
 20
166.268378
 30
0.0
 11
291.658698
 21
166.268378
 31
0.0
  0
LINE
  5
E08
100
AcDbEntity
  8
0
  6
BYBLOCK
 62
     0
100
AcDbLine
 10
307.367093
 20
166.268378
 30
0.0
 11
302.167093
 21
166.268378
 31
0.0
  0
SOLID
  5
E09
100
AcDbEntity
  8
0
  6
BYBLOCK
 62
     0
100
AcDbTrace
 10
309.967093
 20
166.701712
 30
0.0
 11
309.967093
 21
165.835045
 31
0.0
 12
307.367093
 22
166.268378
 32
0.0
 13
307.367093
 23
166.268378
 33
0.0
  0
SOLID
  5
E0A
100
AcDbEntity
  8
0
  6
BYBLOCK
 62
     0
100
AcDbTrace
 10
299.567093
 20
166.701712
 30
0.0
 11
299.567093
 21
165.835045
 31
0.0
 12
302.167093
 22
166.268378
 32
0.0
 13
302.167093
 23
166.268378
 33
0.0
  0
MTEXT
  5
E0B
100
AcDbEntity
  8
0
  6
BYBLOCK
 62
     0
100
AcDbMText
 10
294.312896
 20
168.098634
 30
0.0
 40
2.6
 41
0.0
 71
     5
 72
     1
  1
\A1;{5.2}
  0
POINT
  5
E0C
100
AcDbEntity
  8
DEFPOINTS
  6
BYBLOCK
 62
     0
100
AcDbPoint
 10
307.367093
 20
166.292006
 30
0.0
  0
POINT
  5
E0D
100
AcDbEntity
  8
DEFPOINTS
  6
BYBLOCK
 62
     0
100
AcDbPoint
 10
302.167093
 20
188.017753
 30
0.0
  0
POINT
  5
E0E
100
AcDbEntity
  8
DEFPOINTS
  6
BYBLOCK
 62
     0
100
AcDbPoint
 10
302.167093
 20
166.268378
 30
0.0
  0
ENDBLK
  5
E0F
100
AcDbEntity
  8
0
100
AcDbBlockEnd
  0
BLOCK
  5
E10
100
AcDbEntity
  8
0
100
AcDbBlockBegin
  2
*D47
 70
    65
 10
0.0
 20
0.0
 30
0.0
  3
*D47
  1

  0
LINE
  5
E11
100
AcDbEntity
  8
0
  6
BYBLOCK
 62
     0
100
AcDbLine
 10
301.640993
 20
209.383401
 30
0.0
 11
277.007397
 21
209.383401
 31
0.0
  0
LINE
  5
E12
100
AcDbEntity
  8
0
  6
BYBLOCK
 62
     0
100
AcDbLine
 10
314.20355
 20
196.383401
 30
0.0
 11
277.007397
 21
196.383401
 31
0.0
  0
LINE
  5
E13
100
AcDbEntity
  8
0
  6
BYBLOCK
 62
     0
100
AcDbLine
 10
278.059597
 20
206.783401
 30
0.0
 11
278.059597
 21
198.983401
 31
0.0
  0
SOLID
  5
E14
100
AcDbEntity
  8
0
  6
BYBLOCK
 62
     0
100
AcDbTrace
 10
277.626264
 20
206.783401
 30
0.0
 11
278.492931
 21
206.783401
 31
0.0
 12
278.059597
 22
209.383401
 32
0.0
 13
278.059597
 23
209.383401
 33
0.0
  0
SOLID
  5
E15
100
AcDbEntity
  8
0
  6
BYBLOCK
 62
     0
100
AcDbTrace
 10
277.626264
 20
198.983401
 30
0.0
 11
278.492931
 21
198.983401
 31
0.0
 12
278.059597
 22
196.383401
 32
0.0
 13
278.059597
 23
196.383401
 33
0.0
  0
MTEXT
  5
E16
100
AcDbEntity
  8
0
  6
BYBLOCK
 62
     0
100
AcDbMText
 10
276.229597
 20
202.883401
 30
0.0
 40
2.6
 41
0.0
 71
     5
 72
     1
  1
\A1;{13}
 11
0.0
 21
1.0
 31
0.0
  0
POINT
  5
E17
100
AcDbEntity
  8
DEFPOINTS
  6
BYBLOCK
 62
     0
100
AcDbPoint
 10
302.167093
 20
209.383401
 30
0.0
  0
POINT
  5
E18
100
AcDbEntity
  8
DEFPOINTS
  6
BYBLOCK
 62
     0
100
AcDbPoint
 10
314.72965
 20
196.383401
 30
0.0
  0
POINT
  5
E19
100
AcDbEntity
  8
DEFPOINTS
  6
BYBLOCK
 62
     0
100
AcDbPoint
 10
278.059597
 20
196.383401
 30
0.0
  0
ENDBLK
  5
E1A
100
AcDbEntity
  8
0
100
AcDbBlockEnd
  0
BLOCK
  5
E1B
100
AcDbEntity
  8
0
100
AcDbBlockBegin
  2
*D48
 70
    65
 10
0.0
 20
0.0
 30
0.0
  3
*D48
  1

  0
LINE
  5
E1C
100
AcDbEntity
  8
0
  6
BYBLOCK
 62
     0
100
AcDbLine
 10
301.640993
 20
209.383401
 30
0.0
 11
288.509247
 21
209.383401
 31
0.0
  0
LINE
  5
E1D
100
AcDbEntity
  8
0
  6
BYBLOCK
 62
     0
100
AcDbLine
 10
301.640993
 20
200.983401
 30
0.0
 11
288.509247
 21
200.983401
 31
0.0
  0
LINE
  5
E1E
100
AcDbEntity
  8
0
  6
BYBLOCK
 62
     0
100
AcDbLine
 10
289.561447
 20
211.983401
 30
0.0
 11
289.561447
 21
214.583401
 31
0.0
  0
LINE
  5
E1F
100
AcDbEntity
  8
0
  6
BYBLOCK
 62
     0
100
AcDbLine
 10
289.561447
 20
198.383401
 30
0.0
 11
289.561447
 21
195.783401
 31
0.0
  0
LINE
  5
E20
100
AcDbEntity
  8
0
  6
BYBLOCK
 62
     0
100
AcDbLine
 10
289.561447
 20
209.383401
 30
0.0
 11
289.561447
 21
200.983401
 31
0.0
  0
SOLID
  5
E21
100
AcDbEntity
  8
0
  6
BYBLOCK
 62
     0
100
AcDbTrace
 10
289.128114
 20
211.983401
 30
0.0
 11
289.994781
 21
211.983401
 31
0.0
 12
289.561447
 22
209.383401
 32
0.0
 13
289.561447
 23
209.383401
 33
0.0
  0
SOLID
  5
E22
100
AcDbEntity
  8
0
  6
BYBLOCK
 62
     0
100
AcDbTrace
 10
289.128114
 20
198.383401
 30
0.0
 11
289.994781
 21
198.383401
 31
0.0
 12
289.561447
 22
200.983401
 32
0.0
 13
289.561447
 23
200.983401
 33
0.0
  0
MTEXT
  5
E23
100
AcDbEntity
  8
0
  6
BYBLOCK
 62
     0
100
AcDbMText
 10
287.731447
 20
205.183401
 30
0.0
 40
2.6
 41
0.0
 71
     5
 72
     1
  1
\A1;8.4
 11
0.0
 21
1.0
 31
0.0
  0
POINT
  5
E24
100
AcDbEntity
  8
DEFPOINTS
  6
BYBLOCK
 62
     0
100
AcDbPoint
 10
302.167093
 20
209.383401
 30
0.0
  0
POINT
  5
E25
100
AcDbEntity
  8
DEFPOINTS
  6
BYBLOCK
 62
     0
100
AcDbPoint
 10
302.167093
 20
200.983401
 30
0.0
  0
POINT
  5
E26
100
AcDbEntity
  8
DEFPOINTS
  6
BYBLOCK
 62
     0
100
AcDbPoint
 10
289.561447
 20
200.983401
 30
0.0
  0
ENDBLK
  5
E27
100
AcDbEntity
  8
0
100
AcDbBlockEnd
  0
BLOCK
  5
E28
100
AcDbEntity
  8
0
100
AcDbBlockBegin
  2
*D49
 70
    65
 10
0.0
 20
0.0
 30
0.0
  3
*D49
  1

  0
LINE
  5
E29
100
AcDbEntity
  8
0
  6
BYBLOCK
 62
     0
100
AcDbLine
 10
307.367093
 20
183.343853
 30
0.0
 11
307.367093
 21
194.295531
 31
0.0
  0
LINE
  5
E2A
100
AcDbEntity
  8
0
  6
BYBLOCK
 62
     0
100
AcDbLine
 10
301.795084
 20
188.389762
 30
0.0
 11
299.251079
 21
190.933767
 31
0.0
  0
ARC
  5
E2B
100
AcDbEntity
  8
0
  6
BYBLOCK
 62
     0
100
AcDbCircle
 10
307.367093
 20
182.817753
 30
0.0
 40
10.425578
100
AcDbArc
 50
72.760876
 51
90.0
  0
ARC
  5
E2C
100
AcDbEntity
  8
0
  6
BYBLOCK
 62
     0
100
AcDbCircle
 10
307.367093
 20
182.817753
 30
0.0
 40
10.425578
100
AcDbArc
 50
104.326093
 51
120.673907
  0
SOLID
  5
E2D
100
AcDbEntity
  8
0
  6
BYBLOCK
 62
     0
100
AcDbTrace
 10
304.733352
 20
193.349079
 30
0.0
 11
304.841419
 21
192.489177
 31
0.0
 12
307.367093
 22
193.243331
 32
0.0
 13
307.367093
 23
193.243331
 33
0.0
  0
SOLID
  5
E2E
100
AcDbEntity
  8
0
  6
BYBLOCK
 62
     0
100
AcDbTrace
 10
302.314285
 20
191.442403
 30
0.0
 11
301.782658
 21
192.126862
 31
0.0
 12
299.995097
 22
190.18975
 32
0.0
 13
299.995097
 23
190.18975
 33
0.0
  0
MTEXT
  5
E2F
100
AcDbEntity
  8
0
  6
BYBLOCK
 62
     0
100
AcDbMText
 10
313.963716
 20
193.602861
 30
0.0
 40
2.6
 41
0.0
 71
     5
 72
     1
  1
\A1;45°
 11
0.955076
 21
-0.29636
 31
0.0
  0
POINT
  5
E30
100
AcDbEntity
  8
DEFPOINTS
  6
BYBLOCK
 62
     0
100
AcDbPoint
 10
302.154304
 20
191.846568
 30
0.0
  0
POINT
  5
E31
100
AcDbEntity
  8
DEFPOINTS
  6
BYBLOCK
 62
     0
100
AcDbPoint
 10
307.367093
 20
182.817753
 30
0.0
  0
POINT
  5
E32
100
AcDbEntity
  8
DEFPOINTS
  6
BYBLOCK
 62
     0
100
AcDbPoint
 10
307.367093
 20
182.817753
 30
0.0
  0
POINT
  5
E33
100
AcDbEntity
  8
DEFPOINTS
  6
BYBLOCK
 62
     0
100
AcDbPoint
 10
307.367093
 20
155.817753
 30
0.0
  0
POINT
  5
E34
100
AcDbEntity
  8
DEFPOINTS
  6
BYBLOCK
 62
     0
100
AcDbPoint
 10
302.167093
 20
188.017753
 30
0.0
  0
ENDBLK
  5
E35
100
AcDbEntity
  8
0
100
AcDbBlockEnd
  0
BLOCK
  5
E36
100
AcDbEntity
  8
0
100
AcDbBlockBegin
  2
*D50
 70
    65
 10
0.0
 20
0.0
 30
0.0
  3
*D50
  1

  0
LINE
  5
E37
100
AcDbEntity
  8
0
  6
BYBLOCK
 62
     0
100
AcDbLine
 10
306.840993
 20
182.817753
 30
0.0
 11
286.921183
 21
182.817753
 31
0.0
  0
LINE
  5
E38
100
AcDbEntity
  8
0
  6
BYBLOCK
 62
     0
100
AcDbLine
 10
306.840993
 20
155.817753
 30
0.0
 11
286.921183
 21
155.817753
 31
0.0
  0
LINE
  5
E39
100
AcDbEntity
  8
0
  6
BYBLOCK
 62
     0
100
AcDbLine
 10
287.973383
 20
180.217753
 30
0.0
 11
287.973383
 21
158.417753
 31
0.0
  0
SOLID
  5
E3A
100
AcDbEntity
  8
0
  6
BYBLOCK
 62
     0
100
AcDbTrace
 10
287.540049
 20
180.217753
 30
0.0
 11
288.406716
 21
180.217753
 31
0.0
 12
287.973383
 22
182.817753
 32
0.0
 13
287.973383
 23
182.817753
 33
0.0
  0
SOLID
  5
E3B
100
AcDbEntity
  8
0
  6
BYBLOCK
 62
     0
100
AcDbTrace
 10
287.540049
 20
158.417753
 30
0.0
 11
288.406716
 21
158.417753
 31
0.0
 12
287.973383
 22
155.817753
 32
0.0
 13
287.973383
 23
155.817753
 33
0.0
  0
MTEXT
  5
E3C
100
AcDbEntity
  8
0
  6
BYBLOCK
 62
     0
100
AcDbMText
 10
286.143383
 20
169.317753
 30
0.0
 40
2.6
 41
0.0
 71
     5
 72
     1
  1
\A1;27
 11
0.0
 21
1.0
 31
0.0
  0
POINT
  5
E3D
100
AcDbEntity
  8
DEFPOINTS
  6
BYBLOCK
 62
     0
100
AcDbPoint
 10
307.367093
 20
182.817753
 30
0.0
  0
POINT
  5
E3E
100
AcDbEntity
  8
DEFPOINTS
  6
BYBLOCK
 62
     0
100
AcDbPoint
 10
307.367093
 20
155.817753
 30
0.0
  0
POINT
  5
E3F
100
AcDbEntity
  8
DEFPOINTS
  6
BYBLOCK
 62
     0
100
AcDbPoint
 10
287.973383
 20
155.817753
 30
0.0
  0
ENDBLK
  5
E40
100
AcDbEntity
  8
0
100
AcDbBlockEnd
  0
ENDSEC
  0
SECTION
  2
ENTITIES
  0
LINE
  5
F30
100
AcDbEntity
  8
DISEGNO
100
AcDbLine
 10
322.859914
 20
129.783401
 30
0.0
 11
328.210236
 21
139.050431
 31
0.0
  0
LINE
  5
F31
100
AcDbEntity
  8
DISEGNO
100
AcDbLine
 10
328.210236
 20
139.050431
 30
0.0
 11
328.210236
 21
140.118527
 31
0.0
  0
ARC
  5
F32
100
AcDbEntity
  8
DISEGNO
100
AcDbCircle
 10
371.710763
 20
166.245636
 30
0.0
 40
50.743687
100
AcDbArc
 50
149.105043
 51
210.989697
  0
LINE
  5
F33
100
AcDbEntity
  8
DISEGNO
100
AcDbLine
 10
328.167093
 20
192.30078
 30
0.0
 11
328.167093
 21
195.383401
 31
0.0
  0
LINE
  5
F34
100
AcDbEntity
  8
DISEGNO
100
AcDbLine
 10
328.167093
 20
195.383401
 30
0.0
 11
327.167093
 21
196.383401
 31
0.0
  0
LINE
  5
F35
100
AcDbEntity
  8
DISEGNO
100
AcDbLine
 10
327.167093
 20
196.383401
 30
0.0
 11
315.167093
 21
196.383401
 31
0.0
  0
LINE
  5
F36
100
AcDbEntity
  8
DISEGNO
100
AcDbLine
 10
315.167093
 20
196.383401
 30
0.0
 11
315.167093
 21
225.383401
 31
0.0
  0
LINE
  5
F37
100
AcDbEntity
  8
DISEGNO
100
AcDbLine
 10
315.167093
 20
225.383401
 30
0.0
 11
314.167093
 21
226.383401
 31
0.0
  0
LINE
  5
F38
100
AcDbEntity
  8
DISEGNO
100
AcDbLine
 10
314.167093
 20
226.383401
 30
0.0
 11
303.167093
 21
226.383401
 31
0.0
  0
LINE
  5
F39
100
AcDbEntity
  8
DISEGNO
100
AcDbLine
 10
303.167093
 20
226.383401
 30
0.0
 11
302.167093
 21
225.383401
 31
0.0
  0
LINE
  5
F3A
100
AcDbEntity
  8
DISEGNO
100
AcDbLine
 10
302.167093
 20
225.383401
 30
0.0
 11
302.167093
 21
209.383401
 31
0.0
  0
LINE
  5
F3B
100
AcDbEntity
  8
DISEGNO
100
AcDbLine
 10
302.167093
 20
209.383401
 30
0.0
 11
305.667093
 21
209.383401
 31
0.0
  0
LINE
  5
F3C
100
AcDbEntity
  8
DISEGNO
100
AcDbLine
 10
305.667093
 20
209.383401
 30
0.0
 11
305.667093
 21
200.983401
 31
0.0
  0
LINE
  5
F3D
100
AcDbEntity
  8
DISEGNO
100
AcDbLine
 10
305.667093
 20
200.983401
 30
0.0
 11
302.167093
 21
200.983401
 31
0.0
  0
LINE
  5
F3E
100
AcDbEntity
  8
DISEGNO
100
AcDbLine
 10
302.167093
 20
200.983401
 30
0.0
 11
302.167093
 21
188.017753
 31
0.0
  0
LINE
  5
F3F
100
AcDbEntity
  8
DISEGNO
100
AcDbLine
 10
302.167093
 20
188.017753
 30
0.0
 11
307.367093
 21
182.817753
 31
0.0
  0
LINE
  5
F40
100
AcDbEntity
  8
DISEGNO
100
AcDbLine
 10
307.367093
 20
182.817753
 30
0.0
 11
307.367093
 21
155.817753
 31
0.0
  0
LINE
  5
F41
100
AcDbEntity
  8
DISEGNO
100
AcDbLine
 10
307.367093
 20
155.817753
 30
0.0
 11
316.566771
 21
139.883443
 31
0.0
  0
LINE
  5
F42
100
AcDbEntity
  8
DISEGNO
100
AcDbLine
 10
316.566771
 20
139.883443
 30
0.0
 11
316.273951
 21
138.790623
 31
0.0
  0
LINE
  5
F43
100
AcDbEntity
  8
DISEGNO
100
AcDbLine
 10
316.273951
 20
138.790623
 30
0.0
 11
321.474273
 21
129.783401
 31
0.0
  0
LINE
  5
F44
100
AcDbEntity
  8
DISEGNO
100
AcDbLine
 10
321.474273
 20
129.783401
 30
0.0
 11
317.922443
 21
135.935351
 31
0.0
  0
LINE
  5
F46
100
AcDbEntity
  8
DISEGNO
100
AcDbLine
 10
326.411744
 20
135.935351
 30
0.0
 11
322.859914
 21
129.783401
 31
0.0
  0
ARC
  5
F47
100
AcDbEntity
  8
DISEGNO
100
AcDbCircle
 10
322.167093
 20
130.183401
 30
0.0
 40
0.8
100
AcDbArc
 50
210.0
 51
330.0
  0
ENDSEC
  0
SECTION
  2
OBJECTS
  0
DICTIONARY
  5
C
100
AcDbDictionary
  3
ACAD_GROUP
350
D
  3
ACAD_MLINESTYLE
350
E
  0
DICTIONARY
  5
D
102
{ACAD_REACTORS
330
C
102
}
100
AcDbDictionary
  0
DICTIONARY
  5
E
102
{ACAD_REACTORS
330
C
102
}
100
AcDbDictionary
  3
STANDARD
350
1C
  0
MLINESTYLE
  5
1C
102
{ACAD_REACTORS
330
E
102
}
100
AcDbMlineStyle
  2
STANDARD
 70
     0
  3

 62
     0
 51
90.0
 52
90.0
 71
     2
 49
0.5
 62
   256
  6
BYLAYER
 49
-0.5
 62
   256
  6
BYLAYER
  0
ENDSEC
  0
EOF
