  0
SECTION
  2
HEADER
  9
$ACADVER
  1
AC1012
  9
$DWGCODEPAGE
  3
iso8859-1
  9
$INSBASE
 10
0.0
 20
0.0
 30
0.0
  9
$EXTMIN
 10
106.175296
 20
43.340471
 30
0.0
  9
$EXTMAX
 10
166.175296
 20
198.340471
 30
0.0
  9
$LIMMIN
 10
0.0
 20
0.0
  9
$LIMMAX
 10
200.0
 20
250.0
  9
$ORTHOMODE
 70
     1
  9
$REGENMODE
 70
     1
  9
$FILLMODE
 70
     1
  9
$QTEXTMODE
 70
     0
  9
$MIRRTEXT
 70
     1
  9
$DRAGMODE
 70
     2
  9
$LTSCALE
 40
0.841751
  9
$OSMODE
 70
     0
  9
$ATTMODE
 70
     1
  9
$TEXTSIZE
 40
5.0
  9
$TRACEWID
 40
1.0
  9
$TEXTSTYLE
  7
STANDARD
  9
$CLAYER
  8
QUOTE
  9
$CELTYPE
  6
CONTINUOUS
  9
$CECOLOR
 62
   256
  9
$CELTSCALE
 40
1.0
  9
$DELOBJ
 70
     1
  9
$DISPSILH
 70
     0
  9
$DIMSCALE
 40
1.0
  9
$DIMASZ
 40
2.6
  9
$DIMEXO
 40
0.53
  9
$DIMDLI
 40
3.16
  9
$DIMRND
 40
0.0
  9
$DIMDLE
 40
0.0
  9
$DIMEXE
 40
1.05
  9
$DIMTP
 40
0.2
  9
$DIMTM
 40
0.0
  9
$DIMTXT
 40
5.0
  9
$DIMCEN
 40
2.1
  9
$DIMTSZ
 40
0.0
  9
$DIMTOL
 70
     0
  9
$DIMLIM
 70
     0
  9
$DIMTIH
 70
     0
  9
$DIMTOH
 70
     0
  9
$DIMSE1
 70
     0
  9
$DIMSE2
 70
     0
  9
$DIMTAD
 70
     1
  9
$DIMZIN
 70
     8
  9
$DIMBLK
  1

  9
$DIMASO
 70
     1
  9
$DIMSHO
 70
     1
  9
$DIMPOST
  1

  9
$DIMAPOST
  1

  9
$DIMALT
 70
     0
  9
$DIMALTD
 70
     2
  9
$DIMALTF
 40
0.0394
  9
$DIMLFAC
 40
1.0
  9
$DIMTOFL
 70
     1
  9
$DIMTVP
 40
1.0
  9
$DIMTIX
 70
     0
  9
$DIMSOXD
 70
     0
  9
$DIMSAH
 70
     0
  9
$DIMBLK1
  1

  9
$DIMBLK2
  1

  9
$DIMSTYLE
  2
ISO-25
  9
$DIMCLRD
 70
     0
  9
$DIMCLRE
 70
     0
  9
$DIMCLRT
 70
     0
  9
$DIMTFAC
 40
1.0
  9
$DIMGAP
 40
0.53
  9
$DIMJUST
 70
     0
  9
$DIMSD1
 70
     0
  9
$DIMSD2
 70
     0
  9
$DIMTOLJ
 70
     1
  9
$DIMTZIN
 70
     0
  9
$DIMALTZ
 70
     0
  9
$DIMALTTZ
 70
     0
  9
$DIMFIT
 70
     3
  9
$DIMUPT
 70
     0
  9
$DIMUNIT
 70
     2
  9
$DIMDEC
 70
     2
  9
$DIMTDEC
 70
     2
  9
$DIMALTU
 70
     2
  9
$DIMALTTD
 70
     2
  9
$DIMTXSTY
  7
STANDARD
  9
$DIMAUNIT
 70
     0
  9
$LUNITS
 70
     2
  9
$LUPREC
 70
     2
  9
$SKETCHINC
 40
1.0
  9
$FILLETRAD
 40
1.5
  9
$AUNITS
 70
     0
  9
$AUPREC
 70
     2
  9
$MENU
  1
.
  9
$ELEVATION
 40
0.0
  9
$PELEVATION
 40
0.0
  9
$THICKNESS
 40
0.0
  9
$LIMCHECK
 70
     0
  9
$BLIPMODE
 70
     1
  9
$CHAMFERA
 40
1.0
  9
$CHAMFERB
 40
1.0
  9
$CHAMFERC
 40
16.835017
  9
$CHAMFERD
 40
0.0
  9
$SKPOLY
 70
     0
  9
$TDCREATE
 40
2450962.329882870
  9
$TDUPDATE
 40
2451781.637740857
  9
$TDINDWG
 40
0.9668021991
  9
$TDUSRTIMER
 40
0.9668021991
  9
$USRTIMER
 70
     1
  9
$ANGBASE
 50
0.0
  9
$ANGDIR
 70
     0
  9
$PDMODE
 70
     0
  9
$PDSIZE
 40
0.0
  9
$PLINEWID
 40
0.0
  9
$COORDS
 70
     0
  9
$SPLFRAME
 70
     0
  9
$SPLINETYPE
 70
     6
  9
$SPLINESEGS
 70
     8
  9
$ATTDIA
 70
     0
  9
$ATTREQ
 70
     1
  9
$HANDLING
 70
     1
  9
$HANDSEED
  5
356D
  9
$SURFTAB1
 70
     6
  9
$SURFTAB2
 70
     6
  9
$SURFTYPE
 70
     6
  9
$SURFU
 70
     6
  9
$SURFV
 70
     6
  9
$UCSNAME
  2

  9
$UCSORG
 10
0.0
 20
0.0
 30
0.0
  9
$UCSXDIR
 10
1.0
 20
0.0
 30
0.0
  9
$UCSYDIR
 10
0.0
 20
1.0
 30
0.0
  9
$PUCSNAME
  2

  9
$PUCSORG
 10
0.0
 20
0.0
 30
0.0
  9
$PUCSXDIR
 10
1.0
 20
0.0
 30
0.0
  9
$PUCSYDIR
 10
0.0
 20
1.0
 30
0.0
  9
$USERI1
 70
     0
  9
$USERI2
 70
     0
  9
$USERI3
 70
     0
  9
$USERI4
 70
     0
  9
$USERI5
 70
     0
  9
$USERR1
 40
0.0
  9
$USERR2
 40
0.0
  9
$USERR3
 40
0.0
  9
$USERR4
 40
0.0
  9
$USERR5
 40
0.0
  9
$WORLDVIEW
 70
     1
  9
$SHADEDGE
 70
     3
  9
$SHADEDIF
 70
    70
  9
$TILEMODE
 70
     1
  9
$MAXACTVP
 70
    16
  9
$PINSBASE
 10
0.0
 20
0.0
 30
0.0
  9
$PLIMCHECK
 70
     0
  9
$PEXTMIN
 10
1.000000E+20
 20
1.000000E+20
 30
1.000000E+20
  9
$PEXTMAX
 10
-1.000000E+20
 20
-1.000000E+20
 30
-1.000000E+20
  9
$PLIMMIN
 10
0.0
 20
0.0
  9
$PLIMMAX
 10
420.0
 20
297.0
  9
$UNITMODE
 70
     0
  9
$VISRETAIN
 70
     0
  9
$PLINEGEN
 70
     0
  9
$PSLTSCALE
 70
     1
  9
$TREEDEPTH
 70
  3020
  9
$PICKSTYLE
 70
     1
  9
$CMLSTYLE
  2
STANDARD
  9
$CMLJUST
 70
     0
  9
$CMLSCALE
 40
1.0
  9
$SAVEIMAGES
 70
     0
  0
ENDSEC
  0
SECTION
  2
CLASSES
  0
ENDSEC
  0
SECTION
  2
TABLES
  0
TABLE
  2
VPORT
  5
8
100
AcDbSymbolTable
 70
     2
  0
VPORT
  5
356C
100
AcDbSymbolTableRecord
100
AcDbViewportTableRecord
  2
*ACTIVE
 70
     0
 10
0.0
 20
0.0
 11
1.0
 21
1.0
 12
115.631224
 22
107.976849
 13
0.0
 23
0.0
 14
5.0
 24
5.0
 15
5.0
 25
5.0
 16
0.0
 26
0.0
 36
1.0
 17
0.0
 27
0.0
 37
0.0
 40
201.143928
 41
1.563011
 42
50.0
 43
0.0
 44
0.0
 50
0.0
 51
0.0
 71
     0
 72
   100
 73
     1
 74
     0
 75
     0
 76
     0
 77
     0
 78
     2
  0
ENDTAB
  0
TABLE
  2
LTYPE
  5
5
100
AcDbSymbolTable
 70
     4
  0
LTYPE
  5
14
100
AcDbSymbolTableRecord
100
AcDbLinetypeTableRecord
  2
BYBLOCK
 70
     0
  3

 72
    65
 73
     0
 40
0.0
  0
LTYPE
  5
15
100
AcDbSymbolTableRecord
100
AcDbLinetypeTableRecord
  2
BYLAYER
 70
     0
  3

 72
    65
 73
     0
 40
0.0
  0
LTYPE
  5
16
100
AcDbSymbolTableRecord
100
AcDbLinetypeTableRecord
  2
CONTINUOUS
 70
    64
  3
Solid line
 72
    65
 73
     0
 40
0.0
  0
LTYPE
  5
62
100
AcDbSymbolTableRecord
100
AcDbLinetypeTableRecord
  2
LINEA-LINEETTEX2
 70
    64
  3
____________    ____    ____    ____________   
 72
    65
 73
     6
 40
5.0
 49
2.5
 74
     0
 49
-0.5
 74
     0
 49
0.5
 74
     0
 49
-0.5
 74
     0
 49
0.5
 74
     0
 49
-0.5
 74
     0
  0
LTYPE
  5
63
100
AcDbSymbolTableRecord
100
AcDbLinetypeTableRecord
  2
TRATTEGGIATA
 70
    64
  3
__ __ __ __ __ __ __ __ __ __ __ __ __ __ __ __
 72
    65
 73
     2
 40
0.75
 49
0.5
 74
     0
 49
-0.25
 74
     0
  0
LTYPE
  5
1428
100
AcDbSymbolTableRecord
100
AcDbLinetypeTableRecord
  2
TRATTO-PUNTO
 70
    64
  3
__ . __ . __ . __ . __ . __ . __ . __ . __ . __
 72
    65
 73
     4
 40
1.0
 49
0.5
 74
     0
 49
-0.25
 74
     0
 49
0.0
 74
     0
 49
-0.25
 74
     0
  0
ENDTAB
  0
TABLE
  2
LAYER
  5
2
100
AcDbSymbolTable
 70
     8
  0
LAYER
  5
F
100
AcDbSymbolTableRecord
100
AcDbLayerTableRecord
  2
0
 70
     0
 62
     7
  6
CONTINUOUS
  0
LAYER
  5
64
100
AcDbSymbolTableRecord
100
AcDbLayerTableRecord
  2
OGGETTO
 70
    64
 62
     7
  6
CONTINUOUS
  0
LAYER
  5
65
100
AcDbSymbolTableRecord
100
AcDbLayerTableRecord
  2
QUOTE
 70
    64
 62
     1
  6
CONTINUOUS
  0
LAYER
  5
66
100
AcDbSymbolTableRecord
100
AcDbLayerTableRecord
  2
CENTRO
 70
    64
 62
     3
  6
TRATTO-PUNTO
  0
LAYER
  5
67
100
AcDbSymbolTableRecord
100
AcDbLayerTableRecord
  2
NASCOSTA
 70
    64
 62
     5
  6
TRATTEGGIATA
  0
LAYER
  5
68
100
AcDbSymbolTableRecord
100
AcDbLayerTableRecord
  2
SEZIONE
 70
    64
 62
     8
  6
CONTINUOUS
  0
LAYER
  5
94
100
AcDbSymbolTableRecord
100
AcDbLayerTableRecord
  2
DEFPOINTS
 70
    64
 62
     7
  6
CONTINUOUS
  0
LAYER
  5
F74
100
AcDbSymbolTableRecord
100
AcDbLayerTableRecord
  2
TESTO
 70
    64
 62
     6
  6
CONTINUOUS
  0
ENDTAB
  0
TABLE
  2
STYLE
  5
3
100
AcDbSymbolTable
 70
     5
  0
STYLE
  5
10
100
AcDbSymbolTableRecord
100
AcDbTextStyleTableRecord
  2
STANDARD
 70
    64
 40
5.0
 41
1.0
 50
0.0
 71
     0
 42
5.0
  3
D:\Programmi\AutoCAD LT\isocp.shx
  4

  0
STYLE
  5
6A
100
AcDbSymbolTableRecord
100
AcDbTextStyleTableRecord
  2

 70
    65
 40
0.0
 41
1.0
 50
0.0
 71
     0
 42
2.104377
  3
ltypeshp.shx
  4

  0
STYLE
  5
176C
100
AcDbSymbolTableRecord
100
AcDbTextStyleTableRecord
  2
QUOTE
 70
    64
 40
0.0
 41
1.0
 50
0.0
 71
     0
 42
3.5
  3
C:\Programmi\AutoCAD LT\monosbi.ttf
  4

  0
STYLE
  5
259D
100
AcDbSymbolTableRecord
100
AcDbTextStyleTableRecord
  2
TABELLA
 70
    64
 40
5.0
 41
0.7
 50
0.0
 71
     0
 42
5.0
  3
C:\Programmi\AutoCAD LT\italicc.shx
  4

  0
STYLE
  5
292E
100
AcDbSymbolTableRecord
100
AcDbTextStyleTableRecord
  2
ARIAL
 70
    64
 40
5.0
 41
1.0
 50
0.0
 71
     0
 42
5.0
  3
C:\Windows\FONTS\Arial.ttf
  4

  0
ENDTAB
  0
TABLE
  2
VIEW
  5
6
100
AcDbSymbolTable
 70
     0
  0
ENDTAB
  0
TABLE
  2
UCS
  5
7
100
AcDbSymbolTable
 70
     0
  0
ENDTAB
  0
TABLE
  2
APPID
  5
9
100
AcDbSymbolTable
 70
     1
  0
APPID
  5
11
100
AcDbSymbolTableRecord
100
AcDbRegAppTableRecord
  2
ACAD
 70
     0
  0
ENDTAB
  0
TABLE
  2
DIMSTYLE
  5
A
100
AcDbSymbolTable
 70
     9
  0
DIMSTYLE
105
1D
100
AcDbSymbolTableRecord
100
AcDbDimStyleTableRecord
  2
STANDARD
 70
     0
  3

  4

  5

  6

  7

 40
1.0
 41
0.18
 42
0.0625
 43
0.38
 44
0.18
 45
0.0
 46
0.0
 47
0.0
 48
0.0
140
0.18
141
0.09
142
0.0
143
25.4
144
1.0
145
0.0
146
1.0
147
0.09
 71
     0
 72
     0
 73
     1
 74
     1
 75
     0
 76
     0
 77
     0
 78
     0
170
     0
171
     2
172
     0
173
     0
174
     0
175
     0
176
     0
177
     0
178
     0
270
     2
271
     4
272
     4
273
     2
274
     2
340
10
275
     0
280
     0
281
     0
282
     0
283
     1
284
     0
285
     0
286
     0
287
     3
288
     0
  0
DIMSTYLE
105
24
100
AcDbSymbolTableRecord
100
AcDbDimStyleTableRecord
  2
ISO-25
 70
     0
  3

  4

  5

  6

  7

 40
1.0
 41
2.5
 42
0.625
 43
3.75
 44
1.25
 45
0.0
 46
0.0
 47
0.0
 48
0.0
140
2.5
141
2.5
142
0.0
143
0.0394
144
1.0
145
1.0
146
1.0
147
0.625
 71
     0
 72
     0
 73
     1
 74
     0
 75
     0
 76
     0
 77
     1
 78
     8
170
     0
171
     2
172
     1
173
     0
174
     0
175
     0
176
     0
177
     0
178
     0
270
     2
271
     4
272
     4
273
     2
274
     2
340
10
275
     0
280
     0
281
     0
282
     0
283
     1
284
     0
285
     0
286
     0
287
     3
288
     0
  0
DIMSTYLE
105
25
100
AcDbSymbolTableRecord
100
AcDbDimStyleTableRecord
  2
ISO-35
 70
     0
  3

  4

  5

  6

  7

 40
1.0
 41
3.5
 42
0.875
 43
5.25
 44
1.75
 45
0.0
 46
0.0
 47
0.0
 48
0.0
140
3.5
141
3.5
142
0.0
143
0.0394
144
1.0
145
1.4
146
1.0
147
0.875
 71
     0
 72
     0
 73
     1
 74
     0
 75
     0
 76
     0
 77
     1
 78
     8
170
     0
171
     2
172
     1
173
     0
174
     0
175
     0
176
     0
177
     0
178
     0
270
     2
271
     4
272
     4
273
     2
274
     2
340
10
275
     0
280
     0
281
     0
282
     0
283
     1
284
     0
285
     0
286
     0
287
     3
288
     0
  0
DIMSTYLE
105
26
100
AcDbSymbolTableRecord
100
AcDbDimStyleTableRecord
  2
ISO-5
 70
     0
  3

  4

  5

  6

  7

 40
1.0
 41
5.0
 42
1.25
 43
7.5
 44
2.5
 45
0.0
 46
0.0
 47
0.0
 48
0.0
140
5.0
141
5.0
142
0.0
143
0.0394
144
1.0
145
2.0
146
1.0
147
1.25
 71
     0
 72
     0
 73
     1
 74
     0
 75
     0
 76
     0
 77
     1
 78
     8
170
     0
171
     2
172
     1
173
     0
174
     0
175
     0
176
     0
177
     0
178
     0
270
     2
271
     4
272
     4
273
     2
274
     2
340
10
275
     0
280
     0
281
     0
282
     0
283
     1
284
     0
285
     0
286
     0
287
     3
288
     0
  0
DIMSTYLE
105
27
100
AcDbSymbolTableRecord
100
AcDbDimStyleTableRecord
  2
ISO-7
 70
     0
  3

  4

  5

  6

  7

 40
1.0
 41
7.0
 42
1.75
 43
10.5
 44
3.5
 45
0.0
 46
0.0
 47
0.0
 48
0.0
140
7.0
141
7.0
142
0.0
143
0.0394
144
1.0
145
2.8
146
1.0
147
1.75
 71
     0
 72
     0
 73
     1
 74
     0
 75
     0
 76
     0
 77
     1
 78
     8
170
     0
171
     2
172
     1
173
     0
174
     0
175
     0
176
     0
177
     0
178
     0
270
     2
271
     4
272
     4
273
     2
274
     2
340
10
275
     0
280
     0
281
     0
282
     0
283
     1
284
     0
285
     0
286
     0
287
     3
288
     0
  0
DIMSTYLE
105
28
100
AcDbSymbolTableRecord
100
AcDbDimStyleTableRecord
  2
ISO1
 70
     0
  3

  4

  5

  6

  7

 40
1.0
 41
10.0
 42
2.5
 43
15.0
 44
5.0
 45
0.0
 46
0.0
 47
0.0
 48
0.0
140
10.0
141
10.0
142
0.0
143
0.0394
144
1.0
145
4.0
146
1.0
147
2.5
 71
     0
 72
     0
 73
     1
 74
     0
 75
     0
 76
     0
 77
     1
 78
     8
170
     0
171
     2
172
     1
173
     0
174
     0
175
     0
176
     0
177
     0
178
     0
270
     2
271
     4
272
     4
273
     2
274
     2
340
10
275
     0
280
     0
281
     0
282
     0
283
     1
284
     0
285
     0
286
     0
287
     3
288
     0
  0
DIMSTYLE
105
29
100
AcDbSymbolTableRecord
100
AcDbDimStyleTableRecord
  2
ISO1-4
 70
     0
  3

  4

  5

  6

  7

 40
1.0
 41
14.0
 42
3.5
 43
21.0
 44
7.0
 45
0.0
 46
0.0
 47
0.0
 48
0.0
140
14.0
141
14.0
142
0.0
143
0.0394
144
1.0
145
5.6
146
1.0
147
3.5
 71
     0
 72
     0
 73
     1
 74
     0
 75
     0
 76
     0
 77
     1
 78
     8
170
     0
171
     2
172
     1
173
     0
174
     0
175
     0
176
     0
177
     0
178
     0
270
     2
271
     4
272
     4
273
     2
274
     2
340
10
275
     0
280
     0
281
     0
282
     0
283
     1
284
     0
285
     0
286
     0
287
     3
288
     0
  0
DIMSTYLE
105
2A
100
AcDbSymbolTableRecord
100
AcDbDimStyleTableRecord
  2
ISO2
 70
     0
  3

  4

  5

  6

  7

 40
1.0
 41
20.0
 42
5.0
 43
30.0
 44
10.0
 45
0.0
 46
0.0
 47
0.0
 48
0.0
140
20.0
141
20.0
142
0.0
143
0.0394
144
1.0
145
8.0
146
1.0
147
5.0
 71
     0
 72
     0
 73
     1
 74
     0
 75
     0
 76
     0
 77
     1
 78
     8
170
     0
171
     2
172
     1
173
     0
174
     0
175
     0
176
     0
177
     0
178
     0
270
     2
271
     4
272
     4
273
     2
274
     2
340
10
275
     0
280
     0
281
     0
282
     0
283
     1
284
     0
285
     0
286
     0
287
     3
288
     0
  0
DIMSTYLE
105
176D
100
AcDbSymbolTableRecord
100
AcDbDimStyleTableRecord
  2
TOLL-01-03
 70
     0
  3
 <>
  4
inch[]
  5

  6

  7

 40
1.0
 41
5.0
 42
2.0
 43
3.75
 44
1.25
 45
0.0
 46
0.0
 47
0.01
 48
0.03
140
5.0
141
-5.0
142
0.0
143
0.03937
144
1.0
145
0.0
146
0.5
147
2.0
 71
     1
 72
     0
 73
     0
 74
     0
 75
     0
 76
     0
 77
     3
 78
     8
170
     0
171
     2
172
     0
173
     0
174
     0
175
     0
176
     0
177
     0
178
     0
270
     2
271
     3
272
     2
273
     2
274
     2
340
176C
275
     0
280
     0
281
     0
282
     0
283
     2
284
     8
285
     8
286
     0
287
     5
288
     0
  0
ENDTAB
  0
TABLE
  2
BLOCK_RECORD
  5
1
100
AcDbSymbolTable
 70
    25
  0
BLOCK_RECORD
  5
1A
100
AcDbSymbolTableRecord
100
AcDbBlockTableRecord
  2
*MODEL_SPACE
  0
BLOCK_RECORD
  5
17
100
AcDbSymbolTableRecord
100
AcDbBlockTableRecord
  2
*PAPER_SPACE
  0
BLOCK_RECORD
  5
176E
100
AcDbSymbolTableRecord
100
AcDbBlockTableRecord
  2
TABELLA
  0
BLOCK_RECORD
  5
2942
100
AcDbSymbolTableRecord
100
AcDbBlockTableRecord
  2
A$C21F4
  0
BLOCK_RECORD
  5
2F5B
100
AcDbSymbolTableRecord
100
AcDbBlockTableRecord
  2
*D2
  0
BLOCK_RECORD
  5
323A
100
AcDbSymbolTableRecord
100
AcDbBlockTableRecord
  2
*D3
  0
BLOCK_RECORD
  5
3248
100
AcDbSymbolTableRecord
100
AcDbBlockTableRecord
  2
*D4
  0
BLOCK_RECORD
  5
3256
100
AcDbSymbolTableRecord
100
AcDbBlockTableRecord
  2
*D5
  0
BLOCK_RECORD
  5
3262
100
AcDbSymbolTableRecord
100
AcDbBlockTableRecord
  2
*D6
  0
BLOCK_RECORD
  5
3270
100
AcDbSymbolTableRecord
100
AcDbBlockTableRecord
  2
*D7
  0
BLOCK_RECORD
  5
327C
100
AcDbSymbolTableRecord
100
AcDbBlockTableRecord
  2
*D8
  0
BLOCK_RECORD
  5
3288
100
AcDbSymbolTableRecord
100
AcDbBlockTableRecord
  2
*D9
  0
BLOCK_RECORD
  5
3294
100
AcDbSymbolTableRecord
100
AcDbBlockTableRecord
  2
A$CB174
  0
BLOCK_RECORD
  5
339E
100
AcDbSymbolTableRecord
100
AcDbBlockTableRecord
  2
*D11
  0
BLOCK_RECORD
  5
33BA
100
AcDbSymbolTableRecord
100
AcDbBlockTableRecord
  2
*D12
  0
BLOCK_RECORD
  5
33F3
100
AcDbSymbolTableRecord
100
AcDbBlockTableRecord
  2
*X13
  0
BLOCK_RECORD
  5
3463
100
AcDbSymbolTableRecord
100
AcDbBlockTableRecord
  2
*D14
  0
BLOCK_RECORD
  5
346F
100
AcDbSymbolTableRecord
100
AcDbBlockTableRecord
  2
*D15
  0
BLOCK_RECORD
  5
347D
100
AcDbSymbolTableRecord
100
AcDbBlockTableRecord
  2
*D16
  0
BLOCK_RECORD
  5
348B
100
AcDbSymbolTableRecord
100
AcDbBlockTableRecord
  2
*D17
  0
BLOCK_RECORD
  5
3497
100
AcDbSymbolTableRecord
100
AcDbBlockTableRecord
  2
*D18
  0
BLOCK_RECORD
  5
34A3
100
AcDbSymbolTableRecord
100
AcDbBlockTableRecord
  2
A$CC001
  0
BLOCK_RECORD
  5
34C1
100
AcDbSymbolTableRecord
100
AcDbBlockTableRecord
  2
*D20
  0
BLOCK_RECORD
  5
34CF
100
AcDbSymbolTableRecord
100
AcDbBlockTableRecord
  2
*D21
  0
BLOCK_RECORD
  5
34DD
100
AcDbSymbolTableRecord
100
AcDbBlockTableRecord
  2
*D22
  0
BLOCK_RECORD
  5
34E9
100
AcDbSymbolTableRecord
100
AcDbBlockTableRecord
  2
*D23
  0
BLOCK_RECORD
  5
34F5
100
AcDbSymbolTableRecord
100
AcDbBlockTableRecord
  2
*D24
  0
ENDTAB
  0
ENDSEC
  0
SECTION
  2
BLOCKS
  0
BLOCK
  5
1B
100
AcDbEntity
  8
0
100
AcDbBlockBegin
  2
*MODEL_SPACE
 70
     0
 10
0.0
 20
0.0
 30
0.0
  3
*MODEL_SPACE
  1

  0
ENDBLK
  5
1C
100
AcDbEntity
  8
0
100
AcDbBlockEnd
  0
BLOCK
  5
18
100
AcDbEntity
 67
     1
  8
0
100
AcDbBlockBegin
  2
*PAPER_SPACE
 70
     0
 10
0.0
 20
0.0
 30
0.0
  3
*PAPER_SPACE
  1

  0
ENDBLK
  5
19
100
AcDbEntity
 67
     1
  8
0
100
AcDbBlockEnd
  0
BLOCK
  5
1776
100
AcDbEntity
  8
SEZIONE
  6
CONTINUOUS
100
AcDbBlockBegin
  2
TABELLA
 70
     2
 10
0.0
 20
0.0
 30
0.0
  3
TABELLA
  1

  0
ATTDEF
  5
176F
100
AcDbEntity
  8
QUOTE
100
AcDbText
 10
-33.649491
 20
11.454845
 30
0.0
 40
3.5
  1

  7
QUOTE
100
AcDbAttributeDefinition
  3
revisione ?
  2
REVISIONE
 70
     0
  0
LINE
  5
1770
100
AcDbEntity
  8
QUOTE
100
AcDbLine
 10
-43.336415
 20
9.418407
 30
0.0
 11
0.0
 21
9.418407
 31
0.0
  0
LINE
  5
1771
100
AcDbEntity
  8
QUOTE
100
AcDbLine
 10
0.0
 20
0.0
 30
0.0
 11
-43.336415
 21
0.0
 31
0.0
  0
LINE
  5
1772
100
AcDbEntity
  8
QUOTE
100
AcDbLine
 10
-43.336415
 20
18.836814
 30
0.0
 11
0.0
 21
18.836814
 31
0.0
  0
LINE
  5
1773
100
AcDbEntity
  8
QUOTE
100
AcDbLine
 10
-43.336415
 20
0.0
 30
0.0
 11
-43.336415
 21
18.836814
 31
0.0
  0
ATTDEF
  5
1774
100
AcDbEntity
  8
QUOTE
100
AcDbText
 10
-30.845352
 20
2.545496
 30
0.0
 40
3.5
  1

  7
QUOTE
100
AcDbAttributeDefinition
  3
numero del codice ?
  2
CODICE
 70
     0
  0
LINE
  5
1775
100
AcDbEntity
  8
QUOTE
100
AcDbLine
 10
0.0
 20
18.836814
 30
0.0
 11
0.0
 21
0.0
 31
0.0
  0
ENDBLK
  5
1777
100
AcDbEntity
  8
SEZIONE
  6
CONTINUOUS
100
AcDbBlockEnd
  0
BLOCK
  5
2948
100
AcDbEntity
  8
SEZIONE
  6
CONTINUOUS
100
AcDbBlockBegin
  2
A$C21F4
 70
     0
 10
0.0
 20
0.0
 30
0.0
  3
A$C21F4
  1

  0
TEXT
  5
2943
100
AcDbEntity
  8
SEZIONE
  6
CONTINUOUS
 62
     7
100
AcDbText
 10
11.030145
 20
2.688394
 30
0.0
 40
5.0
  1
42CrMo4
  7
ARIAL
 72
     4
 11
25.150818
 21
5.188394
 31
0.0
100
AcDbText
  0
LINE
  5
2944
100
AcDbEntity
  8
SEZIONE
  6
CONTINUOUS
 62
     7
100
AcDbLine
 10
0.150818
 20
10.188394
 30
0.0
 11
50.150818
 21
10.188394
 31
0.0
  0
LINE
  5
2945
100
AcDbEntity
  8
SEZIONE
  6
CONTINUOUS
 62
     7
100
AcDbLine
 10
50.150818
 20
0.188394
 30
0.0
 11
0.150818
 21
0.188394
 31
0.0
  0
LINE
  5
2946
100
AcDbEntity
  8
SEZIONE
  6
CONTINUOUS
 62
     7
100
AcDbLine
 10
0.150818
 20
0.188394
 30
0.0
 11
0.150818
 21
10.188394
 31
0.0
  0
LINE
  5
2947
100
AcDbEntity
  8
SEZIONE
  6
CONTINUOUS
 62
     7
100
AcDbLine
 10
50.150818
 20
10.188394
 30
0.0
 11
50.150818
 21
0.188394
 31
0.0
  0
ENDBLK
  5
2949
100
AcDbEntity
  8
SEZIONE
  6
CONTINUOUS
100
AcDbBlockEnd
  0
BLOCK
  5
2F5C
100
AcDbEntity
  8
0
100
AcDbBlockBegin
  2
*D2
 70
    65
 10
0.0
 20
0.0
 30
0.0
  3
*D2
  1

  0
LINE
  5
2F5D
100
AcDbEntity
  8
0
  6
BYBLOCK
 62
     0
100
AcDbLine
 10
171.314267
 20
198.340471
 30
0.0
 11
155.7142
 21
198.340471
 31
0.0
  0
LINE
  5
2F5E
100
AcDbEntity
  8
0
  6
BYBLOCK
 62
     0
100
AcDbLine
 10
181.314267
 20
43.340471
 30
0.0
 11
155.7142
 21
43.340471
 31
0.0
  0
LINE
  5
2F5F
100
AcDbEntity
  8
0
  6
BYBLOCK
 62
     0
100
AcDbLine
 10
156.7642
 20
195.740471
 30
0.0
 11
156.7642
 21
45.940471
 31
0.0
  0
SOLID
  5
2F60
100
AcDbEntity
  8
0
  6
BYBLOCK
 62
     0
100
AcDbTrace
 10
156.330866
 20
195.740471
 30
0.0
 11
157.197533
 21
195.740471
 31
0.0
 12
156.7642
 22
198.340471
 32
0.0
 13
156.7642
 23
198.340471
 33
0.0
  0
SOLID
  5
2F61
100
AcDbEntity
  8
0
  6
BYBLOCK
 62
     0
100
AcDbTrace
 10
156.330866
 20
45.940471
 30
0.0
 11
157.197533
 21
45.940471
 31
0.0
 12
156.7642
 22
43.340471
 32
0.0
 13
156.7642
 23
43.340471
 33
0.0
  0
MTEXT
  5
2F62
100
AcDbEntity
  8
0
  6
BYBLOCK
 62
     0
100
AcDbMText
 10
153.7342
 20
120.840471
 30
0.0
 40
5.0
 41
0.0
 71
     5
 72
     1
  1
\A1;155
 11
0.0
 21
1.0
 31
0.0
  0
POINT
  5
2F63
100
AcDbEntity
  8
DEFPOINTS
  6
BYBLOCK
 62
     0
100
AcDbPoint
 10
171.844267
 20
198.340471
 30
0.0
  0
POINT
  5
2F64
100
AcDbEntity
  8
DEFPOINTS
  6
BYBLOCK
 62
     0
100
AcDbPoint
 10
181.844267
 20
43.340471
 30
0.0
  0
POINT
  5
2F65
100
AcDbEntity
  8
DEFPOINTS
  6
BYBLOCK
 62
     0
100
AcDbPoint
 10
156.7642
 20
43.340471
 30
0.0
  0
ENDBLK
  5
2F66
100
AcDbEntity
  8
0
100
AcDbBlockEnd
  0
BLOCK
  5
3246
100
AcDbEntity
  8
0
100
AcDbBlockBegin
  2
*D3
 70
    65
 10
0.0
 20
0.0
 30
0.0
  3
*D3
  1

  0
LINE
  5
323B
100
AcDbEntity
  8
0
  6
BYBLOCK
 62
     0
100
AcDbLine
 10
171.844267
 20
198.870471
 30
0.0
 11
171.844267
 21
207.290928
 31
0.0
  0
LINE
  5
323C
100
AcDbEntity
  8
0
  6
BYBLOCK
 62
     0
100
AcDbLine
 10
181.844267
 20
198.870471
 30
0.0
 11
181.844267
 21
207.290928
 31
0.0
  0
LINE
  5
323D
100
AcDbEntity
  8
0
  6
BYBLOCK
 62
     0
100
AcDbLine
 10
169.244267
 20
206.240928
 30
0.0
 11
166.644267
 21
206.240928
 31
0.0
  0
LINE
  5
323E
100
AcDbEntity
  8
0
  6
BYBLOCK
 62
     0
100
AcDbLine
 10
184.444267
 20
206.240928
 30
0.0
 11
187.044267
 21
206.240928
 31
0.0
  0
LINE
  5
323F
100
AcDbEntity
  8
0
  6
BYBLOCK
 62
     0
100
AcDbLine
 10
171.844267
 20
206.240928
 30
0.0
 11
181.844267
 21
206.240928
 31
0.0
  0
SOLID
  5
3240
100
AcDbEntity
  8
0
  6
BYBLOCK
 62
     0
100
AcDbTrace
 10
169.244267
 20
206.674261
 30
0.0
 11
169.244267
 21
205.807595
 31
0.0
 12
171.844267
 22
206.240928
 32
0.0
 13
171.844267
 23
206.240928
 33
0.0
  0
SOLID
  5
3241
100
AcDbEntity
  8
0
  6
BYBLOCK
 62
     0
100
AcDbTrace
 10
184.444267
 20
206.674261
 30
0.0
 11
184.444267
 21
205.807595
 31
0.0
 12
181.844267
 22
206.240928
 32
0.0
 13
181.844267
 23
206.240928
 33
0.0
  0
MTEXT
  5
3242
100
AcDbEntity
  8
0
  6
BYBLOCK
 62
     0
100
AcDbMText
 10
176.844267
 20
209.270928
 30
0.0
 40
5.0
 41
0.0
 71
     5
 72
     1
  1
\A1;10
  0
POINT
  5
3243
100
AcDbEntity
  8
DEFPOINTS
  6
BYBLOCK
 62
     0
100
AcDbPoint
 10
171.844267
 20
198.340471
 30
0.0
  0
POINT
  5
3244
100
AcDbEntity
  8
DEFPOINTS
  6
BYBLOCK
 62
     0
100
AcDbPoint
 10
181.844267
 20
198.340471
 30
0.0
  0
POINT
  5
3245
100
AcDbEntity
  8
DEFPOINTS
  6
BYBLOCK
 62
     0
100
AcDbPoint
 10
181.844267
 20
206.240928
 30
0.0
  0
ENDBLK
  5
3247
100
AcDbEntity
  8
0
100
AcDbBlockEnd
  0
BLOCK
  5
3254
100
AcDbEntity
  8
0
100
AcDbBlockBegin
  2
*D4
 70
    65
 10
0.0
 20
0.0
 30
0.0
  3
*D4
  1

  0
LINE
  5
3249
100
AcDbEntity
  8
0
  6
BYBLOCK
 62
     0
100
AcDbLine
 10
116.175296
 20
198.870471
 30
0.0
 11
116.175296
 21
207.290928
 31
0.0
  0
LINE
  5
324A
100
AcDbEntity
  8
0
  6
BYBLOCK
 62
     0
100
AcDbLine
 10
126.175296
 20
198.870471
 30
0.0
 11
126.175296
 21
207.290928
 31
0.0
  0
LINE
  5
324B
100
AcDbEntity
  8
0
  6
BYBLOCK
 62
     0
100
AcDbLine
 10
113.575296
 20
206.240928
 30
0.0
 11
110.975296
 21
206.240928
 31
0.0
  0
LINE
  5
324C
100
AcDbEntity
  8
0
  6
BYBLOCK
 62
     0
100
AcDbLine
 10
128.775296
 20
206.240928
 30
0.0
 11
131.375296
 21
206.240928
 31
0.0
  0
LINE
  5
324D
100
AcDbEntity
  8
0
  6
BYBLOCK
 62
     0
100
AcDbLine
 10
116.175296
 20
206.240928
 30
0.0
 11
126.175296
 21
206.240928
 31
0.0
  0
SOLID
  5
324E
100
AcDbEntity
  8
0
  6
BYBLOCK
 62
     0
100
AcDbTrace
 10
113.575296
 20
206.674261
 30
0.0
 11
113.575296
 21
205.807595
 31
0.0
 12
116.175296
 22
206.240928
 32
0.0
 13
116.175296
 23
206.240928
 33
0.0
  0
SOLID
  5
324F
100
AcDbEntity
  8
0
  6
BYBLOCK
 62
     0
100
AcDbTrace
 10
128.775296
 20
206.674261
 30
0.0
 11
128.775296
 21
205.807595
 31
0.0
 12
126.175296
 22
206.240928
 32
0.0
 13
126.175296
 23
206.240928
 33
0.0
  0
MTEXT
  5
3250
100
AcDbEntity
  8
0
  6
BYBLOCK
 62
     0
100
AcDbMText
 10
121.175296
 20
209.270928
 30
0.0
 40
5.0
 41
0.0
 71
     5
 72
     1
  1
\A1;10
  0
POINT
  5
3251
100
AcDbEntity
  8
DEFPOINTS
  6
BYBLOCK
 62
     0
100
AcDbPoint
 10
116.175296
 20
198.340471
 30
0.0
  0
POINT
  5
3252
100
AcDbEntity
  8
DEFPOINTS
  6
BYBLOCK
 62
     0
100
AcDbPoint
 10
126.175296
 20
198.340471
 30
0.0
  0
POINT
  5
3253
100
AcDbEntity
  8
DEFPOINTS
  6
BYBLOCK
 62
     0
100
AcDbPoint
 10
126.175296
 20
206.240928
 30
0.0
  0
ENDBLK
  5
3255
100
AcDbEntity
  8
0
100
AcDbBlockEnd
  0
BLOCK
  5
3260
100
AcDbEntity
  8
0
100
AcDbBlockBegin
  2
*D5
 70
    65
 10
0.0
 20
0.0
 30
0.0
  3
*D5
  1

  0
LINE
  5
3257
100
AcDbEntity
  8
0
  6
BYBLOCK
 62
     0
100
AcDbLine
 10
106.175296
 20
197.870471
 30
0.0
 11
106.175296
 21
215.589039
 31
0.0
  0
LINE
  5
3258
100
AcDbEntity
  8
0
  6
BYBLOCK
 62
     0
100
AcDbLine
 10
126.175296
 20
197.870471
 30
0.0
 11
126.175296
 21
215.589039
 31
0.0
  0
LINE
  5
3259
100
AcDbEntity
  8
0
  6
BYBLOCK
 62
     0
100
AcDbLine
 10
108.775296
 20
214.539039
 30
0.0
 11
123.575296
 21
214.539039
 31
0.0
  0
SOLID
  5
325A
100
AcDbEntity
  8
0
  6
BYBLOCK
 62
     0
100
AcDbTrace
 10
108.775296
 20
214.972372
 30
0.0
 11
108.775296
 21
214.105706
 31
0.0
 12
106.175296
 22
214.539039
 32
0.0
 13
106.175296
 23
214.539039
 33
0.0
  0
SOLID
  5
325B
100
AcDbEntity
  8
0
  6
BYBLOCK
 62
     0
100
AcDbTrace
 10
123.575296
 20
214.972372
 30
0.0
 11
123.575296
 21
214.105706
 31
0.0
 12
126.175296
 22
214.539039
 32
0.0
 13
126.175296
 23
214.539039
 33
0.0
  0
MTEXT
  5
325C
100
AcDbEntity
  8
0
  6
BYBLOCK
 62
     0
100
AcDbMText
 10
116.175296
 20
217.569039
 30
0.0
 40
5.0
 41
0.0
 71
     5
 72
     1
  1
\A1;20
  0
POINT
  5
325D
100
AcDbEntity
  8
DEFPOINTS
  6
BYBLOCK
 62
     0
100
AcDbPoint
 10
106.175296
 20
197.340471
 30
0.0
  0
POINT
  5
325E
100
AcDbEntity
  8
DEFPOINTS
  6
BYBLOCK
 62
     0
100
AcDbPoint
 10
126.175296
 20
197.340471
 30
0.0
  0
POINT
  5
325F
100
AcDbEntity
  8
DEFPOINTS
  6
BYBLOCK
 62
     0
100
AcDbPoint
 10
126.175296
 20
214.539039
 30
0.0
  0
ENDBLK
  5
3261
100
AcDbEntity
  8
0
100
AcDbBlockEnd
  0
BLOCK
  5
326E
100
AcDbEntity
  8
0
100
AcDbBlockBegin
  2
*D6
 70
    65
 10
0.0
 20
0.0
 30
0.0
  3
*D6
  1

  0
LINE
  5
3263
100
AcDbEntity
  8
0
  6
BYBLOCK
 62
     0
100
AcDbLine
 10
105.800529
 20
183.965704
 30
0.0
 11
99.949722
 21
178.114897
 31
0.0
  0
ARC
  5
3264
100
AcDbEntity
  8
0
  6
BYBLOCK
 62
     0
100
AcDbCircle
 10
110.675296
 20
188.840471
 30
0.0
 40
14.118252
100
AcDbArc
 50
212.282499
 51
225.0
  0
ARC
  5
3265
100
AcDbEntity
  8
0
  6
BYBLOCK
 62
     0
100
AcDbCircle
 10
110.675296
 20
188.840471
 30
0.0
 40
14.118252
100
AcDbArc
 50
235.566488
 51
259.433512
  0
SOLID
  5
3266
100
AcDbEntity
  8
0
  6
BYBLOCK
 62
     0
100
AcDbTrace
 10
102.41524
 20
176.862652
 30
0.0
 11
102.969034
 21
177.529303
 31
0.0
 12
100.692184
 22
178.857359
 32
0.0
 13
100.692184
 23
178.857359
 33
0.0
  0
SOLID
  5
3267
100
AcDbEntity
  8
0
  6
BYBLOCK
 62
     0
100
AcDbTrace
 10
108.126242
 20
175.393118
 30
0.0
 11
108.04644
 21
174.530133
 31
0.0
 12
110.675296
 22
174.722219
 32
0.0
 13
110.675296
 23
174.722219
 33
0.0
  0
MTEXT
  5
3268
100
AcDbEntity
  8
0
  6
BYBLOCK
 62
     0
100
AcDbMText
 10
98.614517
 20
187.170788
 30
0.0
 40
5.0
 41
0.0
 71
     5
 72
     1
  1
\A1;45°
 11
0.534094
 21
-0.845425
 31
0.0
  0
POINT
  5
3269
100
AcDbEntity
  8
DEFPOINTS
  6
BYBLOCK
 62
     0
100
AcDbPoint
 10
107.021223
 20
175.203287
 30
0.0
  0
POINT
  5
326A
100
AcDbEntity
  8
DEFPOINTS
  6
BYBLOCK
 62
     0
100
AcDbPoint
 10
106.175296
 20
184.340471
 30
0.0
  0
POINT
  5
326B
100
AcDbEntity
  8
DEFPOINTS
  6
BYBLOCK
 62
     0
100
AcDbPoint
 10
110.675296
 20
188.840471
 30
0.0
  0
POINT
  5
326C
100
AcDbEntity
  8
DEFPOINTS
  6
BYBLOCK
 62
     0
100
AcDbPoint
 10
110.675296
 20
170.340471
 30
0.0
  0
POINT
  5
326D
100
AcDbEntity
  8
DEFPOINTS
  6
BYBLOCK
 62
     0
100
AcDbPoint
 10
110.675296
 20
188.840471
 30
0.0
  0
ENDBLK
  5
326F
100
AcDbEntity
  8
0
100
AcDbBlockEnd
  0
BLOCK
  5
327A
100
AcDbEntity
  8
0
100
AcDbBlockBegin
  2
*D7
 70
    65
 10
0.0
 20
0.0
 30
0.0
  3
*D7
  1

  0
LINE
  5
3271
100
AcDbEntity
  8
0
  6
BYBLOCK
 62
     0
100
AcDbLine
 10
125.705296
 20
198.340471
 30
0.0
 11
138.011218
 21
198.340471
 31
0.0
  0
LINE
  5
3272
100
AcDbEntity
  8
0
  6
BYBLOCK
 62
     0
100
AcDbLine
 10
126.705296
 20
184.340471
 30
0.0
 11
138.011218
 21
184.340471
 31
0.0
  0
LINE
  5
3273
100
AcDbEntity
  8
0
  6
BYBLOCK
 62
     0
100
AcDbLine
 10
136.961218
 20
195.740471
 30
0.0
 11
136.961218
 21
186.940471
 31
0.0
  0
SOLID
  5
3274
100
AcDbEntity
  8
0
  6
BYBLOCK
 62
     0
100
AcDbTrace
 10
136.527885
 20
195.740471
 30
0.0
 11
137.394551
 21
195.740471
 31
0.0
 12
136.961218
 22
198.340471
 32
0.0
 13
136.961218
 23
198.340471
 33
0.0
  0
SOLID
  5
3275
100
AcDbEntity
  8
0
  6
BYBLOCK
 62
     0
100
AcDbTrace
 10
136.527885
 20
186.940471
 30
0.0
 11
137.394551
 21
186.940471
 31
0.0
 12
136.961218
 22
184.340471
 32
0.0
 13
136.961218
 23
184.340471
 33
0.0
  0
MTEXT
  5
3276
100
AcDbEntity
  8
0
  6
BYBLOCK
 62
     0
100
AcDbMText
 10
133.931218
 20
191.340471
 30
0.0
 40
5.0
 41
0.0
 71
     5
 72
     1
  1
\A1;14
 11
0.0
 21
1.0
 31
0.0
  0
POINT
  5
3277
100
AcDbEntity
  8
DEFPOINTS
  6
BYBLOCK
 62
     0
100
AcDbPoint
 10
125.175296
 20
198.340471
 30
0.0
  0
POINT
  5
3278
100
AcDbEntity
  8
DEFPOINTS
  6
BYBLOCK
 62
     0
100
AcDbPoint
 10
126.175296
 20
184.340471
 30
0.0
  0
POINT
  5
3279
100
AcDbEntity
  8
DEFPOINTS
  6
BYBLOCK
 62
     0
100
AcDbPoint
 10
136.961218
 20
184.340471
 30
0.0
  0
ENDBLK
  5
327B
100
AcDbEntity
  8
0
100
AcDbBlockEnd
  0
BLOCK
  5
3286
100
AcDbEntity
  8
0
100
AcDbBlockBegin
  2
*D8
 70
    65
 10
0.0
 20
0.0
 30
0.0
  3
*D8
  1

  0
LINE
  5
327D
100
AcDbEntity
  8
0
  6
BYBLOCK
 62
     0
100
AcDbLine
 10
126.705296
 20
184.340471
 30
0.0
 11
138.011218
 21
184.340471
 31
0.0
  0
LINE
  5
327E
100
AcDbEntity
  8
0
  6
BYBLOCK
 62
     0
100
AcDbLine
 10
126.705296
 20
170.340471
 30
0.0
 11
138.011218
 21
170.340471
 31
0.0
  0
LINE
  5
327F
100
AcDbEntity
  8
0
  6
BYBLOCK
 62
     0
100
AcDbLine
 10
136.961218
 20
181.740471
 30
0.0
 11
136.961218
 21
172.940471
 31
0.0
  0
SOLID
  5
3280
100
AcDbEntity
  8
0
  6
BYBLOCK
 62
     0
100
AcDbTrace
 10
136.527885
 20
181.740471
 30
0.0
 11
137.394551
 21
181.740471
 31
0.0
 12
136.961218
 22
184.340471
 32
0.0
 13
136.961218
 23
184.340471
 33
0.0
  0
SOLID
  5
3281
100
AcDbEntity
  8
0
  6
BYBLOCK
 62
     0
100
AcDbTrace
 10
136.527885
 20
172.940471
 30
0.0
 11
137.394551
 21
172.940471
 31
0.0
 12
136.961218
 22
170.340471
 32
0.0
 13
136.961218
 23
170.340471
 33
0.0
  0
MTEXT
  5
3282
100
AcDbEntity
  8
0
  6
BYBLOCK
 62
     0
100
AcDbMText
 10
133.931218
 20
177.340471
 30
0.0
 40
5.0
 41
0.0
 71
     5
 72
     1
  1
\A1;14
 11
0.0
 21
1.0
 31
0.0
  0
POINT
  5
3283
100
AcDbEntity
  8
DEFPOINTS
  6
BYBLOCK
 62
     0
100
AcDbPoint
 10
126.175296
 20
184.340471
 30
0.0
  0
POINT
  5
3284
100
AcDbEntity
  8
DEFPOINTS
  6
BYBLOCK
 62
     0
100
AcDbPoint
 10
126.175296
 20
170.340471
 30
0.0
  0
POINT
  5
3285
100
AcDbEntity
  8
DEFPOINTS
  6
BYBLOCK
 62
     0
100
AcDbPoint
 10
136.961218
 20
170.340471
 30
0.0
  0
ENDBLK
  5
3287
100
AcDbEntity
  8
0
100
AcDbBlockEnd
  0
BLOCK
  5
3292
100
AcDbEntity
  8
0
100
AcDbBlockBegin
  2
*D9
 70
    65
 10
0.0
 20
0.0
 30
0.0
  3
*D9
  1

  0
LINE
  5
3289
100
AcDbEntity
  8
0
  6
BYBLOCK
 62
     0
100
AcDbLine
 10
110.675296
 20
169.810471
 30
0.0
 11
110.675296
 21
162.46148
 31
0.0
  0
LINE
  5
328A
100
AcDbEntity
  8
0
  6
BYBLOCK
 62
     0
100
AcDbLine
 10
121.675296
 20
169.810471
 30
0.0
 11
121.675296
 21
162.46148
 31
0.0
  0
LINE
  5
328B
100
AcDbEntity
  8
0
  6
BYBLOCK
 62
     0
100
AcDbLine
 10
113.275296
 20
163.51148
 30
0.0
 11
119.075296
 21
163.51148
 31
0.0
  0
SOLID
  5
328C
100
AcDbEntity
  8
0
  6
BYBLOCK
 62
     0
100
AcDbTrace
 10
113.275296
 20
163.944813
 30
0.0
 11
113.275296
 21
163.078146
 31
0.0
 12
110.675296
 22
163.51148
 32
0.0
 13
110.675296
 23
163.51148
 33
0.0
  0
SOLID
  5
328D
100
AcDbEntity
  8
0
  6
BYBLOCK
 62
     0
100
AcDbTrace
 10
119.075296
 20
163.944813
 30
0.0
 11
119.075296
 21
163.078146
 31
0.0
 12
121.675296
 22
163.51148
 32
0.0
 13
121.675296
 23
163.51148
 33
0.0
  0
MTEXT
  5
328E
100
AcDbEntity
  8
0
  6
BYBLOCK
 62
     0
100
AcDbMText
 10
116.175296
 20
166.54148
 30
0.0
 40
5.0
 41
0.0
 71
     5
 72
     1
  1
\A1;11
  0
POINT
  5
328F
100
AcDbEntity
  8
DEFPOINTS
  6
BYBLOCK
 62
     0
100
AcDbPoint
 10
110.675296
 20
170.340471
 30
0.0
  0
POINT
  5
3290
100
AcDbEntity
  8
DEFPOINTS
  6
BYBLOCK
 62
     0
100
AcDbPoint
 10
121.675296
 20
170.340471
 30
0.0
  0
POINT
  5
3291
100
AcDbEntity
  8
DEFPOINTS
  6
BYBLOCK
 62
     0
100
AcDbPoint
 10
121.675296
 20
163.51148
 30
0.0
  0
ENDBLK
  5
3293
100
AcDbEntity
  8
0
100
AcDbBlockEnd
  0
BLOCK
  5
32A7
100
AcDbEntity
  8
OGGETTO
  6
CONTINUOUS
100
AcDbBlockBegin
  2
A$CB174
 70
     0
 10
0.0
 20
0.0
 30
0.0
  3
A$CB174
  1

  0
DIMENSION
  5
3295
100
AcDbEntity
  8
QUOTE
  6
CONTINUOUS
100
AcDbDimension
  2
*D6
 10
16.253387
 20
26.916367
 30
0.0
 11
4.192608
 21
25.246684
 31
0.0
 12
-94.421909
 22
-161.924104
 32
0.0
 70
     2
  3
ISO-25
100
AcDb2LineAngularDimension
 13
16.253387
 23
26.916367
 33
0.0
 14
16.253387
 24
8.416367
 34
0.0
 15
11.753387
 25
22.416367
 35
0.0
 16
12.599314
 26
13.279183
 36
0.0
1001
ACAD
1000
DSTYLE
1002
{
1070
   140
1040
5.0
1070
    47
1040
0.2
1070
    73
1070
     0
1070
   272
1070
     2
1070
   147
1040
0.53
1070
    42
1040
0.53
1070
    44
1040
1.05
1070
    43
1040
3.16
1070
   271
1070
     2
1070
   141
1040
2.1
1070
    41
1040
2.6
1002
}
  0
DIMENSION
  5
3296
100
AcDbEntity
  8
QUOTE
  6
CONTINUOUS
100
AcDbDimension
  2
*D3
 10
21.753387
 20
44.316824
 30
0.0
 11
16.753387
 21
47.346824
 31
0.0
 12
-160.09088
 22
-161.924104
 32
0.0
  3
ISO-25
100
AcDbAlignedDimension
 13
11.753387
 23
36.416367
 33
0.0
 14
21.753387
 24
36.416367
 34
0.0
100
AcDbRotatedDimension
1001
ACAD
1000
DSTYLE
1002
{
1070
   140
1040
5.0
1070
    47
1040
0.2
1070
    73
1070
     0
1070
   272
1070
     2
1070
   147
1040
0.53
1070
    42
1040
0.53
1070
    44
1040
1.05
1070
    43
1040
3.16
1070
   271
1070
     2
1070
   141
1040
2.1
1070
    41
1040
2.6
1002
}
  0
DIMENSION
  5
3297
100
AcDbEntity
  8
QUOTE
  6
CONTINUOUS
100
AcDbDimension
  2
*D5
 10
31.753387
 20
52.614935
 30
0.0
 11
21.753387
 21
55.644935
 31
0.0
 12
-94.421909
 22
-161.924104
 32
0.0
  3
ISO-25
100
AcDbAlignedDimension
 13
11.753387
 23
35.416367
 33
0.0
 14
31.753387
 24
35.416367
 34
0.0
100
AcDbRotatedDimension
1001
ACAD
1000
DSTYLE
1002
{
1070
   140
1040
5.0
1070
    47
1040
0.2
1070
    73
1070
     0
1070
   272
1070
     2
1070
   147
1040
0.53
1070
    42
1040
0.53
1070
    44
1040
1.05
1070
    43
1040
3.16
1070
   271
1070
     2
1070
   141
1040
2.1
1070
    41
1040
2.6
1002
}
  0
DIMENSION
  5
3298
100
AcDbEntity
  8
QUOTE
  6
CONTINUOUS
100
AcDbDimension
  2
*D4
 10
31.753387
 20
44.316824
 30
0.0
 11
26.753387
 21
47.346824
 31
0.0
 12
-94.421909
 22
-161.924104
 32
0.0
  3
ISO-25
100
AcDbAlignedDimension
 13
21.753387
 23
36.416367
 33
0.0
 14
31.753387
 24
36.416367
 34
0.0
100
AcDbRotatedDimension
1001
ACAD
1000
DSTYLE
1002
{
1070
   140
1040
5.0
1070
    47
1040
0.2
1070
    73
1070
     0
1070
   272
1070
     2
1070
   147
1040
0.53
1070
    42
1040
0.53
1070
    44
1040
1.05
1070
    43
1040
3.16
1070
   271
1070
     2
1070
   141
1040
2.1
1070
    41
1040
2.6
1002
}
  0
DIMENSION
  5
3299
100
AcDbEntity
  8
QUOTE
  6
CONTINUOUS
100
AcDbDimension
  2
*D8
 10
42.539309
 20
8.416367
 30
0.0
 11
39.509309
 21
15.416367
 31
0.0
 12
-94.421909
 22
-161.924104
 32
0.0
  3
ISO-25
100
AcDbAlignedDimension
 13
31.753387
 23
22.416367
 33
0.0
 14
31.753387
 24
8.416367
 34
0.0
 50
90.0
100
AcDbRotatedDimension
1001
ACAD
1000
DSTYLE
1002
{
1070
   140
1040
5.0
1070
    47
1040
0.2
1070
    73
1070
     0
1070
   272
1070
     2
1070
   147
1040
0.53
1070
    42
1040
0.53
1070
    44
1040
1.05
1070
    43
1040
3.16
1070
   271
1070
     2
1070
   141
1040
2.1
1070
    41
1040
2.6
1002
}
  0
DIMENSION
  5
329A
100
AcDbEntity
  8
QUOTE
  6
CONTINUOUS
100
AcDbDimension
  2
*D7
 10
42.539309
 20
22.416367
 30
0.0
 11
39.509309
 21
29.416367
 31
0.0
 12
-94.421909
 22
-161.924104
 32
0.0
  3
ISO-25
100
AcDbAlignedDimension
 13
30.753387
 23
36.416367
 33
0.0
 14
31.753387
 24
22.416367
 34
0.0
 50
90.0
100
AcDbRotatedDimension
1001
ACAD
1000
DSTYLE
1002
{
1070
   140
1040
5.0
1070
    47
1040
0.2
1070
    73
1070
     0
1070
   272
1070
     2
1070
   147
1040
0.53
1070
    42
1040
0.53
1070
    44
1040
1.05
1070
    43
1040
3.16
1070
   271
1070
     2
1070
   141
1040
2.1
1070
    41
1040
2.6
1002
}
  0
DIMENSION
  5
329B
100
AcDbEntity
  8
QUOTE
  6
CONTINUOUS
100
AcDbDimension
  2
*D9
 10
27.253387
 20
1.587376
 30
0.0
 11
21.753387
 21
4.617376
 31
0.0
 12
-94.421909
 22
-161.924104
 32
0.0
  3
ISO-25
100
AcDbAlignedDimension
 13
16.253387
 23
8.416367
 33
0.0
 14
27.253387
 24
8.416367
 34
0.0
100
AcDbRotatedDimension
1001
ACAD
1000
DSTYLE
1002
{
1070
   140
1040
5.0
1070
    47
1040
0.2
1070
    73
1070
     0
1070
   272
1070
     2
1070
   147
1040
0.53
1070
    42
1040
0.53
1070
    44
1040
1.05
1070
    43
1040
3.16
1070
   271
1070
     2
1070
   141
1040
2.1
1070
    41
1040
2.6
1002
}
  0
LINE
  5
329C
100
AcDbEntity
  8
OGGETTO
  6
CONTINUOUS
100
AcDbLine
 10
30.753387
 20
36.416367
 30
0.0
 11
12.753387
 21
36.416367
 31
0.0
  0
LINE
  5
329D
100
AcDbEntity
  8
OGGETTO
  6
CONTINUOUS
100
AcDbLine
 10
16.253387
 20
26.916367
 30
0.0
 11
16.253387
 21
8.416367
 31
0.0
  0
LINE
  5
329E
100
AcDbEntity
  8
OGGETTO
  6
CONTINUOUS
100
AcDbLine
 10
16.253387
 20
8.416367
 30
0.0
 11
11.753387
 21
8.416367
 31
0.0
  0
LINE
  5
329F
100
AcDbEntity
  8
OGGETTO
  6
CONTINUOUS
100
AcDbLine
 10
11.753387
 20
35.416367
 30
0.0
 11
11.753387
 21
22.416367
 31
0.0
  0
LINE
  5
32A0
100
AcDbEntity
  8
OGGETTO
  6
CONTINUOUS
100
AcDbLine
 10
11.753387
 20
22.416367
 30
0.0
 11
16.253387
 21
26.916367
 31
0.0
  0
LINE
  5
32A1
100
AcDbEntity
  8
OGGETTO
  6
CONTINUOUS
100
AcDbLine
 10
12.753387
 20
36.416367
 30
0.0
 11
11.753387
 21
35.416367
 31
0.0
  0
LINE
  5
32A2
100
AcDbEntity
  8
OGGETTO
  6
CONTINUOUS
100
AcDbLine
 10
27.253387
 20
26.916367
 30
0.0
 11
27.253387
 21
8.416367
 31
0.0
  0
LINE
  5
32A3
100
AcDbEntity
  8
OGGETTO
  6
CONTINUOUS
100
AcDbLine
 10
31.753387
 20
8.416367
 30
0.0
 11
27.253387
 21
8.416367
 31
0.0
  0
LINE
  5
32A4
100
AcDbEntity
  8
OGGETTO
  6
CONTINUOUS
100
AcDbLine
 10
31.753387
 20
35.416367
 30
0.0
 11
31.753387
 21
22.416367
 31
0.0
  0
LINE
  5
32A5
100
AcDbEntity
  8
OGGETTO
  6
CONTINUOUS
100
AcDbLine
 10
31.753387
 20
22.416367
 30
0.0
 11
27.253387
 21
26.916367
 31
0.0
  0
LINE
  5
32A6
100
AcDbEntity
  8
OGGETTO
  6
CONTINUOUS
100
AcDbLine
 10
30.753387
 20
36.416367
 30
0.0
 11
31.753387
 21
35.416367
 31
0.0
  0
ENDBLK
  5
32A8
100
AcDbEntity
  8
OGGETTO
  6
CONTINUOUS
100
AcDbBlockEnd
  0
BLOCK
  5
339F
100
AcDbEntity
  8
0
100
AcDbBlockBegin
  2
*D11
 70
    65
 10
0.0
 20
0.0
 30
0.0
  3
*D11
  1

  0
LINE
  5
33A0
100
AcDbEntity
  8
0
  6
BYBLOCK
 62
     0
100
AcDbLine
 10
115.817233
 20
42.229433
 30
0.0
 11
108.437782
 21
34.176175
 31
0.0
  0
LINE
  5
33A1
100
AcDbEntity
  8
0
  6
BYBLOCK
 62
     0
100
AcDbLine
 10
116.533358
 20
42.229433
 30
0.0
 11
123.912809
 21
34.176175
 31
0.0
  0
ARC
  5
33A2
100
AcDbEntity
  8
0
  6
BYBLOCK
 62
     0
100
AcDbCircle
 10
116.175296
 20
42.62019
 30
0.0
 40
10.402969
100
AcDbArc
 50
241.857391
 51
298.142609
  0
SOLID
  5
33A3
100
AcDbEntity
  8
0
  6
BYBLOCK
 62
     0
100
AcDbTrace
 10
111.018014
 20
33.093531
 30
0.0
 11
111.519087
 21
33.800664
 31
0.0
 12
109.147152
 22
34.950316
 32
0.0
 13
109.147152
 23
34.950316
 33
0.0
  0
SOLID
  5
33A4
100
AcDbEntity
  8
0
  6
BYBLOCK
 62
     0
100
AcDbTrace
 10
120.831504
 20
33.800664
 30
0.0
 11
121.332577
 21
33.093531
 31
0.0
 12
123.20344
 22
34.950316
 32
0.0
 13
123.20344
 23
34.950316
 33
0.0
  0
MTEXT
  5
33A5
100
AcDbEntity
  8
0
  6
BYBLOCK
 62
     0
100
AcDbMText
 10
116.175296
 20
35.247221
 30
0.0
 40
5.0
 41
0.0
 71
     5
 72
     1
  1
\A1;85°
  0
POINT
  5
33A6
100
AcDbEntity
  8
DEFPOINTS
  6
BYBLOCK
 62
     0
100
AcDbPoint
 10
113.629238
 20
32.533597
 30
0.0
  0
POINT
  5
33A7
100
AcDbEntity
  8
DEFPOINTS
  6
BYBLOCK
 62
     0
100
AcDbPoint
 10
115.06938
 20
43.827085
 30
0.0
  0
POINT
  5
33A8
100
AcDbEntity
  8
DEFPOINTS
  6
BYBLOCK
 62
     0
100
AcDbPoint
 10
117.281212
 20
43.827085
 30
0.0
  0
POINT
  5
33A9
100
AcDbEntity
  8
DEFPOINTS
  6
BYBLOCK
 62
     0
100
AcDbPoint
 10
121.65123
 20
48.596124
 30
0.0
  0
POINT
  5
33AA
100
AcDbEntity
  8
DEFPOINTS
  6
BYBLOCK
 62
     0
100
AcDbPoint
 10
112.032011
 20
47.141792
 30
0.0
  0
ENDBLK
  5
33AB
100
AcDbEntity
  8
0
100
AcDbBlockEnd
  0
BLOCK
  5
3445
100
AcDbEntity
  8
0
100
AcDbBlockBegin
  2
*D12
 70
    65
 10
0.0
 20
0.0
 30
0.0
  3
*D12
  1

  0
LINE
  5
3446
100
AcDbEntity
  8
0
  6
BYBLOCK
 62
     0
100
AcDbLine
 10
106.175296
 20
197.870471
 30
0.0
 11
106.175296
 21
221.89717
 31
0.0
  0
LINE
  5
3447
100
AcDbEntity
  8
0
  6
BYBLOCK
 62
     0
100
AcDbLine
 10
166.175296
 20
143.870471
 30
0.0
 11
166.175296
 21
221.89717
 31
0.0
  0
LINE
  5
3448
100
AcDbEntity
  8
0
  6
BYBLOCK
 62
     0
100
AcDbLine
 10
108.775296
 20
220.84717
 30
0.0
 11
163.575296
 21
220.84717
 31
0.0
  0
SOLID
  5
3449
100
AcDbEntity
  8
0
  6
BYBLOCK
 62
     0
100
AcDbTrace
 10
108.775296
 20
221.280503
 30
0.0
 11
108.775296
 21
220.413837
 31
0.0
 12
106.175296
 22
220.84717
 32
0.0
 13
106.175296
 23
220.84717
 33
0.0
  0
SOLID
  5
344A
100
AcDbEntity
  8
0
  6
BYBLOCK
 62
     0
100
AcDbTrace
 10
163.575296
 20
221.280503
 30
0.0
 11
163.575296
 21
220.413837
 31
0.0
 12
166.175296
 22
220.84717
 32
0.0
 13
166.175296
 23
220.84717
 33
0.0
  0
MTEXT
  5
344B
100
AcDbEntity
  8
0
  6
BYBLOCK
 62
     0
100
AcDbMText
 10
136.175296
 20
223.87717
 30
0.0
 40
5.0
 41
0.0
 71
     5
 72
     1
  1
\A1;60
  0
POINT
  5
344C
100
AcDbEntity
  8
DEFPOINTS
  6
BYBLOCK
 62
     0
100
AcDbPoint
 10
106.175296
 20
197.340471
 30
0.0
  0
POINT
  5
344D
100
AcDbEntity
  8
DEFPOINTS
  6
BYBLOCK
 62
     0
100
AcDbPoint
 10
166.175296
 20
143.340471
 30
0.0
  0
POINT
  5
344E
100
AcDbEntity
  8
DEFPOINTS
  6
BYBLOCK
 62
     0
100
AcDbPoint
 10
166.175296
 20
220.84717
 30
0.0
  0
ENDBLK
  5
344F
100
AcDbEntity
  8
0
100
AcDbBlockEnd
  0
BLOCK
  5
33F4
100
AcDbEntity
  8
0
100
AcDbBlockBegin
  2
*X13
 70
    65
 10
0.0
 20
0.0
 30
0.0
  3
*X13
  1

  0
LINE
  5
33F6
100
AcDbEntity
  8
0
  6
CONTINUOUS
 62
     0
100
AcDbLine
 10
114.926756
 20
43.982732
 30
0.0
 11
116.175296
 21
45.231272
 31
0.0
  0
LINE
  5
33F7
100
AcDbEntity
  8
0
  6
CONTINUOUS
 62
     0
100
AcDbLine
 10
116.175296
 20
45.231272
 30
0.0
 11
117.352989
 21
46.408965
 31
0.0
  0
LINE
  5
33F8
100
AcDbEntity
  8
0
  6
CONTINUOUS
 62
     0
100
AcDbLine
 10
114.819403
 20
44.099887
 30
0.0
 11
116.175296
 21
45.455779
 31
0.0
  0
LINE
  5
33F9
100
AcDbEntity
  8
0
  6
CONTINUOUS
 62
     0
100
AcDbLine
 10
116.175296
 20
45.455779
 30
0.0
 11
117.1077
 21
46.388183
 31
0.0
  0
LINE
  5
33FA
100
AcDbEntity
  8
0
  6
CONTINUOUS
 62
     0
100
AcDbLine
 10
114.712051
 20
44.217041
 30
0.0
 11
116.175296
 21
45.680285
 31
0.0
  0
LINE
  5
33FB
100
AcDbEntity
  8
0
  6
CONTINUOUS
 62
     0
100
AcDbLine
 10
116.175296
 20
45.680285
 30
0.0
 11
116.867694
 21
46.372684
 31
0.0
  0
LINE
  5
33FC
100
AcDbEntity
  8
0
  6
CONTINUOUS
 62
     0
100
AcDbLine
 10
114.604699
 20
44.334195
 30
0.0
 11
116.175296
 21
45.904792
 31
0.0
  0
LINE
  5
33FD
100
AcDbEntity
  8
0
  6
CONTINUOUS
 62
     0
100
AcDbLine
 10
116.175296
 20
45.904792
 30
0.0
 11
116.632626
 21
46.362122
 31
0.0
  0
LINE
  5
33FE
100
AcDbEntity
  8
0
  6
CONTINUOUS
 62
     0
100
AcDbLine
 10
114.497347
 20
44.451349
 30
0.0
 11
116.175296
 21
46.129298
 31
0.0
  0
LINE
  5
33FF
100
AcDbEntity
  8
0
  6
CONTINUOUS
 62
     0
100
AcDbLine
 10
116.175296
 20
46.129298
 30
0.0
 11
116.402191
 21
46.356193
 31
0.0
  0
LINE
  5
3400
100
AcDbEntity
  8
0
  6
CONTINUOUS
 62
     0
100
AcDbLine
 10
114.389995
 20
44.568504
 30
0.0
 11
116.175296
 21
46.353804
 31
0.0
  0
LINE
  5
3401
100
AcDbEntity
  8
0
  6
CONTINUOUS
 62
     0
100
AcDbLine
 10
116.175296
 20
46.353804
 30
0.0
 11
116.176119
 21
46.354627
 31
0.0
  0
LINE
  5
3402
100
AcDbEntity
  8
0
  6
CONTINUOUS
 62
     0
100
AcDbLine
 10
114.282643
 20
44.685658
 30
0.0
 11
115.954169
 21
46.357184
 31
0.0
  0
LINE
  5
3403
100
AcDbEntity
  8
0
  6
CONTINUOUS
 62
     0
100
AcDbLine
 10
114.175291
 20
44.802812
 30
0.0
 11
115.736126
 21
46.363648
 31
0.0
  0
LINE
  5
3404
100
AcDbEntity
  8
0
  6
CONTINUOUS
 62
     0
100
AcDbLine
 10
114.067939
 20
44.919966
 30
0.0
 11
115.521798
 21
46.373826
 31
0.0
  0
LINE
  5
3405
100
AcDbEntity
  8
0
  6
CONTINUOUS
 62
     0
100
AcDbLine
 10
113.960586
 20
45.037121
 30
0.0
 11
115.311008
 21
46.387542
 31
0.0
  0
LINE
  5
3406
100
AcDbEntity
  8
0
  6
CONTINUOUS
 62
     0
100
AcDbLine
 10
113.853234
 20
45.154275
 30
0.0
 11
115.103598
 21
46.404639
 31
0.0
  0
LINE
  5
3407
100
AcDbEntity
  8
0
  6
CONTINUOUS
 62
     0
100
AcDbLine
 10
113.745882
 20
45.271429
 30
0.0
 11
114.899425
 21
46.424972
 31
0.0
  0
LINE
  5
3408
100
AcDbEntity
  8
0
  6
CONTINUOUS
 62
     0
100
AcDbLine
 10
113.63853
 20
45.388584
 30
0.0
 11
114.698356
 21
46.448409
 31
0.0
  0
LINE
  5
3409
100
AcDbEntity
  8
0
  6
CONTINUOUS
 62
     0
100
AcDbLine
 10
113.531178
 20
45.505738
 30
0.0
 11
114.50027
 21
46.47483
 31
0.0
  0
LINE
  5
340A
100
AcDbEntity
  8
0
  6
CONTINUOUS
 62
     0
100
AcDbLine
 10
113.423826
 20
45.622892
 30
0.0
 11
114.305059
 21
46.504125
 31
0.0
  0
LINE
  5
340B
100
AcDbEntity
  8
0
  6
CONTINUOUS
 62
     0
100
AcDbLine
 10
113.316474
 20
45.740046
 30
0.0
 11
114.112618
 21
46.536191
 31
0.0
  0
LINE
  5
340C
100
AcDbEntity
  8
0
  6
CONTINUOUS
 62
     0
100
AcDbLine
 10
113.209122
 20
45.857201
 30
0.0
 11
113.922856
 21
46.570935
 31
0.0
  0
LINE
  5
340D
100
AcDbEntity
  8
0
  6
CONTINUOUS
 62
     0
100
AcDbLine
 10
113.10177
 20
45.974355
 30
0.0
 11
113.735684
 21
46.60827
 31
0.0
  0
LINE
  5
340E
100
AcDbEntity
  8
0
  6
CONTINUOUS
 62
     0
100
AcDbLine
 10
112.994417
 20
46.091509
 30
0.0
 11
113.551024
 21
46.648116
 31
0.0
  0
LINE
  5
340F
100
AcDbEntity
  8
0
  6
CONTINUOUS
 62
     0
100
AcDbLine
 10
112.887065
 20
46.208664
 30
0.0
 11
113.368799
 21
46.690398
 31
0.0
  0
LINE
  5
3410
100
AcDbEntity
  8
0
  6
CONTINUOUS
 62
     0
100
AcDbLine
 10
112.779713
 20
46.325818
 30
0.0
 11
113.188942
 21
46.735047
 31
0.0
  0
LINE
  5
3411
100
AcDbEntity
  8
0
  6
CONTINUOUS
 62
     0
100
AcDbLine
 10
112.672361
 20
46.442972
 30
0.0
 11
113.011387
 21
46.781998
 31
0.0
  0
LINE
  5
3412
100
AcDbEntity
  8
0
  6
CONTINUOUS
 62
     0
100
AcDbLine
 10
112.565009
 20
46.560126
 30
0.0
 11
112.836075
 21
46.831193
 31
0.0
  0
LINE
  5
3413
100
AcDbEntity
  8
0
  6
CONTINUOUS
 62
     0
100
AcDbLine
 10
112.457657
 20
46.677281
 30
0.0
 11
112.66295
 21
46.882574
 31
0.0
  0
LINE
  5
3414
100
AcDbEntity
  8
0
  6
CONTINUOUS
 62
     0
100
AcDbLine
 10
112.350305
 20
46.794435
 30
0.0
 11
112.491959
 21
46.93609
 31
0.0
  0
LINE
  5
3415
100
AcDbEntity
  8
0
  6
CONTINUOUS
 62
     0
100
AcDbLine
 10
112.242953
 20
46.911589
 30
0.0
 11
112.323054
 21
46.991691
 31
0.0
  0
LINE
  5
3416
100
AcDbEntity
  8
0
  6
CONTINUOUS
 62
     0
100
AcDbLine
 10
112.1356
 20
47.028744
 30
0.0
 11
112.156189
 21
47.049332
 31
0.0
  0
LINE
  5
3417
100
AcDbEntity
  8
0
  6
CONTINUOUS
 62
     0
100
AcDbLine
 10
115.034108
 20
43.865578
 30
0.0
 11
116.175296
 21
45.006766
 31
0.0
  0
LINE
  5
3418
100
AcDbEntity
  8
0
  6
CONTINUOUS
 62
     0
100
AcDbLine
 10
116.175296
 20
45.006766
 30
0.0
 11
117.603956
 21
46.435427
 31
0.0
  0
LINE
  5
3419
100
AcDbEntity
  8
0
  6
CONTINUOUS
 62
     0
100
AcDbLine
 10
115.14414
 20
43.751104
 30
0.0
 11
116.175296
 21
44.782259
 31
0.0
  0
LINE
  5
341A
100
AcDbEntity
  8
0
  6
CONTINUOUS
 62
     0
100
AcDbLine
 10
116.175296
 20
44.782259
 30
0.0
 11
117.861058
 21
46.468022
 31
0.0
  0
LINE
  5
341B
100
AcDbEntity
  8
0
  6
CONTINUOUS
 62
     0
100
AcDbLine
 10
115.265456
 20
43.647914
 30
0.0
 11
116.175296
 21
44.557753
 31
0.0
  0
LINE
  5
341C
100
AcDbEntity
  8
0
  6
CONTINUOUS
 62
     0
100
AcDbLine
 10
116.175296
 20
44.557753
 30
0.0
 11
118.124823
 21
46.50728
 31
0.0
  0
LINE
  5
341D
100
AcDbEntity
  8
0
  6
CONTINUOUS
 62
     0
100
AcDbLine
 10
115.399014
 20
43.556965
 30
0.0
 11
116.175296
 21
44.333247
 31
0.0
  0
LINE
  5
341E
100
AcDbEntity
  8
0
  6
CONTINUOUS
 62
     0
100
AcDbLine
 10
116.175296
 20
44.333247
 30
0.0
 11
118.395872
 21
46.553823
 31
0.0
  0
LINE
  5
341F
100
AcDbEntity
  8
0
  6
CONTINUOUS
 62
     0
100
AcDbLine
 10
115.545599
 20
43.479044
 30
0.0
 11
116.175296
 21
44.10874
 31
0.0
  0
LINE
  5
3420
100
AcDbEntity
  8
0
  6
CONTINUOUS
 62
     0
100
AcDbLine
 10
116.175296
 20
44.10874
 30
0.0
 11
118.674942
 21
46.608386
 31
0.0
  0
LINE
  5
3421
100
AcDbEntity
  8
0
  6
CONTINUOUS
 62
     0
100
AcDbLine
 10
115.706629
 20
43.415567
 30
0.0
 11
116.175296
 21
43.884234
 31
0.0
  0
LINE
  5
3422
100
AcDbEntity
  8
0
  6
CONTINUOUS
 62
     0
100
AcDbLine
 10
116.175296
 20
43.884234
 30
0.0
 11
118.962917
 21
46.671856
 31
0.0
  0
LINE
  5
3423
100
AcDbEntity
  8
0
  6
CONTINUOUS
 62
     0
100
AcDbLine
 10
115.884497
 20
43.368929
 30
0.0
 11
116.175296
 21
43.659727
 31
0.0
  0
LINE
  5
3424
100
AcDbEntity
  8
0
  6
CONTINUOUS
 62
     0
100
AcDbLine
 10
116.175296
 20
43.659727
 30
0.0
 11
119.260878
 21
46.74531
 31
0.0
  0
LINE
  5
3425
100
AcDbEntity
  8
0
  6
CONTINUOUS
 62
     0
100
AcDbLine
 10
116.083365
 20
43.34329
 30
0.0
 11
116.175296
 21
43.435221
 31
0.0
  0
LINE
  5
3426
100
AcDbEntity
  8
0
  6
CONTINUOUS
 62
     0
100
AcDbLine
 10
116.175296
 20
43.435221
 30
0.0
 11
119.570163
 21
46.830089
 31
0.0
  0
LINE
  5
3427
100
AcDbEntity
  8
0
  6
CONTINUOUS
 62
     0
100
AcDbLine
 10
116.311223
 20
43.346642
 30
0.0
 11
119.892471
 21
46.92789
 31
0.0
  0
LINE
  5
3428
100
AcDbEntity
  8
0
  6
CONTINUOUS
 62
     0
100
AcDbLine
 10
116.58723
 20
43.398143
 30
0.0
 11
120.183887
 21
46.994799
 31
0.0
  0
LINE
  5
3429
100
AcDbEntity
  8
0
  6
CONTINUOUS
 62
     0
100
AcDbLine
 10
117.003304
 20
43.58971
 30
0.0
 11
117.725119
 21
44.311525
 31
0.0
  0
ENDBLK
  5
342A
100
AcDbEntity
  8
0
100
AcDbBlockEnd
  0
BLOCK
  5
346D
100
AcDbEntity
  8
0
100
AcDbBlockBegin
  2
*D14
 70
    65
 10
0.0
 20
0.0
 30
0.0
  3
*D14
  1

  0
LINE
  5
3464
100
AcDbEntity
  8
0
  6
BYBLOCK
 62
     0
100
AcDbLine
 10
171.844267
 20
198.870471
 30
0.0
 11
171.844267
 21
219.176864
 31
0.0
  0
LINE
  5
3465
100
AcDbEntity
  8
0
  6
BYBLOCK
 62
     0
100
AcDbLine
 10
193.844267
 20
198.870471
 30
0.0
 11
193.844267
 21
219.176864
 31
0.0
  0
LINE
  5
3466
100
AcDbEntity
  8
0
  6
BYBLOCK
 62
     0
100
AcDbLine
 10
174.444267
 20
218.126864
 30
0.0
 11
191.244267
 21
218.126864
 31
0.0
  0
SOLID
  5
3467
100
AcDbEntity
  8
0
  6
BYBLOCK
 62
     0
100
AcDbTrace
 10
174.444267
 20
218.560197
 30
0.0
 11
174.444267
 21
217.693531
 31
0.0
 12
171.844267
 22
218.126864
 32
0.0
 13
171.844267
 23
218.126864
 33
0.0
  0
SOLID
  5
3468
100
AcDbEntity
  8
0
  6
BYBLOCK
 62
     0
100
AcDbTrace
 10
191.244267
 20
218.560197
 30
0.0
 11
191.244267
 21
217.693531
 31
0.0
 12
193.844267
 22
218.126864
 32
0.0
 13
193.844267
 23
218.126864
 33
0.0
  0
MTEXT
  5
3469
100
AcDbEntity
  8
0
  6
BYBLOCK
 62
     0
100
AcDbMText
 10
182.844267
 20
221.157356
 30
0.0
 40
5.0
 41
0.0
 71
     5
 72
     1
  1
\A1;22
  0
POINT
  5
346A
100
AcDbEntity
  8
DEFPOINTS
  6
BYBLOCK
 62
     0
100
AcDbPoint
 10
171.844267
 20
198.340471
 30
0.0
  0
POINT
  5
346B
100
AcDbEntity
  8
DEFPOINTS
  6
BYBLOCK
 62
     0
100
AcDbPoint
 10
193.844267
 20
198.340471
 30
0.0
  0
POINT
  5
346C
100
AcDbEntity
  8
DEFPOINTS
  6
BYBLOCK
 62
     0
100
AcDbPoint
 10
193.844267
 20
218.126864
 30
0.0
  0
ENDBLK
  5
346E
100
AcDbEntity
  8
0
100
AcDbBlockEnd
  0
BLOCK
  5
347B
100
AcDbEntity
  8
0
100
AcDbBlockBegin
  2
*D15
 70
    65
 10
0.0
 20
0.0
 30
0.0
  3
*D15
  1

  0
LINE
  5
3470
100
AcDbEntity
  8
0
  6
BYBLOCK
 62
     0
100
AcDbLine
 10
171.844267
 20
198.870471
 30
0.0
 11
171.844267
 21
207.290928
 31
0.0
  0
LINE
  5
3471
100
AcDbEntity
  8
0
  6
BYBLOCK
 62
     0
100
AcDbLine
 10
181.844267
 20
198.870471
 30
0.0
 11
181.844267
 21
207.290928
 31
0.0
  0
LINE
  5
3472
100
AcDbEntity
  8
0
  6
BYBLOCK
 62
     0
100
AcDbLine
 10
169.244267
 20
206.240928
 30
0.0
 11
166.644267
 21
206.240928
 31
0.0
  0
LINE
  5
3473
100
AcDbEntity
  8
0
  6
BYBLOCK
 62
     0
100
AcDbLine
 10
184.444267
 20
206.240928
 30
0.0
 11
187.044267
 21
206.240928
 31
0.0
  0
LINE
  5
3474
100
AcDbEntity
  8
0
  6
BYBLOCK
 62
     0
100
AcDbLine
 10
171.844267
 20
206.240928
 30
0.0
 11
181.844267
 21
206.240928
 31
0.0
  0
SOLID
  5
3475
100
AcDbEntity
  8
0
  6
BYBLOCK
 62
     0
100
AcDbTrace
 10
169.244267
 20
206.674261
 30
0.0
 11
169.244267
 21
205.807595
 31
0.0
 12
171.844267
 22
206.240928
 32
0.0
 13
171.844267
 23
206.240928
 33
0.0
  0
SOLID
  5
3476
100
AcDbEntity
  8
0
  6
BYBLOCK
 62
     0
100
AcDbTrace
 10
184.444267
 20
206.674261
 30
0.0
 11
184.444267
 21
205.807595
 31
0.0
 12
181.844267
 22
206.240928
 32
0.0
 13
181.844267
 23
206.240928
 33
0.0
  0
MTEXT
  5
3477
100
AcDbEntity
  8
0
  6
BYBLOCK
 62
     0
100
AcDbMText
 10
176.844267
 20
209.270928
 30
0.0
 40
5.0
 41
0.0
 71
     5
 72
     1
  1
\A1;10
  0
POINT
  5
3478
100
AcDbEntity
  8
DEFPOINTS
  6
BYBLOCK
 62
     0
100
AcDbPoint
 10
171.844267
 20
198.340471
 30
0.0
  0
POINT
  5
3479
100
AcDbEntity
  8
DEFPOINTS
  6
BYBLOCK
 62
     0
100
AcDbPoint
 10
181.844267
 20
198.340471
 30
0.0
  0
POINT
  5
347A
100
AcDbEntity
  8
DEFPOINTS
  6
BYBLOCK
 62
     0
100
AcDbPoint
 10
181.844267
 20
206.240928
 30
0.0
  0
ENDBLK
  5
347C
100
AcDbEntity
  8
0
100
AcDbBlockEnd
  0
BLOCK
  5
3489
100
AcDbEntity
  8
0
100
AcDbBlockBegin
  2
*D16
 70
    65
 10
0.0
 20
0.0
 30
0.0
  3
*D16
  1

  0
LINE
  5
347E
100
AcDbEntity
  8
0
  6
BYBLOCK
 62
     0
100
AcDbLine
 10
181.844267
 20
198.870471
 30
0.0
 11
181.844267
 21
207.290928
 31
0.0
  0
LINE
  5
347F
100
AcDbEntity
  8
0
  6
BYBLOCK
 62
     0
100
AcDbLine
 10
191.844267
 20
192.71577
 30
0.0
 11
191.844267
 21
207.290928
 31
0.0
  0
LINE
  5
3480
100
AcDbEntity
  8
0
  6
BYBLOCK
 62
     0
100
AcDbLine
 10
179.244267
 20
206.240928
 30
0.0
 11
176.644267
 21
206.240928
 31
0.0
  0
LINE
  5
3481
100
AcDbEntity
  8
0
  6
BYBLOCK
 62
     0
100
AcDbLine
 10
194.444267
 20
206.240928
 30
0.0
 11
197.044267
 21
206.240928
 31
0.0
  0
LINE
  5
3482
100
AcDbEntity
  8
0
  6
BYBLOCK
 62
     0
100
AcDbLine
 10
181.844267
 20
206.240928
 30
0.0
 11
191.844267
 21
206.240928
 31
0.0
  0
SOLID
  5
3483
100
AcDbEntity
  8
0
  6
BYBLOCK
 62
     0
100
AcDbTrace
 10
179.244267
 20
206.674261
 30
0.0
 11
179.244267
 21
205.807595
 31
0.0
 12
181.844267
 22
206.240928
 32
0.0
 13
181.844267
 23
206.240928
 33
0.0
  0
SOLID
  5
3484
100
AcDbEntity
  8
0
  6
BYBLOCK
 62
     0
100
AcDbTrace
 10
194.444267
 20
206.674261
 30
0.0
 11
194.444267
 21
205.807595
 31
0.0
 12
191.844267
 22
206.240928
 32
0.0
 13
191.844267
 23
206.240928
 33
0.0
  0
MTEXT
  5
3485
100
AcDbEntity
  8
0
  6
BYBLOCK
 62
     0
100
AcDbMText
 10
186.844267
 20
209.270928
 30
0.0
 40
5.0
 41
0.0
 71
     5
 72
     1
  1
\A1;10
  0
POINT
  5
3486
100
AcDbEntity
  8
DEFPOINTS
  6
BYBLOCK
 62
     0
100
AcDbPoint
 10
181.844267
 20
198.340471
 30
0.0
  0
POINT
  5
3487
100
AcDbEntity
  8
DEFPOINTS
  6
BYBLOCK
 62
     0
100
AcDbPoint
 10
191.844267
 20
192.18577
 30
0.0
  0
POINT
  5
3488
100
AcDbEntity
  8
DEFPOINTS
  6
BYBLOCK
 62
     0
100
AcDbPoint
 10
191.844267
 20
206.240928
 30
0.0
  0
ENDBLK
  5
348A
100
AcDbEntity
  8
0
100
AcDbBlockEnd
  0
BLOCK
  5
3495
100
AcDbEntity
  8
0
100
AcDbBlockBegin
  2
*D17
 70
    65
 10
0.0
 20
0.0
 30
0.0
  3
*D17
  1

  0
LINE
  5
348C
100
AcDbEntity
  8
0
  6
BYBLOCK
 62
     0
100
AcDbLine
 10
171.844267
 20
167.424388
 30
0.0
 11
171.844267
 21
167.944388
 31
0.0
  0
LINE
  5
348D
100
AcDbEntity
  8
0
  6
BYBLOCK
 62
     0
100
AcDbLine
 10
191.844267
 20
166.364388
 30
0.0
 11
191.844267
 21
165.844388
 31
0.0
  0
LINE
  5
348E
100
AcDbEntity
  8
0
  6
BYBLOCK
 62
     0
100
AcDbLine
 10
174.444267
 20
166.894388
 30
0.0
 11
189.244267
 21
166.894388
 31
0.0
  0
SOLID
  5
348F
100
AcDbEntity
  8
0
  6
BYBLOCK
 62
     0
100
AcDbTrace
 10
174.444267
 20
167.327721
 30
0.0
 11
174.444267
 21
166.461055
 31
0.0
 12
171.844267
 22
166.894388
 32
0.0
 13
171.844267
 23
166.894388
 33
0.0
  0
SOLID
  5
3490
100
AcDbEntity
  8
0
  6
BYBLOCK
 62
     0
100
AcDbTrace
 10
189.244267
 20
167.327721
 30
0.0
 11
189.244267
 21
166.461055
 31
0.0
 12
191.844267
 22
166.894388
 32
0.0
 13
191.844267
 23
166.894388
 33
0.0
  0
MTEXT
  5
3491
100
AcDbEntity
  8
0
  6
BYBLOCK
 62
     0
100
AcDbMText
 10
181.844267
 20
169.924388
 30
0.0
 40
5.0
 41
0.0
 71
     5
 72
     1
  1
\A1;20
  0
POINT
  5
3492
100
AcDbEntity
  8
DEFPOINTS
  6
BYBLOCK
 62
     0
100
AcDbPoint
 10
171.844267
 20
166.894388
 30
0.0
  0
POINT
  5
3493
100
AcDbEntity
  8
DEFPOINTS
  6
BYBLOCK
 62
     0
100
AcDbPoint
 10
191.844267
 20
166.894388
 30
0.0
  0
POINT
  5
3494
100
AcDbEntity
  8
DEFPOINTS
  6
BYBLOCK
 62
     0
100
AcDbPoint
 10
191.844267
 20
166.894388
 30
0.0
  0
ENDBLK
  5
3496
100
AcDbEntity
  8
0
100
AcDbBlockEnd
  0
BLOCK
  5
34A1
100
AcDbEntity
  8
0
100
AcDbBlockBegin
  2
*D18
 70
    65
 10
0.0
 20
0.0
 30
0.0
  3
*D18
  1

  0
LINE
  5
3498
100
AcDbEntity
  8
0
  6
BYBLOCK
 62
     0
100
AcDbLine
 10
128.705296
 20
198.340471
 30
0.0
 11
141.550266
 21
198.340471
 31
0.0
  0
LINE
  5
3499
100
AcDbEntity
  8
0
  6
BYBLOCK
 62
     0
100
AcDbLine
 10
126.705296
 20
153.340471
 30
0.0
 11
141.550266
 21
153.340471
 31
0.0
  0
LINE
  5
349A
100
AcDbEntity
  8
0
  6
BYBLOCK
 62
     0
100
AcDbLine
 10
140.500266
 20
195.740471
 30
0.0
 11
140.500266
 21
155.940471
 31
0.0
  0
SOLID
  5
349B
100
AcDbEntity
  8
0
  6
BYBLOCK
 62
     0
100
AcDbTrace
 10
140.066933
 20
195.740471
 30
0.0
 11
140.933599
 21
195.740471
 31
0.0
 12
140.500266
 22
198.340471
 32
0.0
 13
140.500266
 23
198.340471
 33
0.0
  0
SOLID
  5
349C
100
AcDbEntity
  8
0
  6
BYBLOCK
 62
     0
100
AcDbTrace
 10
140.066933
 20
155.940471
 30
0.0
 11
140.933599
 21
155.940471
 31
0.0
 12
140.500266
 22
153.340471
 32
0.0
 13
140.500266
 23
153.340471
 33
0.0
  0
MTEXT
  5
349D
100
AcDbEntity
  8
0
  6
BYBLOCK
 62
     0
100
AcDbMText
 10
137.470266
 20
175.840471
 30
0.0
 40
5.0
 41
0.0
 71
     5
 72
     1
  1
\A1;45
 11
0.0
 21
1.0
 31
0.0
  0
POINT
  5
349E
100
AcDbEntity
  8
DEFPOINTS
  6
BYBLOCK
 62
     0
100
AcDbPoint
 10
128.175296
 20
198.340471
 30
0.0
  0
POINT
  5
349F
100
AcDbEntity
  8
DEFPOINTS
  6
BYBLOCK
 62
     0
100
AcDbPoint
 10
126.175296
 20
153.340471
 30
0.0
  0
POINT
  5
34A0
100
AcDbEntity
  8
DEFPOINTS
  6
BYBLOCK
 62
     0
100
AcDbPoint
 10
140.500266
 20
153.340471
 30
0.0
  0
ENDBLK
  5
34A2
100
AcDbEntity
  8
0
100
AcDbBlockEnd
  0
BLOCK
  5
34B1
100
AcDbEntity
  8
QUOTE
  6
CONTINUOUS
100
AcDbBlockBegin
  2
A$CC001
 70
     0
 10
0.0
 20
0.0
 30
0.0
  3
A$CC001
  1

  0
DIMENSION
  5
34A4
100
AcDbEntity
  8
QUOTE
  6
CONTINUOUS
100
AcDbDimension
  2
*D16
 10
25.599065
 20
62.91117
 30
0.0
 11
20.599065
 21
65.94117
 31
0.0
 12
-166.245202
 22
-143.329757
 32
0.0
  3
ISO-25
100
AcDbAlignedDimension
 13
15.599065
 23
55.010713
 33
0.0
 14
25.599065
 24
48.856013
 34
0.0
100
AcDbRotatedDimension
1001
ACAD
1000
DSTYLE
1002
{
1070
   140
1040
5.0
1070
    47
1040
0.2
1070
    73
1070
     0
1070
   272
1070
     2
1070
   147
1040
0.53
1070
    42
1040
0.53
1070
    44
1040
1.05
1070
    43
1040
3.16
1070
   271
1070
     2
1070
   141
1040
2.1
1070
    41
1040
2.6
1002
}
  0
DIMENSION
  5
34A5
100
AcDbEntity
  8
QUOTE
  6
CONTINUOUS
100
AcDbDimension
  2
*D15
 10
15.599065
 20
62.91117
 30
0.0
 11
10.599065
 21
65.94117
 31
0.0
 12
-166.245202
 22
-143.329757
 32
0.0
  3
ISO-25
100
AcDbAlignedDimension
 13
5.599065
 23
55.010713
 33
0.0
 14
15.599065
 24
55.010713
 34
0.0
100
AcDbRotatedDimension
1001
ACAD
1000
DSTYLE
1002
{
1070
   140
1040
5.0
1070
    47
1040
0.2
1070
    73
1070
     0
1070
   272
1070
     2
1070
   147
1040
0.53
1070
    42
1040
0.53
1070
    44
1040
1.05
1070
    43
1040
3.16
1070
   271
1070
     2
1070
   141
1040
2.1
1070
    41
1040
2.6
1002
}
  0
DIMENSION
  5
34A6
100
AcDbEntity
  8
QUOTE
  6
CONTINUOUS
100
AcDbDimension
  2
*D14
 10
27.599065
 20
74.797107
 30
0.0
 11
16.599065
 21
77.827599
 31
0.0
 12
-166.245202
 22
-143.329757
 32
0.0
  3
ISO-25
100
AcDbAlignedDimension
 13
5.599065
 23
55.010713
 33
0.0
 14
27.599065
 24
55.010713
 34
0.0
100
AcDbRotatedDimension
1001
ACAD
1000
DSTYLE
1002
{
1070
   140
1040
5.0
1070
    47
1040
0.2
1070
    73
1070
     0
1070
   272
1070
     2
1070
   147
1040
0.53
1070
    42
1040
0.53
1070
    44
1040
1.05
1070
    43
1040
3.16
1070
   271
1070
     2
1070
   141
1040
2.1
1070
    41
1040
2.6
1002
}
  0
DIMENSION
  5
34A7
100
AcDbEntity
  8
QUOTE
  6
CONTINUOUS
100
AcDbDimension
  2
*D18
 10
39.924036
 20
10.010713
 30
0.0
 11
36.894036
 21
32.510713
 31
0.0
 12
-100.576231
 22
-143.329757
 32
0.0
  3
ISO-25
100
AcDbAlignedDimension
 13
27.599065
 23
55.010713
 33
0.0
 14
25.599065
 24
10.010713
 34
0.0
 50
90.0
100
AcDbRotatedDimension
1001
ACAD
1000
DSTYLE
1002
{
1070
   140
1040
5.0
1070
    47
1040
0.2
1070
    73
1070
     0
1070
   272
1070
     2
1070
   147
1040
0.53
1070
    42
1040
0.53
1070
    44
1040
1.05
1070
    43
1040
3.16
1070
   271
1070
     2
1070
   141
1040
2.1
1070
    41
1040
2.6
1002
}
  0
LINE
  5
34A8
100
AcDbEntity
  8
OGGETTO
  6
CONTINUOUS
100
AcDbLine
 10
25.599065
 20
48.856013
 30
0.0
 11
25.599065
 21
10.010713
 31
0.0
  0
LINE
  5
34A9
100
AcDbEntity
  8
OGGETTO
  6
CONTINUOUS
100
AcDbLine
 10
25.599065
 20
10.010713
 30
0.0
 11
27.599065
 21
8.856013
 31
0.0
  0
DIMENSION
  5
34AA
100
AcDbEntity
  8
QUOTE
  6
CONTINUOUS
100
AcDbDimension
  2
*D17
 10
25.599065
 20
23.56463
 30
0.0
 11
15.599065
 21
26.59463
 31
0.0
 12
-166.245202
 22
-143.329757
 32
0.0
  3
ISO-25
100
AcDbAlignedDimension
 13
5.599065
 23
23.56463
 33
0.0
 14
25.599065
 24
23.56463
 34
0.0
100
AcDbRotatedDimension
1001
ACAD
1000
DSTYLE
1002
{
1070
   140
1040
5.0
1070
    47
1040
0.2
1070
    73
1070
     0
1070
   272
1070
     2
1070
   147
1040
0.53
1070
    42
1040
0.53
1070
    44
1040
1.05
1070
    43
1040
3.16
1070
   271
1070
     2
1070
   141
1040
2.1
1070
    41
1040
2.6
1002
}
  0
LINE
  5
34AB
100
AcDbEntity
  8
OGGETTO
  6
CONTINUOUS
100
AcDbLine
 10
26.599065
 20
55.010713
 30
0.0
 11
6.599065
 21
55.010713
 31
0.0
  0
LINE
  5
34AC
100
AcDbEntity
  8
OGGETTO
  6
CONTINUOUS
100
AcDbLine
 10
6.599065
 20
55.010713
 30
0.0
 11
5.599065
 21
54.010713
 31
0.0
  0
LINE
  5
34AD
100
AcDbEntity
  8
OGGETTO
  6
CONTINUOUS
100
AcDbLine
 10
27.599065
 20
54.010713
 30
0.0
 11
27.599065
 21
50.010713
 31
0.0
  0
LINE
  5
34AE
100
AcDbEntity
  8
OGGETTO
  6
CONTINUOUS
100
AcDbLine
 10
27.599065
 20
50.010713
 30
0.0
 11
25.599065
 21
48.856013
 31
0.0
  0
LINE
  5
34AF
100
AcDbEntity
  8
OGGETTO
  6
CONTINUOUS
100
AcDbLine
 10
27.599065
 20
54.010713
 30
0.0
 11
26.599065
 21
55.010713
 31
0.0
  0
LINE
  5
34B0
100
AcDbEntity
  8
OGGETTO
  6
CONTINUOUS
100
AcDbLine
 10
5.599065
 20
54.010713
 30
0.0
 11
5.599065
 21
0.010713
 31
0.0
  0
ENDBLK
  5
34B2
100
AcDbEntity
  8
QUOTE
  6
CONTINUOUS
100
AcDbBlockEnd
  0
BLOCK
  5
3501
100
AcDbEntity
  8
0
100
AcDbBlockBegin
  2
*D20
 70
    65
 10
0.0
 20
0.0
 30
0.0
  3
*D20
  1

  0
LINE
  5
3502
100
AcDbEntity
  8
0
  6
BYBLOCK
 62
     0
100
AcDbLine
 10
-1.50761
 20
202.177768
 30
0.0
 11
-1.50761
 21
210.598226
 31
0.0
  0
LINE
  5
3503
100
AcDbEntity
  8
0
  6
BYBLOCK
 62
     0
100
AcDbLine
 10
8.49239
 20
196.023068
 30
0.0
 11
8.49239
 21
210.598226
 31
0.0
  0
LINE
  5
3504
100
AcDbEntity
  8
0
  6
BYBLOCK
 62
     0
100
AcDbLine
 10
-4.10761
 20
209.548226
 30
0.0
 11
-6.70761
 21
209.548226
 31
0.0
  0
LINE
  5
3505
100
AcDbEntity
  8
0
  6
BYBLOCK
 62
     0
100
AcDbLine
 10
11.09239
 20
209.548226
 30
0.0
 11
13.69239
 21
209.548226
 31
0.0
  0
LINE
  5
3506
100
AcDbEntity
  8
0
  6
BYBLOCK
 62
     0
100
AcDbLine
 10
-1.50761
 20
209.548226
 30
0.0
 11
8.49239
 21
209.548226
 31
0.0
  0
SOLID
  5
3507
100
AcDbEntity
  8
0
  6
BYBLOCK
 62
     0
100
AcDbTrace
 10
-4.10761
 20
209.981559
 30
0.0
 11
-4.10761
 21
209.114892
 31
0.0
 12
-1.50761
 22
209.548226
 32
0.0
 13
-1.50761
 23
209.548226
 33
0.0
  0
SOLID
  5
3508
100
AcDbEntity
  8
0
  6
BYBLOCK
 62
     0
100
AcDbTrace
 10
11.09239
 20
209.981559
 30
0.0
 11
11.09239
 21
209.114892
 31
0.0
 12
8.49239
 22
209.548226
 32
0.0
 13
8.49239
 23
209.548226
 33
0.0
  0
MTEXT
  5
3509
100
AcDbEntity
  8
0
  6
BYBLOCK
 62
     0
100
AcDbMText
 10
3.49239
 20
212.578226
 30
0.0
 40
5.0
 41
0.0
 71
     5
 72
     1
  1
\A1;10
  0
POINT
  5
350A
100
AcDbEntity
  8
DEFPOINTS
  6
BYBLOCK
 62
     0
100
AcDbPoint
 10
-1.50761
 20
201.647768
 30
0.0
  0
POINT
  5
350B
100
AcDbEntity
  8
DEFPOINTS
  6
BYBLOCK
 62
     0
100
AcDbPoint
 10
8.49239
 20
195.493068
 30
0.0
  0
POINT
  5
350C
100
AcDbEntity
  8
DEFPOINTS
  6
BYBLOCK
 62
     0
100
AcDbPoint
 10
8.49239
 20
209.548226
 30
0.0
  0
ENDBLK
  5
350D
100
AcDbEntity
  8
0
100
AcDbBlockEnd
  0
BLOCK
  5
350E
100
AcDbEntity
  8
0
100
AcDbBlockBegin
  2
*D21
 70
    65
 10
0.0
 20
0.0
 30
0.0
  3
*D21
  1

  0
LINE
  5
350F
100
AcDbEntity
  8
0
  6
BYBLOCK
 62
     0
100
AcDbLine
 10
-11.50761
 20
202.177768
 30
0.0
 11
-11.50761
 21
210.598226
 31
0.0
  0
LINE
  5
3510
100
AcDbEntity
  8
0
  6
BYBLOCK
 62
     0
100
AcDbLine
 10
-1.50761
 20
202.177768
 30
0.0
 11
-1.50761
 21
210.598226
 31
0.0
  0
LINE
  5
3511
100
AcDbEntity
  8
0
  6
BYBLOCK
 62
     0
100
AcDbLine
 10
-14.10761
 20
209.548226
 30
0.0
 11
-16.70761
 21
209.548226
 31
0.0
  0
LINE
  5
3512
100
AcDbEntity
  8
0
  6
BYBLOCK
 62
     0
100
AcDbLine
 10
1.09239
 20
209.548226
 30
0.0
 11
3.69239
 21
209.548226
 31
0.0
  0
LINE
  5
3513
100
AcDbEntity
  8
0
  6
BYBLOCK
 62
     0
100
AcDbLine
 10
-11.50761
 20
209.548226
 30
0.0
 11
-1.50761
 21
209.548226
 31
0.0
  0
SOLID
  5
3514
100
AcDbEntity
  8
0
  6
BYBLOCK
 62
     0
100
AcDbTrace
 10
-14.10761
 20
209.981559
 30
0.0
 11
-14.10761
 21
209.114892
 31
0.0
 12
-11.50761
 22
209.548226
 32
0.0
 13
-11.50761
 23
209.548226
 33
0.0
  0
SOLID
  5
3515
100
AcDbEntity
  8
0
  6
BYBLOCK
 62
     0
100
AcDbTrace
 10
1.09239
 20
209.981559
 30
0.0
 11
1.09239
 21
209.114892
 31
0.0
 12
-1.50761
 22
209.548226
 32
0.0
 13
-1.50761
 23
209.548226
 33
0.0
  0
MTEXT
  5
3516
100
AcDbEntity
  8
0
  6
BYBLOCK
 62
     0
100
AcDbMText
 10
-6.50761
 20
212.578226
 30
0.0
 40
5.0
 41
0.0
 71
     5
 72
     1
  1
\A1;10
  0
POINT
  5
3517
100
AcDbEntity
  8
DEFPOINTS
  6
BYBLOCK
 62
     0
100
AcDbPoint
 10
-11.50761
 20
201.647768
 30
0.0
  0
POINT
  5
3518
100
AcDbEntity
  8
DEFPOINTS
  6
BYBLOCK
 62
     0
100
AcDbPoint
 10
-1.50761
 20
201.647768
 30
0.0
  0
POINT
  5
3519
100
AcDbEntity
  8
DEFPOINTS
  6
BYBLOCK
 62
     0
100
AcDbPoint
 10
-1.50761
 20
209.548226
 30
0.0
  0
ENDBLK
  5
351A
100
AcDbEntity
  8
0
100
AcDbBlockEnd
  0
BLOCK
  5
353D
100
AcDbEntity
  8
0
100
AcDbBlockBegin
  2
*D22
 70
    65
 10
0.0
 20
0.0
 30
0.0
  3
*D22
  1

  0
LINE
  5
353E
100
AcDbEntity
  8
0
  6
BYBLOCK
 62
     0
100
AcDbLine
 10
106.175296
 20
198.870471
 30
0.0
 11
106.175296
 21
214.576187
 31
0.0
  0
LINE
  5
353F
100
AcDbEntity
  8
0
  6
BYBLOCK
 62
     0
100
AcDbLine
 10
128.175296
 20
198.870471
 30
0.0
 11
128.175296
 21
214.576187
 31
0.0
  0
LINE
  5
3540
100
AcDbEntity
  8
0
  6
BYBLOCK
 62
     0
100
AcDbLine
 10
108.775296
 20
213.526187
 30
0.0
 11
125.575296
 21
213.526187
 31
0.0
  0
SOLID
  5
3541
100
AcDbEntity
  8
0
  6
BYBLOCK
 62
     0
100
AcDbTrace
 10
108.775296
 20
213.95952
 30
0.0
 11
108.775296
 21
213.092854
 31
0.0
 12
106.175296
 22
213.526187
 32
0.0
 13
106.175296
 23
213.526187
 33
0.0
  0
SOLID
  5
3542
100
AcDbEntity
  8
0
  6
BYBLOCK
 62
     0
100
AcDbTrace
 10
125.575296
 20
213.95952
 30
0.0
 11
125.575296
 21
213.092854
 31
0.0
 12
128.175296
 22
213.526187
 32
0.0
 13
128.175296
 23
213.526187
 33
0.0
  0
MTEXT
  5
3543
100
AcDbEntity
  8
0
  6
BYBLOCK
 62
     0
100
AcDbMText
 10
117.175296
 20
216.556679
 30
0.0
 40
5.0
 41
0.0
 71
     5
 72
     1
  1
\A1;22
  0
POINT
  5
3544
100
AcDbEntity
  8
DEFPOINTS
  6
BYBLOCK
 62
     0
100
AcDbPoint
 10
106.175296
 20
198.340471
 30
0.0
  0
POINT
  5
3545
100
AcDbEntity
  8
DEFPOINTS
  6
BYBLOCK
 62
     0
100
AcDbPoint
 10
128.175296
 20
198.340471
 30
0.0
  0
POINT
  5
3546
100
AcDbEntity
  8
DEFPOINTS
  6
BYBLOCK
 62
     0
100
AcDbPoint
 10
128.175296
 20
213.526187
 30
0.0
  0
ENDBLK
  5
3547
100
AcDbEntity
  8
0
100
AcDbBlockEnd
  0
BLOCK
  5
3549
100
AcDbEntity
  8
0
100
AcDbBlockBegin
  2
*D23
 70
    65
 10
0.0
 20
0.0
 30
0.0
  3
*D23
  1

  0
LINE
  5
354A
100
AcDbEntity
  8
0
  6
BYBLOCK
 62
     0
100
AcDbLine
 10
128.705296
 20
198.340471
 30
0.0
 11
141.550266
 21
198.340471
 31
0.0
  0
LINE
  5
354B
100
AcDbEntity
  8
0
  6
BYBLOCK
 62
     0
100
AcDbLine
 10
139.970266
 20
153.340471
 30
0.0
 11
139.450266
 21
153.340471
 31
0.0
  0
LINE
  5
354C
100
AcDbEntity
  8
0
  6
BYBLOCK
 62
     0
100
AcDbLine
 10
140.500266
 20
195.740471
 30
0.0
 11
140.500266
 21
155.940471
 31
0.0
  0
SOLID
  5
354D
100
AcDbEntity
  8
0
  6
BYBLOCK
 62
     0
100
AcDbTrace
 10
140.066933
 20
195.740471
 30
0.0
 11
140.933599
 21
195.740471
 31
0.0
 12
140.500266
 22
198.340471
 32
0.0
 13
140.500266
 23
198.340471
 33
0.0
  0
SOLID
  5
354E
100
AcDbEntity
  8
0
  6
BYBLOCK
 62
     0
100
AcDbTrace
 10
140.066933
 20
155.940471
 30
0.0
 11
140.933599
 21
155.940471
 31
0.0
 12
140.500266
 22
153.340471
 32
0.0
 13
140.500266
 23
153.340471
 33
0.0
  0
MTEXT
  5
354F
100
AcDbEntity
  8
0
  6
BYBLOCK
 62
     0
100
AcDbMText
 10
137.470266
 20
175.840471
 30
0.0
 40
5.0
 41
0.0
 71
     5
 72
     1
  1
\A1;45
 11
0.0
 21
1.0
 31
0.0
  0
POINT
  5
3550
100
AcDbEntity
  8
DEFPOINTS
  6
BYBLOCK
 62
     0
100
AcDbPoint
 10
128.175296
 20
198.340471
 30
0.0
  0
POINT
  5
3551
100
AcDbEntity
  8
DEFPOINTS
  6
BYBLOCK
 62
     0
100
AcDbPoint
 10
140.500266
 20
153.340471
 30
0.0
  0
POINT
  5
3552
100
AcDbEntity
  8
DEFPOINTS
  6
BYBLOCK
 62
     0
100
AcDbPoint
 10
140.500266
 20
153.340471
 30
0.0
  0
ENDBLK
  5
3553
100
AcDbEntity
  8
0
100
AcDbBlockEnd
  0
BLOCK
  5
3531
100
AcDbEntity
  8
0
100
AcDbBlockBegin
  2
*D24
 70
    65
 10
0.0
 20
0.0
 30
0.0
  3
*D24
  1

  0
LINE
  5
3532
100
AcDbEntity
  8
0
  6
BYBLOCK
 62
     0
100
AcDbLine
 10
-11.50761
 20
170.731686
 30
0.0
 11
-11.50761
 21
171.251686
 31
0.0
  0
LINE
  5
3533
100
AcDbEntity
  8
0
  6
BYBLOCK
 62
     0
100
AcDbLine
 10
8.49239
 20
169.671686
 30
0.0
 11
8.49239
 21
169.151686
 31
0.0
  0
LINE
  5
3534
100
AcDbEntity
  8
0
  6
BYBLOCK
 62
     0
100
AcDbLine
 10
-8.90761
 20
170.201686
 30
0.0
 11
5.89239
 21
170.201686
 31
0.0
  0
SOLID
  5
3535
100
AcDbEntity
  8
0
  6
BYBLOCK
 62
     0
100
AcDbTrace
 10
-8.90761
 20
170.635019
 30
0.0
 11
-8.90761
 21
169.768352
 31
0.0
 12
-11.50761
 22
170.201686
 32
0.0
 13
-11.50761
 23
170.201686
 33
0.0
  0
SOLID
  5
3536
100
AcDbEntity
  8
0
  6
BYBLOCK
 62
     0
100
AcDbTrace
 10
5.89239
 20
170.635019
 30
0.0
 11
5.89239
 21
169.768352
 31
0.0
 12
8.49239
 22
170.201686
 32
0.0
 13
8.49239
 23
170.201686
 33
0.0
  0
MTEXT
  5
3537
100
AcDbEntity
  8
0
  6
BYBLOCK
 62
     0
100
AcDbMText
 10
-1.50761
 20
173.231686
 30
0.0
 40
5.0
 41
0.0
 71
     5
 72
     1
  1
\A1;20
  0
POINT
  5
3538
100
AcDbEntity
  8
DEFPOINTS
  6
BYBLOCK
 62
     0
100
AcDbPoint
 10
-11.50761
 20
170.201686
 30
0.0
  0
POINT
  5
3539
100
AcDbEntity
  8
DEFPOINTS
  6
BYBLOCK
 62
     0
100
AcDbPoint
 10
8.49239
 20
170.201686
 30
0.0
  0
POINT
  5
353A
100
AcDbEntity
  8
DEFPOINTS
  6
BYBLOCK
 62
     0
100
AcDbPoint
 10
8.49239
 20
170.201686
 30
0.0
  0
ENDBLK
  5
353B
100
AcDbEntity
  8
0
100
AcDbBlockEnd
  0
ENDSEC
  0
SECTION
  2
ENTITIES
  0
MTEXT
  5
F7E
100
AcDbEntity
  8
TESTO
  6
CONTINUOUS
100
AcDbMText
 10
138.285367
 20
36.885825
 30
0.0
 40
2.6
 41
0.0
 71
     7
 72
     1
  1

  0
MTEXT
  5
1095
100
AcDbEntity
  8
TESTO
  6
CONTINUOUS
100
AcDbMText
 10
126.076483
 20
23.185707
 30
0.0
 40
2.6
 41
0.0
 71
     7
 72
     1
  1

  0
LINE
  5
2F32
100
AcDbEntity
  8
OGGETTO
  6
CONTINUOUS
100
AcDbLine
 10
156.175296
 20
153.340471
 30
0.0
 11
166.175296
 21
143.340471
 31
0.0
  0
LINE
  5
3386
100
AcDbEntity
  8
OGGETTO
  6
CONTINUOUS
100
AcDbLine
 10
126.175296
 20
153.340471
 30
0.0
 11
156.175296
 21
153.340471
 31
0.0
  0
LINE
  5
338A
100
AcDbEntity
  8
OGGETTO
  6
CONTINUOUS
100
AcDbLine
 10
166.175296
 20
143.340471
 30
0.0
 11
166.175296
 21
97.77769
 31
0.0
  0
LINE
  5
338B
100
AcDbEntity
  8
OGGETTO
  6
CONTINUOUS
100
AcDbLine
 10
106.175296
 20
143.340471
 30
0.0
 11
138.175296
 21
111.340471
 31
0.0
  0
LINE
  5
338E
100
AcDbEntity
  8
OGGETTO
  6
CONTINUOUS
100
AcDbLine
 10
117.281212
 20
43.827085
 30
0.0
 11
121.65123
 21
48.596124
 31
0.0
1001
ACAD
1000
ASC_BOUNDS
1002
{
1070
    19
1002
}
  0
LINE
  5
338F
100
AcDbEntity
  8
OGGETTO
  6
CONTINUOUS
100
AcDbLine
 10
115.06938
 20
43.827085
 30
0.0
 11
112.032011
 21
47.141792
 31
0.0
1001
ACAD
1000
ASC_BOUNDS
1002
{
1070
    19
1002
}
  0
ARC
  5
3391
100
AcDbEntity
  8
OGGETTO
  6
CONTINUOUS
100
AcDbCircle
 10
116.175296
 20
44.840471
 30
0.0
 40
1.5
100
AcDbArc
 50
222.5
 51
317.5
1001
ACAD
1000
ASC_BOUNDS
1002
{
1070
    19
1002
}
  0
LINE
  5
3394
100
AcDbEntity
  8
OGGETTO
  6
CONTINUOUS
100
AcDbLine
 10
138.175296
 20
111.340471
 30
0.0
 11
138.175296
 21
88.979793
 31
0.0
  0
LINE
  5
3398
100
AcDbEntity
  8
OGGETTO
  6
CONTINUOUS
100
AcDbLine
 10
121.65123
 20
48.596124
 30
0.0
 11
121.626555
 21
49.161271
 31
0.0
  0
LINE
  5
339C
100
AcDbEntity
  8
OGGETTO
  6
CONTINUOUS
100
AcDbLine
 10
112.032011
 20
47.141792
 30
0.0
 11
138.175296
 21
88.979793
 31
0.0
  0
LINE
  5
34B8
100
AcDbEntity
  8
OGGETTO
  6
CONTINUOUS
100
AcDbLine
 10
126.175296
 20
192.18577
 30
0.0
 11
126.175296
 21
153.340471
 31
0.0
  0
LINE
  5
34BB
100
AcDbEntity
  8
OGGETTO
  6
CONTINUOUS
100
AcDbLine
 10
127.175296
 20
198.340471
 30
0.0
 11
107.175296
 21
198.340471
 31
0.0
  0
LINE
  5
34BC
100
AcDbEntity
  8
OGGETTO
  6
CONTINUOUS
100
AcDbLine
 10
107.175296
 20
198.340471
 30
0.0
 11
106.175296
 21
197.340471
 31
0.0
  0
LINE
  5
34BD
100
AcDbEntity
  8
OGGETTO
  6
CONTINUOUS
100
AcDbLine
 10
128.175296
 20
197.340471
 30
0.0
 11
128.175296
 21
193.340471
 31
0.0
  0
LINE
  5
34BE
100
AcDbEntity
  8
OGGETTO
  6
CONTINUOUS
100
AcDbLine
 10
128.175296
 20
193.340471
 30
0.0
 11
126.175296
 21
192.18577
 31
0.0
  0
LINE
  5
34BF
100
AcDbEntity
  8
OGGETTO
  6
CONTINUOUS
100
AcDbLine
 10
128.175296
 20
197.340471
 30
0.0
 11
127.175296
 21
198.340471
 31
0.0
  0
LINE
  5
34C0
100
AcDbEntity
  8
OGGETTO
  6
CONTINUOUS
100
AcDbLine
 10
106.175296
 20
197.340471
 30
0.0
 11
106.175296
 21
143.340471
 31
0.0
  0
LINE
  5
355D
100
AcDbEntity
  8
OGGETTO
  6
CONTINUOUS
100
AcDbLine
 10
121.626555
 20
49.161271
 30
0.0
 11
166.175296
 21
97.77769
 31
0.0
  0
VIEWPORT
  5
22
100
AcDbEntity
 67
     1
  8
0
100
AcDbViewport
 10
261.517699
 20
154.724298
 30
0.0
 40
523.035398
 41
309.448596
 68
    -1
 69
     1
1001
ACAD
1000
MVIEW
1002
{
1070
    16
1010
0.0
1020
0.0
1030
0.0
1010
0.0
1020
0.0
1030
1.0
1040
0.0
1040
309.448596
1040
261.517699
1040
154.724298
1040
50.0
1040
0.0
1040
0.0
1070
     0
1070
   100
1070
     1
1070
     0
1070
     0
1070
     0
1070
     0
1070
     0
1040
0.0
1040
0.0
1040
0.0
1040
1.0
1040
1.0
1040
10.0
1040
10.0
1070
     0
1002
{
1002
}
1002
}
  0
ENDSEC
  0
SECTION
  2
OBJECTS
  0
DICTIONARY
  5
C
100
AcDbDictionary
  3
ACAD_GROUP
350
D
  3
ACAD_MLINESTYLE
350
E
  0
DICTIONARY
  5
D
102
{ACAD_REACTORS
330
C
102
}
100
AcDbDictionary
  0
DICTIONARY
  5
E
102
{ACAD_REACTORS
330
C
102
}
100
AcDbDictionary
  3
STANDARD
350
13
  0
MLINESTYLE
  5
13
102
{ACAD_REACTORS
330
E
102
}
100
AcDbMlineStyle
  2
STANDARD
 70
     0
  3

 62
     0
 51
90.0
 52
90.0
 71
     2
 49
0.5
 62
   256
  6
BYLAYER
 49
-0.5
 62
   256
  6
BYLAYER
  0
ENDSEC
  0
EOF
