  0
SECTION
  2
HEADER
  9
$ACADVER
  1
AC1009
  9
$DWGCODEPAGE
  3
ansi_1252
  9
$INSBASE
 10
0.0
 20
0.0
 30
0.0
  9
$EXTMIN
 10
1.000E+20
 20
1.000E+20
 30
1.000E+20
  9
$EXTMAX
 10
-1.000E+20
 20
-1.000E+20
 30
-1.000E+20
  9
$LIMMIN
 10
0.0
 20
0.0
  9
$LIMMAX
 10
420.0
 20
297.0
  9
$ORTHOMODE
 70
     0
  9
$REGENMODE
 70
     1
  9
$FILLMODE
 70
     1
  9
$QTEXTMODE
 70
     0
  9
$MIRRTEXT
 70
     1
  9
$DRAGMODE
 70
     2
  9
$LTSCALE
 40
1.0
  9
$OSMODE
 70
    37
  9
$ATTMODE
 70
     1
  9
$TEXTSIZE
 40
2.5
  9
$TRACEWID
 40
1.0
  9
$TEXTSTYLE
  7
STANDARD
  9
$CLAYER
  8
0
  9
$CELTYPE
  6
BYLAYER
  9
$CECOLOR
 62
   256
  9
$DIMSCALE
 40
1.0
  9
$DIMASZ
 40
2.5
  9
$DIMEXO
 40
0.625
  9
$DIMDLI
 40
3.75
  9
$DIMRND
 40
0.0
  9
$DIMDLE
 40
0.0
  9
$DIMEXE
 40
1.25
  9
$DIMTP
 40
0.0
  9
$DIMTM
 40
0.0
  9
$DIMTXT
 40
2.5
  9
$DIMCEN
 40
2.5
  9
$DIMTSZ
 40
0.0
  9
$DIMTOL
 70
     0
  9
$DIMLIM
 70
     0
  9
$DIMTIH
 70
     0
  9
$DIMTOH
 70
     0
  9
$DIMSE1
 70
     0
  9
$DIMSE2
 70
     0
  9
$DIMTAD
 70
     1
  9
$DIMZIN
 70
     8
  9
$DIMBLK
  1

  9
$DIMASO
 70
     1
  9
$DIMSHO
 70
     1
  9
$DIMPOST
  1

  9
$DIMAPOST
  1

  9
$DIMALT
 70
     0
  9
$DIMALTD
 70
     3
  9
$DIMALTF
 40
0.039
  9
$DIMLFAC
 40
1.0
  9
$DIMTOFL
 70
     1
  9
$DIMTVP
 40
0.0
  9
$DIMTIX
 70
     0
  9
$DIMSOXD
 70
     0
  9
$DIMSAH
 70
     0
  9
$DIMBLK1
  1

  9
$DIMBLK2
  1

  9
$DIMSTYLE
  2
ISO-25
  9
$DIMCLRD
 70
     0
  9
$DIMCLRE
 70
     0
  9
$DIMCLRT
 70
     0
  9
$DIMTFAC
 40
1.0
  9
$DIMGAP
 40
0.625
  9
$LUNITS
 70
     2
  9
$LUPREC
 70
     4
  9
$SKETCHINC
 40
1.0
  9
$FILLETRAD
 40
10.0
  9
$AUNITS
 70
     0
  9
$AUPREC
 70
     0
  9
$MENU
  1
.
  9
$ELEVATION
 40
0.0
  9
$PELEVATION
 40
0.0
  9
$THICKNESS
 40
0.0
  9
$LIMCHECK
 70
     0
  9
$CHAMFERA
 40
0.0
  9
$CHAMFERB
 40
0.0
  9
$SKPOLY
 70
     0
  9
$TDCREATE
 40
2457612.626287998
  9
$TDUPDATE
 40
2457612.626290197
  9
$TDINDWG
 40
0.0000000116
  9
$TDUSRTIMER
 40
0.0000000116
  9
$USRTIMER
 70
     1
  9
$ANGBASE
 50
0.0
  9
$ANGDIR
 70
     0
  9
$PDMODE
 70
     0
  9
$PDSIZE
 40
0.0
  9
$PLINEWID
 40
0.0
  9
$COORDS
 70
     1
  9
$SPLFRAME
 70
     0
  9
$SPLINETYPE
 70
     6
  9
$SPLINESEGS
 70
     8
  9
$ATTDIA
 70
     0
  9
$ATTREQ
 70
     1
  9
$HANDLING
 70
     1
  9
$HANDSEED
  5
742
  9
$SURFTAB1
 70
     6
  9
$SURFTAB2
 70
     6
  9
$SURFTYPE
 70
     6
  9
$SURFU
 70
     6
  9
$SURFV
 70
     6
  9
$UCSNAME
  2

  9
$UCSORG
 10
0.0
 20
0.0
 30
0.0
  9
$UCSXDIR
 10
1.0
 20
0.0
 30
0.0
  9
$UCSYDIR
 10
0.0
 20
1.0
 30
0.0
  9
$PUCSNAME
  2

  9
$PUCSORG
 10
0.0
 20
0.0
 30
0.0
  9
$PUCSXDIR
 10
1.0
 20
0.0
 30
0.0
  9
$PUCSYDIR
 10
0.0
 20
1.0
 30
0.0
  9
$USERI1
 70
     0
  9
$USERI2
 70
     0
  9
$USERI3
 70
     0
  9
$USERI4
 70
     0
  9
$USERI5
 70
     0
  9
$USERR1
 40
0.0
  9
$USERR2
 40
0.0
  9
$USERR3
 40
0.0
  9
$USERR4
 40
0.0
  9
$USERR5
 40
0.0
  9
$WORLDVIEW
 70
     1
  9
$SHADEDGE
 70
     3
  9
$SHADEDIF
 70
    70
  9
$TILEMODE
 70
     1
  9
$MAXACTVP
 70
    64
  9
$PLIMCHECK
 70
     0
  9
$PEXTMIN
 10
1.000E+20
 20
1.000E+20
 30
1.000E+20
  9
$PEXTMAX
 10
-1.000E+20
 20
-1.000E+20
 30
-1.000E+20
  9
$PLIMMIN
 10
0.0
 20
0.0
  9
$PLIMMAX
 10
420.0
 20
297.0
  9
$UNITMODE
 70
     0
  9
$VISRETAIN
 70
     1
  9
$PLINEGEN
 70
     0
  9
$PSLTSCALE
 70
     1
  0
ENDSEC
  0
SECTION
  2
TABLES
  0
TABLE
  2
VPORT
 70
     1
  0
VPORT
  2
*ACTIVE
 70
     0
 10
0.0
 20
0.0
 11
1.0
 21
1.0
 12
344.187
 22
148.5
 13
0.0
 23
0.0
 14
10.0
 24
10.0
 15
10.0
 25
10.0
 16
0.0
 26
0.0
 36
1.0
 17
0.0
 27
0.0
 37
0.0
 40
297.0
 41
1.973
 42
50.0
 43
0.0
 44
0.0
 50
0.0
 51
0.0
 71
     0
 72
   100
 73
     1
 74
     3
 75
     0
 76
     0
 77
     0
 78
     0
  0
ENDTAB
  0
TABLE
  2
LTYPE
 70
     1
  0
LTYPE
  2
CONTINUOUS
 70
     0
  3
Solid line
 72
    65
 73
     0
 40
0.0
  0
ENDTAB
  0
TABLE
  2
LAYER
 70
    11
  0
LAYER
  2
0
 70
     0
 62
   131
  6
CONTINUOUS
  0
LAYER
  2
1
 70
     0
 62
   131
  6
CONTINUOUS
  0
LAYER
  2
2
 70
     0
 62
   131
  6
CONTINUOUS
  0
LAYER
  2
3
 70
     0
 62
   131
  6
CONTINUOUS
  0
LAYER
  2
4
 70
     0
 62
   131
  6
CONTINUOUS
  0
LAYER
  2
5
 70
     0
 62
   131
  6
CONTINUOUS
  0
LAYER
  2
6
 70
     0
 62
   131
  6
CONTINUOUS
  0
LAYER
  2
7
 70
     0
 62
   131
  6
CONTINUOUS
  0
LAYER
  2
8
 70
     0
 62
   131
  6
CONTINUOUS
  0
LAYER
  2
9
 70
     0
 62
   131
  6
CONTINUOUS
  0
LAYER
  2
DEFPOINTS
 70
     0
 62
     7
  6
CONTINUOUS
  0
ENDTAB
  0
TABLE
  2
STYLE
 70
     6
  0
STYLE
  2
STANDARD
 70
     0
 40
0.0
 41
1.0
 50
0.0
 71
     0
 42
2.5
  3
txt
  4

  0
STYLE
  2
DEFAULT
 70
     0
 40
0.0
 41
1.0
 50
0.0
 71
     0
 42
2.5
  3

  4

  0
STYLE
  2
ANSI
 70
     0
 40
0.0
 41
1.0
 50
0.0
 71
     0
 42
2.5
  3

  4

  0
STYLE
  2
STEFANO
 70
     0
 40
0.0
 41
1.0
 50
0.0
 71
     0
 42
2.5
  3
arial.ttf
  4

  0
STYLE
  2
ROLLERI
 70
     0
 40
0.0
 41
1.0
 50
0.0
 71
     0
 42
2.5
  3

  4

  0
STYLE
  2
MARCELLO
 70
     0
 40
0.0
 41
1.0
 50
0.0
 71
     0
 42
2.5
  3

  4

  0
ENDTAB
  0
TABLE
  2
VIEW
 70
     0
  0
ENDTAB
  0
TABLE
  2
UCS
 70
     0
  0
ENDTAB
  0
TABLE
  2
APPID
 70
     2
  0
APPID
  2
ACAD
 70
     0
  0
APPID
  2
ACAECLAYERSTANDARD
 70
     0
  0
ENDTAB
  0
TABLE
  2
DIMSTYLE
 70
     5
  0
DIMSTYLE
  2
ISO-25
 70
     0
  3

  4

  5

  6

  7

 40
1.0
 41
2.5
 42
0.625
 43
3.75
 44
1.25
 45
0.0
 46
0.0
 47
0.0
 48
0.0
140
2.5
141
2.5
142
0.0
143
0.039
144
1.0
145
0.0
146
1.0
147
0.625
 71
     0
 72
     0
 73
     0
 74
     0
 75
     0
 76
     0
 77
     1
 78
     8
170
     0
171
     3
172
     1
173
     0
174
     0
175
     0
176
     0
177
     0
178
     0
  0
DIMSTYLE
  2
DEFAULT
 70
     0
  3
<>
  4

  5
CLOSED
  6

  7

 40
1.0
 41
4.375
 42
1.05
 43
0.38
 44
2.1
 45
0.0
 46
0.0
 47
0.0
 48
0.0
140
3.5
141
0.09
142
0.0
143
25.4
144
1.0
145
0.0
146
0.4
147
1.75
 71
     0
 72
     0
 73
     0
 74
     0
 75
     0
 76
     0
 77
     1
 78
     8
170
     0
171
     2
172
     1
173
     0
174
     0
175
     0
176
     0
177
     0
178
     1
  0
DIMSTYLE
  2
ANSI
 70
     0
  3
<>
  4

  5
CLOSED
  6

  7

 40
1.0
 41
4.375
 42
1.05
 43
0.38
 44
2.1
 45
0.0
 46
0.0
 47
0.0
 48
0.0
140
3.5
141
0.09
142
0.0
143
25.4
144
1.0
145
0.0
146
1.0
147
1.75
 71
     0
 72
     0
 73
     1
 74
     1
 75
     0
 76
     0
 77
     0
 78
    12
170
     0
171
     2
172
     1
173
     0
174
     0
175
     0
176
     0
177
     0
178
     1
  0
DIMSTYLE
  2
STEFANO
 70
     0
  3
<>
  4

  5

  6

  7

 40
1.0
 41
3.0
 42
0.9
 43
0.38
 44
1.2
 45
0.0
 46
0.0
 47
0.0
 48
0.0
140
3.0
141
0.09
142
0.0
143
25.4
144
1.0
145
0.0
146
0.6
147
1.5
 71
     0
 72
     0
 73
     0
 74
     0
 75
     0
 76
     0
 77
     1
 78
     8
170
     0
171
     2
172
     1
173
     0
174
     0
175
     0
176
    21
177
    21
178
    21
  0
DIMSTYLE
  2
ROLLERI
 70
     0
  3
<>
  4

  5

  6

  7

 40
1.0
 41
2.55
 42
0.9
 43
0.38
 44
0.6
 45
0.0
 46
0.0
 47
0.0
 48
0.0
140
3.0
141
0.09
142
0.0
143
25.4
144
1.0
145
0.0
146
0.65
147
0.45
 71
     0
 72
     0
 73
     0
 74
     0
 75
     0
 76
     0
 77
     1
 78
     8
170
     0
171
     2
172
     1
173
     0
174
     0
175
     0
176
     0
177
     0
178
    21
  0
ENDTAB
  0
ENDSEC
  0
SECTION
  2
BLOCKS
  0
BLOCK
  8
0
  2
$MODEL_SPACE
 70
     0
 10
0.0
 20
0.0
 30
0.0
  3
$MODEL_SPACE
  1

  0
ENDBLK
  5
21
  8
0
  0
BLOCK
 67
     1
  8
0
  2
$PAPER_SPACE
 70
     0
 10
0.0
 20
0.0
 30
0.0
  3
$PAPER_SPACE
  1

  0
ENDBLK
  5
1D
 67
     1
  8
0
  0
BLOCK
  8
0
  2
_CLOSED
 70
     0
 10
0.0
 20
0.0
 30
0.0
  3
_CLOSED
  1

  0
LINE
  5
81
  8
0
  6
BYBLOCK
 62
     0
 10
-1.0
 20
0.167
 30
0.0
 11
0.0
 21
0.0
 31
0.0
  0
LINE
  5
82
  8
0
  6
BYBLOCK
 62
     0
 10
0.0
 20
0.0
 30
0.0
 11
-1.0
 21
-0.167
 31
0.0
  0
LINE
  5
83
  8
0
  6
BYBLOCK
 62
     0
 10
-1.0
 20
0.167
 30
0.0
 11
-1.0
 21
-0.167
 31
0.0
  0
LINE
  5
84
  8
0
  6
BYBLOCK
 62
     0
 10
0.0
 20
0.0
 30
0.0
 11
-1.0
 21
0.0
 31
0.0
  0
ENDBLK
  5
80
  8
0
  0
BLOCK
  8
0
  2
*D2
 70
     1
 10
0.0
 20
0.0
 30
0.0
  3
*D2
  1

  0
LINE
  5
8D
  8
0
  6
CONTINUOUS
 62
    21
 10
198.254
 20
124.817
 30
0.0
 11
207.554
 21
124.817
 31
0.0
  0
LINE
  5
8E
  8
0
  6
CONTINUOUS
 62
    21
 10
198.254
 20
122.817
 30
0.0
 11
207.554
 21
122.817
 31
0.0
  0
LINE
  5
8F
  8
0
  6
CONTINUOUS
 62
    21
 10
206.354
 20
122.817
 30
0.0
 11
206.354
 21
111.834
 31
0.0
  0
LINE
  5
90
  8
0
  6
CONTINUOUS
 62
    21
 10
206.354
 20
124.817
 30
0.0
 11
206.354
 21
122.817
 31
0.0
  0
LINE
  5
91
  8
0
  6
CONTINUOUS
 62
    21
 10
206.354
 20
127.817
 30
0.0
 11
206.354
 21
130.817
 31
0.0
  0
LINE
  5
92
  8
0
  6
CONTINUOUS
 62
    21
 10
206.354
 20
119.817
 30
0.0
 11
206.354
 21
116.817
 31
0.0
  0
SOLID
  5
93
  8
0
 62
    21
 10
205.854
 20
127.817
 30
0.0
 11
206.854
 21
127.817
 31
0.0
 12
206.354
 22
124.817
 32
0.0
 13
206.354
 23
124.817
 33
0.0
  0
SOLID
  5
94
  8
0
 62
    21
 10
206.854
 20
119.817
 30
0.0
 11
205.854
 21
119.817
 31
0.0
 12
206.354
 22
122.817
 32
0.0
 13
206.354
 23
122.817
 33
0.0
  0
TEXT
  5
95
  8
0
  6
CONTINUOUS
 62
    21
 10
204.848
 20
113.211
 30
0.0
 40
3.0
  1
2
 50
90.0
  7
STEFANO
  0
POINT
  5
96
  8
DEFPOINTS
 62
     0
 10
197.354
 20
124.817
 30
0.0
  0
POINT
  5
97
  8
DEFPOINTS
 62
     0
 10
197.354
 20
122.817
 30
0.0
  0
POINT
  5
98
  8
DEFPOINTS
 62
     0
 10
206.354
 20
122.817
 30
0.0
  0
ENDBLK
  5
8C
  8
0
  0
BLOCK
  8
0
  2
*D3
 70
     1
 10
0.0
 20
0.0
 30
0.0
  3
*D3
  1

  0
LINE
  5
9D
  8
0
  6
CONTINUOUS
 62
    21
 10
71.293
 20
108.917
 30
0.0
 11
71.293
 21
95.666
 31
0.0
  0
LINE
  5
9E
  8
0
  6
CONTINUOUS
 62
    21
 10
72.93
 20
108.18
 30
0.0
 11
81.299
 21
99.811
 31
0.0
  0
ARC
  5
9F
  8
0
  6
CONTINUOUS
 62
    21
 10
71.293
 20
109.817
 30
0.0
 40
12.95026007036422
 50
243.395
 51
256.697
  0
ARC
  5
A0
  8
0
  6
CONTINUOUS
 62
    21
 10
71.293
 20
109.817
 30
0.0
 40
12.95026007036422
 50
328.303
 51
341.605
  0
ARC
  5
A1
  8
0
  6
CONTINUOUS
 62
    21
 10
71.293
 20
109.817
 30
0.0
 40
12.95026007036422
 50
270.0
 51
315.0
  0
SOLID
  5
A2
  8
0
 62
    21
 10
68.256
 20
96.717
 30
0.0
 11
68.372
 21
97.711
 31
0.0
 12
71.293
 22
96.866
 32
0.0
 13
71.293
 23
96.866
 33
0.0
  0
SOLID
  5
A3
  8
0
 62
    21
 10
81.92
 20
103.322
 30
0.0
 11
82.704
 21
102.702
 31
0.0
 12
80.451
 22
100.659
 32
0.0
 13
80.451
 23
100.659
 33
0.0
  0
TEXT
  5
A4
  8
0
  6
CONTINUOUS
 62
    21
 10
73.558
 20
98.416
 30
0.0
 40
3.0
  1
45
 50
22.5
  7
STEFANO
  0
POINT
  5
A5
  8
DEFPOINTS
 62
     0
 10
74.645
 20
97.308
 30
0.0
  0
POINT
  5
A6
  8
DEFPOINTS
 62
     0
 10
72.293
 20
108.817
 30
0.0
  0
POINT
  5
A7
  8
DEFPOINTS
 62
     0
 10
71.293
 20
109.817
 30
0.0
  0
POINT
  5
A8
  8
DEFPOINTS
 62
     0
 10
71.293
 20
122.817
 30
0.0
  0
POINT
  5
A9
  8
DEFPOINTS
 62
     0
 10
71.293
 20
109.817
 30
0.0
  0
ENDBLK
  5
9C
  8
0
  0
BLOCK
  8
0
  2
*D4
 70
     1
 10
0.0
 20
0.0
 30
0.0
  3
*D4
  1

  0
LINE
  5
AE
  8
0
  6
CONTINUOUS
 62
    21
 10
80.445
 20
111.157
 30
0.0
 11
82.106
 21
118.403
 31
0.0
  0
LINE
  5
AF
  8
0
  6
CONTINUOUS
 62
    21
 10
84.657
 20
108.18
 30
0.0
 11
81.202
 21
104.726
 31
0.0
  0
LINE
  5
B0
  8
0
  6
CONTINUOUS
 62
    21
 10
86.293
 20
108.917
 30
0.0
 11
86.293
 21
102.617
 31
0.0
  0
ARC
  5
B1
  8
0
  6
CONTINUOUS
 62
    21
 10
86.293
 20
109.817
 30
0.0
 40
6.00000136756944
 50
167.09
 51
196.045
  0
ARC
  5
B2
  8
0
  6
CONTINUOUS
 62
    21
 10
86.293
 20
109.817
 30
0.0
 40
6.00000136756944
 50
298.955
 51
327.91
  0
ARC
  5
B3
  8
0
  6
CONTINUOUS
 62
    21
 10
86.293
 20
109.817
 30
0.0
 40
6.00000136756944
 50
225.0
 51
270.0
  0
SOLID
  5
B4
  8
0
 62
    21
 10
80.096
 20
107.904
 30
0.0
 11
80.958
 21
108.412
 31
0.0
 12
82.051
 22
105.574
 32
0.0
 13
82.051
 23
105.574
 33
0.0
  0
SOLID
  5
B5
  8
0
 62
    21
 10
89.073
 20
105.051
 30
0.0
 11
89.323
 21
104.083
 31
0.0
 12
86.293
 22
103.817
 32
0.0
 13
86.293
 23
103.817
 33
0.0
  0
TEXT
  5
B6
  8
0
  6
CONTINUOUS
 62
    21
 10
83.295
 20
116.647
 30
0.0
 40
3.0
  1
45
 50
257.09
  7
STEFANO
  0
POINT
  5
B7
  8
DEFPOINTS
 62
     0
 10
84.741
 20
104.021
 30
0.0
  0
POINT
  5
B8
  8
DEFPOINTS
 62
     0
 10
86.293
 20
109.817
 30
0.0
  0
POINT
  5
B9
  8
DEFPOINTS
 62
     0
 10
85.293
 20
108.817
 30
0.0
  0
POINT
  5
BA
  8
DEFPOINTS
 62
     0
 10
86.293
 20
109.817
 30
0.0
  0
POINT
  5
BB
  8
DEFPOINTS
 62
     0
 10
86.293
 20
153.017
 30
0.0
  0
ENDBLK
  5
AD
  8
0
  0
BLOCK
  8
0
  2
*D5
 70
     1
 10
0.0
 20
0.0
 30
0.0
  3
*D5
  1

  0
LINE
  5
C0
  8
0
  6
CONTINUOUS
 62
    21
 10
71.193
 20
153.817
 30
0.0
 11
35.711
 21
153.817
 31
0.0
  0
LINE
  5
C1
  8
0
  6
CONTINUOUS
 62
    21
 10
70.657
 20
152.38
 30
0.0
 11
46.367
 21
128.091
 31
0.0
  0
ARC
  5
C2
  8
0
  6
CONTINUOUS
 62
    21
 10
72.093
 20
153.817
 30
0.0
 40
35.1826416280099
 50
184.887
 51
220.112
  0
SOLID
  5
C3
  8
0
 62
    21
 10
37.538
 20
150.841
 30
0.0
 11
36.539
 21
150.798
 31
0.0
 12
36.911
 22
153.817
 32
0.0
 13
36.911
 23
153.817
 33
0.0
  0
SOLID
  5
C4
  8
0
 62
    21
 10
44.818
 20
130.811
 30
0.0
 11
45.555
 21
131.487
 31
0.0
 12
47.215
 22
128.939
 32
0.0
 13
47.215
 23
128.939
 33
0.0
  0
TEXT
  5
C5
  8
0
  6
CONTINUOUS
 62
    21
 10
40.153
 20
143.045
 30
0.0
 40
3.0
  1
45
 50
292.5
  7
STEFANO
  0
POINT
  5
C6
  8
DEFPOINTS
 62
     0
 10
38.11
 20
144.711
 30
0.0
  0
POINT
  5
C7
  8
DEFPOINTS
 62
     0
 10
71.293
 20
153.017
 30
0.0
  0
POINT
  5
C8
  8
DEFPOINTS
 62
     0
 10
72.093
 20
153.817
 30
0.0
  0
POINT
  5
C9
  8
DEFPOINTS
 62
     0
 10
73.793
 20
153.817
 30
0.0
  0
POINT
  5
CA
  8
DEFPOINTS
 62
     0
 10
72.093
 20
153.817
 30
0.0
  0
ENDBLK
  5
BF
  8
0
  0
BLOCK
  8
0
  2
*D6
 70
     1
 10
0.0
 20
0.0
 30
0.0
  3
*D6
  1

  0
LINE
  5
CF
  8
0
  6
CONTINUOUS
 62
    21
 10
86.93
 20
152.38
 30
0.0
 11
99.065
 21
140.246
 31
0.0
  0
LINE
  5
D0
  8
0
  6
CONTINUOUS
 62
    21
 10
86.393
 20
153.817
 30
0.0
 11
104.686
 21
153.817
 31
0.0
  0
ARC
  5
D1
  8
0
  6
CONTINUOUS
 62
    21
 10
85.493
 20
153.817
 30
0.0
 40
17.99253732615244
 50
324.565
 51
350.436
  0
SOLID
  5
D2
  8
0
 62
    21
 10
99.771
 20
143.708
 30
0.0
 11
100.535
 21
143.062
 31
0.0
 12
98.216
 22
141.094
 32
0.0
 13
98.216
 23
141.094
 33
0.0
  0
SOLID
  5
D3
  8
0
 62
    21
 10
103.734
 20
150.785
 30
0.0
 11
102.738
 21
150.869
 31
0.0
 12
103.486
 22
153.817
 32
0.0
 13
103.486
 23
153.817
 33
0.0
  0
TEXT
  5
D4
  8
0
  6
CONTINUOUS
 62
    21
 10
99.814
 20
145.427
 30
0.0
 40
3.0
  1
45
 50
67.5
  7
STEFANO
  0
POINT
  5
D5
  8
DEFPOINTS
 62
     0
 10
101.075
 20
144.821
 30
0.0
  0
POINT
  5
D6
  8
DEFPOINTS
 62
     0
 10
85.493
 20
153.817
 30
0.0
  0
POINT
  5
D7
  8
DEFPOINTS
 62
     0
 10
86.293
 20
153.017
 30
0.0
  0
POINT
  5
D8
  8
DEFPOINTS
 62
     0
 10
85.493
 20
153.817
 30
0.0
  0
POINT
  5
D9
  8
DEFPOINTS
 62
     0
 10
83.793
 20
153.817
 30
0.0
  0
ENDBLK
  5
CE
  8
0
  0
BLOCK
  8
0
  2
*D7
 70
     1
 10
0.0
 20
0.0
 30
0.0
  3
*D7
  1

  0
LINE
  5
DE
  8
0
  6
CONTINUOUS
 62
    21
 10
71.793
 20
93.917
 30
0.0
 11
71.793
 21
80.559
 31
0.0
  0
LINE
  5
DF
  8
0
  6
CONTINUOUS
 62
    21
 10
73.43
 20
93.18
 30
0.0
 11
81.875
 21
84.735
 31
0.0
  0
ARC
  5
E0
  8
0
  6
CONTINUOUS
 62
    21
 10
71.793
 20
94.817
 30
0.0
 40
13.05797647271373
 50
243.615
 51
256.807
  0
ARC
  5
E1
  8
0
  6
CONTINUOUS
 62
    21
 10
71.793
 20
94.817
 30
0.0
 40
13.05797647271373
 50
328.193
 51
341.385
  0
ARC
  5
E2
  8
0
  6
CONTINUOUS
 62
    21
 10
71.793
 20
94.817
 30
0.0
 40
13.05797647271373
 50
270.0
 51
315.0
  0
SOLID
  5
E3
  8
0
 62
    21
 10
68.756
 20
81.607
 30
0.0
 11
68.871
 21
82.6
 31
0.0
 12
71.793
 22
81.759
 32
0.0
 13
71.793
 23
81.759
 33
0.0
  0
SOLID
  5
E4
  8
0
 62
    21
 10
82.499
 20
88.245
 30
0.0
 11
83.282
 21
87.624
 31
0.0
 12
81.027
 22
85.583
 32
0.0
 13
81.027
 23
85.583
 33
0.0
  0
TEXT
  5
E5
  8
0
  6
CONTINUOUS
 62
    21
 10
74.099
 20
83.317
 30
0.0
 40
3.0
  1
45
 50
22.5
  7
STEFANO
  0
POINT
  5
E6
  8
DEFPOINTS
 62
     0
 10
75.173
 20
82.204
 30
0.0
  0
POINT
  5
E7
  8
DEFPOINTS
 62
     0
 10
72.793
 20
93.817
 30
0.0
  0
POINT
  5
E8
  8
DEFPOINTS
 62
     0
 10
71.793
 20
94.817
 30
0.0
  0
POINT
  5
E9
  8
DEFPOINTS
 62
     0
 10
71.793
 20
108.817
 30
0.0
  0
POINT
  5
EA
  8
DEFPOINTS
 62
     0
 10
71.793
 20
94.817
 30
0.0
  0
ENDBLK
  5
DD
  8
0
  0
BLOCK
  8
0
  2
*D8
 70
     1
 10
0.0
 20
0.0
 30
0.0
  3
*D8
  1

  0
LINE
  5
EF
  8
0
  6
CONTINUOUS
 62
    21
 10
84.157
 20
93.18
 30
0.0
 11
75.408
 21
84.431
 31
0.0
  0
LINE
  5
F0
  8
0
  6
CONTINUOUS
 62
    21
 10
85.793
 20
93.917
 30
0.0
 11
85.793
 21
80.129
 31
0.0
  0
ARC
  5
F1
  8
0
  6
CONTINUOUS
 62
    21
 10
85.793
 20
94.817
 30
0.0
 40
13.48785593123581
 50
199.459
 51
212.23
  0
ARC
  5
F2
  8
0
  6
CONTINUOUS
 62
    21
 10
85.793
 20
94.817
 30
0.0
 40
13.48785593123581
 50
282.77
 51
295.541
  0
ARC
  5
F3
  8
0
  6
CONTINUOUS
 62
    21
 10
85.793
 20
94.817
 30
0.0
 40
13.48785593123581
 50
225.0
 51
270.0
  0
SOLID
  5
F4
  8
0
 62
    21
 10
73.993
 20
87.311
 30
0.0
 11
74.774
 21
87.935
 31
0.0
 12
76.256
 22
85.279
 32
0.0
 13
76.256
 23
85.279
 33
0.0
  0
SOLID
  5
F5
  8
0
 62
    21
 10
88.719
 20
82.159
 30
0.0
 11
88.83
 21
81.166
 31
0.0
 12
85.793
 22
81.329
 32
0.0
 13
85.793
 23
81.329
 33
0.0
  0
TEXT
  5
F6
  8
0
  6
CONTINUOUS
 62
    21
 10
79.127
 20
84.658
 30
0.0
 40
3.0
  1
45
 50
337.5
  7
STEFANO
  0
POINT
  5
F7
  8
DEFPOINTS
 62
     0
 10
79.049
 20
83.136
 30
0.0
  0
POINT
  5
F8
  8
DEFPOINTS
 62
     0
 10
85.793
 20
94.817
 30
0.0
  0
POINT
  5
F9
  8
DEFPOINTS
 62
     0
 10
84.793
 20
93.817
 30
0.0
  0
POINT
  5
FA
  8
DEFPOINTS
 62
     0
 10
85.793
 20
94.817
 30
0.0
  0
POINT
  5
FB
  8
DEFPOINTS
 62
     0
 10
85.793
 20
108.817
 30
0.0
  0
ENDBLK
  5
EE
  8
0
  0
BLOCK
  8
0
  2
*D9
 70
     1
 10
0.0
 20
0.0
 30
0.0
  3
*D9
  1

  0
LINE
  5
100
  8
0
  6
CONTINUOUS
 62
    21
 10
71.793
 20
107.917
 30
0.0
 11
71.793
 21
74.717
 31
0.0
  0
LINE
  5
101
  8
0
  6
CONTINUOUS
 62
    21
 10
78.793
 20
93.117
 30
0.0
 11
78.793
 21
74.717
 31
0.0
  0
LINE
  5
102
  8
0
  6
CONTINUOUS
 62
    21
 10
71.793
 20
75.917
 30
0.0
 11
60.855
 21
75.917
 31
0.0
  0
LINE
  5
103
  8
0
  6
CONTINUOUS
 62
    21
 10
71.793
 20
75.917
 30
0.0
 11
78.793
 21
75.917
 31
0.0
  0
LINE
  5
104
  8
0
  6
CONTINUOUS
 62
    21
 10
68.793
 20
75.917
 30
0.0
 11
65.793
 21
75.917
 31
0.0
  0
LINE
  5
105
  8
0
  6
CONTINUOUS
 62
    21
 10
81.793
 20
75.917
 30
0.0
 11
84.793
 21
75.917
 31
0.0
  0
SOLID
  5
106
  8
0
 62
    21
 10
68.793
 20
75.417
 30
0.0
 11
68.793
 21
76.417
 31
0.0
 12
71.793
 22
75.917
 32
0.0
 13
71.793
 23
75.917
 33
0.0
  0
SOLID
  5
107
  8
0
 62
    21
 10
81.793
 20
76.417
 30
0.0
 11
81.793
 21
75.417
 31
0.0
 12
78.793
 22
75.917
 32
0.0
 13
78.793
 23
75.917
 33
0.0
  0
TEXT
  5
108
  8
0
  6
CONTINUOUS
 62
    21
 10
62.157
 20
77.417
 30
0.0
 40
3.0
  1
7
  7
STEFANO
  0
POINT
  5
109
  8
DEFPOINTS
 62
     0
 10
71.793
 20
108.817
 30
0.0
  0
POINT
  5
10A
  8
DEFPOINTS
 62
     0
 10
78.793
 20
94.017
 30
0.0
  0
POINT
  5
10B
  8
DEFPOINTS
 62
     0
 10
78.793
 20
75.917
 30
0.0
  0
ENDBLK
  5
FF
  8
0
  0
BLOCK
  8
0
  2
*D10
 70
     1
 10
0.0
 20
0.0
 30
0.0
  3
*D10
  1

  0
LINE
  5
110
  8
0
  6
CONTINUOUS
 62
    21
 10
85.793
 20
93.917
 30
0.0
 11
85.793
 21
74.817
 31
0.0
  0
LINE
  5
111
  8
0
  6
CONTINUOUS
 62
    21
 10
78.793
 20
93.117
 30
0.0
 11
78.793
 21
74.817
 31
0.0
  0
LINE
  5
112
  8
0
  6
CONTINUOUS
 62
    21
 10
78.793
 20
76.017
 30
0.0
 11
67.855
 21
76.017
 31
0.0
  0
LINE
  5
113
  8
0
  6
CONTINUOUS
 62
    21
 10
85.793
 20
76.017
 30
0.0
 11
78.793
 21
76.017
 31
0.0
  0
LINE
  5
114
  8
0
  6
CONTINUOUS
 62
    21
 10
88.793
 20
76.017
 30
0.0
 11
91.793
 21
76.017
 31
0.0
  0
LINE
  5
115
  8
0
  6
CONTINUOUS
 62
    21
 10
75.793
 20
76.017
 30
0.0
 11
72.793
 21
76.017
 31
0.0
  0
SOLID
  5
116
  8
0
 62
    21
 10
88.793
 20
76.517
 30
0.0
 11
88.793
 21
75.517
 31
0.0
 12
85.793
 22
76.017
 32
0.0
 13
85.793
 23
76.017
 33
0.0
  0
SOLID
  5
117
  8
0
 62
    21
 10
75.793
 20
75.517
 30
0.0
 11
75.793
 21
76.517
 31
0.0
 12
78.793
 22
76.017
 32
0.0
 13
78.793
 23
76.017
 33
0.0
  0
TEXT
  5
118
  8
0
  6
CONTINUOUS
 62
    21
 10
69.157
 20
77.517
 30
0.0
 40
3.0
  1
7
  7
STEFANO
  0
POINT
  5
119
  8
DEFPOINTS
 62
     0
 10
85.793
 20
94.817
 30
0.0
  0
POINT
  5
11A
  8
DEFPOINTS
 62
     0
 10
78.793
 20
94.017
 30
0.0
  0
POINT
  5
11B
  8
DEFPOINTS
 62
     0
 10
78.793
 20
76.017
 30
0.0
  0
ENDBLK
  5
10F
  8
0
  0
BLOCK
  8
0
  2
*D11
 70
     1
 10
0.0
 20
0.0
 30
0.0
  3
*D11
  1

  0
LINE
  5
120
  8
0
  6
CONTINUOUS
 62
    21
 10
71.293
 20
153.917
 30
0.0
 11
71.293
 21
182.117
 31
0.0
  0
LINE
  5
121
  8
0
  6
CONTINUOUS
 62
    21
 10
78.793
 20
94.917
 30
0.0
 11
78.793
 21
182.117
 31
0.0
  0
LINE
  5
122
  8
0
  6
CONTINUOUS
 62
    21
 10
71.293
 20
180.917
 30
0.0
 11
56.839
 21
180.917
 31
0.0
  0
LINE
  5
123
  8
0
  6
CONTINUOUS
 62
    21
 10
71.293
 20
180.917
 30
0.0
 11
78.793
 21
180.917
 31
0.0
  0
LINE
  5
124
  8
0
  6
CONTINUOUS
 62
    21
 10
68.293
 20
180.917
 30
0.0
 11
65.293
 21
180.917
 31
0.0
  0
LINE
  5
125
  8
0
  6
CONTINUOUS
 62
    21
 10
81.793
 20
180.917
 30
0.0
 11
84.793
 21
180.917
 31
0.0
  0
SOLID
  5
126
  8
0
 62
    21
 10
68.293
 20
180.417
 30
0.0
 11
68.293
 21
181.417
 31
0.0
 12
71.293
 22
180.917
 32
0.0
 13
71.293
 23
180.917
 33
0.0
  0
SOLID
  5
127
  8
0
 62
    21
 10
81.793
 20
181.417
 30
0.0
 11
81.793
 21
180.417
 31
0.0
 12
78.793
 22
180.917
 32
0.0
 13
78.793
 23
180.917
 33
0.0
  0
TEXT
  5
128
  8
0
  6
CONTINUOUS
 62
    21
 10
58.141
 20
182.468
 30
0.0
 40
3.0
  1
7.5
  7
STEFANO
  0
POINT
  5
129
  8
DEFPOINTS
 62
     0
 10
71.293
 20
153.017
 30
0.0
  0
POINT
  5
12A
  8
DEFPOINTS
 62
     0
 10
78.793
 20
94.017
 30
0.0
  0
POINT
  5
12B
  8
DEFPOINTS
 62
     0
 10
78.793
 20
180.917
 30
0.0
  0
ENDBLK
  5
11F
  8
0
  0
BLOCK
  8
0
  2
*D12
 70
     1
 10
0.0
 20
0.0
 30
0.0
  3
*D12
  1

  0
LINE
  5
130
  8
0
  6
CONTINUOUS
 62
    21
 10
86.293
 20
110.717
 30
0.0
 11
86.293
 21
182.217
 31
0.0
  0
LINE
  5
131
  8
0
  6
CONTINUOUS
 62
    21
 10
78.793
 20
94.917
 30
0.0
 11
78.793
 21
182.217
 31
0.0
  0
LINE
  5
132
  8
0
  6
CONTINUOUS
 62
    21
 10
78.793
 20
181.017
 30
0.0
 11
64.339
 21
181.017
 31
0.0
  0
LINE
  5
133
  8
0
  6
CONTINUOUS
 62
    21
 10
86.293
 20
181.017
 30
0.0
 11
78.793
 21
181.017
 31
0.0
  0
LINE
  5
134
  8
0
  6
CONTINUOUS
 62
    21
 10
89.293
 20
181.017
 30
0.0
 11
92.293
 21
181.017
 31
0.0
  0
LINE
  5
135
  8
0
  6
CONTINUOUS
 62
    21
 10
75.793
 20
181.017
 30
0.0
 11
72.793
 21
181.017
 31
0.0
  0
SOLID
  5
136
  8
0
 62
    21
 10
89.293
 20
181.517
 30
0.0
 11
89.293
 21
180.517
 31
0.0
 12
86.293
 22
181.017
 32
0.0
 13
86.293
 23
181.017
 33
0.0
  0
SOLID
  5
137
  8
0
 62
    21
 10
75.793
 20
180.517
 30
0.0
 11
75.793
 21
181.517
 31
0.0
 12
78.793
 22
181.017
 32
0.0
 13
78.793
 23
181.017
 33
0.0
  0
TEXT
  5
138
  8
0
  6
CONTINUOUS
 62
    21
 10
65.641
 20
182.568
 30
0.0
 40
3.0
  1
7.5
  7
STEFANO
  0
POINT
  5
139
  8
DEFPOINTS
 62
     0
 10
86.293
 20
109.817
 30
0.0
  0
POINT
  5
13A
  8
DEFPOINTS
 62
     0
 10
78.793
 20
94.017
 30
0.0
  0
POINT
  5
13B
  8
DEFPOINTS
 62
     0
 10
78.793
 20
181.017
 30
0.0
  0
ENDBLK
  5
12F
  8
0
  0
BLOCK
  8
0
  2
*D13
 70
     1
 10
0.0
 20
0.0
 30
0.0
  3
*D13
  1

  0
LINE
  5
140
  8
0
  6
CONTINUOUS
 62
    21
 10
71.393
 20
108.817
 30
0.0
 11
52.193
 21
108.817
 31
0.0
  0
LINE
  5
141
  8
0
  6
CONTINUOUS
 62
    21
 10
71.393
 20
123.817
 30
0.0
 11
52.193
 21
123.817
 31
0.0
  0
LINE
  5
142
  8
0
  6
CONTINUOUS
 62
    21
 10
53.393
 20
111.817
 30
0.0
 11
53.393
 21
120.817
 31
0.0
  0
SOLID
  5
143
  8
0
 62
    21
 10
52.893
 20
111.817
 30
0.0
 11
53.893
 21
111.817
 31
0.0
 12
53.393
 22
108.817
 32
0.0
 13
53.393
 23
108.817
 33
0.0
  0
SOLID
  5
144
  8
0
 62
    21
 10
53.893
 20
120.817
 30
0.0
 11
52.893
 21
120.817
 31
0.0
 12
53.393
 22
123.817
 32
0.0
 13
53.393
 23
123.817
 33
0.0
  0
TEXT
  5
145
  8
0
  6
CONTINUOUS
 62
    21
 10
51.836
 20
113.845
 30
0.0
 40
3.0
  1
15
 50
90.0
  7
STEFANO
  0
POINT
  5
146
  8
DEFPOINTS
 62
     0
 10
72.293
 20
108.817
 30
0.0
  0
POINT
  5
147
  8
DEFPOINTS
 62
     0
 10
72.293
 20
123.817
 30
0.0
  0
POINT
  5
148
  8
DEFPOINTS
 62
     0
 10
53.393
 20
123.817
 30
0.0
  0
ENDBLK
  5
13F
  8
0
  0
BLOCK
  8
0
  2
*D14
 70
     1
 10
0.0
 20
0.0
 30
0.0
  3
*D14
  1

  0
LINE
  5
14D
  8
0
  6
CONTINUOUS
 62
    21
 10
70.393
 20
124.817
 30
0.0
 11
61.093
 21
124.817
 31
0.0
  0
LINE
  5
14E
  8
0
  6
CONTINUOUS
 62
    21
 10
70.393
 20
122.817
 30
0.0
 11
61.093
 21
122.817
 31
0.0
  0
LINE
  5
14F
  8
0
  6
CONTINUOUS
 62
    21
 10
62.293
 20
122.817
 30
0.0
 11
62.293
 21
111.834
 31
0.0
  0
LINE
  5
150
  8
0
  6
CONTINUOUS
 62
    21
 10
62.293
 20
124.817
 30
0.0
 11
62.293
 21
122.817
 31
0.0
  0
LINE
  5
151
  8
0
  6
CONTINUOUS
 62
    21
 10
62.293
 20
127.817
 30
0.0
 11
62.293
 21
130.817
 31
0.0
  0
LINE
  5
152
  8
0
  6
CONTINUOUS
 62
    21
 10
62.293
 20
119.817
 30
0.0
 11
62.293
 21
116.817
 31
0.0
  0
SOLID
  5
153
  8
0
 62
    21
 10
61.793
 20
127.817
 30
0.0
 11
62.793
 21
127.817
 31
0.0
 12
62.293
 22
124.817
 32
0.0
 13
62.293
 23
124.817
 33
0.0
  0
SOLID
  5
154
  8
0
 62
    21
 10
62.793
 20
119.817
 30
0.0
 11
61.793
 21
119.817
 31
0.0
 12
62.293
 22
122.817
 32
0.0
 13
62.293
 23
122.817
 33
0.0
  0
TEXT
  5
155
  8
0
  6
CONTINUOUS
 62
    21
 10
60.787
 20
113.211
 30
0.0
 40
3.0
  1
2
 50
90.0
  7
STEFANO
  0
POINT
  5
156
  8
DEFPOINTS
 62
     0
 10
71.293
 20
124.817
 30
0.0
  0
POINT
  5
157
  8
DEFPOINTS
 62
     0
 10
71.293
 20
122.817
 30
0.0
  0
POINT
  5
158
  8
DEFPOINTS
 62
     0
 10
62.293
 20
122.817
 30
0.0
  0
ENDBLK
  5
14C
  8
0
  0
BLOCK
  8
0
  2
*D15
 70
     1
 10
0.0
 20
0.0
 30
0.0
  3
*D15
  1

  0
LINE
  5
15D
  8
0
  6
CONTINUOUS
 62
    21
 10
86.393
 20
153.817
 30
0.0
 11
116.743
 21
153.817
 31
0.0
  0
LINE
  5
15E
  8
0
  6
CONTINUOUS
 62
    21
 10
86.693
 20
108.817
 30
0.0
 11
116.743
 21
108.817
 31
0.0
  0
LINE
  5
15F
  8
0
  6
CONTINUOUS
 62
    21
 10
115.543
 20
150.817
 30
0.0
 11
115.543
 21
111.817
 31
0.0
  0
SOLID
  5
160
  8
0
 62
    21
 10
116.043
 20
150.817
 30
0.0
 11
115.043
 21
150.817
 31
0.0
 12
115.543
 22
153.817
 32
0.0
 13
115.543
 23
153.817
 33
0.0
  0
SOLID
  5
161
  8
0
 62
    21
 10
115.043
 20
111.817
 30
0.0
 11
116.043
 21
111.817
 31
0.0
 12
115.543
 22
108.817
 32
0.0
 13
115.543
 23
108.817
 33
0.0
  0
TEXT
  5
162
  8
0
  6
CONTINUOUS
 62
    21
 10
113.992
 20
129.046
 30
0.0
 40
3.0
  1
45
 50
90.0
  7
STEFANO
  0
POINT
  5
163
  8
DEFPOINTS
 62
     0
 10
85.493
 20
153.817
 30
0.0
  0
POINT
  5
164
  8
DEFPOINTS
 62
     0
 10
85.793
 20
108.817
 30
0.0
  0
POINT
  5
165
  8
DEFPOINTS
 62
     0
 10
115.543
 20
108.817
 30
0.0
  0
ENDBLK
  5
15C
  8
0
  0
BLOCK
  8
0
  2
*D16
 70
     1
 10
0.0
 20
0.0
 30
0.0
  3
*D16
  1

  0
LINE
  5
16A
  8
0
  6
CONTINUOUS
 62
    21
 10
86.693
 20
108.817
 30
0.0
 11
110.093
 21
108.817
 31
0.0
  0
LINE
  5
16B
  8
0
  6
CONTINUOUS
 62
    21
 10
73.693
 20
93.817
 30
0.0
 11
110.093
 21
93.817
 31
0.0
  0
LINE
  5
16C
  8
0
  6
CONTINUOUS
 62
    21
 10
108.893
 20
105.817
 30
0.0
 11
108.893
 21
96.817
 31
0.0
  0
SOLID
  5
16D
  8
0
 62
    21
 10
109.393
 20
105.817
 30
0.0
 11
108.393
 21
105.817
 31
0.0
 12
108.893
 22
108.817
 32
0.0
 13
108.893
 23
108.817
 33
0.0
  0
SOLID
  5
16E
  8
0
 62
    21
 10
108.393
 20
96.817
 30
0.0
 11
109.393
 21
96.817
 31
0.0
 12
108.893
 22
93.817
 32
0.0
 13
108.893
 23
93.817
 33
0.0
  0
TEXT
  5
16F
  8
0
  6
CONTINUOUS
 62
    21
 10
107.336
 20
98.845
 30
0.0
 40
3.0
  1
15
 50
90.0
  7
STEFANO
  0
POINT
  5
170
  8
DEFPOINTS
 62
     0
 10
85.793
 20
108.817
 30
0.0
  0
POINT
  5
171
  8
DEFPOINTS
 62
     0
 10
72.793
 20
93.817
 30
0.0
  0
POINT
  5
172
  8
DEFPOINTS
 62
     0
 10
108.893
 20
93.817
 30
0.0
  0
ENDBLK
  5
169
  8
0
  0
BLOCK
  8
0
  2
*D17
 70
     1
 10
0.0
 20
0.0
 30
0.0
  3
*D17
  1

  0
LINE
  5
177
  8
0
  6
CONTINUOUS
 62
    21
 10
72.893
 20
153.817
 30
0.0
 11
59.343
 21
153.817
 31
0.0
  0
LINE
  5
178
  8
0
  6
CONTINUOUS
 62
    21
 10
70.393
 20
153.017
 30
0.0
 11
59.343
 21
153.017
 31
0.0
  0
LINE
  5
179
  8
0
  6
CONTINUOUS
 62
    21
 10
60.543
 20
153.817
 30
0.0
 11
60.543
 21
168.28
 31
0.0
  0
LINE
  5
17A
  8
0
  6
CONTINUOUS
 62
    21
 10
60.543
 20
153.817
 30
0.0
 11
60.543
 21
153.017
 31
0.0
  0
LINE
  5
17B
  8
0
  6
CONTINUOUS
 62
    21
 10
60.543
 20
156.817
 30
0.0
 11
60.543
 21
159.817
 31
0.0
  0
LINE
  5
17C
  8
0
  6
CONTINUOUS
 62
    21
 10
60.543
 20
150.017
 30
0.0
 11
60.543
 21
147.017
 31
0.0
  0
SOLID
  5
17D
  8
0
 62
    21
 10
60.043
 20
156.817
 30
0.0
 11
61.043
 21
156.817
 31
0.0
 12
60.543
 22
153.817
 32
0.0
 13
60.543
 23
153.817
 33
0.0
  0
SOLID
  5
17E
  8
0
 62
    21
 10
61.043
 20
150.017
 30
0.0
 11
60.043
 21
150.017
 31
0.0
 12
60.543
 22
153.017
 32
0.0
 13
60.543
 23
153.017
 33
0.0
  0
TEXT
  5
17F
  8
0
  6
CONTINUOUS
 62
    21
 10
58.986
 20
161.143
 30
0.0
 40
3.0
  1
0.8
 50
90.0
  7
STEFANO
  0
POINT
  5
180
  8
DEFPOINTS
 62
     0
 10
73.793
 20
153.817
 30
0.0
  0
POINT
  5
181
  8
DEFPOINTS
 62
     0
 10
71.293
 20
153.017
 30
0.0
  0
POINT
  5
182
  8
DEFPOINTS
 62
     0
 10
60.543
 20
153.017
 30
0.0
  0
ENDBLK
  5
176
  8
0
  0
BLOCK
  8
0
  2
*D18
 70
     1
 10
0.0
 20
0.0
 30
0.0
  3
*D18
  1

  0
LINE
  5
187
  8
0
  6
CONTINUOUS
 62
    21
 10
86.393
 20
153.817
 30
0.0
 11
96.493
 21
153.817
 31
0.0
  0
LINE
  5
188
  8
0
  6
CONTINUOUS
 62
    21
 10
87.193
 20
153.017
 30
0.0
 11
96.493
 21
153.017
 31
0.0
  0
LINE
  5
189
  8
0
  6
CONTINUOUS
 62
    21
 10
95.293
 20
153.817
 30
0.0
 11
95.293
 21
168.28
 31
0.0
  0
LINE
  5
18A
  8
0
  6
CONTINUOUS
 62
    21
 10
95.293
 20
153.817
 30
0.0
 11
95.293
 21
153.017
 31
0.0
  0
LINE
  5
18B
  8
0
  6
CONTINUOUS
 62
    21
 10
95.293
 20
156.817
 30
0.0
 11
95.293
 21
159.817
 31
0.0
  0
LINE
  5
18C
  8
0
  6
CONTINUOUS
 62
    21
 10
95.293
 20
150.017
 30
0.0
 11
95.293
 21
147.017
 31
0.0
  0
SOLID
  5
18D
  8
0
 62
    21
 10
94.793
 20
156.817
 30
0.0
 11
95.793
 21
156.817
 31
0.0
 12
95.293
 22
153.817
 32
0.0
 13
95.293
 23
153.817
 33
0.0
  0
SOLID
  5
18E
  8
0
 62
    21
 10
95.793
 20
150.017
 30
0.0
 11
94.793
 21
150.017
 31
0.0
 12
95.293
 22
153.017
 32
0.0
 13
95.293
 23
153.017
 33
0.0
  0
TEXT
  5
18F
  8
0
  6
CONTINUOUS
 62
    21
 10
93.736
 20
161.143
 30
0.0
 40
3.0
  1
0.8
 50
90.0
  7
STEFANO
  0
POINT
  5
190
  8
DEFPOINTS
 62
     0
 10
85.493
 20
153.817
 30
0.0
  0
POINT
  5
191
  8
DEFPOINTS
 62
     0
 10
86.293
 20
153.017
 30
0.0
  0
POINT
  5
192
  8
DEFPOINTS
 62
     0
 10
95.293
 20
153.017
 30
0.0
  0
ENDBLK
  5
186
  8
0
  0
BLOCK
  8
0
  2
*D19
 70
     1
 10
0.0
 20
0.0
 30
0.0
  3
*D19
  1

  0
LINE
  5
197
  8
0
  6
CONTINUOUS
 62
    21
 10
71.393
 20
108.817
 30
0.0
 11
61.193
 21
108.817
 31
0.0
  0
LINE
  5
198
  8
0
  6
CONTINUOUS
 62
    21
 10
70.393
 20
109.817
 30
0.0
 11
61.193
 21
109.817
 31
0.0
  0
LINE
  5
199
  8
0
  6
CONTINUOUS
 62
    21
 10
62.393
 20
108.817
 30
0.0
 11
62.393
 21
94.339
 31
0.0
  0
LINE
  5
19A
  8
0
  6
CONTINUOUS
 62
    21
 10
62.393
 20
108.817
 30
0.0
 11
62.393
 21
109.817
 31
0.0
  0
LINE
  5
19B
  8
0
  6
CONTINUOUS
 62
    21
 10
62.393
 20
105.817
 30
0.0
 11
62.393
 21
102.817
 31
0.0
  0
LINE
  5
19C
  8
0
  6
CONTINUOUS
 62
    21
 10
62.393
 20
112.817
 30
0.0
 11
62.393
 21
115.817
 31
0.0
  0
SOLID
  5
19D
  8
0
 62
    21
 10
62.893
 20
105.817
 30
0.0
 11
61.893
 21
105.817
 31
0.0
 12
62.393
 22
108.817
 32
0.0
 13
62.393
 23
108.817
 33
0.0
  0
SOLID
  5
19E
  8
0
 62
    21
 10
61.893
 20
112.817
 30
0.0
 11
62.893
 21
112.817
 31
0.0
 12
62.393
 22
109.817
 32
0.0
 13
62.393
 23
109.817
 33
0.0
  0
TEXT
  5
19F
  8
0
  6
CONTINUOUS
 62
    21
 10
60.836
 20
95.665
 30
0.0
 40
3.0
  1
0.5
 50
90.0
  7
STEFANO
  0
POINT
  5
1A0
  8
DEFPOINTS
 62
     0
 10
72.293
 20
108.817
 30
0.0
  0
POINT
  5
1A1
  8
DEFPOINTS
 62
     0
 10
71.293
 20
109.817
 30
0.0
  0
POINT
  5
1A2
  8
DEFPOINTS
 62
     0
 10
62.393
 20
109.817
 30
0.0
  0
ENDBLK
  5
196
  8
0
  0
BLOCK
  8
0
  2
*D20
 70
     1
 10
0.0
 20
0.0
 30
0.0
  3
*D20
  1

  0
LINE
  5
1A7
  8
0
  6
CONTINUOUS
 62
    21
 10
86.693
 20
108.817
 30
0.0
 11
98.743
 21
108.817
 31
0.0
  0
LINE
  5
1A8
  8
0
  6
CONTINUOUS
 62
    21
 10
87.193
 20
109.817
 30
0.0
 11
98.743
 21
109.817
 31
0.0
  0
LINE
  5
1A9
  8
0
  6
CONTINUOUS
 62
    21
 10
97.543
 20
109.817
 30
0.0
 11
97.543
 21
124.295
 31
0.0
  0
LINE
  5
1AA
  8
0
  6
CONTINUOUS
 62
    21
 10
97.543
 20
108.817
 30
0.0
 11
97.543
 21
109.817
 31
0.0
  0
LINE
  5
1AB
  8
0
  6
CONTINUOUS
 62
    21
 10
97.543
 20
105.817
 30
0.0
 11
97.543
 21
102.817
 31
0.0
  0
LINE
  5
1AC
  8
0
  6
CONTINUOUS
 62
    21
 10
97.543
 20
112.817
 30
0.0
 11
97.543
 21
115.817
 31
0.0
  0
SOLID
  5
1AD
  8
0
 62
    21
 10
98.043
 20
105.817
 30
0.0
 11
97.043
 21
105.817
 31
0.0
 12
97.543
 22
108.817
 32
0.0
 13
97.543
 23
108.817
 33
0.0
  0
SOLID
  5
1AE
  8
0
 62
    21
 10
97.043
 20
112.817
 30
0.0
 11
98.043
 21
112.817
 31
0.0
 12
97.543
 22
109.817
 32
0.0
 13
97.543
 23
109.817
 33
0.0
  0
TEXT
  5
1AF
  8
0
  6
CONTINUOUS
 62
    21
 10
95.986
 20
117.143
 30
0.0
 40
3.0
  1
0.5
 50
90.0
  7
STEFANO
  0
POINT
  5
1B0
  8
DEFPOINTS
 62
     0
 10
85.793
 20
108.817
 30
0.0
  0
POINT
  5
1B1
  8
DEFPOINTS
 62
     0
 10
86.293
 20
109.817
 30
0.0
  0
POINT
  5
1B2
  8
DEFPOINTS
 62
     0
 10
97.543
 20
109.817
 30
0.0
  0
ENDBLK
  5
1A6
  8
0
  0
BLOCK
  8
0
  2
*D21
 70
     1
 10
0.0
 20
0.0
 30
0.0
  3
*D21
  1

  0
LINE
  5
1B7
  8
0
  6
CONTINUOUS
 62
    21
 10
73.693
 20
93.817
 30
0.0
 11
101.093
 21
93.817
 31
0.0
  0
LINE
  5
1B8
  8
0
  6
CONTINUOUS
 62
    21
 10
86.693
 20
94.817
 30
0.0
 11
101.093
 21
94.817
 31
0.0
  0
LINE
  5
1B9
  8
0
  6
CONTINUOUS
 62
    21
 10
99.893
 20
93.817
 30
0.0
 11
99.893
 21
79.339
 31
0.0
  0
LINE
  5
1BA
  8
0
  6
CONTINUOUS
 62
    21
 10
99.893
 20
93.817
 30
0.0
 11
99.893
 21
94.817
 31
0.0
  0
LINE
  5
1BB
  8
0
  6
CONTINUOUS
 62
    21
 10
99.893
 20
90.817
 30
0.0
 11
99.893
 21
87.817
 31
0.0
  0
LINE
  5
1BC
  8
0
  6
CONTINUOUS
 62
    21
 10
99.893
 20
97.817
 30
0.0
 11
99.893
 21
100.817
 31
0.0
  0
SOLID
  5
1BD
  8
0
 62
    21
 10
100.393
 20
90.817
 30
0.0
 11
99.393
 21
90.817
 31
0.0
 12
99.893
 22
93.817
 32
0.0
 13
99.893
 23
93.817
 33
0.0
  0
SOLID
  5
1BE
  8
0
 62
    21
 10
99.393
 20
97.817
 30
0.0
 11
100.393
 21
97.817
 31
0.0
 12
99.893
 22
94.817
 32
0.0
 13
99.893
 23
94.817
 33
0.0
  0
TEXT
  5
1BF
  8
0
  6
CONTINUOUS
 62
    21
 10
98.336
 20
80.665
 30
0.0
 40
3.0
  1
0.5
 50
90.0
  7
STEFANO
  0
POINT
  5
1C0
  8
DEFPOINTS
 62
     0
 10
72.793
 20
93.817
 30
0.0
  0
POINT
  5
1C1
  8
DEFPOINTS
 62
     0
 10
85.793
 20
94.817
 30
0.0
  0
POINT
  5
1C2
  8
DEFPOINTS
 62
     0
 10
99.893
 20
94.817
 30
0.0
  0
ENDBLK
  5
1B6
  8
0
  0
BLOCK
  8
0
  2
*D22
 70
     1
 10
0.0
 20
0.0
 30
0.0
  3
*D22
  1

  0
LINE
  5
1C7
  8
0
  6
CONTINUOUS
 62
    21
 10
71.893
 20
93.817
 30
0.0
 11
56.693
 21
93.817
 31
0.0
  0
LINE
  5
1C8
  8
0
  6
CONTINUOUS
 62
    21
 10
70.893
 20
94.817
 30
0.0
 11
56.693
 21
94.817
 31
0.0
  0
LINE
  5
1C9
  8
0
  6
CONTINUOUS
 62
    21
 10
57.893
 20
93.817
 30
0.0
 11
57.893
 21
79.339
 31
0.0
  0
LINE
  5
1CA
  8
0
  6
CONTINUOUS
 62
    21
 10
57.893
 20
93.817
 30
0.0
 11
57.893
 21
94.817
 31
0.0
  0
LINE
  5
1CB
  8
0
  6
CONTINUOUS
 62
    21
 10
57.893
 20
90.817
 30
0.0
 11
57.893
 21
87.817
 31
0.0
  0
LINE
  5
1CC
  8
0
  6
CONTINUOUS
 62
    21
 10
57.893
 20
97.817
 30
0.0
 11
57.893
 21
100.817
 31
0.0
  0
SOLID
  5
1CD
  8
0
 62
    21
 10
58.393
 20
90.817
 30
0.0
 11
57.393
 21
90.817
 31
0.0
 12
57.893
 22
93.817
 32
0.0
 13
57.893
 23
93.817
 33
0.0
  0
SOLID
  5
1CE
  8
0
 62
    21
 10
57.393
 20
97.817
 30
0.0
 11
58.393
 21
97.817
 31
0.0
 12
57.893
 22
94.817
 32
0.0
 13
57.893
 23
94.817
 33
0.0
  0
TEXT
  5
1CF
  8
0
  6
CONTINUOUS
 62
    21
 10
56.336
 20
80.665
 30
0.0
 40
3.0
  1
0.5
 50
90.0
  7
STEFANO
  0
POINT
  5
1D0
  8
DEFPOINTS
 62
     0
 10
72.793
 20
93.817
 30
0.0
  0
POINT
  5
1D1
  8
DEFPOINTS
 62
     0
 10
71.793
 20
94.817
 30
0.0
  0
POINT
  5
1D2
  8
DEFPOINTS
 62
     0
 10
57.893
 20
94.817
 30
0.0
  0
ENDBLK
  5
1C6
  8
0
  0
BLOCK
  8
0
  2
*D23
 70
     1
 10
0.0
 20
0.0
 30
0.0
  3
*D23
  1

  0
LINE
  5
1D7
  8
0
  6
CONTINUOUS
 62
    21
 10
81.179
 20
146.962
 30
0.0
 11
90.945
 21
136.474
 31
0.0
  0
TEXT
  5
1D8
  8
0
  6
CONTINUOUS
 62
    21
 10
85.16
 20
144.972
 30
0.0
 40
3.0
  1
R0.8
 50
312.958
  7
STEFANO
  0
SOLID
  5
1D9
  8
0
 62
    21
 10
81.544
 20
147.303
 30
0.0
 11
80.813
 21
146.622
 31
0.0
 12
79.134
 22
149.158
 32
0.0
 13
79.134
 23
149.158
 33
0.0
  0
LINE
  5
1DA
  8
0
  6
CONTINUOUS
 62
    21
 10
78.703
 20
149.524
 30
0.0
 11
78.883
 21
149.524
 31
0.0
  0
LINE
  5
1DB
  8
0
  6
CONTINUOUS
 62
    21
 10
78.793
 20
149.434
 30
0.0
 11
78.793
 21
149.614
 31
0.0
  0
POINT
  5
1DC
  8
DEFPOINTS
 62
     0
 10
79.134
 20
149.158
 30
0.0
  0
POINT
  5
1DD
  8
DEFPOINTS
 62
     0
 10
78.793
 20
149.524
 30
0.0
  0
ENDBLK
  5
1D6
  8
0
  0
BLOCK
  8
0
  2
*D24
 70
     1
 10
0.0
 20
0.0
 30
0.0
  3
*D24
  1

  0
LINE
  5
1E2
  8
0
  6
CONTINUOUS
 62
    21
 10
78.793
 20
94.917
 30
0.0
 11
78.793
 21
173.117
 31
0.0
  0
LINE
  5
1E3
  8
0
  6
CONTINUOUS
 62
    21
 10
73.793
 20
154.717
 30
0.0
 11
73.793
 21
173.117
 31
0.0
  0
LINE
  5
1E4
  8
0
  6
CONTINUOUS
 62
    21
 10
78.793
 20
171.917
 30
0.0
 11
73.793
 21
171.917
 31
0.0
  0
LINE
  5
1E5
  8
0
  6
CONTINUOUS
 62
    21
 10
81.793
 20
171.917
 30
0.0
 11
84.793
 21
171.917
 31
0.0
  0
LINE
  5
1E6
  8
0
  6
CONTINUOUS
 62
    21
 10
70.793
 20
171.917
 30
0.0
 11
67.793
 21
171.917
 31
0.0
  0
SOLID
  5
1E7
  8
0
 62
    21
 10
81.793
 20
172.417
 30
0.0
 11
81.793
 21
171.417
 31
0.0
 12
78.793
 22
171.917
 32
0.0
 13
78.793
 23
171.917
 33
0.0
  0
SOLID
  5
1E8
  8
0
 62
    21
 10
70.793
 20
171.417
 30
0.0
 11
70.793
 21
172.417
 31
0.0
 12
73.793
 22
171.917
 32
0.0
 13
73.793
 23
171.917
 33
0.0
  0
TEXT
  5
1E9
  8
0
  6
CONTINUOUS
 62
    21
 10
75.126
 20
173.468
 30
0.0
 40
3.0
  1
5
  7
STEFANO
  0
POINT
  5
1EA
  8
DEFPOINTS
 62
     0
 10
78.793
 20
94.017
 30
0.0
  0
POINT
  5
1EB
  8
DEFPOINTS
 62
     0
 10
73.793
 20
153.817
 30
0.0
  0
POINT
  5
1EC
  8
DEFPOINTS
 62
     0
 10
73.793
 20
171.917
 30
0.0
  0
ENDBLK
  5
1E1
  8
0
  0
BLOCK
  8
0
  2
*D25
 70
     1
 10
0.0
 20
0.0
 30
0.0
  3
*D25
  1

  0
LINE
  5
1F1
  8
0
  6
CONTINUOUS
 62
    21
 10
78.793
 20
94.917
 30
0.0
 11
78.793
 21
164.117
 31
0.0
  0
LINE
  5
1F2
  8
0
  6
CONTINUOUS
 62
    21
 10
83.793
 20
154.717
 30
0.0
 11
83.793
 21
164.117
 31
0.0
  0
LINE
  5
1F3
  8
0
  6
CONTINUOUS
 62
    21
 10
78.793
 20
162.917
 30
0.0
 11
83.793
 21
162.917
 31
0.0
  0
LINE
  5
1F4
  8
0
  6
CONTINUOUS
 62
    21
 10
75.793
 20
162.917
 30
0.0
 11
72.793
 21
162.917
 31
0.0
  0
LINE
  5
1F5
  8
0
  6
CONTINUOUS
 62
    21
 10
86.793
 20
162.917
 30
0.0
 11
89.793
 21
162.917
 31
0.0
  0
SOLID
  5
1F6
  8
0
 62
    21
 10
75.793
 20
162.417
 30
0.0
 11
75.793
 21
163.417
 31
0.0
 12
78.793
 22
162.917
 32
0.0
 13
78.793
 23
162.917
 33
0.0
  0
SOLID
  5
1F7
  8
0
 62
    21
 10
86.793
 20
163.417
 30
0.0
 11
86.793
 21
162.417
 31
0.0
 12
83.793
 22
162.917
 32
0.0
 13
83.793
 23
162.917
 33
0.0
  0
TEXT
  5
1F8
  8
0
  6
CONTINUOUS
 62
    21
 10
80.126
 20
164.468
 30
0.0
 40
3.0
  1
5
  7
STEFANO
  0
POINT
  5
1F9
  8
DEFPOINTS
 62
     0
 10
78.793
 20
94.017
 30
0.0
  0
POINT
  5
1FA
  8
DEFPOINTS
 62
     0
 10
83.793
 20
153.817
 30
0.0
  0
POINT
  5
1FB
  8
DEFPOINTS
 62
     0
 10
83.793
 20
162.917
 30
0.0
  0
ENDBLK
  5
1F0
  8
0
  0
BLOCK
  8
0
  2
*D26
 70
     1
 10
0.0
 20
0.0
 30
0.0
  3
*D26
  1

  0
LINE
  5
200
  8
0
  6
CONTINUOUS
 62
    21
 10
70.657
 20
125.453
 30
0.0
 11
41.67
 21
154.44
 31
0.0
  0
LINE
  5
201
  8
0
  6
CONTINUOUS
 62
    21
 10
70.657
 20
122.18
 30
0.0
 11
41.67
 21
93.193
 31
0.0
  0
ARC
  5
202
  8
0
  6
CONTINUOUS
 62
    21
 10
72.293
 20
123.817
 30
0.0
 40
42.1084880423711
 50
139.083
 51
220.917
  0
SOLID
  5
203
  8
0
 62
    21
 10
40.84
 20
151.056
 30
0.0
 11
40.108
 21
151.737
 31
0.0
 12
42.518
 22
153.592
 32
0.0
 13
42.518
 23
153.592
 33
0.0
  0
SOLID
  5
204
  8
0
 62
    21
 10
40.108
 20
95.896
 30
0.0
 11
40.84
 21
96.578
 31
0.0
 12
42.518
 22
94.041
 32
0.0
 13
42.518
 23
94.041
 33
0.0
  0
TEXT
  5
205
  8
0
  6
CONTINUOUS
 62
    21
 10
28.634
 20
121.502
 30
0.0
 40
3.0
  1
90
 50
90.0
  7
STEFANO
  0
POINT
  5
206
  8
DEFPOINTS
 62
     0
 10
31.62
 20
134.715
 30
0.0
  0
POINT
  5
207
  8
DEFPOINTS
 62
     0
 10
71.293
 20
122.817
 30
0.0
  0
POINT
  5
208
  8
DEFPOINTS
 62
     0
 10
71.293
 20
124.817
 30
0.0
  0
POINT
  5
209
  8
DEFPOINTS
 62
     0
 10
72.293
 20
123.817
 30
0.0
  0
POINT
  5
20A
  8
DEFPOINTS
 62
     0
 10
72.293
 20
123.817
 30
0.0
  0
ENDBLK
  5
1FF
  8
0
  0
BLOCK
  8
0
  2
*D27
 70
     1
 10
0.0
 20
0.0
 30
0.0
  3
*D27
  1

  0
LINE
  5
20F
  8
0
  6
CONTINUOUS
 62
    21
 10
71.293
 20
108.917
 30
0.0
 11
71.293
 21
106.45
 31
0.0
  0
LINE
  5
210
  8
0
  6
CONTINUOUS
 62
    21
 10
72.93
 20
124.453
 30
0.0
 11
82.866
 21
134.389
 31
0.0
  0
ARC
  5
211
  8
0
  6
CONTINUOUS
 62
    21
 10
71.293
 20
122.817
 30
0.0
 40
15.166356731154
 50
281.352
 51
33.648
  0
SOLID
  5
212
  8
0
 62
    21
 10
74.229
 20
108.445
 30
0.0
 11
74.328
 21
107.449
 31
0.0
 12
71.293
 22
107.65
 32
0.0
 13
71.293
 23
107.65
 33
0.0
  0
SOLID
  5
213
  8
0
 62
    21
 10
84.306
 20
131.537
 30
0.0
 11
83.532
 21
130.903
 31
0.0
 12
82.018
 22
133.541
 32
0.0
 13
82.018
 23
133.541
 33
0.0
  0
TEXT
  5
214
  8
0
  6
CONTINUOUS
 62
    21
 10
82.481
 20
114.247
 30
0.0
 40
3.0
  1
135
 50
67.5
  7
STEFANO
  0
POINT
  5
215
  8
DEFPOINTS
 62
     0
 10
82.018
 20
112.092
 30
0.0
  0
POINT
  5
216
  8
DEFPOINTS
 62
     0
 10
72.293
 20
123.817
 30
0.0
  0
POINT
  5
217
  8
DEFPOINTS
 62
     0
 10
71.293
 20
109.817
 30
0.0
  0
POINT
  5
218
  8
DEFPOINTS
 62
     0
 10
71.293
 20
122.817
 30
0.0
  0
POINT
  5
219
  8
DEFPOINTS
 62
     0
 10
71.293
 20
122.817
 30
0.0
  0
ENDBLK
  5
20E
  8
0
  0
BLOCK
  8
0
  2
*D28
 70
     1
 10
0.0
 20
0.0
 30
0.0
  3
*D28
  1

  0
LINE
  5
21E
  8
0
  6
CONTINUOUS
 62
    21
 10
74.878
 20
156.436
 30
0.0
 11
85.105
 21
181.125
 31
0.0
  0
TEXT
  5
21F
  8
0
  6
CONTINUOUS
 62
    21
 10
81.176
 20
175.576
 30
0.0
 40
3.0
  1
R2
 50
67.5
  7
STEFANO
  0
SOLID
  5
220
  8
0
 62
    21
 10
74.416
 20
156.627
 30
0.0
 11
75.34
 21
156.245
 31
0.0
 12
73.73
 22
153.664
 32
0.0
 13
73.73
 23
153.664
 33
0.0
  0
LINE
  5
221
  8
0
  6
CONTINUOUS
 62
    21
 10
72.875
 20
151.817
 30
0.0
 11
73.055
 21
151.817
 31
0.0
  0
LINE
  5
222
  8
0
  6
CONTINUOUS
 62
    21
 10
72.965
 20
151.727
 30
0.0
 11
72.965
 21
151.907
 31
0.0
  0
POINT
  5
223
  8
DEFPOINTS
 62
     0
 10
73.73
 20
153.664
 30
0.0
  0
POINT
  5
224
  8
DEFPOINTS
 62
     0
 10
72.965
 20
151.817
 30
0.0
  0
ENDBLK
  5
21D
  8
0
  0
BLOCK
  8
0
  2
*D29
 70
     1
 10
0.0
 20
0.0
 30
0.0
  3
*D29
  1

  0
LINE
  5
229
  8
0
  6
CONTINUOUS
 62
    21
 10
82.708
 20
156.436
 30
0.0
 11
74.576
 21
176.07
 31
0.0
  0
TEXT
  5
22A
  8
0
  6
CONTINUOUS
 62
    21
 10
76.415
 20
175.565
 30
0.0
 40
3.0
  1
R2
 50
292.5
  7
STEFANO
  0
SOLID
  5
22B
  8
0
 62
    21
 10
82.246
 20
156.245
 30
0.0
 11
83.17
 21
156.627
 31
0.0
 12
83.856
 22
153.664
 32
0.0
 13
83.856
 23
153.664
 33
0.0
  0
LINE
  5
22C
  8
0
  6
CONTINUOUS
 62
    21
 10
84.532
 20
151.817
 30
0.0
 11
84.712
 21
151.817
 31
0.0
  0
LINE
  5
22D
  8
0
  6
CONTINUOUS
 62
    21
 10
84.622
 20
151.727
 30
0.0
 11
84.622
 21
151.907
 31
0.0
  0
POINT
  5
22E
  8
DEFPOINTS
 62
     0
 10
83.856
 20
153.664
 30
0.0
  0
POINT
  5
22F
  8
DEFPOINTS
 62
     0
 10
84.622
 20
151.817
 30
0.0
  0
ENDBLK
  5
228
  8
0
  0
BLOCK
  8
0
  2
*D30
 70
     1
 10
0.0
 20
0.0
 30
0.0
  3
*D30
  1

  0
LINE
  5
245
  8
0
  6
CONTINUOUS
 62
    21
 10
604.773
 20
116.414
 30
0.0
 11
614.073
 21
116.414
 31
0.0
  0
LINE
  5
246
  8
0
  6
CONTINUOUS
 62
    21
 10
604.773
 20
114.214
 30
0.0
 11
614.073
 21
114.214
 31
0.0
  0
LINE
  5
247
  8
0
  6
CONTINUOUS
 62
    21
 10
612.873
 20
114.214
 30
0.0
 11
612.873
 21
99.739
 31
0.0
  0
LINE
  5
248
  8
0
  6
CONTINUOUS
 62
    21
 10
612.873
 20
116.414
 30
0.0
 11
612.873
 21
114.214
 31
0.0
  0
LINE
  5
249
  8
0
  6
CONTINUOUS
 62
    21
 10
612.873
 20
119.414
 30
0.0
 11
612.873
 21
122.414
 31
0.0
  0
LINE
  5
24A
  8
0
  6
CONTINUOUS
 62
    21
 10
612.873
 20
111.214
 30
0.0
 11
612.873
 21
108.214
 31
0.0
  0
SOLID
  5
24B
  8
0
 62
    21
 10
612.373
 20
119.414
 30
0.0
 11
613.373
 21
119.414
 31
0.0
 12
612.873
 22
116.414
 32
0.0
 13
612.873
 23
116.414
 33
0.0
  0
SOLID
  5
24C
  8
0
 62
    21
 10
613.373
 20
111.214
 30
0.0
 11
612.373
 21
111.214
 31
0.0
 12
612.873
 22
114.214
 32
0.0
 13
612.873
 23
114.214
 33
0.0
  0
TEXT
  5
24D
  8
0
  6
CONTINUOUS
 62
    21
 10
611.367
 20
101.116
 30
0.0
 40
3.0
  1
2.2
 50
90.0
  7
STEFANO
  0
POINT
  5
24E
  8
DEFPOINTS
 62
     0
 10
603.873
 20
116.414
 30
0.0
  0
POINT
  5
24F
  8
DEFPOINTS
 62
     0
 10
603.873
 20
114.214
 30
0.0
  0
POINT
  5
250
  8
DEFPOINTS
 62
     0
 10
612.873
 20
114.214
 30
0.0
  0
ENDBLK
  5
244
  8
0
  0
BLOCK
  8
0
  2
*D31
 70
     1
 10
0.0
 20
0.0
 30
0.0
  3
*D31
  1

  0
LINE
  5
255
  8
0
  6
CONTINUOUS
 62
    21
 10
475.958
 20
93.476
 30
0.0
 11
469.046
 21
96.214
 31
0.0
  0
LINE
  5
256
  8
0
  6
CONTINUOUS
 62
    21
 10
478.905
 20
100.014
 30
0.0
 11
478.905
 21
91.713
 31
0.0
  0
LINE
  5
257
  8
0
  6
CONTINUOUS
 62
    21
 10
480.141
 20
99.677
 30
0.0
 11
485.41
 21
94.408
 31
0.0
  0
ARC
  5
258
  8
0
  6
CONTINUOUS
 62
    21
 10
478.905
 20
100.914
 30
0.0
 40
8.000139838084769
 50
248.387
 51
270.0
  0
ARC
  5
259
  8
0
  6
CONTINUOUS
 62
    21
 10
478.905
 20
100.914
 30
0.0
 40
8.000139838084769
 50
291.613
 51
293.387
  0
SOLID
  5
25A
  8
0
 62
    21
 10
481.758
 20
93.967
 30
0.0
 11
481.945
 21
92.985
 31
0.0
 12
478.905
 22
92.913
 32
0.0
 13
478.905
 23
92.913
 33
0.0
  0
SOLID
  5
25B
  8
0
 62
    21
 10
482.361
 20
93.157
 30
0.0
 11
481.799
 21
93.984
 31
0.0
 12
484.562
 22
95.257
 32
0.0
 13
484.562
 23
95.257
 33
0.0
  0
TEXT
  5
25C
  8
0
  6
CONTINUOUS
 62
    21
 10
470.962
 20
97.124
 30
0.0
 40
3.0
  1
45
 50
338.387
  7
STEFANO
  0
POINT
  5
25D
  8
DEFPOINTS
 62
     0
 10
482.905
 20
93.985
 30
0.0
  0
POINT
  5
25E
  8
DEFPOINTS
 62
     0
 10
479.505
 20
100.314
 30
0.0
  0
POINT
  5
25F
  8
DEFPOINTS
 62
     0
 10
478.905
 20
100.914
 30
0.0
  0
POINT
  5
260
  8
DEFPOINTS
 62
     0
 10
478.905
 20
114.214
 30
0.0
  0
POINT
  5
261
  8
DEFPOINTS
 62
     0
 10
478.905
 20
100.914
 30
0.0
  0
ENDBLK
  5
254
  8
0
  0
BLOCK
  8
0
  2
*D32
 70
     1
 10
0.0
 20
0.0
 30
0.0
  3
*D32
  1

  0
LINE
  5
266
  8
0
  6
CONTINUOUS
 62
    21
 10
488.13
 20
102.171
 30
0.0
 11
489.662
 21
109.446
 31
0.0
  0
LINE
  5
267
  8
0
  6
CONTINUOUS
 62
    21
 10
492.868
 20
99.677
 30
0.0
 11
488.939
 21
95.748
 31
0.0
  0
LINE
  5
268
  8
0
  6
CONTINUOUS
 62
    21
 10
494.105
 20
100.014
 30
0.0
 11
494.105
 21
93.608
 31
0.0
  0
ARC
  5
269
  8
0
  6
CONTINUOUS
 62
    21
 10
494.105
 20
100.914
 30
0.0
 40
6.105140886286836
 50
168.11
 51
196.555
  0
ARC
  5
26A
  8
0
  6
CONTINUOUS
 62
    21
 10
494.105
 20
100.914
 30
0.0
 40
6.105140886286836
 50
298.446
 51
326.892
  0
ARC
  5
26B
  8
0
  6
CONTINUOUS
 62
    21
 10
494.105
 20
100.914
 30
0.0
 40
6.105140886286836
 50
225.001
 51
270.0
  0
SOLID
  5
26C
  8
0
 62
    21
 10
487.823
 20
98.918
 30
0.0
 11
488.682
 21
99.43
 31
0.0
 12
489.788
 22
96.597
 32
0.0
 13
489.788
 23
96.597
 33
0.0
  0
SOLID
  5
26D
  8
0
 62
    21
 10
496.89
 20
96.03
 30
0.0
 11
497.135
 21
95.061
 31
0.0
 12
494.105
 22
94.808
 32
0.0
 13
494.105
 23
94.808
 33
0.0
  0
TEXT
  5
26E
  8
0
  6
CONTINUOUS
 62
    21
 10
490.882
 20
107.711
 30
0.0
 40
3.0
  1
45
 50
258.11
  7
STEFANO
  0
POINT
  5
26F
  8
DEFPOINTS
 62
     0
 10
492.524
 20
95.016
 30
0.0
  0
POINT
  5
270
  8
DEFPOINTS
 62
     0
 10
494.105
 20
100.914
 30
0.0
  0
POINT
  5
271
  8
DEFPOINTS
 62
     0
 10
493.505
 20
100.314
 30
0.0
  0
POINT
  5
272
  8
DEFPOINTS
 62
     0
 10
494.105
 20
100.914
 30
0.0
  0
POINT
  5
273
  8
DEFPOINTS
 62
     0
 10
494.105
 20
144.814
 30
0.0
  0
ENDBLK
  5
265
  8
0
  0
BLOCK
  8
0
  2
*D33
 70
     1
 10
0.0
 20
0.0
 30
0.0
  3
*D33
  1

  0
LINE
  5
278
  8
0
  6
CONTINUOUS
 62
    21
 10
478.905
 20
145.714
 30
0.0
 11
447.551
 21
145.714
 31
0.0
  0
LINE
  5
279
  8
0
  6
CONTINUOUS
 62
    21
 10
478.268
 20
144.177
 30
0.0
 11
456.998
 21
122.907
 31
0.0
  0
ARC
  5
27A
  8
0
  6
CONTINUOUS
 62
    21
 10
479.805
 20
145.714
 30
0.0
 40
31.05322100853496
 50
185.537
 51
219.463
  0
SOLID
  5
27B
  8
0
 62
    21
 10
449.396
 20
142.741
 30
0.0
 11
448.397
 21
142.693
 31
0.0
 12
448.751
 22
145.714
 32
0.0
 13
448.751
 23
145.714
 33
0.0
  0
SOLID
  5
27C
  8
0
 62
    21
 10
455.46
 20
125.641
 30
0.0
 11
456.201
 21
126.313
 31
0.0
 12
457.847
 22
123.755
 32
0.0
 13
457.847
 23
123.755
 33
0.0
  0
TEXT
  5
27D
  8
0
  6
CONTINUOUS
 62
    21
 10
451.679
 20
136.522
 30
0.0
 40
3.0
  1
45
 50
292.5
  7
STEFANO
  0
POINT
  5
27E
  8
DEFPOINTS
 62
     0
 10
449.809
 20
137.676
 30
0.0
  0
POINT
  5
27F
  8
DEFPOINTS
 62
     0
 10
478.905
 20
144.814
 30
0.0
  0
POINT
  5
280
  8
DEFPOINTS
 62
     0
 10
479.805
 20
145.714
 30
0.0
  0
POINT
  5
281
  8
DEFPOINTS
 62
     0
 10
481.57
 20
145.714
 30
0.0
  0
POINT
  5
282
  8
DEFPOINTS
 62
     0
 10
479.805
 20
145.714
 30
0.0
  0
ENDBLK
  5
277
  8
0
  0
BLOCK
  8
0
  2
*D34
 70
     1
 10
0.0
 20
0.0
 30
0.0
  3
*D34
  1

  0
LINE
  5
287
  8
0
  6
CONTINUOUS
 62
    21
 10
494.741
 20
144.177
 30
0.0
 11
506.798
 21
132.12
 31
0.0
  0
LINE
  5
288
  8
0
  6
CONTINUOUS
 62
    21
 10
494.105
 20
145.714
 30
0.0
 11
512.429
 21
145.714
 31
0.0
  0
ARC
  5
289
  8
0
  6
CONTINUOUS
 62
    21
 10
493.205
 20
145.714
 30
0.0
 40
18.02458513929686
 50
324.547
 51
350.453
  0
SOLID
  5
28A
  8
0
 62
    21
 10
507.505
 20
135.582
 30
0.0
 11
508.269
 21
134.936
 31
0.0
 12
505.95
 22
132.968
 32
0.0
 13
505.95
 23
132.968
 33
0.0
  0
SOLID
  5
28B
  8
0
 62
    21
 10
511.478
 20
142.682
 30
0.0
 11
510.481
 21
142.766
 31
0.0
 12
511.229
 22
145.714
 32
0.0
 13
511.229
 23
145.714
 33
0.0
  0
TEXT
  5
28C
  8
0
  6
CONTINUOUS
 62
    21
 10
507.555
 20
137.311
 30
0.0
 40
3.0
  1
45
 50
67.5
  7
STEFANO
  0
POINT
  5
28D
  8
DEFPOINTS
 62
     0
 10
508.814
 20
136.701
 30
0.0
  0
POINT
  5
28E
  8
DEFPOINTS
 62
     0
 10
493.205
 20
145.714
 30
0.0
  0
POINT
  5
28F
  8
DEFPOINTS
 62
     0
 10
494.105
 20
144.814
 30
0.0
  0
POINT
  5
290
  8
DEFPOINTS
 62
     0
 10
493.205
 20
145.714
 30
0.0
  0
POINT
  5
291
  8
DEFPOINTS
 62
     0
 10
491.439
 20
145.714
 30
0.0
  0
ENDBLK
  5
286
  8
0
  0
BLOCK
  8
0
  2
*D35
 70
     1
 10
0.0
 20
0.0
 30
0.0
  3
*D35
  1

  0
LINE
  5
296
  8
0
  6
CONTINUOUS
 62
    21
 10
479.305
 20
85.114
 30
0.0
 11
479.305
 21
73.265
 31
0.0
  0
LINE
  5
297
  8
0
  6
CONTINUOUS
 62
    21
 10
480.941
 20
84.377
 30
0.0
 11
488.319
 21
76.999
 31
0.0
  0
ARC
  5
298
  8
0
  6
CONTINUOUS
 62
    21
 10
479.305
 20
86.014
 30
0.0
 40
11.54852634717601
 50
240.148
 51
255.074
  0
ARC
  5
299
  8
0
  6
CONTINUOUS
 62
    21
 10
479.305
 20
86.014
 30
0.0
 40
11.54852634717601
 50
329.926
 51
344.852
  0
ARC
  5
29A
  8
0
  6
CONTINUOUS
 62
    21
 10
479.305
 20
86.014
 30
0.0
 40
11.54852634717601
 50
270.0
 51
315.0
  0
SOLID
  5
29B
  8
0
 62
    21
 10
476.265
 20
74.359
 30
0.0
 11
476.395
 21
75.35
 31
0.0
 12
479.305
 22
74.465
 32
0.0
 13
479.305
 23
74.465
 33
0.0
  0
SOLID
  5
29C
  8
0
 62
    21
 10
488.902
 20
80.531
 30
0.0
 11
489.695
 21
79.922
 31
0.0
 12
487.471
 22
77.848
 32
0.0
 13
487.471
 23
77.848
 33
0.0
  0
TEXT
  5
29D
  8
0
  6
CONTINUOUS
 62
    21
 10
481.032
 20
75.908
 30
0.0
 40
3.0
  1
45
 50
22.5
  7
STEFANO
  0
POINT
  5
29E
  8
DEFPOINTS
 62
     0
 10
482.294
 20
74.859
 30
0.0
  0
POINT
  5
29F
  8
DEFPOINTS
 62
     0
 10
480.305
 20
85.014
 30
0.0
  0
POINT
  5
2A0
  8
DEFPOINTS
 62
     0
 10
479.305
 20
86.014
 30
0.0
  0
POINT
  5
2A1
  8
DEFPOINTS
 62
     0
 10
479.305
 20
100.314
 30
0.0
  0
POINT
  5
2A2
  8
DEFPOINTS
 62
     0
 10
479.305
 20
86.014
 30
0.0
  0
ENDBLK
  5
295
  8
0
  0
BLOCK
  8
0
  2
*D36
 70
     1
 10
0.0
 20
0.0
 30
0.0
  3
*D36
  1

  0
LINE
  5
2A7
  8
0
  6
CONTINUOUS
 62
    21
 10
492.068
 20
84.377
 30
0.0
 11
485.15
 21
77.459
 31
0.0
  0
LINE
  5
2A8
  8
0
  6
CONTINUOUS
 62
    21
 10
493.705
 20
85.114
 30
0.0
 11
493.705
 21
73.916
 31
0.0
  0
ARC
  5
2A9
  8
0
  6
CONTINUOUS
 62
    21
 10
493.705
 20
86.014
 30
0.0
 40
10.89773004426106
 50
193.354
 51
209.177
  0
ARC
  5
2AA
  8
0
  6
CONTINUOUS
 62
    21
 10
493.705
 20
86.014
 30
0.0
 40
10.89773004426106
 50
285.823
 51
301.646
  0
ARC
  5
2AB
  8
0
  6
CONTINUOUS
 62
    21
 10
493.705
 20
86.014
 30
0.0
 40
10.89773004426106
 50
225.0
 51
270.0
  0
SOLID
  5
2AC
  8
0
 62
    21
 10
483.791
 20
80.399
 30
0.0
 11
484.588
 21
81.002
 31
0.0
 12
485.999
 22
78.308
 32
0.0
 13
485.999
 23
78.308
 33
0.0
  0
SOLID
  5
2AD
  8
0
 62
    21
 10
496.607
 20
76.024
 30
0.0
 11
496.745
 21
75.034
 31
0.0
 12
493.705
 22
75.116
 32
0.0
 13
493.705
 23
75.116
 33
0.0
  0
TEXT
  5
2AE
  8
0
  6
CONTINUOUS
 62
    21
 10
488.03
 20
78.247
 30
0.0
 40
3.0
  1
45
 50
337.5
  7
STEFANO
  0
POINT
  5
2AF
  8
DEFPOINTS
 62
     0
 10
488.256
 20
76.576
 30
0.0
  0
POINT
  5
2B0
  8
DEFPOINTS
 62
     0
 10
493.705
 20
86.014
 30
0.0
  0
POINT
  5
2B1
  8
DEFPOINTS
 62
     0
 10
492.705
 20
85.014
 30
0.0
  0
POINT
  5
2B2
  8
DEFPOINTS
 62
     0
 10
493.705
 20
86.014
 30
0.0
  0
POINT
  5
2B3
  8
DEFPOINTS
 62
     0
 10
493.705
 20
100.314
 30
0.0
  0
ENDBLK
  5
2A6
  8
0
  0
BLOCK
  8
0
  2
*D37
 70
     1
 10
0.0
 20
0.0
 30
0.0
  3
*D37
  1

  0
LINE
  5
2B8
  8
0
  6
CONTINUOUS
 62
    21
 10
479.305
 20
99.414
 30
0.0
 11
479.305
 21
65.914
 31
0.0
  0
LINE
  5
2B9
  8
0
  6
CONTINUOUS
 62
    21
 10
486.505
 20
84.714
 30
0.0
 11
486.505
 21
65.914
 31
0.0
  0
LINE
  5
2BA
  8
0
  6
CONTINUOUS
 62
    21
 10
479.305
 20
67.114
 30
0.0
 11
464.905
 21
67.114
 31
0.0
  0
LINE
  5
2BB
  8
0
  6
CONTINUOUS
 62
    21
 10
479.305
 20
67.114
 30
0.0
 11
486.505
 21
67.114
 31
0.0
  0
LINE
  5
2BC
  8
0
  6
CONTINUOUS
 62
    21
 10
476.305
 20
67.114
 30
0.0
 11
473.305
 21
67.114
 31
0.0
  0
LINE
  5
2BD
  8
0
  6
CONTINUOUS
 62
    21
 10
489.505
 20
67.114
 30
0.0
 11
492.505
 21
67.114
 31
0.0
  0
SOLID
  5
2BE
  8
0
 62
    21
 10
476.305
 20
66.614
 30
0.0
 11
476.305
 21
67.614
 31
0.0
 12
479.305
 22
67.114
 32
0.0
 13
479.305
 23
67.114
 33
0.0
  0
SOLID
  5
2BF
  8
0
 62
    21
 10
489.505
 20
67.614
 30
0.0
 11
489.505
 21
66.614
 31
0.0
 12
486.505
 22
67.114
 32
0.0
 13
486.505
 23
67.114
 33
0.0
  0
TEXT
  5
2C0
  8
0
  6
CONTINUOUS
 62
    21
 10
466.207
 20
68.62
 30
0.0
 40
3.0
  1
7.2
  7
STEFANO
  0
POINT
  5
2C1
  8
DEFPOINTS
 62
     0
 10
479.305
 20
100.314
 30
0.0
  0
POINT
  5
2C2
  8
DEFPOINTS
 62
     0
 10
486.505
 20
85.614
 30
0.0
  0
POINT
  5
2C3
  8
DEFPOINTS
 62
     0
 10
486.505
 20
67.114
 30
0.0
  0
ENDBLK
  5
2B7
  8
0
  0
BLOCK
  8
0
  2
*D38
 70
     1
 10
0.0
 20
0.0
 30
0.0
  3
*D38
  1

  0
LINE
  5
2C8
  8
0
  6
CONTINUOUS
 62
    21
 10
493.705
 20
85.114
 30
0.0
 11
493.705
 21
65.914
 31
0.0
  0
LINE
  5
2C9
  8
0
  6
CONTINUOUS
 62
    21
 10
486.505
 20
84.714
 30
0.0
 11
486.505
 21
65.914
 31
0.0
  0
LINE
  5
2CA
  8
0
  6
CONTINUOUS
 62
    21
 10
486.505
 20
67.114
 30
0.0
 11
472.105
 21
67.114
 31
0.0
  0
LINE
  5
2CB
  8
0
  6
CONTINUOUS
 62
    21
 10
493.705
 20
67.114
 30
0.0
 11
486.505
 21
67.114
 31
0.0
  0
LINE
  5
2CC
  8
0
  6
CONTINUOUS
 62
    21
 10
496.705
 20
67.114
 30
0.0
 11
499.705
 21
67.114
 31
0.0
  0
LINE
  5
2CD
  8
0
  6
CONTINUOUS
 62
    21
 10
483.505
 20
67.114
 30
0.0
 11
480.505
 21
67.114
 31
0.0
  0
SOLID
  5
2CE
  8
0
 62
    21
 10
496.705
 20
67.614
 30
0.0
 11
496.705
 21
66.614
 31
0.0
 12
493.705
 22
67.114
 32
0.0
 13
493.705
 23
67.114
 33
0.0
  0
SOLID
  5
2CF
  8
0
 62
    21
 10
483.505
 20
66.614
 30
0.0
 11
483.505
 21
67.614
 31
0.0
 12
486.505
 22
67.114
 32
0.0
 13
486.505
 23
67.114
 33
0.0
  0
TEXT
  5
2D0
  8
0
  6
CONTINUOUS
 62
    21
 10
473.407
 20
68.62
 30
0.0
 40
3.0
  1
7.2
  7
STEFANO
  0
POINT
  5
2D1
  8
DEFPOINTS
 62
     0
 10
493.705
 20
86.014
 30
0.0
  0
POINT
  5
2D2
  8
DEFPOINTS
 62
     0
 10
486.505
 20
85.614
 30
0.0
  0
POINT
  5
2D3
  8
DEFPOINTS
 62
     0
 10
486.505
 20
67.114
 30
0.0
  0
ENDBLK
  5
2C7
  8
0
  0
BLOCK
  8
0
  2
*D39
 70
     1
 10
0.0
 20
0.0
 30
0.0
  3
*D39
  1

  0
LINE
  5
2D8
  8
0
  6
CONTINUOUS
 62
    21
 10
478.905
 20
145.714
 30
0.0
 11
478.905
 21
174.014
 31
0.0
  0
LINE
  5
2D9
  8
0
  6
CONTINUOUS
 62
    21
 10
486.505
 20
86.514
 30
0.0
 11
486.505
 21
174.014
 31
0.0
  0
LINE
  5
2DA
  8
0
  6
CONTINUOUS
 62
    21
 10
478.905
 20
172.814
 30
0.0
 11
464.472
 21
172.814
 31
0.0
  0
LINE
  5
2DB
  8
0
  6
CONTINUOUS
 62
    21
 10
478.905
 20
172.814
 30
0.0
 11
486.505
 21
172.814
 31
0.0
  0
LINE
  5
2DC
  8
0
  6
CONTINUOUS
 62
    21
 10
475.905
 20
172.814
 30
0.0
 11
472.905
 21
172.814
 31
0.0
  0
LINE
  5
2DD
  8
0
  6
CONTINUOUS
 62
    21
 10
489.505
 20
172.814
 30
0.0
 11
492.505
 21
172.814
 31
0.0
  0
SOLID
  5
2DE
  8
0
 62
    21
 10
475.905
 20
172.314
 30
0.0
 11
475.905
 21
173.314
 31
0.0
 12
478.905
 22
172.814
 32
0.0
 13
478.905
 23
172.814
 33
0.0
  0
SOLID
  5
2DF
  8
0
 62
    21
 10
489.505
 20
173.314
 30
0.0
 11
489.505
 21
172.314
 31
0.0
 12
486.505
 22
172.814
 32
0.0
 13
486.505
 23
172.814
 33
0.0
  0
TEXT
  5
2E0
  8
0
  6
CONTINUOUS
 62
    21
 10
465.774
 20
174.371
 30
0.0
 40
3.0
  1
7.6
  7
STEFANO
  0
POINT
  5
2E1
  8
DEFPOINTS
 62
     0
 10
478.905
 20
144.814
 30
0.0
  0
POINT
  5
2E2
  8
DEFPOINTS
 62
     0
 10
486.505
 20
85.614
 30
0.0
  0
POINT
  5
2E3
  8
DEFPOINTS
 62
     0
 10
486.505
 20
172.814
 30
0.0
  0
ENDBLK
  5
2D7
  8
0
  0
BLOCK
  8
0
  2
*D40
 70
     1
 10
0.0
 20
0.0
 30
0.0
  3
*D40
  1

  0
LINE
  5
2E8
  8
0
  6
CONTINUOUS
 62
    21
 10
494.105
 20
101.814
 30
0.0
 11
494.105
 21
173.864
 31
0.0
  0
LINE
  5
2E9
  8
0
  6
CONTINUOUS
 62
    21
 10
486.505
 20
86.514
 30
0.0
 11
486.505
 21
173.864
 31
0.0
  0
LINE
  5
2EA
  8
0
  6
CONTINUOUS
 62
    21
 10
486.505
 20
172.664
 30
0.0
 11
472.072
 21
172.664
 31
0.0
  0
LINE
  5
2EB
  8
0
  6
CONTINUOUS
 62
    21
 10
494.105
 20
172.664
 30
0.0
 11
486.505
 21
172.664
 31
0.0
  0
LINE
  5
2EC
  8
0
  6
CONTINUOUS
 62
    21
 10
497.105
 20
172.664
 30
0.0
 11
500.105
 21
172.664
 31
0.0
  0
LINE
  5
2ED
  8
0
  6
CONTINUOUS
 62
    21
 10
483.505
 20
172.664
 30
0.0
 11
480.505
 21
172.664
 31
0.0
  0
SOLID
  5
2EE
  8
0
 62
    21
 10
497.105
 20
173.164
 30
0.0
 11
497.105
 21
172.164
 31
0.0
 12
494.105
 22
172.664
 32
0.0
 13
494.105
 23
172.664
 33
0.0
  0
SOLID
  5
2EF
  8
0
 62
    21
 10
483.505
 20
172.164
 30
0.0
 11
483.505
 21
173.164
 31
0.0
 12
486.505
 22
172.664
 32
0.0
 13
486.505
 23
172.664
 33
0.0
  0
TEXT
  5
2F0
  8
0
  6
CONTINUOUS
 62
    21
 10
473.374
 20
174.221
 30
0.0
 40
3.0
  1
7.6
  7
STEFANO
  0
POINT
  5
2F1
  8
DEFPOINTS
 62
     0
 10
494.105
 20
100.914
 30
0.0
  0
POINT
  5
2F2
  8
DEFPOINTS
 62
     0
 10
486.505
 20
85.614
 30
0.0
  0
POINT
  5
2F3
  8
DEFPOINTS
 62
     0
 10
486.505
 20
172.664
 30
0.0
  0
ENDBLK
  5
2E7
  8
0
  0
BLOCK
  8
0
  2
*D41
 70
     1
 10
0.0
 20
0.0
 30
0.0
  3
*D41
  1

  0
LINE
  5
2F8
  8
0
  6
CONTINUOUS
 62
    21
 10
478.605
 20
100.314
 30
0.0
 11
450.555
 21
100.314
 31
0.0
  0
LINE
  5
2F9
  8
0
  6
CONTINUOUS
 62
    21
 10
479.105
 20
115.314
 30
0.0
 11
450.555
 21
115.314
 31
0.0
  0
LINE
  5
2FA
  8
0
  6
CONTINUOUS
 62
    21
 10
451.755
 20
103.314
 30
0.0
 11
451.755
 21
112.314
 31
0.0
  0
SOLID
  5
2FB
  8
0
 62
    21
 10
451.255
 20
103.314
 30
0.0
 11
452.255
 21
103.314
 31
0.0
 12
451.755
 22
100.314
 32
0.0
 13
451.755
 23
100.314
 33
0.0
  0
SOLID
  5
2FC
  8
0
 62
    21
 10
452.255
 20
112.314
 30
0.0
 11
451.255
 21
112.314
 31
0.0
 12
451.755
 22
115.314
 32
0.0
 13
451.755
 23
115.314
 33
0.0
  0
TEXT
  5
2FD
  8
0
  6
CONTINUOUS
 62
    21
 10
450.198
 20
105.342
 30
0.0
 40
3.0
  1
15
 50
90.0
  7
STEFANO
  0
POINT
  5
2FE
  8
DEFPOINTS
 62
     0
 10
479.505
 20
100.314
 30
0.0
  0
POINT
  5
2FF
  8
DEFPOINTS
 62
     0
 10
480.005
 20
115.314
 30
0.0
  0
POINT
  5
300
  8
DEFPOINTS
 62
     0
 10
451.755
 20
115.314
 30
0.0
  0
ENDBLK
  5
2F7
  8
0
  0
BLOCK
  8
0
  2
*D42
 70
     1
 10
0.0
 20
0.0
 30
0.0
  3
*D42
  1

  0
LINE
  5
305
  8
0
  6
CONTINUOUS
 62
    21
 10
478.005
 20
116.414
 30
0.0
 11
468.705
 21
116.414
 31
0.0
  0
LINE
  5
306
  8
0
  6
CONTINUOUS
 62
    21
 10
478.005
 20
114.214
 30
0.0
 11
468.705
 21
114.214
 31
0.0
  0
LINE
  5
307
  8
0
  6
CONTINUOUS
 62
    21
 10
469.905
 20
114.214
 30
0.0
 11
469.905
 21
99.739
 31
0.0
  0
LINE
  5
308
  8
0
  6
CONTINUOUS
 62
    21
 10
469.905
 20
116.414
 30
0.0
 11
469.905
 21
114.214
 31
0.0
  0
LINE
  5
309
  8
0
  6
CONTINUOUS
 62
    21
 10
469.905
 20
119.414
 30
0.0
 11
469.905
 21
122.414
 31
0.0
  0
LINE
  5
30A
  8
0
  6
CONTINUOUS
 62
    21
 10
469.905
 20
111.214
 30
0.0
 11
469.905
 21
108.214
 31
0.0
  0
SOLID
  5
30B
  8
0
 62
    21
 10
469.405
 20
119.414
 30
0.0
 11
470.405
 21
119.414
 31
0.0
 12
469.905
 22
116.414
 32
0.0
 13
469.905
 23
116.414
 33
0.0
  0
SOLID
  5
30C
  8
0
 62
    21
 10
470.405
 20
111.214
 30
0.0
 11
469.405
 21
111.214
 31
0.0
 12
469.905
 22
114.214
 32
0.0
 13
469.905
 23
114.214
 33
0.0
  0
TEXT
  5
30D
  8
0
  6
CONTINUOUS
 62
    21
 10
468.399
 20
101.116
 30
0.0
 40
3.0
  1
2.2
 50
90.0
  7
STEFANO
  0
POINT
  5
30E
  8
DEFPOINTS
 62
     0
 10
478.905
 20
116.414
 30
0.0
  0
POINT
  5
30F
  8
DEFPOINTS
 62
     0
 10
478.905
 20
114.214
 30
0.0
  0
POINT
  5
310
  8
DEFPOINTS
 62
     0
 10
469.905
 20
114.214
 30
0.0
  0
ENDBLK
  5
304
  8
0
  0
BLOCK
  8
0
  2
*D43
 70
     1
 10
0.0
 20
0.0
 30
0.0
  3
*D43
  1

  0
LINE
  5
315
  8
0
  6
CONTINUOUS
 62
    21
 10
486.505
 20
155.323
 30
0.0
 11
486.505
 21
188.658
 31
0.0
  0
LINE
  5
316
  8
0
  6
CONTINUOUS
 62
    21
 10
480.934
 20
146.35
 30
0.0
 11
452.65
 21
174.634
 31
0.0
  0
ARC
  5
317
  8
0
  6
CONTINUOUS
 62
    21
 10
486.505
 20
140.779
 30
0.0
 40
46.67827874600822
 50
93.683
 51
131.317
  0
SOLID
  5
318
  8
0
 62
    21
 10
483.522
 20
186.861
 30
0.0
 11
483.49
 21
187.861
 31
0.0
 12
486.505
 22
187.458
 32
0.0
 13
486.505
 23
187.458
 33
0.0
  0
SOLID
  5
319
  8
0
 62
    21
 10
455.344
 20
176.203
 30
0.0
 11
456.028
 21
175.473
 31
0.0
 12
453.498
 22
173.786
 32
0.0
 13
453.498
 23
173.786
 33
0.0
  0
TEXT
  5
31A
  8
0
  6
CONTINUOUS
 62
    21
 10
465.95
 20
184.468
 30
0.0
 40
3.0
  1
45
 50
22.5
  7
STEFANO
  0
POINT
  5
31B
  8
DEFPOINTS
 62
     0
 10
474.423
 20
185.867
 30
0.0
  0
POINT
  5
31C
  8
DEFPOINTS
 62
     0
 10
481.57
 20
145.714
 30
0.0
  0
POINT
  5
31D
  8
DEFPOINTS
 62
     0
 10
486.505
 20
154.423
 30
0.0
  0
POINT
  5
31E
  8
DEFPOINTS
 62
     0
 10
486.505
 20
85.614
 30
0.0
  0
POINT
  5
31F
  8
DEFPOINTS
 62
     0
 10
486.051
 20
141.233
 30
0.0
  0
ENDBLK
  5
314
  8
0
  0
BLOCK
  8
0
  2
*D44
 70
     1
 10
0.0
 20
0.0
 30
0.0
  3
*D44
  1

  0
LINE
  5
324
  8
0
  6
CONTINUOUS
 62
    21
 10
492.305
 20
145.714
 30
0.0
 11
425.955
 21
145.714
 31
0.0
  0
LINE
  5
325
  8
0
  6
CONTINUOUS
 62
    21
 10
492.805
 20
100.314
 30
0.0
 11
425.955
 21
100.314
 31
0.0
  0
LINE
  5
326
  8
0
  6
CONTINUOUS
 62
    21
 10
427.155
 20
142.714
 30
0.0
 11
427.155
 21
103.314
 31
0.0
  0
SOLID
  5
327
  8
0
 62
    21
 10
427.655
 20
142.714
 30
0.0
 11
426.655
 21
142.714
 31
0.0
 12
427.155
 22
145.714
 32
0.0
 13
427.155
 23
145.714
 33
0.0
  0
SOLID
  5
328
  8
0
 62
    21
 10
426.655
 20
103.314
 30
0.0
 11
427.655
 21
103.314
 31
0.0
 12
427.155
 22
100.314
 32
0.0
 13
427.155
 23
100.314
 33
0.0
  0
TEXT
  5
329
  8
0
  6
CONTINUOUS
 62
    21
 10
425.604
 20
119.013
 30
0.0
 40
3.0
  1
45.4
 50
90.0
  7
STEFANO
  0
POINT
  5
32A
  8
DEFPOINTS
 62
     0
 10
493.205
 20
145.714
 30
0.0
  0
POINT
  5
32B
  8
DEFPOINTS
 62
     0
 10
493.705
 20
100.314
 30
0.0
  0
POINT
  5
32C
  8
DEFPOINTS
 62
     0
 10
427.155
 20
100.314
 30
0.0
  0
ENDBLK
  5
323
  8
0
  0
BLOCK
  8
0
  2
*D45
 70
     1
 10
0.0
 20
0.0
 30
0.0
  3
*D45
  1

  0
LINE
  5
331
  8
0
  6
CONTINUOUS
 62
    21
 10
492.805
 20
100.314
 30
0.0
 11
437.205
 21
100.314
 31
0.0
  0
LINE
  5
332
  8
0
  6
CONTINUOUS
 62
    21
 10
479.405
 20
85.014
 30
0.0
 11
437.205
 21
85.014
 31
0.0
  0
LINE
  5
333
  8
0
  6
CONTINUOUS
 62
    21
 10
438.405
 20
97.314
 30
0.0
 11
438.405
 21
88.014
 31
0.0
  0
SOLID
  5
334
  8
0
 62
    21
 10
438.905
 20
97.314
 30
0.0
 11
437.905
 21
97.314
 31
0.0
 12
438.405
 22
100.314
 32
0.0
 13
438.405
 23
100.314
 33
0.0
  0
SOLID
  5
335
  8
0
 62
    21
 10
437.905
 20
88.014
 30
0.0
 11
438.905
 21
88.014
 31
0.0
 12
438.405
 22
85.014
 32
0.0
 13
438.405
 23
85.014
 33
0.0
  0
TEXT
  5
336
  8
0
  6
CONTINUOUS
 62
    21
 10
436.848
 20
88.456
 30
0.0
 40
3.0
  1
15.3
 50
90.0
  7
STEFANO
  0
POINT
  5
337
  8
DEFPOINTS
 62
     0
 10
493.705
 20
100.314
 30
0.0
  0
POINT
  5
338
  8
DEFPOINTS
 62
     0
 10
480.305
 20
85.014
 30
0.0
  0
POINT
  5
339
  8
DEFPOINTS
 62
     0
 10
438.405
 20
85.014
 30
0.0
  0
ENDBLK
  5
330
  8
0
  0
BLOCK
  8
0
  2
*D46
 70
     1
 10
0.0
 20
0.0
 30
0.0
  3
*D46
  1

  0
LINE
  5
33E
  8
0
  6
CONTINUOUS
 62
    21
 10
492.075
 20
146.35
 30
0.0
 11
519.286
 21
173.561
 31
0.0
  0
LINE
  5
33F
  8
0
  6
CONTINUOUS
 62
    21
 10
486.505
 20
155.323
 30
0.0
 11
486.505
 21
187.139
 31
0.0
  0
ARC
  5
340
  8
0
  6
CONTINUOUS
 62
    21
 10
486.505
 20
140.779
 30
0.0
 40
45.15980885950153
 50
48.807
 51
86.193
  0
SOLID
  5
341
  8
0
 62
    21
 10
515.905
 20
174.397
 30
0.0
 11
516.588
 21
175.127
 31
0.0
 12
518.437
 22
172.712
 32
0.0
 13
518.437
 23
172.712
 33
0.0
  0
SOLID
  5
342
  8
0
 62
    21
 10
489.52
 20
186.339
 30
0.0
 11
489.486
 21
185.34
 31
0.0
 12
486.505
 22
185.939
 32
0.0
 13
486.505
 23
185.939
 33
0.0
  0
TEXT
  5
343
  8
0
  6
CONTINUOUS
 62
    21
 10
502.282
 20
184.804
 30
0.0
 40
3.0
  1
45
 50
337.5
  7
STEFANO
  0
POINT
  5
344
  8
DEFPOINTS
 62
     0
 10
509.084
 20
179.889
 30
0.0
  0
POINT
  5
345
  8
DEFPOINTS
 62
     0
 10
486.505
 20
154.423
 30
0.0
  0
POINT
  5
346
  8
DEFPOINTS
 62
     0
 10
491.439
 20
145.714
 30
0.0
  0
POINT
  5
347
  8
DEFPOINTS
 62
     0
 10
486.958
 20
141.233
 30
0.0
  0
POINT
  5
348
  8
DEFPOINTS
 62
     0
 10
486.505
 20
85.614
 30
0.0
  0
ENDBLK
  5
33D
  8
0
  0
BLOCK
  8
0
  2
*D47
 70
     1
 10
0.0
 20
0.0
 30
0.0
  3
*D47
  1

  0
LINE
  5
34D
  8
0
  6
CONTINUOUS
 62
    21
 10
480.67
 20
145.714
 30
0.0
 11
457.955
 21
145.714
 31
0.0
  0
LINE
  5
34E
  8
0
  6
CONTINUOUS
 62
    21
 10
478.005
 20
144.814
 30
0.0
 11
457.955
 21
144.814
 31
0.0
  0
LINE
  5
34F
  8
0
  6
CONTINUOUS
 62
    21
 10
459.155
 20
145.714
 30
0.0
 11
459.155
 21
160.177
 31
0.0
  0
LINE
  5
350
  8
0
  6
CONTINUOUS
 62
    21
 10
459.155
 20
145.714
 30
0.0
 11
459.155
 21
144.814
 31
0.0
  0
LINE
  5
351
  8
0
  6
CONTINUOUS
 62
    21
 10
459.155
 20
148.714
 30
0.0
 11
459.155
 21
151.714
 31
0.0
  0
LINE
  5
352
  8
0
  6
CONTINUOUS
 62
    21
 10
459.155
 20
141.814
 30
0.0
 11
459.155
 21
138.814
 31
0.0
  0
SOLID
  5
353
  8
0
 62
    21
 10
458.655
 20
148.714
 30
0.0
 11
459.655
 21
148.714
 31
0.0
 12
459.155
 22
145.714
 32
0.0
 13
459.155
 23
145.714
 33
0.0
  0
SOLID
  5
354
  8
0
 62
    21
 10
459.655
 20
141.814
 30
0.0
 11
458.655
 21
141.814
 31
0.0
 12
459.155
 22
144.814
 32
0.0
 13
459.155
 23
144.814
 33
0.0
  0
TEXT
  5
355
  8
0
  6
CONTINUOUS
 62
    21
 10
457.598
 20
153.04
 30
0.0
 40
3.0
  1
0.9
 50
90.0
  7
STEFANO
  0
POINT
  5
356
  8
DEFPOINTS
 62
     0
 10
481.57
 20
145.714
 30
0.0
  0
POINT
  5
357
  8
DEFPOINTS
 62
     0
 10
478.905
 20
144.814
 30
0.0
  0
POINT
  5
358
  8
DEFPOINTS
 62
     0
 10
459.155
 20
144.814
 30
0.0
  0
ENDBLK
  5
34C
  8
0
  0
BLOCK
  8
0
  2
*D48
 70
     1
 10
0.0
 20
0.0
 30
0.0
  3
*D48
  1

  0
LINE
  5
35D
  8
0
  6
CONTINUOUS
 62
    21
 10
492.305
 20
145.714
 30
0.0
 11
459.705
 21
145.714
 31
0.0
  0
LINE
  5
35E
  8
0
  6
CONTINUOUS
 62
    21
 10
493.205
 20
144.814
 30
0.0
 11
459.705
 21
144.814
 31
0.0
  0
LINE
  5
35F
  8
0
  6
CONTINUOUS
 62
    21
 10
460.905
 20
145.714
 30
0.0
 11
460.905
 21
160.177
 31
0.0
  0
LINE
  5
360
  8
0
  6
CONTINUOUS
 62
    21
 10
460.905
 20
145.714
 30
0.0
 11
460.905
 21
144.814
 31
0.0
  0
LINE
  5
361
  8
0
  6
CONTINUOUS
 62
    21
 10
460.905
 20
148.714
 30
0.0
 11
460.905
 21
151.714
 31
0.0
  0
LINE
  5
362
  8
0
  6
CONTINUOUS
 62
    21
 10
460.905
 20
141.814
 30
0.0
 11
460.905
 21
138.814
 31
0.0
  0
SOLID
  5
363
  8
0
 62
    21
 10
460.405
 20
148.714
 30
0.0
 11
461.405
 21
148.714
 31
0.0
 12
460.905
 22
145.714
 32
0.0
 13
460.905
 23
145.714
 33
0.0
  0
SOLID
  5
364
  8
0
 62
    21
 10
461.405
 20
141.814
 30
0.0
 11
460.405
 21
141.814
 31
0.0
 12
460.905
 22
144.814
 32
0.0
 13
460.905
 23
144.814
 33
0.0
  0
TEXT
  5
365
  8
0
  6
CONTINUOUS
 62
    21
 10
459.348
 20
153.04
 30
0.0
 40
3.0
  1
0.9
 50
90.0
  7
STEFANO
  0
POINT
  5
366
  8
DEFPOINTS
 62
     0
 10
493.205
 20
145.714
 30
0.0
  0
POINT
  5
367
  8
DEFPOINTS
 62
     0
 10
494.105
 20
144.814
 30
0.0
  0
POINT
  5
368
  8
DEFPOINTS
 62
     0
 10
460.905
 20
144.814
 30
0.0
  0
ENDBLK
  5
35C
  8
0
  0
BLOCK
  8
0
  2
*D49
 70
     1
 10
0.0
 20
0.0
 30
0.0
  3
*D49
  1

  0
LINE
  5
36D
  8
0
  6
CONTINUOUS
 62
    21
 10
478.605
 20
100.314
 30
0.0
 11
459.555
 21
100.314
 31
0.0
  0
LINE
  5
36E
  8
0
  6
CONTINUOUS
 62
    21
 10
478.005
 20
100.914
 30
0.0
 11
459.555
 21
100.914
 31
0.0
  0
LINE
  5
36F
  8
0
  6
CONTINUOUS
 62
    21
 10
460.755
 20
100.314
 30
0.0
 11
460.755
 21
85.857
 31
0.0
  0
LINE
  5
370
  8
0
  6
CONTINUOUS
 62
    21
 10
460.755
 20
100.314
 30
0.0
 11
460.755
 21
100.914
 31
0.0
  0
LINE
  5
371
  8
0
  6
CONTINUOUS
 62
    21
 10
460.755
 20
97.314
 30
0.0
 11
460.755
 21
94.314
 31
0.0
  0
LINE
  5
372
  8
0
  6
CONTINUOUS
 62
    21
 10
460.755
 20
103.914
 30
0.0
 11
460.755
 21
106.914
 31
0.0
  0
SOLID
  5
373
  8
0
 62
    21
 10
461.255
 20
97.314
 30
0.0
 11
460.255
 21
97.314
 31
0.0
 12
460.755
 22
100.314
 32
0.0
 13
460.755
 23
100.314
 33
0.0
  0
SOLID
  5
374
  8
0
 62
    21
 10
460.255
 20
103.914
 30
0.0
 11
461.255
 21
103.914
 31
0.0
 12
460.755
 22
100.914
 32
0.0
 13
460.755
 23
100.914
 33
0.0
  0
TEXT
  5
375
  8
0
  6
CONTINUOUS
 62
    21
 10
459.198
 20
87.183
 30
0.0
 40
3.0
  1
0.6
 50
90.0
  7
STEFANO
  0
POINT
  5
376
  8
DEFPOINTS
 62
     0
 10
479.505
 20
100.314
 30
0.0
  0
POINT
  5
377
  8
DEFPOINTS
 62
     0
 10
478.905
 20
100.914
 30
0.0
  0
POINT
  5
378
  8
DEFPOINTS
 62
     0
 10
460.755
 20
100.914
 30
0.0
  0
ENDBLK
  5
36C
  8
0
  0
BLOCK
  8
0
  2
*D50
 70
     1
 10
0.0
 20
0.0
 30
0.0
  3
*D50
  1

  0
LINE
  5
37D
  8
0
  6
CONTINUOUS
 62
    21
 10
492.805
 20
100.314
 30
0.0
 11
461.955
 21
100.314
 31
0.0
  0
LINE
  5
37E
  8
0
  6
CONTINUOUS
 62
    21
 10
493.205
 20
100.914
 30
0.0
 11
461.955
 21
100.914
 31
0.0
  0
LINE
  5
37F
  8
0
  6
CONTINUOUS
 62
    21
 10
463.155
 20
100.914
 30
0.0
 11
463.155
 21
115.371
 31
0.0
  0
LINE
  5
380
  8
0
  6
CONTINUOUS
 62
    21
 10
463.155
 20
100.314
 30
0.0
 11
463.155
 21
100.914
 31
0.0
  0
LINE
  5
381
  8
0
  6
CONTINUOUS
 62
    21
 10
463.155
 20
97.314
 30
0.0
 11
463.155
 21
94.314
 31
0.0
  0
LINE
  5
382
  8
0
  6
CONTINUOUS
 62
    21
 10
463.155
 20
103.914
 30
0.0
 11
463.155
 21
106.914
 31
0.0
  0
SOLID
  5
383
  8
0
 62
    21
 10
463.655
 20
97.314
 30
0.0
 11
462.655
 21
97.314
 31
0.0
 12
463.155
 22
100.314
 32
0.0
 13
463.155
 23
100.314
 33
0.0
  0
SOLID
  5
384
  8
0
 62
    21
 10
462.655
 20
103.914
 30
0.0
 11
463.655
 21
103.914
 31
0.0
 12
463.155
 22
100.914
 32
0.0
 13
463.155
 23
100.914
 33
0.0
  0
TEXT
  5
385
  8
0
  6
CONTINUOUS
 62
    21
 10
461.598
 20
108.24
 30
0.0
 40
3.0
  1
0.6
 50
90.0
  7
STEFANO
  0
POINT
  5
386
  8
DEFPOINTS
 62
     0
 10
493.705
 20
100.314
 30
0.0
  0
POINT
  5
387
  8
DEFPOINTS
 62
     0
 10
494.105
 20
100.914
 30
0.0
  0
POINT
  5
388
  8
DEFPOINTS
 62
     0
 10
463.155
 20
100.914
 30
0.0
  0
ENDBLK
  5
37C
  8
0
  0
BLOCK
  8
0
  2
*D51
 70
     1
 10
0.0
 20
0.0
 30
0.0
  3
*D51
  1

  0
LINE
  5
38D
  8
0
  6
CONTINUOUS
 62
    21
 10
479.405
 20
85.014
 30
0.0
 11
455.205
 21
85.014
 31
0.0
  0
LINE
  5
38E
  8
0
  6
CONTINUOUS
 62
    21
 10
492.805
 20
86.014
 30
0.0
 11
455.205
 21
86.014
 31
0.0
  0
LINE
  5
38F
  8
0
  6
CONTINUOUS
 62
    21
 10
456.405
 20
85.014
 30
0.0
 11
456.405
 21
74.91
 31
0.0
  0
LINE
  5
390
  8
0
  6
CONTINUOUS
 62
    21
 10
456.405
 20
85.014
 30
0.0
 11
456.405
 21
86.014
 31
0.0
  0
LINE
  5
391
  8
0
  6
CONTINUOUS
 62
    21
 10
456.405
 20
82.014
 30
0.0
 11
456.405
 21
79.014
 31
0.0
  0
LINE
  5
392
  8
0
  6
CONTINUOUS
 62
    21
 10
456.405
 20
89.014
 30
0.0
 11
456.405
 21
92.014
 31
0.0
  0
SOLID
  5
393
  8
0
 62
    21
 10
456.905
 20
82.014
 30
0.0
 11
455.905
 21
82.014
 31
0.0
 12
456.405
 22
85.014
 32
0.0
 13
456.405
 23
85.014
 33
0.0
  0
SOLID
  5
394
  8
0
 62
    21
 10
455.905
 20
89.014
 30
0.0
 11
456.905
 21
89.014
 31
0.0
 12
456.405
 22
86.014
 32
0.0
 13
456.405
 23
86.014
 33
0.0
  0
TEXT
  5
395
  8
0
  6
CONTINUOUS
 62
    21
 10
454.899
 20
75.954
 30
0.0
 40
3.0
  1
1
 50
90.0
  7
STEFANO
  0
POINT
  5
396
  8
DEFPOINTS
 62
     0
 10
480.305
 20
85.014
 30
0.0
  0
POINT
  5
397
  8
DEFPOINTS
 62
     0
 10
493.705
 20
86.014
 30
0.0
  0
POINT
  5
398
  8
DEFPOINTS
 62
     0
 10
456.405
 20
86.014
 30
0.0
  0
ENDBLK
  5
38C
  8
0
  0
BLOCK
  8
0
  2
*D52
 70
     1
 10
0.0
 20
0.0
 30
0.0
  3
*D52
  1

  0
LINE
  5
39D
  8
0
  6
CONTINUOUS
 62
    21
 10
479.405
 20
85.014
 30
0.0
 11
464.205
 21
85.014
 31
0.0
  0
LINE
  5
39E
  8
0
  6
CONTINUOUS
 62
    21
 10
478.405
 20
86.014
 30
0.0
 11
464.205
 21
86.014
 31
0.0
  0
LINE
  5
39F
  8
0
  6
CONTINUOUS
 62
    21
 10
465.405
 20
85.014
 30
0.0
 11
465.405
 21
74.91
 31
0.0
  0
LINE
  5
3A0
  8
0
  6
CONTINUOUS
 62
    21
 10
465.405
 20
85.014
 30
0.0
 11
465.405
 21
86.014
 31
0.0
  0
LINE
  5
3A1
  8
0
  6
CONTINUOUS
 62
    21
 10
465.405
 20
82.014
 30
0.0
 11
465.405
 21
79.014
 31
0.0
  0
LINE
  5
3A2
  8
0
  6
CONTINUOUS
 62
    21
 10
465.405
 20
89.014
 30
0.0
 11
465.405
 21
92.014
 31
0.0
  0
SOLID
  5
3A3
  8
0
 62
    21
 10
465.905
 20
82.014
 30
0.0
 11
464.905
 21
82.014
 31
0.0
 12
465.405
 22
85.014
 32
0.0
 13
465.405
 23
85.014
 33
0.0
  0
SOLID
  5
3A4
  8
0
 62
    21
 10
464.905
 20
89.014
 30
0.0
 11
465.905
 21
89.014
 31
0.0
 12
465.405
 22
86.014
 32
0.0
 13
465.405
 23
86.014
 33
0.0
  0
TEXT
  5
3A5
  8
0
  6
CONTINUOUS
 62
    21
 10
463.899
 20
75.954
 30
0.0
 40
3.0
  1
1
 50
90.0
  7
STEFANO
  0
POINT
  5
3A6
  8
DEFPOINTS
 62
     0
 10
480.305
 20
85.014
 30
0.0
  0
POINT
  5
3A7
  8
DEFPOINTS
 62
     0
 10
479.305
 20
86.014
 30
0.0
  0
POINT
  5
3A8
  8
DEFPOINTS
 62
     0
 10
465.405
 20
86.014
 30
0.0
  0
ENDBLK
  5
39C
  8
0
  0
BLOCK
  8
0
  2
*D53
 70
     1
 10
0.0
 20
0.0
 30
0.0
  3
*D53
  1

  0
LINE
  5
3AD
  8
0
  6
CONTINUOUS
 62
    21
 10
488.986
 20
139.021
 30
0.0
 11
500.326
 21
126.843
 31
0.0
  0
TEXT
  5
3AE
  8
0
  6
CONTINUOUS
 62
    21
 10
492.967
 20
137.031
 30
0.0
 40
3.0
  1
R0.64
 50
312.958
  7
STEFANO
  0
SOLID
  5
3AF
  8
0
 62
    21
 10
489.352
 20
139.362
 30
0.0
 11
488.62
 21
138.681
 31
0.0
 12
486.942
 22
141.217
 32
0.0
 13
486.942
 23
141.217
 33
0.0
  0
LINE
  5
3B0
  8
0
  6
CONTINUOUS
 62
    21
 10
486.415
 20
141.686
 30
0.0
 11
486.595
 21
141.686
 31
0.0
  0
LINE
  5
3B1
  8
0
  6
CONTINUOUS
 62
    21
 10
486.505
 20
141.596
 30
0.0
 11
486.505
 21
141.776
 31
0.0
  0
POINT
  5
3B2
  8
DEFPOINTS
 62
     0
 10
486.942
 20
141.217
 30
0.0
  0
POINT
  5
3B3
  8
DEFPOINTS
 62
     0
 10
486.505
 20
141.686
 30
0.0
  0
ENDBLK
  5
3AC
  8
0
  0
BLOCK
  8
0
  2
*D54
 70
     1
 10
0.0
 20
0.0
 30
0.0
  3
*D54
  1

  0
LINE
  5
3B8
  8
0
  6
CONTINUOUS
 62
    21
 10
486.505
 20
86.514
 30
0.0
 11
486.505
 21
156.014
 31
0.0
  0
LINE
  5
3B9
  8
0
  6
CONTINUOUS
 62
    21
 10
481.57
 20
146.614
 30
0.0
 11
481.57
 21
156.014
 31
0.0
  0
LINE
  5
3BA
  8
0
  6
CONTINUOUS
 62
    21
 10
481.57
 20
154.814
 30
0.0
 11
464.665
 21
154.814
 31
0.0
  0
LINE
  5
3BB
  8
0
  6
CONTINUOUS
 62
    21
 10
486.505
 20
154.814
 30
0.0
 11
481.57
 21
154.814
 31
0.0
  0
LINE
  5
3BC
  8
0
  6
CONTINUOUS
 62
    21
 10
489.505
 20
154.814
 30
0.0
 11
492.505
 21
154.814
 31
0.0
  0
LINE
  5
3BD
  8
0
  6
CONTINUOUS
 62
    21
 10
478.57
 20
154.814
 30
0.0
 11
475.57
 21
154.814
 31
0.0
  0
SOLID
  5
3BE
  8
0
 62
    21
 10
489.505
 20
155.314
 30
0.0
 11
489.505
 21
154.314
 31
0.0
 12
486.505
 22
154.814
 32
0.0
 13
486.505
 23
154.814
 33
0.0
  0
SOLID
  5
3BF
  8
0
 62
    21
 10
478.57
 20
154.314
 30
0.0
 11
478.57
 21
155.314
 31
0.0
 12
481.57
 22
154.814
 32
0.0
 13
481.57
 23
154.814
 33
0.0
  0
TEXT
  5
3C0
  8
0
  6
CONTINUOUS
 62
    21
 10
466.111
 20
156.371
 30
0.0
 40
3.0
  1
4.93
  7
STEFANO
  0
POINT
  5
3C1
  8
DEFPOINTS
 62
     0
 10
486.505
 20
85.614
 30
0.0
  0
POINT
  5
3C2
  8
DEFPOINTS
 62
     0
 10
481.57
 20
145.714
 30
0.0
  0
POINT
  5
3C3
  8
DEFPOINTS
 62
     0
 10
481.57
 20
154.814
 30
0.0
  0
ENDBLK
  5
3B7
  8
0
  0
BLOCK
  8
0
  2
*D55
 70
     1
 10
0.0
 20
0.0
 30
0.0
  3
*D55
  1

  0
LINE
  5
3C8
  8
0
  6
CONTINUOUS
 62
    21
 10
486.505
 20
86.514
 30
0.0
 11
486.505
 21
165.014
 31
0.0
  0
LINE
  5
3C9
  8
0
  6
CONTINUOUS
 62
    21
 10
491.439
 20
146.614
 30
0.0
 11
491.439
 21
165.014
 31
0.0
  0
LINE
  5
3CA
  8
0
  6
CONTINUOUS
 62
    21
 10
486.505
 20
163.814
 30
0.0
 11
469.6
 21
163.814
 31
0.0
  0
LINE
  5
3CB
  8
0
  6
CONTINUOUS
 62
    21
 10
486.505
 20
163.814
 30
0.0
 11
491.439
 21
163.814
 31
0.0
  0
LINE
  5
3CC
  8
0
  6
CONTINUOUS
 62
    21
 10
483.505
 20
163.814
 30
0.0
 11
480.505
 21
163.814
 31
0.0
  0
LINE
  5
3CD
  8
0
  6
CONTINUOUS
 62
    21
 10
494.439
 20
163.814
 30
0.0
 11
497.439
 21
163.814
 31
0.0
  0
SOLID
  5
3CE
  8
0
 62
    21
 10
483.505
 20
163.314
 30
0.0
 11
483.505
 21
164.314
 31
0.0
 12
486.505
 22
163.814
 32
0.0
 13
486.505
 23
163.814
 33
0.0
  0
SOLID
  5
3CF
  8
0
 62
    21
 10
494.439
 20
164.314
 30
0.0
 11
494.439
 21
163.314
 31
0.0
 12
491.439
 22
163.814
 32
0.0
 13
491.439
 23
163.814
 33
0.0
  0
TEXT
  5
3D0
  8
0
  6
CONTINUOUS
 62
    21
 10
471.046
 20
165.371
 30
0.0
 40
3.0
  1
4.93
  7
STEFANO
  0
POINT
  5
3D1
  8
DEFPOINTS
 62
     0
 10
486.505
 20
85.614
 30
0.0
  0
POINT
  5
3D2
  8
DEFPOINTS
 62
     0
 10
491.439
 20
145.714
 30
0.0
  0
POINT
  5
3D3
  8
DEFPOINTS
 62
     0
 10
491.439
 20
163.814
 30
0.0
  0
ENDBLK
  5
3C7
  8
0
  0
BLOCK
  8
0
  2
*D56
 70
     1
 10
0.0
 20
0.0
 30
0.0
  3
*D56
  1

  0
LINE
  5
3D8
  8
0
  6
CONTINUOUS
 62
    21
 10
478.268
 20
117.05
 30
0.0
 11
453.571
 21
141.748
 31
0.0
  0
LINE
  5
3D9
  8
0
  6
CONTINUOUS
 62
    21
 10
478.268
 20
113.577
 30
0.0
 11
453.57
 21
88.88
 31
0.0
  0
ARC
  5
3DA
  8
0
  6
CONTINUOUS
 62
    21
 10
480.005
 20
115.314
 30
0.0
 40
36.18337107893537
 50
139.752
 51
220.248
  0
SOLID
  5
3DB
  8
0
 62
    21
 10
452.755
 20
138.353
 30
0.0
 11
452.02
 21
139.03
 31
0.0
 12
454.419
 22
140.899
 32
0.0
 13
454.419
 23
140.899
 33
0.0
  0
SOLID
  5
3DC
  8
0
 62
    21
 10
452.02
 20
91.597
 30
0.0
 11
452.755
 21
92.274
 31
0.0
 12
454.419
 22
89.728
 32
0.0
 13
454.419
 23
89.728
 33
0.0
  0
TEXT
  5
3DD
  8
0
  6
CONTINUOUS
 62
    21
 10
442.27
 20
112.999
 30
0.0
 40
3.0
  1
90
 50
90.0
  7
STEFANO
  0
POINT
  5
3DE
  8
DEFPOINTS
 62
     0
 10
445.054
 20
124.679
 30
0.0
  0
POINT
  5
3DF
  8
DEFPOINTS
 62
     0
 10
478.905
 20
114.214
 30
0.0
  0
POINT
  5
3E0
  8
DEFPOINTS
 62
     0
 10
478.905
 20
116.414
 30
0.0
  0
POINT
  5
3E1
  8
DEFPOINTS
 62
     0
 10
480.005
 20
115.314
 30
0.0
  0
POINT
  5
3E2
  8
DEFPOINTS
 62
     0
 10
480.005
 20
115.314
 30
0.0
  0
ENDBLK
  5
3D7
  8
0
  0
BLOCK
  8
0
  2
*D57
 70
     1
 10
0.0
 20
0.0
 30
0.0
  3
*D57
  1

  0
LINE
  5
3E7
  8
0
  6
CONTINUOUS
 62
    21
 10
480.641
 20
115.95
 30
0.0
 11
486.991
 21
122.3
 31
0.0
  0
ARC
  5
3E8
  8
0
  6
CONTINUOUS
 62
    21
 10
478.905
 20
114.214
 30
0.0
 40
10.23593758186698
 50
286.853
 51
28.147
  0
SOLID
  5
3E9
  8
0
 62
    21
 10
481.799
 20
104.912
 30
0.0
 11
481.945
 21
103.923
 31
0.0
 12
478.905
 22
103.978
 32
0.0
 13
478.905
 23
103.978
 33
0.0
  0
SOLID
  5
3EA
  8
0
 62
    21
 10
488.332
 20
119.34
 30
0.0
 11
487.528
 21
118.744
 31
0.0
 12
486.142
 22
121.451
 32
0.0
 13
486.142
 23
121.451
 33
0.0
  0
TEXT
  5
3EB
  8
0
  6
CONTINUOUS
 62
    21
 10
485.537
 20
107.531
 30
0.0
 40
3.0
  1
135
 50
67.5
  7
STEFANO
  0
POINT
  5
3EC
  8
DEFPOINTS
 62
     0
 10
486.142
 20
106.976
 30
0.0
  0
POINT
  5
3ED
  8
DEFPOINTS
 62
     0
 10
480.005
 20
115.314
 30
0.0
  0
POINT
  5
3EE
  8
DEFPOINTS
 62
     0
 10
478.905
 20
100.914
 30
0.0
  0
POINT
  5
3EF
  8
DEFPOINTS
 62
     0
 10
478.905
 20
114.214
 30
0.0
  0
POINT
  5
3F0
  8
DEFPOINTS
 62
     0
 10
478.905
 20
114.214
 30
0.0
  0
ENDBLK
  5
3E6
  8
0
  0
BLOCK
  8
0
  2
*D58
 70
     1
 10
0.0
 20
0.0
 30
0.0
  3
*D58
  1

  0
LINE
  5
3F7
  8
0
  6
CONTINUOUS
 62
    21
 10
645.995
 20
60.93
 30
0.0
 11
642.046
 21
67.228
 31
0.0
  0
LINE
  5
3F8
  8
0
  6
CONTINUOUS
 62
    21
 10
651.078
 20
63.217
 30
0.0
 11
651.078
 21
56.917
 31
0.0
  0
LINE
  5
3F9
  8
0
  6
CONTINUOUS
 62
    21
 10
652.015
 20
63.181
 30
0.0
 11
656.17
 21
59.026
 31
0.0
  0
ARC
  5
3FA
  8
0
  6
CONTINUOUS
 62
    21
 10
651.078
 20
64.117
 30
0.0
 40
6.000002473331493
 50
212.09
 51
241.045
  0
ARC
  5
3FB
  8
0
  6
CONTINUOUS
 62
    21
 10
651.078
 20
64.117
 30
0.0
 40
6.000002473331493
 50
343.959
 51
12.914
  0
ARC
  5
3FC
  8
0
  6
CONTINUOUS
 62
    21
 10
651.078
 20
64.117
 30
0.0
 40
6.000002473331493
 50
270.0
 51
315.004
  0
SOLID
  5
3FD
  8
0
 62
    21
 10
648.049
 20
58.383
 30
0.0
 11
648.299
 21
59.351
 31
0.0
 12
651.078
 22
58.117
 32
0.0
 13
651.078
 23
58.117
 33
0.0
  0
SOLID
  5
3FE
  8
0
 62
    21
 10
656.414
 20
62.713
 30
0.0
 11
657.275
 21
62.205
 31
0.0
 12
655.321
 22
59.875
 32
0.0
 13
655.321
 23
59.875
 33
0.0
  0
TEXT
  5
3FF
  8
0
  6
CONTINUOUS
 62
    21
 10
644.128
 20
66.827
 30
0.0
 40
3.0
  1
45
 50
302.09
  7
STEFANO
  0
POINT
  5
400
  8
DEFPOINTS
 62
     0
 10
654.079
 20
58.921
 30
0.0
  0
POINT
  5
401
  8
DEFPOINTS
 62
     0
 10
651.378
 20
63.817
 30
0.0
  0
POINT
  5
402
  8
DEFPOINTS
 62
     0
 10
651.078
 20
64.117
 30
0.0
  0
POINT
  5
403
  8
DEFPOINTS
 62
     0
 10
651.078
 20
70.767
 30
0.0
  0
POINT
  5
404
  8
DEFPOINTS
 62
     0
 10
651.078
 20
64.117
 30
0.0
  0
ENDBLK
  5
3F6
  8
0
  0
BLOCK
  8
0
  2
*D59
 70
     1
 10
0.0
 20
0.0
 30
0.0
  3
*D59
  1

  0
LINE
  5
409
  8
0
  6
CONTINUOUS
 62
    21
 10
652.83
 20
65.457
 30
0.0
 11
654.491
 21
72.704
 31
0.0
  0
LINE
  5
40A
  8
0
  6
CONTINUOUS
 62
    21
 10
657.742
 20
63.181
 30
0.0
 11
653.587
 21
59.026
 31
0.0
  0
LINE
  5
40B
  8
0
  6
CONTINUOUS
 62
    21
 10
658.678
 20
63.217
 30
0.0
 11
658.678
 21
56.917
 31
0.0
  0
ARC
  5
40C
  8
0
  6
CONTINUOUS
 62
    21
 10
658.678
 20
64.117
 30
0.0
 40
6.000002473331535
 50
167.091
 51
196.046
  0
ARC
  5
40D
  8
0
  6
CONTINUOUS
 62
    21
 10
658.678
 20
64.117
 30
0.0
 40
6.000002473331535
 50
298.955
 51
327.91
  0
ARC
  5
40E
  8
0
  6
CONTINUOUS
 62
    21
 10
658.678
 20
64.117
 30
0.0
 40
6.000002473331535
 50
225.001
 51
270.0
  0
SOLID
  5
40F
  8
0
 62
    21
 10
652.481
 20
62.205
 30
0.0
 11
653.343
 21
62.712
 31
0.0
 12
654.436
 22
59.874
 32
0.0
 13
654.436
 23
59.874
 33
0.0
  0
SOLID
  5
410
  8
0
 62
    21
 10
661.458
 20
59.351
 30
0.0
 11
661.708
 21
58.383
 31
0.0
 12
658.678
 22
58.117
 32
0.0
 13
658.678
 23
58.117
 33
0.0
  0
TEXT
  5
411
  8
0
  6
CONTINUOUS
 62
    21
 10
655.679
 20
70.948
 30
0.0
 40
3.0
  1
45
 50
257.091
  7
STEFANO
  0
POINT
  5
412
  8
DEFPOINTS
 62
     0
 10
657.125
 20
58.321
 30
0.0
  0
POINT
  5
413
  8
DEFPOINTS
 62
     0
 10
658.678
 20
64.117
 30
0.0
  0
POINT
  5
414
  8
DEFPOINTS
 62
     0
 10
658.378
 20
63.817
 30
0.0
  0
POINT
  5
415
  8
DEFPOINTS
 62
     0
 10
658.678
 20
64.117
 30
0.0
  0
POINT
  5
416
  8
DEFPOINTS
 62
     0
 10
658.678
 20
86.067
 30
0.0
  0
ENDBLK
  5
408
  8
0
  0
BLOCK
  8
0
  2
*D60
 70
     1
 10
0.0
 20
0.0
 30
0.0
  3
*D60
  1

  0
LINE
  5
41B
  8
0
  6
CONTINUOUS
 62
    21
 10
650.628
 20
86.517
 30
0.0
 11
634.802
 21
86.517
 31
0.0
  0
LINE
  5
41C
  8
0
  6
CONTINUOUS
 62
    21
 10
650.442
 20
85.431
 30
0.0
 11
639.701
 21
74.69
 31
0.0
  0
ARC
  5
41D
  8
0
  6
CONTINUOUS
 62
    21
 10
651.528
 20
86.517
 30
0.0
 40
15.52662021985302
 50
157.824
 51
168.912
  0
ARC
  5
41E
  8
0
  6
CONTINUOUS
 62
    21
 10
651.528
 20
86.517
 30
0.0
 40
15.52662021985302
 50
236.087
 51
247.175
  0
ARC
  5
41F
  8
0
  6
CONTINUOUS
 62
    21
 10
651.528
 20
86.517
 30
0.0
 40
15.52662021985302
 50
180.0
 51
225.0
  0
SOLID
  5
420
  8
0
 62
    21
 10
635.794
 20
89.551
 30
0.0
 11
636.789
 21
89.455
 31
0.0
 12
636.002
 22
86.517
 32
0.0
 13
636.002
 23
86.517
 33
0.0
  0
SOLID
  5
421
  8
0
 62
    21
 10
643.183
 20
74.018
 30
0.0
 11
642.548
 21
73.246
 31
0.0
 12
640.549
 22
75.538
 32
0.0
 13
640.549
 23
75.538
 33
0.0
  0
TEXT
  5
422
  8
0
  6
CONTINUOUS
 62
    21
 10
637.747
 20
83.267
 30
0.0
 40
3.0
  1
45
 50
292.5
  7
STEFANO
  0
POINT
  5
423
  8
DEFPOINTS
 62
     0
 10
636.531
 20
82.498
 30
0.0
  0
POINT
  5
424
  8
DEFPOINTS
 62
     0
 10
651.078
 20
86.067
 30
0.0
  0
POINT
  5
425
  8
DEFPOINTS
 62
     0
 10
651.528
 20
86.517
 30
0.0
  0
POINT
  5
426
  8
DEFPOINTS
 62
     0
 10
652.411
 20
86.517
 30
0.0
  0
POINT
  5
427
  8
DEFPOINTS
 62
     0
 10
651.528
 20
86.517
 30
0.0
  0
ENDBLK
  5
41A
  8
0
  0
BLOCK
  8
0
  2
*D61
 70
     1
 10
0.0
 20
0.0
 30
0.0
  3
*D61
  1

  0
LINE
  5
42C
  8
0
  6
CONTINUOUS
 62
    21
 10
662.156
 20
78.406
 30
0.0
 11
655.465
 21
75.166
 31
0.0
  0
LINE
  5
42D
  8
0
  6
CONTINUOUS
 62
    21
 10
659.315
 20
85.431
 30
0.0
 11
665.45
 21
79.296
 31
0.0
  0
LINE
  5
42E
  8
0
  6
CONTINUOUS
 62
    21
 10
659.128
 20
86.517
 30
0.0
 11
668.441
 21
86.517
 31
0.0
  0
ARC
  5
42F
  8
0
  6
CONTINUOUS
 62
    21
 10
658.228
 20
86.517
 30
0.0
 40
9.012277610533122
 50
295.839
 51
315.0
  0
ARC
  5
430
  8
0
  6
CONTINUOUS
 62
    21
 10
658.228
 20
86.517
 30
0.0
 40
9.012277610533122
 50
334.162
 51
340.838
  0
SOLID
  5
431
  8
0
 62
    21
 10
665.932
 20
82.879
 30
0.0
 11
666.747
 21
82.299
 31
0.0
 12
664.601
 22
80.144
 32
0.0
 13
664.601
 23
80.144
 33
0.0
  0
SOLID
  5
432
  8
0
 62
    21
 10
667.234
 20
83.476
 30
0.0
 11
666.248
 21
83.642
 31
0.0
 12
667.241
 22
86.517
 32
0.0
 13
667.241
 23
86.517
 33
0.0
  0
TEXT
  5
433
  8
0
  6
CONTINUOUS
 62
    21
 10
656.091
 20
77.192
 30
0.0
 40
3.0
  1
45
 50
25.839
  7
STEFANO
  0
POINT
  5
434
  8
DEFPOINTS
 62
     0
 10
666.934
 20
84.185
 30
0.0
  0
POINT
  5
435
  8
DEFPOINTS
 62
     0
 10
658.228
 20
86.517
 30
0.0
  0
POINT
  5
436
  8
DEFPOINTS
 62
     0
 10
658.678
 20
86.067
 30
0.0
  0
POINT
  5
437
  8
DEFPOINTS
 62
     0
 10
658.228
 20
86.517
 30
0.0
  0
POINT
  5
438
  8
DEFPOINTS
 62
     0
 10
657.346
 20
86.517
 30
0.0
  0
ENDBLK
  5
42B
  8
0
  0
BLOCK
  8
0
  2
*D62
 70
     1
 10
0.0
 20
0.0
 30
0.0
  3
*D62
  1

  0
LINE
  5
43D
  8
0
  6
CONTINUOUS
 62
    21
 10
646.195
 20
53.48
 30
0.0
 11
642.246
 21
59.778
 31
0.0
  0
LINE
  5
43E
  8
0
  6
CONTINUOUS
 62
    21
 10
651.278
 20
55.767
 30
0.0
 11
651.278
 21
49.467
 31
0.0
  0
LINE
  5
43F
  8
0
  6
CONTINUOUS
 62
    21
 10
652.415
 20
55.531
 30
0.0
 11
656.369
 21
51.576
 31
0.0
  0
ARC
  5
440
  8
0
  6
CONTINUOUS
 62
    21
 10
651.278
 20
56.667
 30
0.0
 40
6.000004685386268
 50
212.09
 51
241.045
  0
ARC
  5
441
  8
0
  6
CONTINUOUS
 62
    21
 10
651.278
 20
56.667
 30
0.0
 40
6.000004685386268
 50
343.955
 51
12.91
  0
ARC
  5
442
  8
0
  6
CONTINUOUS
 62
    21
 10
651.278
 20
56.667
 30
0.0
 40
6.000004685386268
 50
270.0
 51
315.0
  0
SOLID
  5
443
  8
0
 62
    21
 10
648.249
 20
50.933
 30
0.0
 11
648.499
 21
51.901
 31
0.0
 12
651.278
 22
50.667
 32
0.0
 13
651.278
 23
50.667
 33
0.0
  0
SOLID
  5
444
  8
0
 62
    21
 10
656.614
 20
55.263
 30
0.0
 11
657.475
 21
54.755
 31
0.0
 12
655.521
 22
52.424
 32
0.0
 13
655.521
 23
52.424
 33
0.0
  0
TEXT
  5
445
  8
0
  6
CONTINUOUS
 62
    21
 10
644.328
 20
59.377
 30
0.0
 40
3.0
  1
45
 50
302.09
  7
STEFANO
  0
POINT
  5
446
  8
DEFPOINTS
 62
     0
 10
654.278
 20
51.471
 30
0.0
  0
POINT
  5
447
  8
DEFPOINTS
 62
     0
 10
651.778
 20
56.167
 30
0.0
  0
POINT
  5
448
  8
DEFPOINTS
 62
     0
 10
651.278
 20
56.667
 30
0.0
  0
POINT
  5
449
  8
DEFPOINTS
 62
     0
 10
651.278
 20
63.817
 30
0.0
  0
POINT
  5
44A
  8
DEFPOINTS
 62
     0
 10
651.278
 20
56.667
 30
0.0
  0
ENDBLK
  5
43C
  8
0
  0
BLOCK
  8
0
  2
*D63
 70
     1
 10
0.0
 20
0.0
 30
0.0
  3
*D63
  1

  0
LINE
  5
44F
  8
0
  6
CONTINUOUS
 62
    21
 10
652.63
 20
58.008
 30
0.0
 11
654.291
 21
65.254
 31
0.0
  0
LINE
  5
450
  8
0
  6
CONTINUOUS
 62
    21
 10
657.342
 20
55.531
 30
0.0
 11
653.387
 21
51.576
 31
0.0
  0
LINE
  5
451
  8
0
  6
CONTINUOUS
 62
    21
 10
658.478
 20
55.767
 30
0.0
 11
658.478
 21
49.467
 31
0.0
  0
ARC
  5
452
  8
0
  6
CONTINUOUS
 62
    21
 10
658.478
 20
56.667
 30
0.0
 40
6.000004685386232
 50
167.09
 51
196.045
  0
ARC
  5
453
  8
0
  6
CONTINUOUS
 62
    21
 10
658.478
 20
56.667
 30
0.0
 40
6.000004685386232
 50
298.955
 51
327.91
  0
ARC
  5
454
  8
0
  6
CONTINUOUS
 62
    21
 10
658.478
 20
56.667
 30
0.0
 40
6.000004685386232
 50
225.0
 51
270.0
  0
SOLID
  5
455
  8
0
 62
    21
 10
652.281
 20
54.755
 30
0.0
 11
653.143
 21
55.263
 31
0.0
 12
654.236
 22
52.424
 32
0.0
 13
654.236
 23
52.424
 33
0.0
  0
SOLID
  5
456
  8
0
 62
    21
 10
661.258
 20
51.901
 30
0.0
 11
661.508
 21
50.933
 31
0.0
 12
658.478
 22
50.667
 32
0.0
 13
658.478
 23
50.667
 33
0.0
  0
TEXT
  5
457
  8
0
  6
CONTINUOUS
 62
    21
 10
655.48
 20
63.498
 30
0.0
 40
3.0
  1
45
 50
257.09
  7
STEFANO
  0
POINT
  5
458
  8
DEFPOINTS
 62
     0
 10
656.925
 20
50.871
 30
0.0
  0
POINT
  5
459
  8
DEFPOINTS
 62
     0
 10
658.478
 20
56.667
 30
0.0
  0
POINT
  5
45A
  8
DEFPOINTS
 62
     0
 10
657.978
 20
56.167
 30
0.0
  0
POINT
  5
45B
  8
DEFPOINTS
 62
     0
 10
658.478
 20
56.667
 30
0.0
  0
POINT
  5
45C
  8
DEFPOINTS
 62
     0
 10
658.478
 20
63.817
 30
0.0
  0
ENDBLK
  5
44E
  8
0
  0
BLOCK
  8
0
  2
*D64
 70
     1
 10
0.0
 20
0.0
 30
0.0
  3
*D64
  1

  0
LINE
  5
461
  8
0
  6
CONTINUOUS
 62
    21
 10
651.278
 20
62.917
 30
0.0
 11
651.278
 21
37.017
 31
0.0
  0
LINE
  5
462
  8
0
  6
CONTINUOUS
 62
    21
 10
654.878
 20
55.567
 30
0.0
 11
654.878
 21
37.017
 31
0.0
  0
LINE
  5
463
  8
0
  6
CONTINUOUS
 62
    21
 10
651.278
 20
38.217
 30
0.0
 11
636.878
 21
38.217
 31
0.0
  0
LINE
  5
464
  8
0
  6
CONTINUOUS
 62
    21
 10
651.278
 20
38.217
 30
0.0
 11
654.878
 21
38.217
 31
0.0
  0
LINE
  5
465
  8
0
  6
CONTINUOUS
 62
    21
 10
648.278
 20
38.217
 30
0.0
 11
645.278
 21
38.217
 31
0.0
  0
LINE
  5
466
  8
0
  6
CONTINUOUS
 62
    21
 10
657.878
 20
38.217
 30
0.0
 11
660.878
 21
38.217
 31
0.0
  0
SOLID
  5
467
  8
0
 62
    21
 10
648.278
 20
37.717
 30
0.0
 11
648.278
 21
38.717
 31
0.0
 12
651.278
 22
38.217
 32
0.0
 13
651.278
 23
38.217
 33
0.0
  0
SOLID
  5
468
  8
0
 62
    21
 10
657.878
 20
38.717
 30
0.0
 11
657.878
 21
37.717
 31
0.0
 12
654.878
 22
38.217
 32
0.0
 13
654.878
 23
38.217
 33
0.0
  0
TEXT
  5
469
  8
0
  6
CONTINUOUS
 62
    21
 10
638.18
 20
39.723
 30
0.0
 40
3.0
  1
7.2
  7
STEFANO
  0
POINT
  5
46A
  8
DEFPOINTS
 62
     0
 10
651.278
 20
63.817
 30
0.0
  0
POINT
  5
46B
  8
DEFPOINTS
 62
     0
 10
654.878
 20
56.467
 30
0.0
  0
POINT
  5
46C
  8
DEFPOINTS
 62
     0
 10
654.878
 20
38.217
 30
0.0
  0
ENDBLK
  5
460
  8
0
  0
BLOCK
  8
0
  2
*D65
 70
     1
 10
0.0
 20
0.0
 30
0.0
  3
*D65
  1

  0
LINE
  5
471
  8
0
  6
CONTINUOUS
 62
    21
 10
658.478
 20
55.767
 30
0.0
 11
658.478
 21
37.017
 31
0.0
  0
LINE
  5
472
  8
0
  6
CONTINUOUS
 62
    21
 10
654.878
 20
55.567
 30
0.0
 11
654.878
 21
37.017
 31
0.0
  0
LINE
  5
473
  8
0
  6
CONTINUOUS
 62
    21
 10
658.478
 20
38.217
 30
0.0
 11
672.878
 21
38.217
 31
0.0
  0
LINE
  5
474
  8
0
  6
CONTINUOUS
 62
    21
 10
658.478
 20
38.217
 30
0.0
 11
654.878
 21
38.217
 31
0.0
  0
LINE
  5
475
  8
0
  6
CONTINUOUS
 62
    21
 10
661.478
 20
38.217
 30
0.0
 11
664.478
 21
38.217
 31
0.0
  0
LINE
  5
476
  8
0
  6
CONTINUOUS
 62
    21
 10
651.878
 20
38.217
 30
0.0
 11
648.878
 21
38.217
 31
0.0
  0
SOLID
  5
477
  8
0
 62
    21
 10
661.478
 20
38.717
 30
0.0
 11
661.478
 21
37.717
 31
0.0
 12
658.478
 22
38.217
 32
0.0
 13
658.478
 23
38.217
 33
0.0
  0
SOLID
  5
478
  8
0
 62
    21
 10
651.878
 20
37.717
 30
0.0
 11
651.878
 21
38.717
 31
0.0
 12
654.878
 22
38.217
 32
0.0
 13
654.878
 23
38.217
 33
0.0
  0
TEXT
  5
479
  8
0
  6
CONTINUOUS
 62
    21
 10
665.78
 20
39.723
 30
0.0
 40
3.0
  1
7.2
  7
STEFANO
  0
POINT
  5
47A
  8
DEFPOINTS
 62
     0
 10
658.478
 20
56.667
 30
0.0
  0
POINT
  5
47B
  8
DEFPOINTS
 62
     0
 10
654.878
 20
56.467
 30
0.0
  0
POINT
  5
47C
  8
DEFPOINTS
 62
     0
 10
654.878
 20
38.217
 30
0.0
  0
ENDBLK
  5
470
  8
0
  0
BLOCK
  8
0
  2
*D66
 70
     1
 10
0.0
 20
0.0
 30
0.0
  3
*D66
  1

  0
LINE
  5
481
  8
0
  6
CONTINUOUS
 62
    21
 10
651.078
 20
86.967
 30
0.0
 11
651.078
 21
114.767
 31
0.0
  0
LINE
  5
482
  8
0
  6
CONTINUOUS
 62
    21
 10
654.878
 20
57.367
 30
0.0
 11
654.878
 21
114.767
 31
0.0
  0
LINE
  5
483
  8
0
  6
CONTINUOUS
 62
    21
 10
651.078
 20
113.567
 30
0.0
 11
636.645
 21
113.567
 31
0.0
  0
LINE
  5
484
  8
0
  6
CONTINUOUS
 62
    21
 10
651.078
 20
113.567
 30
0.0
 11
654.878
 21
113.567
 31
0.0
  0
LINE
  5
485
  8
0
  6
CONTINUOUS
 62
    21
 10
648.078
 20
113.567
 30
0.0
 11
645.078
 21
113.567
 31
0.0
  0
LINE
  5
486
  8
0
  6
CONTINUOUS
 62
    21
 10
657.878
 20
113.567
 30
0.0
 11
660.878
 21
113.567
 31
0.0
  0
SOLID
  5
487
  8
0
 62
    21
 10
648.078
 20
113.067
 30
0.0
 11
648.078
 21
114.067
 31
0.0
 12
651.078
 22
113.567
 32
0.0
 13
651.078
 23
113.567
 33
0.0
  0
SOLID
  5
488
  8
0
 62
    21
 10
657.878
 20
114.067
 30
0.0
 11
657.878
 21
113.067
 31
0.0
 12
654.878
 22
113.567
 32
0.0
 13
654.878
 23
113.567
 33
0.0
  0
TEXT
  5
489
  8
0
  6
CONTINUOUS
 62
    21
 10
637.947
 20
115.124
 30
0.0
 40
3.0
  1
7.6
  7
STEFANO
  0
POINT
  5
48A
  8
DEFPOINTS
 62
     0
 10
651.078
 20
86.067
 30
0.0
  0
POINT
  5
48B
  8
DEFPOINTS
 62
     0
 10
654.878
 20
56.467
 30
0.0
  0
POINT
  5
48C
  8
DEFPOINTS
 62
     0
 10
654.878
 20
113.567
 30
0.0
  0
ENDBLK
  5
480
  8
0
  0
BLOCK
  8
0
  2
*D67
 70
     1
 10
0.0
 20
0.0
 30
0.0
  3
*D67
  1

  0
LINE
  5
491
  8
0
  6
CONTINUOUS
 62
    21
 10
658.678
 20
65.017
 30
0.0
 11
658.678
 21
114.692
 31
0.0
  0
LINE
  5
492
  8
0
  6
CONTINUOUS
 62
    21
 10
654.878
 20
57.367
 30
0.0
 11
654.878
 21
114.692
 31
0.0
  0
LINE
  5
493
  8
0
  6
CONTINUOUS
 62
    21
 10
654.878
 20
113.492
 30
0.0
 11
640.445
 21
113.492
 31
0.0
  0
LINE
  5
494
  8
0
  6
CONTINUOUS
 62
    21
 10
658.678
 20
113.492
 30
0.0
 11
654.878
 21
113.492
 31
0.0
  0
LINE
  5
495
  8
0
  6
CONTINUOUS
 62
    21
 10
661.678
 20
113.492
 30
0.0
 11
664.678
 21
113.492
 31
0.0
  0
LINE
  5
496
  8
0
  6
CONTINUOUS
 62
    21
 10
651.878
 20
113.492
 30
0.0
 11
648.878
 21
113.492
 31
0.0
  0
SOLID
  5
497
  8
0
 62
    21
 10
661.678
 20
113.992
 30
0.0
 11
661.678
 21
112.992
 31
0.0
 12
658.678
 22
113.492
 32
0.0
 13
658.678
 23
113.492
 33
0.0
  0
SOLID
  5
498
  8
0
 62
    21
 10
651.878
 20
112.992
 30
0.0
 11
651.878
 21
113.992
 31
0.0
 12
654.878
 22
113.492
 32
0.0
 13
654.878
 23
113.492
 33
0.0
  0
TEXT
  5
499
  8
0
  6
CONTINUOUS
 62
    21
 10
641.747
 20
115.049
 30
0.0
 40
3.0
  1
7.6
  7
STEFANO
  0
POINT
  5
49A
  8
DEFPOINTS
 62
     0
 10
658.678
 20
64.117
 30
0.0
  0
POINT
  5
49B
  8
DEFPOINTS
 62
     0
 10
654.878
 20
56.467
 30
0.0
  0
POINT
  5
49C
  8
DEFPOINTS
 62
     0
 10
654.878
 20
113.492
 30
0.0
  0
ENDBLK
  5
490
  8
0
  0
BLOCK
  8
0
  2
*D68
 70
     1
 10
0.0
 20
0.0
 30
0.0
  3
*D68
  1

  0
LINE
  5
4A1
  8
0
  6
CONTINUOUS
 62
    21
 10
650.478
 20
63.817
 30
0.0
 11
622.803
 21
63.817
 31
0.0
  0
LINE
  5
4A2
  8
0
  6
CONTINUOUS
 62
    21
 10
650.728
 20
71.317
 30
0.0
 11
622.803
 21
71.317
 31
0.0
  0
LINE
  5
4A3
  8
0
  6
CONTINUOUS
 62
    21
 10
624.003
 20
63.817
 30
0.0
 11
624.003
 21
50.785
 31
0.0
  0
LINE
  5
4A4
  8
0
  6
CONTINUOUS
 62
    21
 10
624.003
 20
63.817
 30
0.0
 11
624.003
 21
71.317
 31
0.0
  0
LINE
  5
4A5
  8
0
  6
CONTINUOUS
 62
    21
 10
624.003
 20
60.817
 30
0.0
 11
624.003
 21
57.817
 31
0.0
  0
LINE
  5
4A6
  8
0
  6
CONTINUOUS
 62
    21
 10
624.003
 20
74.317
 30
0.0
 11
624.003
 21
77.317
 31
0.0
  0
SOLID
  5
4A7
  8
0
 62
    21
 10
624.503
 20
60.817
 30
0.0
 11
623.503
 21
60.817
 31
0.0
 12
624.003
 22
63.817
 32
0.0
 13
624.003
 23
63.817
 33
0.0
  0
SOLID
  5
4A8
  8
0
 62
    21
 10
623.503
 20
74.317
 30
0.0
 11
624.503
 21
74.317
 31
0.0
 12
624.003
 22
71.317
 32
0.0
 13
624.003
 23
71.317
 33
0.0
  0
TEXT
  5
4A9
  8
0
  6
CONTINUOUS
 62
    21
 10
622.446
 20
51.829
 30
0.0
 40
3.0
  1
15
 50
90.0
  7
STEFANO
  0
POINT
  5
4AA
  8
DEFPOINTS
 62
     0
 10
651.378
 20
63.817
 30
0.0
  0
POINT
  5
4AB
  8
DEFPOINTS
 62
     0
 10
651.628
 20
71.317
 30
0.0
  0
POINT
  5
4AC
  8
DEFPOINTS
 62
     0
 10
624.003
 20
71.317
 30
0.0
  0
ENDBLK
  5
4A0
  8
0
  0
BLOCK
  8
0
  2
*D69
 70
     1
 10
0.0
 20
0.0
 30
0.0
  3
*D69
  1

  0
LINE
  5
4B1
  8
0
  6
CONTINUOUS
 62
    21
 10
650.178
 20
71.867
 30
0.0
 11
640.878
 21
71.867
 31
0.0
  0
LINE
  5
4B2
  8
0
  6
CONTINUOUS
 62
    21
 10
650.178
 20
70.767
 30
0.0
 11
640.878
 21
70.767
 31
0.0
  0
LINE
  5
4B3
  8
0
  6
CONTINUOUS
 62
    21
 10
642.078
 20
70.767
 30
0.0
 11
642.078
 21
56.292
 31
0.0
  0
LINE
  5
4B4
  8
0
  6
CONTINUOUS
 62
    21
 10
642.078
 20
71.867
 30
0.0
 11
642.078
 21
70.767
 31
0.0
  0
LINE
  5
4B5
  8
0
  6
CONTINUOUS
 62
    21
 10
642.078
 20
74.867
 30
0.0
 11
642.078
 21
77.867
 31
0.0
  0
LINE
  5
4B6
  8
0
  6
CONTINUOUS
 62
    21
 10
642.078
 20
67.767
 30
0.0
 11
642.078
 21
64.767
 31
0.0
  0
SOLID
  5
4B7
  8
0
 62
    21
 10
641.578
 20
74.867
 30
0.0
 11
642.578
 21
74.867
 31
0.0
 12
642.078
 22
71.867
 32
0.0
 13
642.078
 23
71.867
 33
0.0
  0
SOLID
  5
4B8
  8
0
 62
    21
 10
642.578
 20
67.767
 30
0.0
 11
641.578
 21
67.767
 31
0.0
 12
642.078
 22
70.767
 32
0.0
 13
642.078
 23
70.767
 33
0.0
  0
TEXT
  5
4B9
  8
0
  6
CONTINUOUS
 62
    21
 10
640.572
 20
57.669
 30
0.0
 40
3.0
  1
2.2
 50
90.0
  7
STEFANO
  0
POINT
  5
4BA
  8
DEFPOINTS
 62
     0
 10
651.078
 20
71.867
 30
0.0
  0
POINT
  5
4BB
  8
DEFPOINTS
 62
     0
 10
651.078
 20
70.767
 30
0.0
  0
POINT
  5
4BC
  8
DEFPOINTS
 62
     0
 10
642.078
 20
70.767
 30
0.0
  0
ENDBLK
  5
4B0
  8
0
  0
BLOCK
  8
0
  2
*D70
 70
     1
 10
0.0
 20
0.0
 30
0.0
  3
*D70
  1

  0
LINE
  5
4C1
  8
0
  6
CONTINUOUS
 62
    21
 10
654.878
 20
91.772
 30
0.0
 11
654.878
 21
108.589
 31
0.0
  0
LINE
  5
4C2
  8
0
  6
CONTINUOUS
 62
    21
 10
651.775
 20
87.153
 30
0.0
 11
637.527
 21
101.402
 31
0.0
  0
ARC
  5
4C3
  8
0
  6
CONTINUOUS
 62
    21
 10
654.878
 20
84.05
 30
0.0
 40
23.33911110559696
 50
97.37
 51
127.63
  0
SOLID
  5
4C4
  8
0
 62
    21
 10
651.917
 20
106.697
 30
0.0
 11
651.852
 21
107.695
 31
0.0
 12
654.878
 22
107.389
 32
0.0
 13
654.878
 23
107.389
 33
0.0
  0
SOLID
  5
4C5
  8
0
 62
    21
 10
640.298
 20
102.909
 30
0.0
 11
640.959
 21
102.158
 31
0.0
 12
638.375
 22
100.553
 32
0.0
 13
638.375
 23
100.553
 33
0.0
  0
TEXT
  5
4C6
  8
0
  6
CONTINUOUS
 62
    21
 10
643.255
 20
106.176
 30
0.0
 40
3.0
  1
45
 50
22.5
  7
STEFANO
  0
POINT
  5
4C7
  8
DEFPOINTS
 62
     0
 10
648.838
 20
106.594
 30
0.0
  0
POINT
  5
4C8
  8
DEFPOINTS
 62
     0
 10
652.411
 20
86.517
 30
0.0
  0
POINT
  5
4C9
  8
DEFPOINTS
 62
     0
 10
654.878
 20
90.872
 30
0.0
  0
POINT
  5
4CA
  8
DEFPOINTS
 62
     0
 10
654.878
 20
56.467
 30
0.0
  0
POINT
  5
4CB
  8
DEFPOINTS
 62
     0
 10
654.652
 20
84.277
 30
0.0
  0
ENDBLK
  5
4C0
  8
0
  0
BLOCK
  8
0
  2
*D71
 70
     1
 10
0.0
 20
0.0
 30
0.0
  3
*D71
  1

  0
LINE
  5
4D0
  8
0
  6
CONTINUOUS
 62
    21
 10
657.328
 20
86.517
 30
0.0
 11
601.503
 21
86.517
 31
0.0
  0
LINE
  5
4D1
  8
0
  6
CONTINUOUS
 62
    21
 10
657.578
 20
63.817
 30
0.0
 11
601.503
 21
63.817
 31
0.0
  0
LINE
  5
4D2
  8
0
  6
CONTINUOUS
 62
    21
 10
602.703
 20
83.517
 30
0.0
 11
602.703
 21
66.817
 31
0.0
  0
SOLID
  5
4D3
  8
0
 62
    21
 10
603.203
 20
83.517
 30
0.0
 11
602.203
 21
83.517
 31
0.0
 12
602.703
 22
86.517
 32
0.0
 13
602.703
 23
86.517
 33
0.0
  0
SOLID
  5
4D4
  8
0
 62
    21
 10
602.203
 20
66.817
 30
0.0
 11
603.203
 21
66.817
 31
0.0
 12
602.703
 22
63.817
 32
0.0
 13
602.703
 23
63.817
 33
0.0
  0
TEXT
  5
4D5
  8
0
  6
CONTINUOUS
 62
    21
 10
601.152
 20
71.167
 30
0.0
 40
3.0
  1
45.4
 50
90.0
  7
STEFANO
  0
POINT
  5
4D6
  8
DEFPOINTS
 62
     0
 10
658.228
 20
86.517
 30
0.0
  0
POINT
  5
4D7
  8
DEFPOINTS
 62
     0
 10
658.478
 20
63.817
 30
0.0
  0
POINT
  5
4D8
  8
DEFPOINTS
 62
     0
 10
602.703
 20
63.817
 30
0.0
  0
ENDBLK
  5
4CF
  8
0
  0
BLOCK
  8
0
  2
*D72
 70
     1
 10
0.0
 20
0.0
 30
0.0
  3
*D72
  1

  0
LINE
  5
4DD
  8
0
  6
CONTINUOUS
 62
    21
 10
657.578
 20
63.817
 30
0.0
 11
611.628
 21
63.817
 31
0.0
  0
LINE
  5
4DE
  8
0
  6
CONTINUOUS
 62
    21
 10
650.878
 20
56.167
 30
0.0
 11
611.628
 21
56.167
 31
0.0
  0
LINE
  5
4DF
  8
0
  6
CONTINUOUS
 62
    21
 10
612.828
 20
56.167
 30
0.0
 11
612.828
 21
39.664
 31
0.0
  0
LINE
  5
4E0
  8
0
  6
CONTINUOUS
 62
    21
 10
612.828
 20
63.817
 30
0.0
 11
612.828
 21
56.167
 31
0.0
  0
LINE
  5
4E1
  8
0
  6
CONTINUOUS
 62
    21
 10
612.828
 20
66.817
 30
0.0
 11
612.828
 21
69.817
 31
0.0
  0
LINE
  5
4E2
  8
0
  6
CONTINUOUS
 62
    21
 10
612.828
 20
53.167
 30
0.0
 11
612.828
 21
50.167
 31
0.0
  0
SOLID
  5
4E3
  8
0
 62
    21
 10
612.328
 20
66.817
 30
0.0
 11
613.328
 21
66.817
 31
0.0
 12
612.828
 22
63.817
 32
0.0
 13
612.828
 23
63.817
 33
0.0
  0
SOLID
  5
4E4
  8
0
 62
    21
 10
613.328
 20
53.167
 30
0.0
 11
612.328
 21
53.167
 31
0.0
 12
612.828
 22
56.167
 32
0.0
 13
612.828
 23
56.167
 33
0.0
  0
TEXT
  5
4E5
  8
0
  6
CONTINUOUS
 62
    21
 10
611.271
 20
40.708
 30
0.0
 40
3.0
  1
15.3
 50
90.0
  7
STEFANO
  0
POINT
  5
4E6
  8
DEFPOINTS
 62
     0
 10
658.478
 20
63.817
 30
0.0
  0
POINT
  5
4E7
  8
DEFPOINTS
 62
     0
 10
651.778
 20
56.167
 30
0.0
  0
POINT
  5
4E8
  8
DEFPOINTS
 62
     0
 10
612.828
 20
56.167
 30
0.0
  0
ENDBLK
  5
4DC
  8
0
  0
BLOCK
  8
0
  2
*D73
 70
     1
 10
0.0
 20
0.0
 30
0.0
  3
*D73
  1

  0
LINE
  5
4ED
  8
0
  6
CONTINUOUS
 62
    21
 10
657.982
 20
87.153
 30
0.0
 11
671.693
 21
100.865
 31
0.0
  0
LINE
  5
4EE
  8
0
  6
CONTINUOUS
 62
    21
 10
654.878
 20
91.772
 30
0.0
 11
654.878
 21
107.83
 31
0.0
  0
ARC
  5
4EF
  8
0
  6
CONTINUOUS
 62
    21
 10
654.878
 20
84.05
 30
0.0
 40
22.57991228551307
 50
52.618
 51
82.382
  0
SOLID
  5
4F0
  8
0
 62
    21
 10
668.258
 20
101.616
 30
0.0
 11
668.917
 21
102.368
 31
0.0
 12
670.845
 22
100.016
 32
0.0
 13
670.845
 23
100.016
 33
0.0
  0
SOLID
  5
4F1
  8
0
 62
    21
 10
657.905
 20
106.929
 30
0.0
 11
657.839
 21
105.932
 31
0.0
 12
654.878
 22
106.63
 32
0.0
 13
654.878
 23
106.63
 33
0.0
  0
TEXT
  5
4F2
  8
0
  6
CONTINUOUS
 62
    21
 10
662.015
 20
107.213
 30
0.0
 40
3.0
  1
45
 50
337.5
  7
STEFANO
  0
POINT
  5
4F3
  8
DEFPOINTS
 62
     0
 10
666.168
 20
103.605
 30
0.0
  0
POINT
  5
4F4
  8
DEFPOINTS
 62
     0
 10
654.878
 20
90.872
 30
0.0
  0
POINT
  5
4F5
  8
DEFPOINTS
 62
     0
 10
657.346
 20
86.517
 30
0.0
  0
POINT
  5
4F6
  8
DEFPOINTS
 62
     0
 10
655.105
 20
84.277
 30
0.0
  0
POINT
  5
4F7
  8
DEFPOINTS
 62
     0
 10
654.878
 20
56.467
 30
0.0
  0
ENDBLK
  5
4EC
  8
0
  0
BLOCK
  8
0
  2
*D74
 70
     1
 10
0.0
 20
0.0
 30
0.0
  3
*D74
  1

  0
LINE
  5
4FC
  8
0
  6
CONTINUOUS
 62
    21
 10
651.511
 20
86.517
 30
0.0
 11
631.003
 21
86.517
 31
0.0
  0
LINE
  5
4FD
  8
0
  6
CONTINUOUS
 62
    21
 10
650.178
 20
86.067
 30
0.0
 11
631.003
 21
86.067
 31
0.0
  0
LINE
  5
4FE
  8
0
  6
CONTINUOUS
 62
    21
 10
632.203
 20
86.517
 30
0.0
 11
632.203
 21
100.98
 31
0.0
  0
LINE
  5
4FF
  8
0
  6
CONTINUOUS
 62
    21
 10
632.203
 20
86.517
 30
0.0
 11
632.203
 21
86.067
 31
0.0
  0
LINE
  5
500
  8
0
  6
CONTINUOUS
 62
    21
 10
632.203
 20
89.517
 30
0.0
 11
632.203
 21
92.517
 31
0.0
  0
LINE
  5
501
  8
0
  6
CONTINUOUS
 62
    21
 10
632.203
 20
83.067
 30
0.0
 11
632.203
 21
80.067
 31
0.0
  0
SOLID
  5
502
  8
0
 62
    21
 10
631.703
 20
89.517
 30
0.0
 11
632.703
 21
89.517
 31
0.0
 12
632.203
 22
86.517
 32
0.0
 13
632.203
 23
86.517
 33
0.0
  0
SOLID
  5
503
  8
0
 62
    21
 10
632.703
 20
83.067
 30
0.0
 11
631.703
 21
83.067
 31
0.0
 12
632.203
 22
86.067
 32
0.0
 13
632.203
 23
86.067
 33
0.0
  0
TEXT
  5
504
  8
0
  6
CONTINUOUS
 62
    21
 10
630.646
 20
93.843
 30
0.0
 40
3.0
  1
0.9
 50
90.0
  7
STEFANO
  0
POINT
  5
505
  8
DEFPOINTS
 62
     0
 10
652.411
 20
86.517
 30
0.0
  0
POINT
  5
506
  8
DEFPOINTS
 62
     0
 10
651.078
 20
86.067
 30
0.0
  0
POINT
  5
507
  8
DEFPOINTS
 62
     0
 10
632.203
 20
86.067
 30
0.0
  0
ENDBLK
  5
4FB
  8
0
  0
BLOCK
  8
0
  2
*D75
 70
     1
 10
0.0
 20
0.0
 30
0.0
  3
*D75
  1

  0
LINE
  5
50C
  8
0
  6
CONTINUOUS
 62
    21
 10
657.328
 20
86.517
 30
0.0
 11
636.378
 21
86.517
 31
0.0
  0
LINE
  5
50D
  8
0
  6
CONTINUOUS
 62
    21
 10
657.778
 20
86.067
 30
0.0
 11
636.378
 21
86.067
 31
0.0
  0
LINE
  5
50E
  8
0
  6
CONTINUOUS
 62
    21
 10
637.578
 20
86.517
 30
0.0
 11
637.578
 21
100.98
 31
0.0
  0
LINE
  5
50F
  8
0
  6
CONTINUOUS
 62
    21
 10
637.578
 20
86.517
 30
0.0
 11
637.578
 21
86.067
 31
0.0
  0
LINE
  5
510
  8
0
  6
CONTINUOUS
 62
    21
 10
637.578
 20
89.517
 30
0.0
 11
637.578
 21
92.517
 31
0.0
  0
LINE
  5
511
  8
0
  6
CONTINUOUS
 62
    21
 10
637.578
 20
83.067
 30
0.0
 11
637.578
 21
80.067
 31
0.0
  0
SOLID
  5
512
  8
0
 62
    21
 10
637.078
 20
89.517
 30
0.0
 11
638.078
 21
89.517
 31
0.0
 12
637.578
 22
86.517
 32
0.0
 13
637.578
 23
86.517
 33
0.0
  0
SOLID
  5
513
  8
0
 62
    21
 10
638.078
 20
83.067
 30
0.0
 11
637.078
 21
83.067
 31
0.0
 12
637.578
 22
86.067
 32
0.0
 13
637.578
 23
86.067
 33
0.0
  0
TEXT
  5
514
  8
0
  6
CONTINUOUS
 62
    21
 10
636.021
 20
93.843
 30
0.0
 40
3.0
  1
0.9
 50
90.0
  7
STEFANO
  0
POINT
  5
515
  8
DEFPOINTS
 62
     0
 10
658.228
 20
86.517
 30
0.0
  0
POINT
  5
516
  8
DEFPOINTS
 62
     0
 10
658.678
 20
86.067
 30
0.0
  0
POINT
  5
517
  8
DEFPOINTS
 62
     0
 10
637.578
 20
86.067
 30
0.0
  0
ENDBLK
  5
50B
  8
0
  0
BLOCK
  8
0
  2
*D76
 70
     1
 10
0.0
 20
0.0
 30
0.0
  3
*D76
  1

  0
LINE
  5
51C
  8
0
  6
CONTINUOUS
 62
    21
 10
650.478
 20
63.817
 30
0.0
 11
631.803
 21
63.817
 31
0.0
  0
LINE
  5
51D
  8
0
  6
CONTINUOUS
 62
    21
 10
650.178
 20
64.117
 30
0.0
 11
631.803
 21
64.117
 31
0.0
  0
LINE
  5
51E
  8
0
  6
CONTINUOUS
 62
    21
 10
633.003
 20
63.817
 30
0.0
 11
633.003
 21
49.36
 31
0.0
  0
LINE
  5
51F
  8
0
  6
CONTINUOUS
 62
    21
 10
633.003
 20
63.817
 30
0.0
 11
633.003
 21
64.117
 31
0.0
  0
LINE
  5
520
  8
0
  6
CONTINUOUS
 62
    21
 10
633.003
 20
60.817
 30
0.0
 11
633.003
 21
57.817
 31
0.0
  0
LINE
  5
521
  8
0
  6
CONTINUOUS
 62
    21
 10
633.003
 20
67.117
 30
0.0
 11
633.003
 21
70.117
 31
0.0
  0
SOLID
  5
522
  8
0
 62
    21
 10
633.503
 20
60.817
 30
0.0
 11
632.503
 21
60.817
 31
0.0
 12
633.003
 22
63.817
 32
0.0
 13
633.003
 23
63.817
 33
0.0
  0
SOLID
  5
523
  8
0
 62
    21
 10
632.503
 20
67.117
 30
0.0
 11
633.503
 21
67.117
 31
0.0
 12
633.003
 22
64.117
 32
0.0
 13
633.003
 23
64.117
 33
0.0
  0
TEXT
  5
524
  8
0
  6
CONTINUOUS
 62
    21
 10
631.446
 20
50.686
 30
0.0
 40
3.0
  1
0.6
 50
90.0
  7
STEFANO
  0
POINT
  5
525
  8
DEFPOINTS
 62
     0
 10
651.378
 20
63.817
 30
0.0
  0
POINT
  5
526
  8
DEFPOINTS
 62
     0
 10
651.078
 20
64.117
 30
0.0
  0
POINT
  5
527
  8
DEFPOINTS
 62
     0
 10
633.003
 20
64.117
 30
0.0
  0
ENDBLK
  5
51B
  8
0
  0
BLOCK
  8
0
  2
*D77
 70
     1
 10
0.0
 20
0.0
 30
0.0
  3
*D77
  1

  0
LINE
  5
52C
  8
0
  6
CONTINUOUS
 62
    21
 10
657.578
 20
63.817
 30
0.0
 11
637.503
 21
63.817
 31
0.0
  0
LINE
  5
52D
  8
0
  6
CONTINUOUS
 62
    21
 10
657.778
 20
64.117
 30
0.0
 11
637.503
 21
64.117
 31
0.0
  0
LINE
  5
52E
  8
0
  6
CONTINUOUS
 62
    21
 10
638.703
 20
64.117
 30
0.0
 11
638.703
 21
78.574
 31
0.0
  0
LINE
  5
52F
  8
0
  6
CONTINUOUS
 62
    21
 10
638.703
 20
63.817
 30
0.0
 11
638.703
 21
64.117
 31
0.0
  0
LINE
  5
530
  8
0
  6
CONTINUOUS
 62
    21
 10
638.703
 20
60.817
 30
0.0
 11
638.703
 21
57.817
 31
0.0
  0
LINE
  5
531
  8
0
  6
CONTINUOUS
 62
    21
 10
638.703
 20
67.117
 30
0.0
 11
638.703
 21
70.117
 31
0.0
  0
SOLID
  5
532
  8
0
 62
    21
 10
639.203
 20
60.817
 30
0.0
 11
638.203
 21
60.817
 31
0.0
 12
638.703
 22
63.817
 32
0.0
 13
638.703
 23
63.817
 33
0.0
  0
SOLID
  5
533
  8
0
 62
    21
 10
638.203
 20
67.117
 30
0.0
 11
639.203
 21
67.117
 31
0.0
 12
638.703
 22
64.117
 32
0.0
 13
638.703
 23
64.117
 33
0.0
  0
TEXT
  5
534
  8
0
  6
CONTINUOUS
 62
    21
 10
637.146
 20
71.443
 30
0.0
 40
3.0
  1
0.6
 50
90.0
  7
STEFANO
  0
POINT
  5
535
  8
DEFPOINTS
 62
     0
 10
658.478
 20
63.817
 30
0.0
  0
POINT
  5
536
  8
DEFPOINTS
 62
     0
 10
658.678
 20
64.117
 30
0.0
  0
POINT
  5
537
  8
DEFPOINTS
 62
     0
 10
638.703
 20
64.117
 30
0.0
  0
ENDBLK
  5
52B
  8
0
  0
BLOCK
  8
0
  2
*D78
 70
     1
 10
0.0
 20
0.0
 30
0.0
  3
*D78
  1

  0
LINE
  5
53C
  8
0
  6
CONTINUOUS
 62
    21
 10
650.878
 20
56.167
 30
0.0
 11
629.628
 21
56.167
 31
0.0
  0
LINE
  5
53D
  8
0
  6
CONTINUOUS
 62
    21
 10
657.578
 20
56.667
 30
0.0
 11
629.628
 21
56.667
 31
0.0
  0
LINE
  5
53E
  8
0
  6
CONTINUOUS
 62
    21
 10
630.828
 20
56.167
 30
0.0
 11
630.828
 21
46.063
 31
0.0
  0
LINE
  5
53F
  8
0
  6
CONTINUOUS
 62
    21
 10
630.828
 20
56.167
 30
0.0
 11
630.828
 21
56.667
 31
0.0
  0
LINE
  5
540
  8
0
  6
CONTINUOUS
 62
    21
 10
630.828
 20
53.167
 30
0.0
 11
630.828
 21
50.167
 31
0.0
  0
LINE
  5
541
  8
0
  6
CONTINUOUS
 62
    21
 10
630.828
 20
59.667
 30
0.0
 11
630.828
 21
62.667
 31
0.0
  0
SOLID
  5
542
  8
0
 62
    21
 10
631.328
 20
53.167
 30
0.0
 11
630.328
 21
53.167
 31
0.0
 12
630.828
 22
56.167
 32
0.0
 13
630.828
 23
56.167
 33
0.0
  0
SOLID
  5
543
  8
0
 62
    21
 10
630.328
 20
59.667
 30
0.0
 11
631.328
 21
59.667
 31
0.0
 12
630.828
 22
56.667
 32
0.0
 13
630.828
 23
56.667
 33
0.0
  0
TEXT
  5
544
  8
0
  6
CONTINUOUS
 62
    21
 10
629.322
 20
47.107
 30
0.0
 40
3.0
  1
1
 50
90.0
  7
STEFANO
  0
POINT
  5
545
  8
DEFPOINTS
 62
     0
 10
651.778
 20
56.167
 30
0.0
  0
POINT
  5
546
  8
DEFPOINTS
 62
     0
 10
658.478
 20
56.667
 30
0.0
  0
POINT
  5
547
  8
DEFPOINTS
 62
     0
 10
630.828
 20
56.667
 30
0.0
  0
ENDBLK
  5
53B
  8
0
  0
BLOCK
  8
0
  2
*D79
 70
     1
 10
0.0
 20
0.0
 30
0.0
  3
*D79
  1

  0
LINE
  5
54C
  8
0
  6
CONTINUOUS
 62
    21
 10
650.878
 20
56.167
 30
0.0
 11
638.628
 21
56.167
 31
0.0
  0
LINE
  5
54D
  8
0
  6
CONTINUOUS
 62
    21
 10
650.378
 20
56.667
 30
0.0
 11
638.628
 21
56.667
 31
0.0
  0
LINE
  5
54E
  8
0
  6
CONTINUOUS
 62
    21
 10
639.828
 20
56.167
 30
0.0
 11
639.828
 21
46.063
 31
0.0
  0
LINE
  5
54F
  8
0
  6
CONTINUOUS
 62
    21
 10
639.828
 20
56.167
 30
0.0
 11
639.828
 21
56.667
 31
0.0
  0
LINE
  5
550
  8
0
  6
CONTINUOUS
 62
    21
 10
639.828
 20
53.167
 30
0.0
 11
639.828
 21
50.167
 31
0.0
  0
LINE
  5
551
  8
0
  6
CONTINUOUS
 62
    21
 10
639.828
 20
59.667
 30
0.0
 11
639.828
 21
62.667
 31
0.0
  0
SOLID
  5
552
  8
0
 62
    21
 10
640.328
 20
53.167
 30
0.0
 11
639.328
 21
53.167
 31
0.0
 12
639.828
 22
56.167
 32
0.0
 13
639.828
 23
56.167
 33
0.0
  0
SOLID
  5
553
  8
0
 62
    21
 10
639.328
 20
59.667
 30
0.0
 11
640.328
 21
59.667
 31
0.0
 12
639.828
 22
56.667
 32
0.0
 13
639.828
 23
56.667
 33
0.0
  0
TEXT
  5
554
  8
0
  6
CONTINUOUS
 62
    21
 10
638.322
 20
47.107
 30
0.0
 40
3.0
  1
1
 50
90.0
  7
STEFANO
  0
POINT
  5
555
  8
DEFPOINTS
 62
     0
 10
651.778
 20
56.167
 30
0.0
  0
POINT
  5
556
  8
DEFPOINTS
 62
     0
 10
651.278
 20
56.667
 30
0.0
  0
POINT
  5
557
  8
DEFPOINTS
 62
     0
 10
639.828
 20
56.667
 30
0.0
  0
ENDBLK
  5
54B
  8
0
  0
BLOCK
  8
0
  2
*D80
 70
     1
 10
0.0
 20
0.0
 30
0.0
  3
*D80
  1

  0
LINE
  5
55C
  8
0
  6
CONTINUOUS
 62
    21
 10
657.141
 20
82.073
 30
0.0
 11
668.482
 21
69.895
 31
0.0
  0
TEXT
  5
55D
  8
0
  6
CONTINUOUS
 62
    21
 10
661.123
 20
80.083
 30
0.0
 40
3.0
  1
R0.64
 50
312.96
  7
STEFANO
  0
SOLID
  5
55E
  8
0
 62
    21
 10
657.507
 20
82.414
 30
0.0
 11
656.775
 21
81.732
 31
0.0
 12
655.097
 22
84.269
 32
0.0
 13
655.097
 23
84.269
 33
0.0
  0
LINE
  5
55F
  8
0
  6
CONTINUOUS
 62
    21
 10
654.788
 20
84.503
 30
0.0
 11
654.968
 21
84.503
 31
0.0
  0
LINE
  5
560
  8
0
  6
CONTINUOUS
 62
    21
 10
654.878
 20
84.413
 30
0.0
 11
654.878
 21
84.593
 31
0.0
  0
POINT
  5
561
  8
DEFPOINTS
 62
     0
 10
655.097
 20
84.269
 30
0.0
  0
POINT
  5
562
  8
DEFPOINTS
 62
     0
 10
654.878
 20
84.503
 30
0.0
  0
ENDBLK
  5
55B
  8
0
  0
BLOCK
  8
0
  2
*D81
 70
     1
 10
0.0
 20
0.0
 30
0.0
  3
*D81
  1

  0
LINE
  5
567
  8
0
  6
CONTINUOUS
 62
    21
 10
654.878
 20
57.367
 30
0.0
 11
654.878
 21
96.767
 31
0.0
  0
LINE
  5
568
  8
0
  6
CONTINUOUS
 62
    21
 10
652.411
 20
87.417
 30
0.0
 11
652.411
 21
96.767
 31
0.0
  0
LINE
  5
569
  8
0
  6
CONTINUOUS
 62
    21
 10
652.411
 20
95.567
 30
0.0
 11
635.506
 21
95.567
 31
0.0
  0
LINE
  5
56A
  8
0
  6
CONTINUOUS
 62
    21
 10
654.878
 20
95.567
 30
0.0
 11
652.411
 21
95.567
 31
0.0
  0
LINE
  5
56B
  8
0
  6
CONTINUOUS
 62
    21
 10
657.878
 20
95.567
 30
0.0
 11
660.878
 21
95.567
 31
0.0
  0
LINE
  5
56C
  8
0
  6
CONTINUOUS
 62
    21
 10
649.411
 20
95.567
 30
0.0
 11
646.411
 21
95.567
 31
0.0
  0
SOLID
  5
56D
  8
0
 62
    21
 10
657.878
 20
96.067
 30
0.0
 11
657.878
 21
95.067
 31
0.0
 12
654.878
 22
95.567
 32
0.0
 13
654.878
 23
95.567
 33
0.0
  0
SOLID
  5
56E
  8
0
 62
    21
 10
649.411
 20
95.067
 30
0.0
 11
649.411
 21
96.067
 31
0.0
 12
652.411
 22
95.567
 32
0.0
 13
652.411
 23
95.567
 33
0.0
  0
TEXT
  5
56F
  8
0
  6
CONTINUOUS
 62
    21
 10
636.952
 20
97.124
 30
0.0
 40
3.0
  1
4.93
  7
STEFANO
  0
POINT
  5
570
  8
DEFPOINTS
 62
     0
 10
654.878
 20
56.467
 30
0.0
  0
POINT
  5
571
  8
DEFPOINTS
 62
     0
 10
652.411
 20
86.517
 30
0.0
  0
POINT
  5
572
  8
DEFPOINTS
 62
     0
 10
652.411
 20
95.567
 30
0.0
  0
ENDBLK
  5
566
  8
0
  0
BLOCK
  8
0
  2
*D82
 70
     1
 10
0.0
 20
0.0
 30
0.0
  3
*D82
  1

  0
LINE
  5
577
  8
0
  6
CONTINUOUS
 62
    21
 10
654.878
 20
57.367
 30
0.0
 11
654.878
 21
105.767
 31
0.0
  0
LINE
  5
578
  8
0
  6
CONTINUOUS
 62
    21
 10
657.346
 20
87.417
 30
0.0
 11
657.346
 21
105.767
 31
0.0
  0
LINE
  5
579
  8
0
  6
CONTINUOUS
 62
    21
 10
654.878
 20
104.567
 30
0.0
 11
637.973
 21
104.567
 31
0.0
  0
LINE
  5
57A
  8
0
  6
CONTINUOUS
 62
    21
 10
654.878
 20
104.567
 30
0.0
 11
657.346
 21
104.567
 31
0.0
  0
LINE
  5
57B
  8
0
  6
CONTINUOUS
 62
    21
 10
651.878
 20
104.567
 30
0.0
 11
648.878
 21
104.567
 31
0.0
  0
LINE
  5
57C
  8
0
  6
CONTINUOUS
 62
    21
 10
660.346
 20
104.567
 30
0.0
 11
663.346
 21
104.567
 31
0.0
  0
SOLID
  5
57D
  8
0
 62
    21
 10
651.878
 20
104.067
 30
0.0
 11
651.878
 21
105.067
 31
0.0
 12
654.878
 22
104.567
 32
0.0
 13
654.878
 23
104.567
 33
0.0
  0
SOLID
  5
57E
  8
0
 62
    21
 10
660.346
 20
105.067
 30
0.0
 11
660.346
 21
104.067
 31
0.0
 12
657.346
 22
104.567
 32
0.0
 13
657.346
 23
104.567
 33
0.0
  0
TEXT
  5
57F
  8
0
  6
CONTINUOUS
 62
    21
 10
639.419
 20
106.124
 30
0.0
 40
3.0
  1
4.93
  7
STEFANO
  0
POINT
  5
580
  8
DEFPOINTS
 62
     0
 10
654.878
 20
56.467
 30
0.0
  0
POINT
  5
581
  8
DEFPOINTS
 62
     0
 10
657.346
 20
86.517
 30
0.0
  0
POINT
  5
582
  8
DEFPOINTS
 62
     0
 10
657.346
 20
104.567
 30
0.0
  0
ENDBLK
  5
576
  8
0
  0
BLOCK
  8
0
  2
*D83
 70
     1
 10
0.0
 20
0.0
 30
0.0
  3
*D83
  1

  0
LINE
  5
587
  8
0
  6
CONTINUOUS
 62
    21
 10
650.442
 20
72.503
 30
0.0
 11
637.987
 21
84.958
 31
0.0
  0
LINE
  5
588
  8
0
  6
CONTINUOUS
 62
    21
 10
650.442
 20
70.131
 30
0.0
 11
637.986
 21
57.676
 31
0.0
  0
ARC
  5
589
  8
0
  6
CONTINUOUS
 62
    21
 10
651.628
 20
71.317
 30
0.0
 40
18.09165507117222
 50
144.514
 51
215.485
  0
SOLID
  5
58A
  8
0
 62
    21
 10
637.279
 20
81.496
 30
0.0
 11
636.515
 21
82.142
 31
0.0
 12
638.835
 22
84.109
 32
0.0
 13
638.835
 23
84.109
 33
0.0
  0
SOLID
  5
58B
  8
0
 62
    21
 10
636.515
 20
60.492
 30
0.0
 11
637.279
 21
61.138
 31
0.0
 12
638.835
 22
58.525
 32
0.0
 13
638.835
 23
58.525
 33
0.0
  0
TEXT
  5
58C
  8
0
  6
CONTINUOUS
 62
    21
 10
631.986
 20
69.003
 30
0.0
 40
3.0
  1
90
 50
90.0
  7
STEFANO
  0
POINT
  5
58D
  8
DEFPOINTS
 62
     0
 10
634.153
 20
75.999
 30
0.0
  0
POINT
  5
58E
  8
DEFPOINTS
 62
     0
 10
651.078
 20
70.767
 30
0.0
  0
POINT
  5
58F
  8
DEFPOINTS
 62
     0
 10
651.078
 20
71.867
 30
0.0
  0
POINT
  5
590
  8
DEFPOINTS
 62
     0
 10
651.628
 20
71.317
 30
0.0
  0
POINT
  5
591
  8
DEFPOINTS
 62
     0
 10
651.628
 20
71.317
 30
0.0
  0
ENDBLK
  5
586
  8
0
  0
BLOCK
  8
0
  2
*D84
 70
     1
 10
0.0
 20
0.0
 30
0.0
  3
*D84
  1

  0
LINE
  5
596
  8
0
  6
CONTINUOUS
 62
    21
 10
652.265
 20
71.953
 30
0.0
 11
656.17
 21
75.858
 31
0.0
  0
ARC
  5
597
  8
0
  6
CONTINUOUS
 62
    21
 10
651.078
 20
70.767
 30
0.0
 40
5.999999814509497
 50
212.09
 51
241.045
  0
ARC
  5
598
  8
0
  6
CONTINUOUS
 62
    21
 10
651.078
 20
70.767
 30
0.0
 40
5.999999814509497
 50
73.952
 51
102.907
  0
ARC
  5
599
  8
0
  6
CONTINUOUS
 62
    21
 10
651.078
 20
70.767
 30
0.0
 40
5.999999814509497
 50
270.0
 51
44.997
  0
SOLID
  5
59A
  8
0
 62
    21
 10
648.049
 20
65.033
 30
0.0
 11
648.299
 21
66.001
 31
0.0
 12
651.078
 22
64.767
 32
0.0
 13
651.078
 23
64.767
 33
0.0
  0
SOLID
  5
59B
  8
0
 62
    21
 10
652.483
 20
76.103
 30
0.0
 11
652.991
 21
76.964
 31
0.0
 12
655.321
 22
75.009
 32
0.0
 13
655.321
 23
75.009
 33
0.0
  0
TEXT
  5
59C
  8
0
  6
CONTINUOUS
 62
    21
 10
653.797
 20
65.705
 30
0.0
 40
3.0
  1
135
 50
67.499
  7
STEFANO
  0
POINT
  5
59D
  8
DEFPOINTS
 62
     0
 10
655.321
 20
66.524
 30
0.0
  0
POINT
  5
59E
  8
DEFPOINTS
 62
     0
 10
651.628
 20
71.317
 30
0.0
  0
POINT
  5
59F
  8
DEFPOINTS
 62
     0
 10
651.078
 20
64.117
 30
0.0
  0
POINT
  5
5A0
  8
DEFPOINTS
 62
     0
 10
651.078
 20
70.767
 30
0.0
  0
POINT
  5
5A1
  8
DEFPOINTS
 62
     0
 10
651.078
 20
70.767
 30
0.0
  0
ENDBLK
  5
595
  8
0
  0
BLOCK
  8
0
  2
*D85
 70
     1
 10
0.0
 20
0.0
 30
0.0
  3
*D85
  1

  0
LINE
  5
5A6
  8
0
  6
CONTINUOUS
 62
    21
 10
228.547
 20
62.239
 30
0.0
 11
224.134
 21
68.221
 31
0.0
  0
LINE
  5
5A7
  8
0
  6
CONTINUOUS
 62
    21
 10
233.758
 20
65.183
 30
0.0
 11
233.758
 21
58.408
 31
0.0
  0
LINE
  5
5A8
  8
0
  6
CONTINUOUS
 62
    21
 10
234.894
 20
64.947
 30
0.0
 11
239.185
 21
60.656
 31
0.0
  0
ARC
  5
5A9
  8
0
  6
CONTINUOUS
 62
    21
 10
233.758
 20
66.083
 30
0.0
 40
6.475126405774843
 50
216.422
 51
243.211
  0
ARC
  5
5AA
  8
0
  6
CONTINUOUS
 62
    21
 10
233.758
 20
66.083
 30
0.0
 40
6.475126405774843
 50
341.789
 51
8.578
  0
ARC
  5
5AB
  8
0
  6
CONTINUOUS
 62
    21
 10
233.758
 20
66.083
 30
0.0
 40
6.475126405774843
 50
270.0
 51
315.0
  0
SOLID
  5
5AC
  8
0
 62
    21
 10
230.723
 20
59.817
 30
0.0
 11
230.955
 21
60.79
 31
0.0
 12
233.758
 22
59.608
 32
0.0
 13
233.758
 23
59.608
 33
0.0
  0
SOLID
  5
5AD
  8
0
 62
    21
 10
239.483
 20
64.322
 30
0.0
 11
240.334
 21
63.798
 31
0.0
 12
238.336
 22
61.505
 32
0.0
 13
238.336
 23
61.505
 33
0.0
  0
TEXT
  5
5AE
  8
0
  6
CONTINUOUS
 62
    21
 10
226.24
 20
67.978
 30
0.0
 40
3.0
  1
45
 50
306.422
  7
STEFANO
  0
POINT
  5
5AF
  8
DEFPOINTS
 62
     0
 10
236.995
 20
60.476
 30
0.0
  0
POINT
  5
5B0
  8
DEFPOINTS
 62
     0
 10
234.258
 20
65.583
 30
0.0
  0
POINT
  5
5B1
  8
DEFPOINTS
 62
     0
 10
233.758
 20
66.083
 30
0.0
  0
POINT
  5
5B2
  8
DEFPOINTS
 62
     0
 10
233.758
 20
72.583
 30
0.0
  0
POINT
  5
5B3
  8
DEFPOINTS
 62
     0
 10
233.758
 20
66.083
 30
0.0
  0
ENDBLK
  5
5A5
  8
0
  0
BLOCK
  8
0
  2
*D86
 70
     1
 10
0.0
 20
0.0
 30
0.0
  3
*D86
  1

  0
LINE
  5
5B8
  8
0
  6
CONTINUOUS
 62
    21
 10
235.409
 20
67.424
 30
0.0
 11
237.07
 21
74.67
 31
0.0
  0
LINE
  5
5B9
  8
0
  6
CONTINUOUS
 62
    21
 10
240.121
 20
64.947
 30
0.0
 11
236.166
 21
60.992
 31
0.0
  0
LINE
  5
5BA
  8
0
  6
CONTINUOUS
 62
    21
 10
241.258
 20
65.183
 30
0.0
 11
241.258
 21
58.883
 31
0.0
  0
ARC
  5
5BB
  8
0
  6
CONTINUOUS
 62
    21
 10
241.258
 20
66.083
 30
0.0
 40
6.000002576915648
 50
167.09
 51
196.045
  0
ARC
  5
5BC
  8
0
  6
CONTINUOUS
 62
    21
 10
241.258
 20
66.083
 30
0.0
 40
6.000002576915648
 50
298.955
 51
327.91
  0
ARC
  5
5BD
  8
0
  6
CONTINUOUS
 62
    21
 10
241.258
 20
66.083
 30
0.0
 40
6.000002576915648
 50
225.0
 51
270.0
  0
SOLID
  5
5BE
  8
0
 62
    21
 10
235.061
 20
64.171
 30
0.0
 11
235.922
 21
64.679
 31
0.0
 12
237.015
 22
61.841
 32
0.0
 13
237.015
 23
61.841
 33
0.0
  0
SOLID
  5
5BF
  8
0
 62
    21
 10
244.037
 20
61.318
 30
0.0
 11
244.287
 21
60.349
 31
0.0
 12
241.258
 22
60.083
 32
0.0
 13
241.258
 23
60.083
 33
0.0
  0
TEXT
  5
5C0
  8
0
  6
CONTINUOUS
 62
    21
 10
238.259
 20
72.914
 30
0.0
 40
3.0
  1
45
 50
257.09
  7
STEFANO
  0
POINT
  5
5C1
  8
DEFPOINTS
 62
     0
 10
239.705
 20
60.288
 30
0.0
  0
POINT
  5
5C2
  8
DEFPOINTS
 62
     0
 10
241.258
 20
66.083
 30
0.0
  0
POINT
  5
5C3
  8
DEFPOINTS
 62
     0
 10
240.758
 20
65.583
 30
0.0
  0
POINT
  5
5C4
  8
DEFPOINTS
 62
     0
 10
241.258
 20
66.083
 30
0.0
  0
POINT
  5
5C5
  8
DEFPOINTS
 62
     0
 10
241.258
 20
87.683
 30
0.0
  0
ENDBLK
  5
5B7
  8
0
  0
BLOCK
  8
0
  2
*D87
 70
     1
 10
0.0
 20
0.0
 30
0.0
  3
*D87
  1

  0
LINE
  5
5CA
  8
0
  6
CONTINUOUS
 62
    21
 10
233.258
 20
88.083
 30
0.0
 11
215.366
 21
88.083
 31
0.0
  0
LINE
  5
5CB
  8
0
  6
CONTINUOUS
 62
    21
 10
233.121
 20
87.047
 30
0.0
 11
220.87
 21
74.796
 31
0.0
  0
ARC
  5
5CC
  8
0
  6
CONTINUOUS
 62
    21
 10
234.158
 20
88.083
 30
0.0
 40
17.59133156558879
 50
189.783
 51
215.216
  0
SOLID
  5
5CD
  8
0
 62
    21
 10
217.32
 20
85.137
 30
0.0
 11
216.324
 21
85.052
 31
0.0
 12
216.566
 22
88.083
 32
0.0
 13
216.566
 23
88.083
 33
0.0
  0
SOLID
  5
5CE
  8
0
 62
    21
 10
219.403
 20
77.617
 30
0.0
 11
220.168
 21
78.261
 31
0.0
 12
221.719
 22
75.645
 32
0.0
 13
221.719
 23
75.645
 33
0.0
  0
TEXT
  5
5CF
  8
0
  6
CONTINUOUS
 62
    21
 10
218.469
 20
84.043
 30
0.0
 40
3.0
  1
45
 50
292.5
  7
STEFANO
  0
POINT
  5
5D0
  8
DEFPOINTS
 62
     0
 10
217.166
 20
83.531
 30
0.0
  0
POINT
  5
5D1
  8
DEFPOINTS
 62
     0
 10
233.758
 20
87.683
 30
0.0
  0
POINT
  5
5D2
  8
DEFPOINTS
 62
     0
 10
234.158
 20
88.083
 30
0.0
  0
POINT
  5
5D3
  8
DEFPOINTS
 62
     0
 10
235.008
 20
88.083
 30
0.0
  0
POINT
  5
5D4
  8
DEFPOINTS
 62
     0
 10
234.158
 20
88.083
 30
0.0
  0
ENDBLK
  5
5C9
  8
0
  0
BLOCK
  8
0
  2
*D88
 70
     1
 10
0.0
 20
0.0
 30
0.0
  3
*D88
  1

  0
LINE
  5
5D9
  8
0
  6
CONTINUOUS
 62
    21
 10
244.774
 20
79.984
 30
0.0
 11
238.081
 21
76.748
 31
0.0
  0
LINE
  5
5DA
  8
0
  6
CONTINUOUS
 62
    21
 10
241.894
 20
87.047
 30
0.0
 11
248.067
 21
80.874
 31
0.0
  0
LINE
  5
5DB
  8
0
  6
CONTINUOUS
 62
    21
 10
241.758
 20
88.083
 30
0.0
 11
251.054
 21
88.083
 31
0.0
  0
ARC
  5
5DC
  8
0
  6
CONTINUOUS
 62
    21
 10
240.858
 20
88.083
 30
0.0
 40
8.996277531193185
 50
295.803
 51
314.999
  0
ARC
  5
5DD
  8
0
  6
CONTINUOUS
 62
    21
 10
240.858
 20
88.083
 30
0.0
 40
8.996277531193185
 50
334.196
 51
340.804
  0
SOLID
  5
5DE
  8
0
 62
    21
 10
248.549
 20
84.457
 30
0.0
 11
249.364
 21
83.878
 31
0.0
 12
247.219
 22
81.722
 32
0.0
 13
247.219
 23
81.722
 33
0.0
  0
SOLID
  5
5DF
  8
0
 62
    21
 10
249.847
 20
85.042
 30
0.0
 11
248.861
 21
85.209
 31
0.0
 12
249.854
 22
88.083
 32
0.0
 13
249.854
 23
88.083
 33
0.0
  0
TEXT
  5
5E0
  8
0
  6
CONTINUOUS
 62
    21
 10
238.707
 20
78.774
 30
0.0
 40
3.0
  1
45
 50
25.803
  7
STEFANO
  0
POINT
  5
5E1
  8
DEFPOINTS
 62
     0
 10
249.547
 20
85.755
 30
0.0
  0
POINT
  5
5E2
  8
DEFPOINTS
 62
     0
 10
240.858
 20
88.083
 30
0.0
  0
POINT
  5
5E3
  8
DEFPOINTS
 62
     0
 10
241.258
 20
87.683
 30
0.0
  0
POINT
  5
5E4
  8
DEFPOINTS
 62
     0
 10
240.858
 20
88.083
 30
0.0
  0
POINT
  5
5E5
  8
DEFPOINTS
 62
     0
 10
240.008
 20
88.083
 30
0.0
  0
ENDBLK
  5
5D8
  8
0
  0
BLOCK
  8
0
  2
*D89
 70
     1
 10
0.0
 20
0.0
 30
0.0
  3
*D89
  1

  0
LINE
  5
5EA
  8
0
  6
CONTINUOUS
 62
    21
 10
228.785
 20
54.666
 30
0.0
 11
224.324
 21
60.613
 31
0.0
  0
LINE
  5
5EB
  8
0
  6
CONTINUOUS
 62
    21
 10
234.008
 20
57.683
 30
0.0
 11
234.008
 21
50.854
 31
0.0
  0
LINE
  5
5EC
  8
0
  6
CONTINUOUS
 62
    21
 10
235.144
 20
57.447
 30
0.0
 11
239.473
 21
53.118
 31
0.0
  0
ARC
  5
5ED
  8
0
  6
CONTINUOUS
 62
    21
 10
234.008
 20
58.583
 30
0.0
 40
6.528983735193973
 50
216.872
 51
243.436
  0
ARC
  5
5EE
  8
0
  6
CONTINUOUS
 62
    21
 10
234.008
 20
58.583
 30
0.0
 40
6.528983735193973
 50
341.564
 51
8.128
  0
ARC
  5
5EF
  8
0
  6
CONTINUOUS
 62
    21
 10
234.008
 20
58.583
 30
0.0
 40
6.528983735193973
 50
270.0
 51
315.0
  0
SOLID
  5
5F0
  8
0
 62
    21
 10
230.973
 20
52.257
 30
0.0
 11
231.203
 21
53.23
 31
0.0
 12
234.008
 22
52.054
 32
0.0
 13
234.008
 23
52.054
 33
0.0
  0
SOLID
  5
5F1
  8
0
 62
    21
 10
239.776
 20
56.782
 30
0.0
 11
240.627
 21
56.256
 31
0.0
 12
238.624
 22
53.967
 32
0.0
 13
238.624
 23
53.967
 33
0.0
  0
TEXT
  5
5F2
  8
0
  6
CONTINUOUS
 62
    21
 10
226.432
 20
60.387
 30
0.0
 40
3.0
  1
45
 50
306.872
  7
STEFANO
  0
POINT
  5
5F3
  8
DEFPOINTS
 62
     0
 10
237.272
 20
52.929
 30
0.0
  0
POINT
  5
5F4
  8
DEFPOINTS
 62
     0
 10
234.508
 20
58.083
 30
0.0
  0
POINT
  5
5F5
  8
DEFPOINTS
 62
     0
 10
234.008
 20
58.583
 30
0.0
  0
POINT
  5
5F6
  8
DEFPOINTS
 62
     0
 10
234.008
 20
65.583
 30
0.0
  0
POINT
  5
5F7
  8
DEFPOINTS
 62
     0
 10
234.008
 20
58.583
 30
0.0
  0
ENDBLK
  5
5E9
  8
0
  0
BLOCK
  8
0
  2
*D90
 70
     1
 10
0.0
 20
0.0
 30
0.0
  3
*D90
  1

  0
LINE
  5
5FC
  8
0
  6
CONTINUOUS
 62
    21
 10
234.306
 20
59.336
 30
0.0
 11
235.135
 21
66.723
 31
0.0
  0
LINE
  5
5FD
  8
0
  6
CONTINUOUS
 62
    21
 10
239.871
 20
57.447
 30
0.0
 11
235.39
 21
52.966
 31
0.0
  0
LINE
  5
5FE
  8
0
  6
CONTINUOUS
 62
    21
 10
241.008
 20
57.683
 30
0.0
 11
241.008
 21
50.64
 31
0.0
  0
ARC
  5
5FF
  8
0
  6
CONTINUOUS
 62
    21
 10
241.008
 20
58.583
 30
0.0
 40
6.743929533392932
 50
173.595
 51
199.297
  0
ARC
  5
600
  8
0
  6
CONTINUOUS
 62
    21
 10
241.008
 20
58.583
 30
0.0
 40
6.743929533392932
 50
295.703
 51
321.405
  0
ARC
  5
601
  8
0
  6
CONTINUOUS
 62
    21
 10
241.008
 20
58.583
 30
0.0
 40
6.743929533392932
 50
225.0
 51
270.0
  0
SOLID
  5
602
  8
0
 62
    21
 10
234.219
 20
56.089
 30
0.0
 11
235.066
 21
56.621
 31
0.0
 12
236.239
 22
53.815
 32
0.0
 13
236.239
 23
53.815
 33
0.0
  0
SOLID
  5
603
  8
0
 62
    21
 10
243.821
 20
52.994
 30
0.0
 11
244.044
 21
52.019
 31
0.0
 12
241.008
 22
51.84
 32
0.0
 13
241.008
 23
51.84
 33
0.0
  0
TEXT
  5
604
  8
0
  6
CONTINUOUS
 62
    21
 10
236.515
 20
65.113
 30
0.0
 40
3.0
  1
45
 50
263.595
  7
STEFANO
  0
POINT
  5
605
  8
DEFPOINTS
 62
     0
 10
239.262
 20
52.069
 30
0.0
  0
POINT
  5
606
  8
DEFPOINTS
 62
     0
 10
241.008
 20
58.583
 30
0.0
  0
POINT
  5
607
  8
DEFPOINTS
 62
     0
 10
240.508
 20
58.083
 30
0.0
  0
POINT
  5
608
  8
DEFPOINTS
 62
     0
 10
241.008
 20
58.583
 30
0.0
  0
POINT
  5
609
  8
DEFPOINTS
 62
     0
 10
241.008
 20
65.583
 30
0.0
  0
ENDBLK
  5
5FB
  8
0
  0
BLOCK
  8
0
  2
*D91
 70
     1
 10
0.0
 20
0.0
 30
0.0
  3
*D91
  1

  0
LINE
  5
60E
  8
0
  6
CONTINUOUS
 62
    21
 10
234.008
 20
64.683
 30
0.0
 11
234.008
 21
29.933
 31
0.0
  0
LINE
  5
60F
  8
0
  6
CONTINUOUS
 62
    21
 10
237.508
 20
57.283
 30
0.0
 11
237.508
 21
29.933
 31
0.0
  0
LINE
  5
610
  8
0
  6
CONTINUOUS
 62
    21
 10
234.008
 20
31.133
 30
0.0
 11
237.508
 21
31.133
 31
0.0
  0
LINE
  5
611
  8
0
  6
CONTINUOUS
 62
    21
 10
231.008
 20
31.133
 30
0.0
 11
228.008
 21
31.133
 31
0.0
  0
LINE
  5
612
  8
0
  6
CONTINUOUS
 62
    21
 10
240.508
 20
31.133
 30
0.0
 11
243.508
 21
31.133
 31
0.0
  0
SOLID
  5
613
  8
0
 62
    21
 10
231.008
 20
30.633
 30
0.0
 11
231.008
 21
31.633
 31
0.0
 12
234.008
 22
31.133
 32
0.0
 13
234.008
 23
31.133
 33
0.0
  0
SOLID
  5
614
  8
0
 62
    21
 10
240.508
 20
31.633
 30
0.0
 11
240.508
 21
30.633
 31
0.0
 12
237.508
 22
31.133
 32
0.0
 13
237.508
 23
31.133
 33
0.0
  0
TEXT
  5
615
  8
0
  6
CONTINUOUS
 62
    21
 10
234.591
 20
32.633
 30
0.0
 40
3.0
  1
7
  7
STEFANO
  0
POINT
  5
616
  8
DEFPOINTS
 62
     0
 10
234.008
 20
65.583
 30
0.0
  0
POINT
  5
617
  8
DEFPOINTS
 62
     0
 10
237.508
 20
58.183
 30
0.0
  0
POINT
  5
618
  8
DEFPOINTS
 62
     0
 10
237.508
 20
31.133
 30
0.0
  0
ENDBLK
  5
60D
  8
0
  0
BLOCK
  8
0
  2
*D92
 70
     1
 10
0.0
 20
0.0
 30
0.0
  3
*D92
  1

  0
LINE
  5
61D
  8
0
  6
CONTINUOUS
 62
    21
 10
241.008
 20
57.683
 30
0.0
 11
241.008
 21
38.983
 31
0.0
  0
LINE
  5
61E
  8
0
  6
CONTINUOUS
 62
    21
 10
237.508
 20
57.283
 30
0.0
 11
237.508
 21
38.983
 31
0.0
  0
LINE
  5
61F
  8
0
  6
CONTINUOUS
 62
    21
 10
241.008
 20
40.183
 30
0.0
 11
237.508
 21
40.183
 31
0.0
  0
LINE
  5
620
  8
0
  6
CONTINUOUS
 62
    21
 10
244.008
 20
40.183
 30
0.0
 11
247.008
 21
40.183
 31
0.0
  0
LINE
  5
621
  8
0
  6
CONTINUOUS
 62
    21
 10
234.508
 20
40.183
 30
0.0
 11
231.508
 21
40.183
 31
0.0
  0
SOLID
  5
622
  8
0
 62
    21
 10
244.008
 20
40.683
 30
0.0
 11
244.008
 21
39.683
 31
0.0
 12
241.008
 22
40.183
 32
0.0
 13
241.008
 23
40.183
 33
0.0
  0
SOLID
  5
623
  8
0
 62
    21
 10
234.508
 20
39.683
 30
0.0
 11
234.508
 21
40.683
 31
0.0
 12
237.508
 22
40.183
 32
0.0
 13
237.508
 23
40.183
 33
0.0
  0
TEXT
  5
624
  8
0
  6
CONTINUOUS
 62
    21
 10
238.091
 20
41.683
 30
0.0
 40
3.0
  1
7
  7
STEFANO
  0
POINT
  5
625
  8
DEFPOINTS
 62
     0
 10
241.008
 20
58.583
 30
0.0
  0
POINT
  5
626
  8
DEFPOINTS
 62
     0
 10
237.508
 20
58.183
 30
0.0
  0
POINT
  5
627
  8
DEFPOINTS
 62
     0
 10
237.508
 20
40.183
 30
0.0
  0
ENDBLK
  5
61C
  8
0
  0
BLOCK
  8
0
  2
*D93
 70
     1
 10
0.0
 20
0.0
 30
0.0
  3
*D93
  1

  0
LINE
  5
62C
  8
0
  6
CONTINUOUS
 62
    21
 10
233.758
 20
88.583
 30
0.0
 11
233.758
 21
116.333
 31
0.0
  0
LINE
  5
62D
  8
0
  6
CONTINUOUS
 62
    21
 10
237.508
 20
59.083
 30
0.0
 11
237.508
 21
116.333
 31
0.0
  0
LINE
  5
62E
  8
0
  6
CONTINUOUS
 62
    21
 10
233.758
 20
115.133
 30
0.0
 11
219.304
 21
115.133
 31
0.0
  0
LINE
  5
62F
  8
0
  6
CONTINUOUS
 62
    21
 10
233.758
 20
115.133
 30
0.0
 11
237.508
 21
115.133
 31
0.0
  0
LINE
  5
630
  8
0
  6
CONTINUOUS
 62
    21
 10
230.758
 20
115.133
 30
0.0
 11
227.758
 21
115.133
 31
0.0
  0
LINE
  5
631
  8
0
  6
CONTINUOUS
 62
    21
 10
240.508
 20
115.133
 30
0.0
 11
243.508
 21
115.133
 31
0.0
  0
SOLID
  5
632
  8
0
 62
    21
 10
230.758
 20
114.633
 30
0.0
 11
230.758
 21
115.633
 31
0.0
 12
233.758
 22
115.133
 32
0.0
 13
233.758
 23
115.133
 33
0.0
  0
SOLID
  5
633
  8
0
 62
    21
 10
240.508
 20
115.633
 30
0.0
 11
240.508
 21
114.633
 31
0.0
 12
237.508
 22
115.133
 32
0.0
 13
237.508
 23
115.133
 33
0.0
  0
TEXT
  5
634
  8
0
  6
CONTINUOUS
 62
    21
 10
220.606
 20
116.684
 30
0.0
 40
3.0
  1
7.5
  7
STEFANO
  0
POINT
  5
635
  8
DEFPOINTS
 62
     0
 10
233.758
 20
87.683
 30
0.0
  0
POINT
  5
636
  8
DEFPOINTS
 62
     0
 10
237.508
 20
58.183
 30
0.0
  0
POINT
  5
637
  8
DEFPOINTS
 62
     0
 10
237.508
 20
115.133
 30
0.0
  0
ENDBLK
  5
62B
  8
0
  0
BLOCK
  8
0
  2
*D94
 70
     1
 10
0.0
 20
0.0
 30
0.0
  3
*D94
  1

  0
LINE
  5
63C
  8
0
  6
CONTINUOUS
 62
    21
 10
241.258
 20
66.983
 30
0.0
 11
241.258
 21
116.383
 31
0.0
  0
LINE
  5
63D
  8
0
  6
CONTINUOUS
 62
    21
 10
237.508
 20
59.083
 30
0.0
 11
237.508
 21
116.383
 31
0.0
  0
LINE
  5
63E
  8
0
  6
CONTINUOUS
 62
    21
 10
237.508
 20
115.183
 30
0.0
 11
223.054
 21
115.183
 31
0.0
  0
LINE
  5
63F
  8
0
  6
CONTINUOUS
 62
    21
 10
241.258
 20
115.183
 30
0.0
 11
237.508
 21
115.183
 31
0.0
  0
LINE
  5
640
  8
0
  6
CONTINUOUS
 62
    21
 10
244.258
 20
115.183
 30
0.0
 11
247.258
 21
115.183
 31
0.0
  0
LINE
  5
641
  8
0
  6
CONTINUOUS
 62
    21
 10
234.508
 20
115.183
 30
0.0
 11
231.508
 21
115.183
 31
0.0
  0
SOLID
  5
642
  8
0
 62
    21
 10
244.258
 20
115.683
 30
0.0
 11
244.258
 21
114.683
 31
0.0
 12
241.258
 22
115.183
 32
0.0
 13
241.258
 23
115.183
 33
0.0
  0
SOLID
  5
643
  8
0
 62
    21
 10
234.508
 20
114.683
 30
0.0
 11
234.508
 21
115.683
 31
0.0
 12
237.508
 22
115.183
 32
0.0
 13
237.508
 23
115.183
 33
0.0
  0
TEXT
  5
644
  8
0
  6
CONTINUOUS
 62
    21
 10
224.356
 20
116.734
 30
0.0
 40
3.0
  1
7.5
  7
STEFANO
  0
POINT
  5
645
  8
DEFPOINTS
 62
     0
 10
241.258
 20
66.083
 30
0.0
  0
POINT
  5
646
  8
DEFPOINTS
 62
     0
 10
237.508
 20
58.183
 30
0.0
  0
POINT
  5
647
  8
DEFPOINTS
 62
     0
 10
237.508
 20
115.183
 30
0.0
  0
ENDBLK
  5
63B
  8
0
  0
BLOCK
  8
0
  2
*D95
 70
     1
 10
0.0
 20
0.0
 30
0.0
  3
*D95
  1

  0
LINE
  5
64C
  8
0
  6
CONTINUOUS
 62
    21
 10
233.358
 20
65.583
 30
0.0
 11
205.608
 21
65.583
 31
0.0
  0
LINE
  5
64D
  8
0
  6
CONTINUOUS
 62
    21
 10
233.358
 20
73.083
 30
0.0
 11
205.608
 21
73.083
 31
0.0
  0
LINE
  5
64E
  8
0
  6
CONTINUOUS
 62
    21
 10
206.808
 20
65.583
 30
0.0
 11
206.808
 21
52.551
 31
0.0
  0
LINE
  5
64F
  8
0
  6
CONTINUOUS
 62
    21
 10
206.808
 20
65.583
 30
0.0
 11
206.808
 21
73.083
 31
0.0
  0
LINE
  5
650
  8
0
  6
CONTINUOUS
 62
    21
 10
206.808
 20
62.583
 30
0.0
 11
206.808
 21
59.583
 31
0.0
  0
LINE
  5
651
  8
0
  6
CONTINUOUS
 62
    21
 10
206.808
 20
76.083
 30
0.0
 11
206.808
 21
79.083
 31
0.0
  0
SOLID
  5
652
  8
0
 62
    21
 10
207.308
 20
62.583
 30
0.0
 11
206.308
 21
62.583
 31
0.0
 12
206.808
 22
65.583
 32
0.0
 13
206.808
 23
65.583
 33
0.0
  0
SOLID
  5
653
  8
0
 62
    21
 10
206.308
 20
76.083
 30
0.0
 11
207.308
 21
76.083
 31
0.0
 12
206.808
 22
73.083
 32
0.0
 13
206.808
 23
73.083
 33
0.0
  0
TEXT
  5
654
  8
0
  6
CONTINUOUS
 62
    21
 10
205.251
 20
53.595
 30
0.0
 40
3.0
  1
15
 50
90.0
  7
STEFANO
  0
POINT
  5
655
  8
DEFPOINTS
 62
     0
 10
234.258
 20
65.583
 30
0.0
  0
POINT
  5
656
  8
DEFPOINTS
 62
     0
 10
234.258
 20
73.083
 30
0.0
  0
POINT
  5
657
  8
DEFPOINTS
 62
     0
 10
206.808
 20
73.083
 30
0.0
  0
ENDBLK
  5
64B
  8
0
  0
BLOCK
  8
0
  2
*D96
 70
     1
 10
0.0
 20
0.0
 30
0.0
  3
*D96
  1

  0
LINE
  5
65C
  8
0
  6
CONTINUOUS
 62
    21
 10
239.958
 20
88.083
 30
0.0
 11
184.183
 21
88.083
 31
0.0
  0
LINE
  5
65D
  8
0
  6
CONTINUOUS
 62
    21
 10
240.108
 20
65.583
 30
0.0
 11
184.183
 21
65.583
 31
0.0
  0
LINE
  5
65E
  8
0
  6
CONTINUOUS
 62
    21
 10
185.383
 20
85.083
 30
0.0
 11
185.383
 21
68.583
 31
0.0
  0
SOLID
  5
65F
  8
0
 62
    21
 10
185.883
 20
85.083
 30
0.0
 11
184.883
 21
85.083
 31
0.0
 12
185.383
 22
88.083
 32
0.0
 13
185.383
 23
88.083
 33
0.0
  0
SOLID
  5
660
  8
0
 62
    21
 10
184.883
 20
68.583
 30
0.0
 11
185.883
 21
68.583
 31
0.0
 12
185.383
 22
65.583
 32
0.0
 13
185.383
 23
65.583
 33
0.0
  0
TEXT
  5
661
  8
0
  6
CONTINUOUS
 62
    21
 10
183.832
 20
74.562
 30
0.0
 40
3.0
  1
45
 50
90.0
  7
STEFANO
  0
POINT
  5
662
  8
DEFPOINTS
 62
     0
 10
240.858
 20
88.083
 30
0.0
  0
POINT
  5
663
  8
DEFPOINTS
 62
     0
 10
241.008
 20
65.583
 30
0.0
  0
POINT
  5
664
  8
DEFPOINTS
 62
     0
 10
185.383
 20
65.583
 30
0.0
  0
ENDBLK
  5
65B
  8
0
  0
BLOCK
  8
0
  2
*D97
 70
     1
 10
0.0
 20
0.0
 30
0.0
  3
*D97
  1

  0
LINE
  5
669
  8
0
  6
CONTINUOUS
 62
    21
 10
240.108
 20
65.583
 30
0.0
 11
194.358
 21
65.583
 31
0.0
  0
LINE
  5
66A
  8
0
  6
CONTINUOUS
 62
    21
 10
233.608
 20
58.083
 30
0.0
 11
194.358
 21
58.083
 31
0.0
  0
LINE
  5
66B
  8
0
  6
CONTINUOUS
 62
    21
 10
195.558
 20
58.083
 30
0.0
 11
195.558
 21
45.051
 31
0.0
  0
LINE
  5
66C
  8
0
  6
CONTINUOUS
 62
    21
 10
195.558
 20
65.583
 30
0.0
 11
195.558
 21
58.083
 31
0.0
  0
LINE
  5
66D
  8
0
  6
CONTINUOUS
 62
    21
 10
195.558
 20
68.583
 30
0.0
 11
195.558
 21
71.583
 31
0.0
  0
LINE
  5
66E
  8
0
  6
CONTINUOUS
 62
    21
 10
195.558
 20
55.083
 30
0.0
 11
195.558
 21
52.083
 31
0.0
  0
SOLID
  5
66F
  8
0
 62
    21
 10
195.058
 20
68.583
 30
0.0
 11
196.058
 21
68.583
 31
0.0
 12
195.558
 22
65.583
 32
0.0
 13
195.558
 23
65.583
 33
0.0
  0
SOLID
  5
670
  8
0
 62
    21
 10
196.058
 20
55.083
 30
0.0
 11
195.058
 21
55.083
 31
0.0
 12
195.558
 22
58.083
 32
0.0
 13
195.558
 23
58.083
 33
0.0
  0
TEXT
  5
671
  8
0
  6
CONTINUOUS
 62
    21
 10
194.001
 20
46.095
 30
0.0
 40
3.0
  1
15
 50
90.0
  7
STEFANO
  0
POINT
  5
672
  8
DEFPOINTS
 62
     0
 10
241.008
 20
65.583
 30
0.0
  0
POINT
  5
673
  8
DEFPOINTS
 62
     0
 10
234.508
 20
58.083
 30
0.0
  0
POINT
  5
674
  8
DEFPOINTS
 62
     0
 10
195.558
 20
58.083
 30
0.0
  0
ENDBLK
  5
668
  8
0
  0
BLOCK
  8
0
  2
*D98
 70
     1
 10
0.0
 20
0.0
 30
0.0
  3
*D98
  1

  0
LINE
  5
679
  8
0
  6
CONTINUOUS
 62
    21
 10
234.108
 20
88.083
 30
0.0
 11
213.683
 21
88.083
 31
0.0
  0
LINE
  5
67A
  8
0
  6
CONTINUOUS
 62
    21
 10
232.858
 20
87.683
 30
0.0
 11
213.683
 21
87.683
 31
0.0
  0
LINE
  5
67B
  8
0
  6
CONTINUOUS
 62
    21
 10
214.883
 20
88.083
 30
0.0
 11
214.883
 21
102.546
 31
0.0
  0
LINE
  5
67C
  8
0
  6
CONTINUOUS
 62
    21
 10
214.883
 20
88.083
 30
0.0
 11
214.883
 21
87.683
 31
0.0
  0
LINE
  5
67D
  8
0
  6
CONTINUOUS
 62
    21
 10
214.883
 20
91.083
 30
0.0
 11
214.883
 21
94.083
 31
0.0
  0
LINE
  5
67E
  8
0
  6
CONTINUOUS
 62
    21
 10
214.883
 20
84.683
 30
0.0
 11
214.883
 21
81.683
 31
0.0
  0
SOLID
  5
67F
  8
0
 62
    21
 10
214.383
 20
91.083
 30
0.0
 11
215.383
 21
91.083
 31
0.0
 12
214.883
 22
88.083
 32
0.0
 13
214.883
 23
88.083
 33
0.0
  0
SOLID
  5
680
  8
0
 62
    21
 10
215.383
 20
84.683
 30
0.0
 11
214.383
 21
84.683
 31
0.0
 12
214.883
 22
87.683
 32
0.0
 13
214.883
 23
87.683
 33
0.0
  0
TEXT
  5
681
  8
0
  6
CONTINUOUS
 62
    21
 10
213.326
 20
95.409
 30
0.0
 40
3.0
  1
0.8
 50
90.0
  7
STEFANO
  0
POINT
  5
682
  8
DEFPOINTS
 62
     0
 10
235.008
 20
88.083
 30
0.0
  0
POINT
  5
683
  8
DEFPOINTS
 62
     0
 10
233.758
 20
87.683
 30
0.0
  0
POINT
  5
684
  8
DEFPOINTS
 62
     0
 10
214.883
 20
87.683
 30
0.0
  0
ENDBLK
  5
678
  8
0
  0
BLOCK
  8
0
  2
*D99
 70
     1
 10
0.0
 20
0.0
 30
0.0
  3
*D99
  1

  0
LINE
  5
689
  8
0
  6
CONTINUOUS
 62
    21
 10
239.958
 20
88.083
 30
0.0
 11
219.058
 21
88.083
 31
0.0
  0
LINE
  5
68A
  8
0
  6
CONTINUOUS
 62
    21
 10
240.358
 20
87.683
 30
0.0
 11
219.058
 21
87.683
 31
0.0
  0
LINE
  5
68B
  8
0
  6
CONTINUOUS
 62
    21
 10
220.258
 20
88.083
 30
0.0
 11
220.258
 21
102.546
 31
0.0
  0
LINE
  5
68C
  8
0
  6
CONTINUOUS
 62
    21
 10
220.258
 20
88.083
 30
0.0
 11
220.258
 21
87.683
 31
0.0
  0
LINE
  5
68D
  8
0
  6
CONTINUOUS
 62
    21
 10
220.258
 20
91.083
 30
0.0
 11
220.258
 21
94.083
 31
0.0
  0
LINE
  5
68E
  8
0
  6
CONTINUOUS
 62
    21
 10
220.258
 20
84.683
 30
0.0
 11
220.258
 21
81.683
 31
0.0
  0
SOLID
  5
68F
  8
0
 62
    21
 10
219.758
 20
91.083
 30
0.0
 11
220.758
 21
91.083
 31
0.0
 12
220.258
 22
88.083
 32
0.0
 13
220.258
 23
88.083
 33
0.0
  0
SOLID
  5
690
  8
0
 62
    21
 10
220.758
 20
84.683
 30
0.0
 11
219.758
 21
84.683
 31
0.0
 12
220.258
 22
87.683
 32
0.0
 13
220.258
 23
87.683
 33
0.0
  0
TEXT
  5
691
  8
0
  6
CONTINUOUS
 62
    21
 10
218.701
 20
95.409
 30
0.0
 40
3.0
  1
0.8
 50
90.0
  7
STEFANO
  0
POINT
  5
692
  8
DEFPOINTS
 62
     0
 10
240.858
 20
88.083
 30
0.0
  0
POINT
  5
693
  8
DEFPOINTS
 62
     0
 10
241.258
 20
87.683
 30
0.0
  0
POINT
  5
694
  8
DEFPOINTS
 62
     0
 10
220.258
 20
87.683
 30
0.0
  0
ENDBLK
  5
688
  8
0
  0
BLOCK
  8
0
  2
*D100
 70
     1
 10
0.0
 20
0.0
 30
0.0
  3
*D100
  1

  0
LINE
  5
699
  8
0
  6
CONTINUOUS
 62
    21
 10
233.358
 20
65.583
 30
0.0
 11
214.608
 21
65.583
 31
0.0
  0
LINE
  5
69A
  8
0
  6
CONTINUOUS
 62
    21
 10
232.858
 20
66.083
 30
0.0
 11
214.608
 21
66.083
 31
0.0
  0
LINE
  5
69B
  8
0
  6
CONTINUOUS
 62
    21
 10
215.808
 20
65.583
 30
0.0
 11
215.808
 21
51.105
 31
0.0
  0
LINE
  5
69C
  8
0
  6
CONTINUOUS
 62
    21
 10
215.808
 20
65.583
 30
0.0
 11
215.808
 21
66.083
 31
0.0
  0
LINE
  5
69D
  8
0
  6
CONTINUOUS
 62
    21
 10
215.808
 20
62.583
 30
0.0
 11
215.808
 21
59.583
 31
0.0
  0
LINE
  5
69E
  8
0
  6
CONTINUOUS
 62
    21
 10
215.808
 20
69.083
 30
0.0
 11
215.808
 21
72.083
 31
0.0
  0
SOLID
  5
69F
  8
0
 62
    21
 10
216.308
 20
62.583
 30
0.0
 11
215.308
 21
62.583
 31
0.0
 12
215.808
 22
65.583
 32
0.0
 13
215.808
 23
65.583
 33
0.0
  0
SOLID
  5
6A0
  8
0
 62
    21
 10
215.308
 20
69.083
 30
0.0
 11
216.308
 21
69.083
 31
0.0
 12
215.808
 22
66.083
 32
0.0
 13
215.808
 23
66.083
 33
0.0
  0
TEXT
  5
6A1
  8
0
  6
CONTINUOUS
 62
    21
 10
214.251
 20
52.431
 30
0.0
 40
3.0
  1
0.5
 50
90.0
  7
STEFANO
  0
POINT
  5
6A2
  8
DEFPOINTS
 62
     0
 10
234.258
 20
65.583
 30
0.0
  0
POINT
  5
6A3
  8
DEFPOINTS
 62
     0
 10
233.758
 20
66.083
 30
0.0
  0
POINT
  5
6A4
  8
DEFPOINTS
 62
     0
 10
215.808
 20
66.083
 30
0.0
  0
ENDBLK
  5
698
  8
0
  0
BLOCK
  8
0
  2
*D101
 70
     1
 10
0.0
 20
0.0
 30
0.0
  3
*D101
  1

  0
LINE
  5
6A9
  8
0
  6
CONTINUOUS
 62
    21
 10
240.108
 20
65.583
 30
0.0
 11
220.183
 21
65.583
 31
0.0
  0
LINE
  5
6AA
  8
0
  6
CONTINUOUS
 62
    21
 10
240.358
 20
66.083
 30
0.0
 11
220.183
 21
66.083
 31
0.0
  0
LINE
  5
6AB
  8
0
  6
CONTINUOUS
 62
    21
 10
221.383
 20
66.083
 30
0.0
 11
221.383
 21
80.561
 31
0.0
  0
LINE
  5
6AC
  8
0
  6
CONTINUOUS
 62
    21
 10
221.383
 20
65.583
 30
0.0
 11
221.383
 21
66.083
 31
0.0
  0
LINE
  5
6AD
  8
0
  6
CONTINUOUS
 62
    21
 10
221.383
 20
62.583
 30
0.0
 11
221.383
 21
59.583
 31
0.0
  0
LINE
  5
6AE
  8
0
  6
CONTINUOUS
 62
    21
 10
221.383
 20
69.083
 30
0.0
 11
221.383
 21
72.083
 31
0.0
  0
SOLID
  5
6AF
  8
0
 62
    21
 10
221.883
 20
62.583
 30
0.0
 11
220.883
 21
62.583
 31
0.0
 12
221.383
 22
65.583
 32
0.0
 13
221.383
 23
65.583
 33
0.0
  0
SOLID
  5
6B0
  8
0
 62
    21
 10
220.883
 20
69.083
 30
0.0
 11
221.883
 21
69.083
 31
0.0
 12
221.383
 22
66.083
 32
0.0
 13
221.383
 23
66.083
 33
0.0
  0
TEXT
  5
6B1
  8
0
  6
CONTINUOUS
 62
    21
 10
219.826
 20
73.409
 30
0.0
 40
3.0
  1
0.5
 50
90.0
  7
STEFANO
  0
POINT
  5
6B2
  8
DEFPOINTS
 62
     0
 10
241.008
 20
65.583
 30
0.0
  0
POINT
  5
6B3
  8
DEFPOINTS
 62
     0
 10
241.258
 20
66.083
 30
0.0
  0
POINT
  5
6B4
  8
DEFPOINTS
 62
     0
 10
221.383
 20
66.083
 30
0.0
  0
ENDBLK
  5
6A8
  8
0
  0
BLOCK
  8
0
  2
*D102
 70
     1
 10
0.0
 20
0.0
 30
0.0
  3
*D102
  1

  0
LINE
  5
6B9
  8
0
  6
CONTINUOUS
 62
    21
 10
233.608
 20
58.083
 30
0.0
 11
212.358
 21
58.083
 31
0.0
  0
LINE
  5
6BA
  8
0
  6
CONTINUOUS
 62
    21
 10
240.108
 20
58.583
 30
0.0
 11
212.358
 21
58.583
 31
0.0
  0
LINE
  5
6BB
  8
0
  6
CONTINUOUS
 62
    21
 10
213.558
 20
58.083
 30
0.0
 11
213.558
 21
43.605
 31
0.0
  0
LINE
  5
6BC
  8
0
  6
CONTINUOUS
 62
    21
 10
213.558
 20
58.083
 30
0.0
 11
213.558
 21
58.583
 31
0.0
  0
LINE
  5
6BD
  8
0
  6
CONTINUOUS
 62
    21
 10
213.558
 20
55.083
 30
0.0
 11
213.558
 21
52.083
 31
0.0
  0
LINE
  5
6BE
  8
0
  6
CONTINUOUS
 62
    21
 10
213.558
 20
61.583
 30
0.0
 11
213.558
 21
64.583
 31
0.0
  0
SOLID
  5
6BF
  8
0
 62
    21
 10
214.058
 20
55.083
 30
0.0
 11
213.058
 21
55.083
 31
0.0
 12
213.558
 22
58.083
 32
0.0
 13
213.558
 23
58.083
 33
0.0
  0
SOLID
  5
6C0
  8
0
 62
    21
 10
213.058
 20
61.583
 30
0.0
 11
214.058
 21
61.583
 31
0.0
 12
213.558
 22
58.583
 32
0.0
 13
213.558
 23
58.583
 33
0.0
  0
TEXT
  5
6C1
  8
0
  6
CONTINUOUS
 62
    21
 10
212.001
 20
44.931
 30
0.0
 40
3.0
  1
0.5
 50
90.0
  7
STEFANO
  0
POINT
  5
6C2
  8
DEFPOINTS
 62
     0
 10
234.508
 20
58.083
 30
0.0
  0
POINT
  5
6C3
  8
DEFPOINTS
 62
     0
 10
241.008
 20
58.583
 30
0.0
  0
POINT
  5
6C4
  8
DEFPOINTS
 62
     0
 10
213.558
 20
58.583
 30
0.0
  0
ENDBLK
  5
6B8
  8
0
  0
BLOCK
  8
0
  2
*D103
 70
     1
 10
0.0
 20
0.0
 30
0.0
  3
*D103
  1

  0
LINE
  5
6C9
  8
0
  6
CONTINUOUS
 62
    21
 10
233.608
 20
58.083
 30
0.0
 11
221.358
 21
58.083
 31
0.0
  0
LINE
  5
6CA
  8
0
  6
CONTINUOUS
 62
    21
 10
233.108
 20
58.583
 30
0.0
 11
221.358
 21
58.583
 31
0.0
  0
LINE
  5
6CB
  8
0
  6
CONTINUOUS
 62
    21
 10
222.558
 20
58.083
 30
0.0
 11
222.558
 21
43.605
 31
0.0
  0
LINE
  5
6CC
  8
0
  6
CONTINUOUS
 62
    21
 10
222.558
 20
58.083
 30
0.0
 11
222.558
 21
58.583
 31
0.0
  0
LINE
  5
6CD
  8
0
  6
CONTINUOUS
 62
    21
 10
222.558
 20
55.083
 30
0.0
 11
222.558
 21
52.083
 31
0.0
  0
LINE
  5
6CE
  8
0
  6
CONTINUOUS
 62
    21
 10
222.558
 20
61.583
 30
0.0
 11
222.558
 21
64.583
 31
0.0
  0
SOLID
  5
6CF
  8
0
 62
    21
 10
223.058
 20
55.083
 30
0.0
 11
222.058
 21
55.083
 31
0.0
 12
222.558
 22
58.083
 32
0.0
 13
222.558
 23
58.083
 33
0.0
  0
SOLID
  5
6D0
  8
0
 62
    21
 10
222.058
 20
61.583
 30
0.0
 11
223.058
 21
61.583
 31
0.0
 12
222.558
 22
58.583
 32
0.0
 13
222.558
 23
58.583
 33
0.0
  0
TEXT
  5
6D1
  8
0
  6
CONTINUOUS
 62
    21
 10
221.001
 20
44.931
 30
0.0
 40
3.0
  1
0.5
 50
90.0
  7
STEFANO
  0
POINT
  5
6D2
  8
DEFPOINTS
 62
     0
 10
234.508
 20
58.083
 30
0.0
  0
POINT
  5
6D3
  8
DEFPOINTS
 62
     0
 10
234.008
 20
58.583
 30
0.0
  0
POINT
  5
6D4
  8
DEFPOINTS
 62
     0
 10
222.558
 20
58.583
 30
0.0
  0
ENDBLK
  5
6C8
  8
0
  0
BLOCK
  8
0
  2
*D104
 70
     1
 10
0.0
 20
0.0
 30
0.0
  3
*D104
  1

  0
LINE
  5
6D9
  8
0
  6
CONTINUOUS
 62
    21
 10
239.722
 20
83.558
 30
0.0
 11
249.488
 21
73.07
 31
0.0
  0
TEXT
  5
6DA
  8
0
  6
CONTINUOUS
 62
    21
 10
243.704
 20
81.568
 30
0.0
 40
3.0
  1
R0.8
 50
312.958
  7
STEFANO
  0
SOLID
  5
6DB
  8
0
 62
    21
 10
240.088
 20
83.899
 30
0.0
 11
239.356
 21
83.218
 31
0.0
 12
237.678
 22
85.754
 32
0.0
 13
237.678
 23
85.754
 33
0.0
  0
LINE
  5
6DC
  8
0
  6
CONTINUOUS
 62
    21
 10
237.418
 20
85.937
 30
0.0
 11
237.598
 21
85.937
 31
0.0
  0
LINE
  5
6DD
  8
0
  6
CONTINUOUS
 62
    21
 10
237.508
 20
85.847
 30
0.0
 11
237.508
 21
86.027
 31
0.0
  0
POINT
  5
6DE
  8
DEFPOINTS
 62
     0
 10
237.678
 20
85.754
 30
0.0
  0
POINT
  5
6DF
  8
DEFPOINTS
 62
     0
 10
237.508
 20
85.937
 30
0.0
  0
ENDBLK
  5
6D8
  8
0
  0
BLOCK
  8
0
  2
*D105
 70
     1
 10
0.0
 20
0.0
 30
0.0
  3
*D105
  1

  0
LINE
  5
6E4
  8
0
  6
CONTINUOUS
 62
    21
 10
237.508
 20
59.083
 30
0.0
 11
237.508
 21
107.333
 31
0.0
  0
LINE
  5
6E5
  8
0
  6
CONTINUOUS
 62
    21
 10
235.008
 20
88.983
 30
0.0
 11
235.008
 21
107.333
 31
0.0
  0
LINE
  5
6E6
  8
0
  6
CONTINUOUS
 62
    21
 10
235.008
 20
106.133
 30
0.0
 11
224.022
 21
106.133
 31
0.0
  0
LINE
  5
6E7
  8
0
  6
CONTINUOUS
 62
    21
 10
237.508
 20
106.133
 30
0.0
 11
235.008
 21
106.133
 31
0.0
  0
LINE
  5
6E8
  8
0
  6
CONTINUOUS
 62
    21
 10
240.508
 20
106.133
 30
0.0
 11
243.508
 21
106.133
 31
0.0
  0
LINE
  5
6E9
  8
0
  6
CONTINUOUS
 62
    21
 10
232.008
 20
106.133
 30
0.0
 11
229.008
 21
106.133
 31
0.0
  0
SOLID
  5
6EA
  8
0
 62
    21
 10
240.508
 20
106.633
 30
0.0
 11
240.508
 21
105.633
 31
0.0
 12
237.508
 22
106.133
 32
0.0
 13
237.508
 23
106.133
 33
0.0
  0
SOLID
  5
6EB
  8
0
 62
    21
 10
232.008
 20
105.633
 30
0.0
 11
232.008
 21
106.633
 31
0.0
 12
235.008
 22
106.133
 32
0.0
 13
235.008
 23
106.133
 33
0.0
  0
TEXT
  5
6EC
  8
0
  6
CONTINUOUS
 62
    21
 10
225.348
 20
107.684
 30
0.0
 40
3.0
  1
5
  7
STEFANO
  0
POINT
  5
6ED
  8
DEFPOINTS
 62
     0
 10
237.508
 20
58.183
 30
0.0
  0
POINT
  5
6EE
  8
DEFPOINTS
 62
     0
 10
235.008
 20
88.083
 30
0.0
  0
POINT
  5
6EF
  8
DEFPOINTS
 62
     0
 10
235.008
 20
106.133
 30
0.0
  0
ENDBLK
  5
6E3
  8
0
  0
BLOCK
  8
0
  2
*D106
 70
     1
 10
0.0
 20
0.0
 30
0.0
  3
*D106
  1

  0
LINE
  5
6F4
  8
0
  6
CONTINUOUS
 62
    21
 10
237.508
 20
59.083
 30
0.0
 11
237.508
 21
98.333
 31
0.0
  0
LINE
  5
6F5
  8
0
  6
CONTINUOUS
 62
    21
 10
240.008
 20
88.983
 30
0.0
 11
240.008
 21
98.333
 31
0.0
  0
LINE
  5
6F6
  8
0
  6
CONTINUOUS
 62
    21
 10
237.508
 20
97.133
 30
0.0
 11
226.522
 21
97.133
 31
0.0
  0
LINE
  5
6F7
  8
0
  6
CONTINUOUS
 62
    21
 10
237.508
 20
97.133
 30
0.0
 11
240.008
 21
97.133
 31
0.0
  0
LINE
  5
6F8
  8
0
  6
CONTINUOUS
 62
    21
 10
234.508
 20
97.133
 30
0.0
 11
231.508
 21
97.133
 31
0.0
  0
LINE
  5
6F9
  8
0
  6
CONTINUOUS
 62
    21
 10
243.008
 20
97.133
 30
0.0
 11
246.008
 21
97.133
 31
0.0
  0
SOLID
  5
6FA
  8
0
 62
    21
 10
234.508
 20
96.633
 30
0.0
 11
234.508
 21
97.633
 31
0.0
 12
237.508
 22
97.133
 32
0.0
 13
237.508
 23
97.133
 33
0.0
  0
SOLID
  5
6FB
  8
0
 62
    21
 10
243.008
 20
97.633
 30
0.0
 11
243.008
 21
96.633
 31
0.0
 12
240.008
 22
97.133
 32
0.0
 13
240.008
 23
97.133
 33
0.0
  0
TEXT
  5
6FC
  8
0
  6
CONTINUOUS
 62
    21
 10
227.848
 20
98.684
 30
0.0
 40
3.0
  1
5
  7
STEFANO
  0
POINT
  5
6FD
  8
DEFPOINTS
 62
     0
 10
237.508
 20
58.183
 30
0.0
  0
POINT
  5
6FE
  8
DEFPOINTS
 62
     0
 10
240.008
 20
88.083
 30
0.0
  0
POINT
  5
6FF
  8
DEFPOINTS
 62
     0
 10
240.008
 20
97.133
 30
0.0
  0
ENDBLK
  5
6F3
  8
0
  0
BLOCK
  8
0
  2
*D107
 70
     1
 10
0.0
 20
0.0
 30
0.0
  3
*D107
  1

  0
LINE
  5
704
  8
0
  6
CONTINUOUS
 62
    21
 10
233.121
 20
74.22
 30
0.0
 11
218.521
 21
88.82
 31
0.0
  0
LINE
  5
705
  8
0
  6
CONTINUOUS
 62
    21
 10
233.121
 20
71.947
 30
0.0
 11
218.521
 21
57.347
 31
0.0
  0
ARC
  5
706
  8
0
  6
CONTINUOUS
 62
    21
 10
234.258
 20
73.083
 30
0.0
 40
21.05424402118554
 50
143.171
 51
216.829
  0
SOLID
  5
707
  8
0
 62
    21
 10
217.783
 20
85.377
 30
0.0
 11
217.027
 21
86.031
 31
0.0
 12
219.37
 22
87.971
 32
0.0
 13
219.37
 23
87.971
 33
0.0
  0
SOLID
  5
708
  8
0
 62
    21
 10
217.027
 20
60.135
 30
0.0
 11
217.783
 21
60.79
 31
0.0
 12
219.37
 22
58.196
 32
0.0
 13
219.37
 23
58.196
 33
0.0
  0
TEXT
  5
709
  8
0
  6
CONTINUOUS
 62
    21
 10
211.652
 20
70.769
 30
0.0
 40
3.0
  1
90
 50
90.0
  7
STEFANO
  0
POINT
  5
70A
  8
DEFPOINTS
 62
     0
 10
213.921
 20
78.533
 30
0.0
  0
POINT
  5
70B
  8
DEFPOINTS
 62
     0
 10
233.758
 20
72.583
 30
0.0
  0
POINT
  5
70C
  8
DEFPOINTS
 62
     0
 10
233.758
 20
73.583
 30
0.0
  0
POINT
  5
70D
  8
DEFPOINTS
 62
     0
 10
234.258
 20
73.083
 30
0.0
  0
POINT
  5
70E
  8
DEFPOINTS
 62
     0
 10
234.258
 20
73.083
 30
0.0
  0
ENDBLK
  5
703
  8
0
  0
BLOCK
  8
0
  2
*D108
 70
     1
 10
0.0
 20
0.0
 30
0.0
  3
*D108
  1

  0
LINE
  5
713
  8
0
  6
CONTINUOUS
 62
    21
 10
233.758
 20
65.183
 30
0.0
 11
233.758
 21
63.8
 31
0.0
  0
LINE
  5
714
  8
0
  6
CONTINUOUS
 62
    21
 10
234.894
 20
73.72
 30
0.0
 11
239.968
 21
78.794
 31
0.0
  0
ARC
  5
715
  8
0
  6
CONTINUOUS
 62
    21
 10
233.758
 20
72.583
 30
0.0
 40
7.583174676269726
 50
292.817
 51
22.183
  0
SOLID
  5
716
  8
0
 62
    21
 10
236.599
 20
66.084
 30
0.0
 11
236.797
 21
65.104
 31
0.0
 12
233.758
 22
65.0
 32
0.0
 13
233.758
 23
65.0
 33
0.0
  0
SOLID
  5
717
  8
0
 62
    21
 10
241.196
 20
75.723
 30
0.0
 11
240.363
 21
75.17
 31
0.0
 12
239.12
 22
77.946
 32
0.0
 13
239.12
 23
77.946
 33
0.0
  0
TEXT
  5
718
  8
0
  6
CONTINUOUS
 62
    21
 10
237.939
 20
66.916
 30
0.0
 40
3.0
  1
135
 50
67.5
  7
STEFANO
  0
POINT
  5
719
  8
DEFPOINTS
 62
     0
 10
239.12
 20
67.221
 30
0.0
  0
POINT
  5
71A
  8
DEFPOINTS
 62
     0
 10
234.258
 20
73.083
 30
0.0
  0
POINT
  5
71B
  8
DEFPOINTS
 62
     0
 10
233.758
 20
66.083
 30
0.0
  0
POINT
  5
71C
  8
DEFPOINTS
 62
     0
 10
233.758
 20
72.583
 30
0.0
  0
POINT
  5
71D
  8
DEFPOINTS
 62
     0
 10
233.758
 20
72.583
 30
0.0
  0
ENDBLK
  5
712
  8
0
  0
BLOCK
  8
0
  2
*D109
 70
     1
 10
0.0
 20
0.0
 30
0.0
  3
*D109
  1

  0
LINE
  5
722
  8
0
  6
CONTINUOUS
 62
    21
 10
236.124
 20
90.779
 30
0.0
 11
241.933
 21
104.803
 31
0.0
  0
TEXT
  5
723
  8
0
  6
CONTINUOUS
 62
    21
 10
238.005
 20
99.254
 30
0.0
 40
3.0
  1
R2
 50
67.5
  7
STEFANO
  0
SOLID
  5
724
  8
0
 62
    21
 10
235.662
 20
90.97
 30
0.0
 11
236.586
 21
90.588
 31
0.0
 12
234.976
 22
88.007
 32
0.0
 13
234.976
 23
88.007
 33
0.0
  0
LINE
  5
725
  8
0
  6
CONTINUOUS
 62
    21
 10
234.503
 20
87.083
 30
0.0
 11
234.683
 21
87.083
 31
0.0
  0
LINE
  5
726
  8
0
  6
CONTINUOUS
 62
    21
 10
234.593
 20
86.993
 30
0.0
 11
234.593
 21
87.173
 31
0.0
  0
POINT
  5
727
  8
DEFPOINTS
 62
     0
 10
234.976
 20
88.007
 30
0.0
  0
POINT
  5
728
  8
DEFPOINTS
 62
     0
 10
234.593
 20
87.083
 30
0.0
  0
ENDBLK
  5
721
  8
0
  0
BLOCK
  8
0
  2
*D110
 70
     1
 10
0.0
 20
0.0
 30
0.0
  3
*D110
  1

  0
LINE
  5
72D
  8
0
  6
CONTINUOUS
 62
    21
 10
238.891
 20
90.779
 30
0.0
 11
233.924
 21
102.772
 31
0.0
  0
TEXT
  5
72E
  8
0
  6
CONTINUOUS
 62
    21
 10
235.763
 20
102.267
 30
0.0
 40
3.0
  1
R2
 50
292.5
  7
STEFANO
  0
SOLID
  5
72F
  8
0
 62
    21
 10
238.429
 20
90.588
 30
0.0
 11
239.353
 21
90.97
 31
0.0
 12
240.039
 22
88.007
 32
0.0
 13
240.039
 23
88.007
 33
0.0
  0
LINE
  5
730
  8
0
  6
CONTINUOUS
 62
    21
 10
240.332
 20
87.083
 30
0.0
 11
240.512
 21
87.083
 31
0.0
  0
LINE
  5
731
  8
0
  6
CONTINUOUS
 62
    21
 10
240.422
 20
86.993
 30
0.0
 11
240.422
 21
87.173
 31
0.0
  0
POINT
  5
732
  8
DEFPOINTS
 62
     0
 10
240.039
 20
88.007
 30
0.0
  0
POINT
  5
733
  8
DEFPOINTS
 62
     0
 10
240.422
 20
87.083
 30
0.0
  0
ENDBLK
  5
72C
  8
0
  0
ENDSEC
  0
SECTION
  2
ENTITIES
  0
DIMENSION
  5
89
  8
0
  6
CONTINUOUS
 62
    11
  2
*D2
 10
206.354
 20
122.817
 30
0.0
 11
206.354
 21
114.325
 31
0.0
 70
   161
  1
\fArial|b0|i0|c0|p0;2
  3
STEFANO
 13
197.354
 23
124.817
 33
0.0
 14
197.354
 24
122.817
 34
0.0
1001
ACAD
1000
DSTYLE
1002
{
1070
   287
1070
     3
1070
     7
1000

1070
     6
1000

1070
   280
1070
     0
1070
    76
1070
     0
1070
    75
1070
     0
1070
   279
1070
     0
1002
}
  0
DIMENSION
  5
99
  8
0
  6
CONTINUOUS
 62
    11
  2
*D3
 10
71.293
 20
109.817
 30
0.0
 11
75.091
 21
100.647
 31
0.0
 70
    34
  1
45
  3
STEFANO
 13
71.293
 23
109.817
 33
0.0
 14
71.293
 24
122.817
 34
0.0
 15
72.293
 25
108.817
 35
0.0
 16
74.645
 26
97.308
 36
0.0
1001
ACAD
1000
DSTYLE
1002
{
1070
   284
1070
    12
1002
}
  0
DIMENSION
  5
AA
  8
0
  6
CONTINUOUS
 62
    11
  2
*D4
 10
86.293
 20
153.017
 30
0.0
 11
84.225
 21
114.104
 31
0.0
 70
    34
  1
45
  3
STEFANO
 13
85.293
 23
108.817
 33
0.0
 14
86.293
 24
109.817
 34
0.0
 15
86.293
 25
109.817
 35
0.0
 16
84.741
 26
104.021
 36
0.0
1001
ACAD
1000
DSTYLE
1002
{
1070
   284
1070
    12
1002
}
  0
DIMENSION
  5
BC
  8
0
  6
CONTINUOUS
 62
    11
  2
*D5
 10
72.093
 20
153.817
 30
0.0
 11
42.384
 21
141.511
 31
0.0
 70
    34
  1
45
  3
STEFANO
 13
72.093
 23
153.817
 33
0.0
 14
73.793
 24
153.817
 34
0.0
 15
71.293
 25
153.017
 35
0.0
 16
38.11
 26
144.711
 36
0.0
1001
ACAD
1000
DSTYLE
1002
{
1070
   284
1070
    12
1002
}
  0
DIMENSION
  5
CB
  8
0
  6
CONTINUOUS
 62
    11
  2
*D6
 10
83.793
 20
153.817
 30
0.0
 11
99.321
 21
148.089
 31
0.0
 70
    34
  1
45
  3
STEFANO
 13
86.293
 23
153.017
 33
0.0
 14
85.493
 24
153.817
 34
0.0
 15
85.493
 25
153.817
 35
0.0
 16
101.075
 26
144.821
 36
0.0
1001
ACAD
1000
DSTYLE
1002
{
1070
   284
1070
    12
1002
}
  0
DIMENSION
  5
DA
  8
0
  6
CONTINUOUS
 62
    11
  2
*D7
 10
71.793
 20
94.817
 30
0.0
 11
75.633
 21
85.548
 31
0.0
 70
    34
  1
45
  3
STEFANO
 13
71.793
 23
94.817
 33
0.0
 14
71.793
 24
108.817
 34
0.0
 15
72.793
 25
93.817
 35
0.0
 16
75.173
 26
82.204
 36
0.0
1001
ACAD
1000
DSTYLE
1002
{
1070
   284
1070
    12
1002
}
  0
DIMENSION
  5
EB
  8
0
  6
CONTINUOUS
 62
    11
  2
*D8
 10
85.793
 20
108.817
 30
0.0
 11
81.79
 21
85.151
 31
0.0
 70
    34
  1
45
  3
STEFANO
 13
84.793
 23
93.817
 33
0.0
 14
85.793
 24
94.817
 34
0.0
 15
85.793
 25
94.817
 35
0.0
 16
79.049
 26
83.136
 36
0.0
1001
ACAD
1000
DSTYLE
1002
{
1070
   284
1070
    12
1002
}
  0
DIMENSION
  5
FC
  8
0
  6
CONTINUOUS
 62
    11
  2
*D9
 10
78.793
 20
75.917
 30
0.0
 11
63.324
 21
75.917
 31
0.0
 70
   160
  1
\fArial|b0|i0|c0|p0;7
  3
STEFANO
 13
71.793
 23
108.817
 33
0.0
 14
78.793
 24
94.017
 34
0.0
1001
ACAD
1000
DSTYLE
1002
{
1070
   287
1070
     3
1070
   279
1070
     0
1002
}
  0
DIMENSION
  5
10C
  8
0
  6
CONTINUOUS
 62
    11
  2
*D10
 10
78.793
 20
76.017
 30
0.0
 11
70.324
 21
76.017
 31
0.0
 70
   160
  1
\fArial|b0|i0|c0|p0;7
  3
STEFANO
 13
85.793
 23
94.817
 33
0.0
 14
78.793
 24
94.017
 34
0.0
1001
ACAD
1000
DSTYLE
1002
{
1070
   287
1070
     3
1070
     7
1000

1070
     6
1000

1070
   280
1070
     0
1070
    76
1070
     0
1070
    75
1070
     0
1070
   279
1070
     0
1002
}
  0
DIMENSION
  5
11C
  8
0
  6
CONTINUOUS
 62
    11
  2
*D11
 10
78.793
 20
180.917
 30
0.0
 11
61.066
 21
180.917
 31
0.0
 70
   160
  1
\fArial|b0|i0|c0|p0;7.5
  3
STEFANO
 13
71.293
 23
153.017
 33
0.0
 14
78.793
 24
94.017
 34
0.0
1001
ACAD
1000
DSTYLE
1002
{
1070
   287
1070
     3
1070
   279
1070
     0
1002
}
  0
DIMENSION
  5
12C
  8
0
  6
CONTINUOUS
 62
    11
  2
*D12
 10
78.793
 20
181.017
 30
0.0
 11
68.566
 21
181.017
 31
0.0
 70
   160
  1
\fArial|b0|i0|c0|p0;7.5
  3
STEFANO
 13
86.293
 23
109.817
 33
0.0
 14
78.793
 24
94.017
 34
0.0
1001
ACAD
1000
DSTYLE
1002
{
1070
   287
1070
     3
1070
     7
1000

1070
     6
1000

1070
   280
1070
     0
1070
    76
1070
     0
1070
    75
1070
     0
1070
   279
1070
     0
1002
}
  0
DIMENSION
  5
13C
  8
0
  6
CONTINUOUS
 62
    11
  2
*D13
 10
53.393
 20
123.817
 30
0.0
 11
50.362
 21
116.317
 31
0.0
 70
    33
  1
\fArial|b0|i0|c0|p0;15
  3
STEFANO
 13
72.293
 23
108.817
 33
0.0
 14
72.293
 24
123.817
 34
0.0
  0
DIMENSION
  5
149
  8
0
  6
CONTINUOUS
 62
    11
  2
*D14
 10
62.293
 20
122.817
 30
0.0
 11
62.293
 21
114.325
 31
0.0
 70
   161
  1
\fArial|b0|i0|c0|p0;2
  3
STEFANO
 13
71.293
 23
124.817
 33
0.0
 14
71.293
 24
122.817
 34
0.0
1001
ACAD
1000
DSTYLE
1002
{
1070
   287
1070
     3
1070
     7
1000

1070
     6
1000

1070
   280
1070
     0
1070
    76
1070
     0
1070
    75
1070
     0
1070
   279
1070
     0
1002
}
  0
DIMENSION
  5
159
  8
0
  6
CONTINUOUS
 62
    11
  2
*D15
 10
115.543
 20
108.817
 30
0.0
 11
112.518
 21
131.317
 31
0.0
 70
    32
  1
\fArial|b0|i0|c0|p0;45
  3
STEFANO
 13
85.493
 23
153.817
 33
0.0
 14
85.793
 24
108.817
 34
0.0
 50
90.0
1001
ACAD
1000
DSTYLE
1002
{
1070
     7
1000

1070
     6
1000

1070
   280
1070
     0
1070
    76
1070
     0
1070
    75
1070
     0
1002
}
  0
DIMENSION
  5
166
  8
0
  6
CONTINUOUS
 62
    11
  2
*D16
 10
108.893
 20
93.817
 30
0.0
 11
105.862
 21
101.317
 31
0.0
 70
    32
  1
\fArial|b0|i0|c0|p0;15
  3
STEFANO
 13
85.793
 23
108.817
 33
0.0
 14
72.793
 24
93.817
 34
0.0
 50
90.0
1001
ACAD
1000
DSTYLE
1002
{
1070
     7
1000

1070
     6
1000

1070
   280
1070
     0
1070
    76
1070
     0
1070
    75
1070
     0
1002
}
  0
DIMENSION
  5
173
  8
0
  6
CONTINUOUS
 62
    11
  2
*D17
 10
60.543
 20
153.017
 30
0.0
 11
60.543
 21
164.048
 31
0.0
 70
   160
  1
\fArial|b0|i0|c0|p0;0.8
  3
STEFANO
 13
73.793
 23
153.817
 33
0.0
 14
71.293
 24
153.017
 34
0.0
 50
90.0
1001
ACAD
1000
DSTYLE
1002
{
1070
   287
1070
     3
1070
     7
1000

1070
     6
1000

1070
   280
1070
     0
1070
    76
1070
     0
1070
    75
1070
     0
1070
   279
1070
     0
1002
}
  0
DIMENSION
  5
183
  8
0
  6
CONTINUOUS
 62
    11
  2
*D18
 10
95.293
 20
153.017
 30
0.0
 11
95.293
 21
164.048
 31
0.0
 70
   160
  1
\fArial|b0|i0|c0|p0;0.8
  3
STEFANO
 13
85.493
 23
153.817
 33
0.0
 14
86.293
 24
153.017
 34
0.0
 50
90.0
1001
ACAD
1000
DSTYLE
1002
{
1070
   287
1070
     3
1070
     7
1000

1070
     6
1000

1070
   280
1070
     0
1070
    76
1070
     0
1070
    75
1070
     0
1070
   279
1070
     0
1002
}
  0
DIMENSION
  5
193
  8
0
  6
CONTINUOUS
 62
    11
  2
*D19
 10
62.393
 20
109.817
 30
0.0
 11
62.393
 21
98.578
 31
0.0
 70
   160
  1
\fArial|b0|i0|c0|p0;0.5
  3
STEFANO
 13
72.293
 23
108.817
 33
0.0
 14
71.293
 24
109.817
 34
0.0
 50
90.0
1001
ACAD
1000
DSTYLE
1002
{
1070
   287
1070
     3
1070
   279
1070
     0
1002
}
  0
DIMENSION
  5
1A3
  8
0
  6
CONTINUOUS
 62
    11
  2
*D20
 10
97.543
 20
109.817
 30
0.0
 11
97.543
 21
120.056
 31
0.0
 70
   160
  1
\fArial|b0|i0|c0|p0;0.5
  3
STEFANO
 13
85.793
 23
108.817
 33
0.0
 14
86.293
 24
109.817
 34
0.0
 50
90.0
1001
ACAD
1000
DSTYLE
1002
{
1070
   287
1070
     3
1070
   279
1070
     0
1002
}
  0
DIMENSION
  5
1B3
  8
0
  6
CONTINUOUS
 62
    11
  2
*D21
 10
99.893
 20
94.817
 30
0.0
 11
99.893
 21
83.578
 31
0.0
 70
   160
  1
\fArial|b0|i0|c0|p0;0.5
  3
STEFANO
 13
72.793
 23
93.817
 33
0.0
 14
85.793
 24
94.817
 34
0.0
 50
90.0
1001
ACAD
1000
DSTYLE
1002
{
1070
   287
1070
     3
1070
   279
1070
     0
1002
}
  0
DIMENSION
  5
1C3
  8
0
  6
CONTINUOUS
 62
    11
  2
*D22
 10
57.893
 20
94.817
 30
0.0
 11
57.893
 21
83.578
 31
0.0
 70
   160
  1
\fArial|b0|i0|c0|p0;0.5
  3
STEFANO
 13
72.793
 23
93.817
 33
0.0
 14
71.793
 24
94.817
 34
0.0
 50
90.0
1001
ACAD
1000
DSTYLE
1002
{
1070
   287
1070
     3
1070
   279
1070
     0
1002
}
  0
DIMENSION
  5
1D3
  8
0
  6
CONTINUOUS
 62
    11
  2
*D23
 10
78.793
 20
149.524
 30
0.0
 11
87.084
 21
140.62
 31
0.0
 70
   164
  1
R0.8
  3
STEFANO
 15
79.134
 25
149.158
 35
0.0
 40
0.0
1001
ACAD
1000
DSTYLE
1002
{
1070
   172
1070
     0
1002
}
  0
DIMENSION
  5
1DE
  8
0
  6
CONTINUOUS
 62
    11
  2
*D24
 10
73.793
 20
171.917
 30
0.0
 11
76.293
 21
174.942
 31
0.0
 70
    32
  1
\fArial|b0|i0|c0|p0;5
  3
STEFANO
 13
78.793
 23
94.017
 33
0.0
 14
73.793
 24
153.817
 34
0.0
1001
ACAD
1000
DSTYLE
1002
{
1070
     7
1000

1070
     6
1000

1070
   280
1070
     0
1070
    76
1070
     0
1070
    75
1070
     0
1002
}
  0
DIMENSION
  5
1ED
  8
0
  6
CONTINUOUS
 62
    11
  2
*D25
 10
83.793
 20
162.917
 30
0.0
 11
81.293
 21
165.942
 31
0.0
 70
    32
  1
\fArial|b0|i0|c0|p0;5
  3
STEFANO
 13
78.793
 23
94.017
 33
0.0
 14
83.793
 24
153.817
 34
0.0
  0
DIMENSION
  5
1FC
  8
0
  6
CONTINUOUS
 62
    11
  2
*D26
 10
72.293
 20
123.817
 30
0.0
 11
27.153
 21
123.817
 31
0.0
 70
    34
  1
90
  3
STEFANO
 13
71.293
 23
124.817
 33
0.0
 14
72.293
 24
123.817
 34
0.0
 15
71.293
 25
122.817
 35
0.0
 16
31.62
 26
134.715
 36
0.0
1001
ACAD
1000
DSTYLE
1002
{
1070
   284
1070
    12
1002
}
  0
DIMENSION
  5
20B
  8
0
  6
CONTINUOUS
 62
    11
  2
*D27
 10
71.293
 20
122.817
 30
0.0
 11
82.505
 21
118.173
 31
0.0
 70
    34
  1
135
  3
STEFANO
 13
71.293
 23
109.817
 33
0.0
 14
71.293
 24
122.817
 34
0.0
 15
72.293
 25
123.817
 35
0.0
 16
82.018
 26
112.092
 36
0.0
1001
ACAD
1000
DSTYLE
1002
{
1070
   284
1070
    12
1002
}
  0
DIMENSION
  5
21A
  8
0
  6
CONTINUOUS
 62
    11
  2
*D28
 10
72.965
 20
151.817
 30
0.0
 11
83.613
 21
177.522
 31
0.0
 70
   164
  1
R2
  3
STEFANO
 15
73.73
 25
153.664
 35
0.0
 40
0.0
1001
ACAD
1000
DSTYLE
1002
{
1070
   172
1070
     0
1002
}
  0
DIMENSION
  5
225
  8
0
  6
CONTINUOUS
 62
    11
  2
*D29
 10
84.622
 20
151.817
 30
0.0
 11
76.068
 21
172.467
 31
0.0
 70
   164
  1
R2
  3
STEFANO
 15
83.856
 25
153.664
 35
0.0
 40
0.0
1001
ACAD
1000
DSTYLE
1002
{
1070
   172
1070
     0
1002
}
  0
LINE
  5
230
  8
1
  6
CONTINUOUS
 62
     7
 10
-169.302
 20
109.315
 30
0.0
 11
-169.802
 21
109.315
 31
0.0
  0
LINE
  5
231
  8
1
  6
CONTINUOUS
 62
     7
 10
-169.002
 20
154.315
 30
0.0
 11
-169.802
 21
153.515
 31
0.0
  0
LINE
  5
232
  8
1
  6
CONTINUOUS
 62
     7
 10
-169.802
 20
153.515
 30
0.0
 11
-169.802
 21
109.315
 31
0.0
  0
LINE
  5
233
  8
0
  6
CONTINUOUS
 62
     7
 10
71.293
 20
122.817
 30
0.0
 11
71.293
 21
109.817
 31
0.0
  0
LINE
  5
234
  8
0
  6
CONTINUOUS
 62
     7
 10
72.293
 20
108.817
 30
0.0
 11
71.793
 21
108.817
 31
0.0
  0
LINE
  5
235
  8
1
  6
CONTINUOUS
 62
     7
 10
-169.302
 20
109.315
 30
0.0
 11
-169.302
 21
95.315
 31
0.0
  0
LINE
  5
236
  8
1
  6
CONTINUOUS
 62
     7
 10
-169.302
 20
95.315
 30
0.0
 11
-168.302
 21
94.315
 31
0.0
  0
LINE
  5
237
  8
1
  6
CONTINUOUS
 62
     7
 10
-168.302
 20
94.315
 30
0.0
 11
-156.302
 21
94.315
 31
0.0
  0
LINE
  5
238
  8
1
  6
CONTINUOUS
 62
     7
 10
-156.302
 20
94.315
 30
0.0
 11
-155.302
 21
95.315
 31
0.0
  0
LINE
  5
239
  8
1
  6
CONTINUOUS
 62
     7
 10
-155.302
 20
95.315
 30
0.0
 11
-155.302
 21
109.315
 31
0.0
  0
LINE
  5
23A
  8
1
  6
CONTINUOUS
 62
     7
 10
-154.802
 20
109.315
 30
0.0
 11
-155.302
 21
109.315
 31
0.0
  0
LINE
  5
23B
  8
1
  6
CONTINUOUS
 62
     7
 10
-154.802
 20
109.315
 30
0.0
 11
-154.802
 21
153.515
 31
0.0
  0
LINE
  5
23C
  8
1
  6
CONTINUOUS
 62
     7
 10
-154.802
 20
153.515
 30
0.0
 11
-155.602
 21
154.315
 31
0.0
  0
LINE
  5
23D
  8
1
  6
CONTINUOUS
 62
     7
 10
-168.151
 20
154.315
 30
0.0
 11
-169.002
 21
154.315
 31
0.0
  0
LINE
  5
23E
  8
1
  6
CONTINUOUS
 62
     7
 10
-162.446
 20
149.286
 30
0.0
 11
-166.712
 21
153.704
 31
0.0
  0
LINE
  5
23F
  8
1
  6
CONTINUOUS
 62
     7
 10
-157.892
 20
153.704
 30
0.0
 11
-162.158
 21
149.286
 31
0.0
  0
LINE
  5
240
  8
1
  6
CONTINUOUS
 62
     7
 10
-155.602
 20
154.315
 30
0.0
 11
-156.453
 21
154.315
 31
0.0
  0
DIMENSION
  5
241
  8
0
  6
CONTINUOUS
 62
    11
  2
*D30
 10
612.873
 20
114.214
 30
0.0
 11
612.873
 21
103.976
 31
0.0
 70
   161
  1
\fArial|b0|i0|c0|p0;2.2
  3
STEFANO
 13
603.873
 23
116.414
 33
0.0
 14
603.873
 24
114.214
 34
0.0
1001
ACAD
1000
DSTYLE
1002
{
1070
   287
1070
     3
1070
     7
1000

1070
     6
1000

1070
   280
1070
     0
1070
    76
1070
     0
1070
    75
1070
     0
1070
   279
1070
     0
1002
}
  0
DIMENSION
  5
251
  8
0
  6
CONTINUOUS
 62
    11
  2
*D31
 10
478.905
 20
100.914
 30
0.0
 11
473.617
 21
97.658
 31
0.0
 70
    34
  1
45
  3
STEFANO
 13
478.905
 23
100.914
 33
0.0
 14
478.905
 24
114.214
 34
0.0
 15
479.505
 25
100.314
 35
0.0
 16
482.905
 26
93.985
 36
0.0
1001
ACAD
1000
DSTYLE
1002
{
1070
   284
1070
    12
1002
}
  0
DIMENSION
  5
262
  8
0
  6
CONTINUOUS
 62
    11
  2
*D32
 10
494.105
 20
144.814
 30
0.0
 11
491.857
 21
105.185
 31
0.0
 70
    34
  1
45
  3
STEFANO
 13
493.505
 23
100.314
 33
0.0
 14
494.105
 24
100.914
 34
0.0
 15
494.105
 25
100.914
 35
0.0
 16
492.524
 26
95.016
 36
0.0
1001
ACAD
1000
DSTYLE
1002
{
1070
   284
1070
    12
1002
}
  0
DIMENSION
  5
274
  8
0
  6
CONTINUOUS
 62
    11
  2
*D33
 10
479.805
 20
145.714
 30
0.0
 11
453.91
 21
134.988
 31
0.0
 70
    34
  1
45
  3
STEFANO
 13
479.805
 23
145.714
 33
0.0
 14
481.57
 24
145.714
 34
0.0
 15
478.905
 25
144.814
 35
0.0
 16
449.809
 26
137.676
 36
0.0
1001
ACAD
1000
DSTYLE
1002
{
1070
   284
1070
    12
1002
}
  0
DIMENSION
  5
283
  8
0
  6
CONTINUOUS
 62
    11
  2
*D34
 10
491.439
 20
145.714
 30
0.0
 11
507.062
 21
139.974
 31
0.0
 70
    34
  1
45
  3
STEFANO
 13
494.105
 23
144.814
 33
0.0
 14
493.205
 24
145.714
 34
0.0
 15
493.205
 25
145.714
 35
0.0
 16
508.814
 26
136.701
 36
0.0
1001
ACAD
1000
DSTYLE
1002
{
1070
   284
1070
    12
1002
}
  0
DIMENSION
  5
292
  8
0
  6
CONTINUOUS
 62
    11
  2
*D35
 10
479.305
 20
86.014
 30
0.0
 11
482.566
 21
78.139
 31
0.0
 70
    34
  1
45
  3
STEFANO
 13
479.305
 23
86.014
 33
0.0
 14
479.305
 24
100.314
 34
0.0
 15
480.305
 25
85.014
 35
0.0
 16
482.294
 26
74.859
 36
0.0
1001
ACAD
1000
DSTYLE
1002
{
1070
   284
1070
    12
1002
}
  0
DIMENSION
  5
2A3
  8
0
  6
CONTINUOUS
 62
    11
  2
*D36
 10
493.705
 20
100.314
 30
0.0
 11
490.692
 21
78.741
 31
0.0
 70
    34
  1
45
  3
STEFANO
 13
492.705
 23
85.014
 33
0.0
 14
493.705
 24
86.014
 34
0.0
 15
493.705
 25
86.014
 35
0.0
 16
488.256
 26
76.576
 36
0.0
1001
ACAD
1000
DSTYLE
1002
{
1070
   284
1070
    12
1002
}
  0
DIMENSION
  5
2B4
  8
0
  6
CONTINUOUS
 62
    11
  2
*D37
 10
486.505
 20
67.114
 30
0.0
 11
469.105
 21
67.114
 31
0.0
 70
   160
  1
\fArial|b0|i0|c0|p0;7.2
  3
STEFANO
 13
479.305
 23
100.314
 33
0.0
 14
486.505
 24
85.614
 34
0.0
1001
ACAD
1000
DSTYLE
1002
{
1070
   287
1070
     3
1070
   279
1070
     0
1002
}
  0
DIMENSION
  5
2C4
  8
0
  6
CONTINUOUS
 62
    11
  2
*D38
 10
486.505
 20
67.114
 30
0.0
 11
476.305
 21
67.114
 31
0.0
 70
   160
  1
\fArial|b0|i0|c0|p0;7.2
  3
STEFANO
 13
493.705
 23
86.014
 33
0.0
 14
486.505
 24
85.614
 34
0.0
1001
ACAD
1000
DSTYLE
1002
{
1070
   287
1070
     3
1070
     7
1000

1070
     6
1000

1070
   280
1070
     0
1070
    76
1070
     0
1070
    75
1070
     0
1070
   279
1070
     0
1002
}
  0
DIMENSION
  5
2D4
  8
0
  6
CONTINUOUS
 62
    11
  2
*D39
 10
486.505
 20
172.814
 30
0.0
 11
468.688
 21
172.814
 31
0.0
 70
   160
  1
\fArial|b0|i0|c0|p0;7.6
  3
STEFANO
 13
478.905
 23
144.814
 33
0.0
 14
486.505
 24
85.614
 34
0.0
1001
ACAD
1000
DSTYLE
1002
{
1070
   287
1070
     3
1070
   279
1070
     0
1002
}
  0
DIMENSION
  5
2E4
  8
0
  6
CONTINUOUS
 62
    11
  2
*D40
 10
486.505
 20
172.664
 30
0.0
 11
476.288
 21
172.664
 31
0.0
 70
   160
  1
\fArial|b0|i0|c0|p0;7.6
  3
STEFANO
 13
494.105
 23
100.914
 33
0.0
 14
486.505
 24
85.614
 34
0.0
1001
ACAD
1000
DSTYLE
1002
{
1070
   287
1070
     3
1070
     7
1000

1070
     6
1000

1070
   280
1070
     0
1070
    76
1070
     0
1070
    75
1070
     0
1070
   279
1070
     0
1002
}
  0
DIMENSION
  5
2F4
  8
0
  6
CONTINUOUS
 62
    11
  2
*D41
 10
451.755
 20
115.314
 30
0.0
 11
448.723
 21
107.814
 31
0.0
 70
    32
  1
\fArial|b0|i0|c0|p0;15
  3
STEFANO
 13
479.505
 23
100.314
 33
0.0
 14
480.005
 24
115.314
 34
0.0
 50
90.0
  0
DIMENSION
  5
301
  8
0
  6
CONTINUOUS
 62
    11
  2
*D42
 10
469.905
 20
114.214
 30
0.0
 11
469.905
 21
103.976
 31
0.0
 70
   161
  1
\fArial|b0|i0|c0|p0;2.2
  3
STEFANO
 13
478.905
 23
116.414
 33
0.0
 14
478.905
 24
114.214
 34
0.0
1001
ACAD
1000
DSTYLE
1002
{
1070
   287
1070
     3
1070
     7
1000

1070
     6
1000

1070
   280
1070
     0
1070
    76
1070
     0
1070
    75
1070
     0
1070
   279
1070
     0
1002
}
  0
DIMENSION
  5
311
  8
0
  6
CONTINUOUS
 62
    11
  2
*D43
 10
486.051
 20
141.233
 30
0.0
 11
467.484
 21
186.7
 31
0.0
 70
    34
  1
45
  3
STEFANO
 13
486.505
 23
154.423
 33
0.0
 14
486.505
 24
85.614
 34
0.0
 15
481.57
 25
145.714
 35
0.0
 16
474.423
 26
185.867
 36
0.0
1001
ACAD
1000
DSTYLE
1002
{
1070
   284
1070
    12
1002
}
  0
DIMENSION
  5
320
  8
0
  6
CONTINUOUS
 62
    11
  2
*D44
 10
427.155
 20
100.314
 30
0.0
 11
424.129
 21
123.014
 31
0.0
 70
    32
  1
\fArial|b0|i0|c0|p0;45.4
  3
STEFANO
 13
493.205
 23
145.714
 33
0.0
 14
493.705
 24
100.314
 34
0.0
 50
90.0
1001
ACAD
1000
DSTYLE
1002
{
1070
     7
1000

1070
     6
1000

1070
   280
1070
     0
1070
    76
1070
     0
1070
    75
1070
     0
1002
}
  0
DIMENSION
  5
32D
  8
0
  6
CONTINUOUS
 62
    11
  2
*D45
 10
438.405
 20
85.014
 30
0.0
 11
435.373
 21
92.664
 31
0.0
 70
    32
  1
\fArial|b0|i0|c0|p0;15.3
  3
STEFANO
 13
493.705
 23
100.314
 33
0.0
 14
480.305
 24
85.014
 34
0.0
 50
90.0
1001
ACAD
1000
DSTYLE
1002
{
1070
     7
1000

1070
     6
1000

1070
   280
1070
     0
1070
    76
1070
     0
1070
    75
1070
     0
1002
}
  0
DIMENSION
  5
33A
  8
0
  6
CONTINUOUS
 62
    11
  2
*D46
 10
486.505
 20
85.614
 30
0.0
 11
504.944
 21
185.297
 31
0.0
 70
    34
  1
45
  3
STEFANO
 13
491.439
 23
145.714
 33
0.0
 14
486.958
 24
141.233
 34
0.0
 15
486.505
 25
154.423
 35
0.0
 16
509.084
 26
179.889
 36
0.0
1001
ACAD
1000
DSTYLE
1002
{
1070
   284
1070
    12
1002
}
  0
DIMENSION
  5
349
  8
0
  6
CONTINUOUS
 62
    11
  2
*D47
 10
459.155
 20
144.814
 30
0.0
 11
459.155
 21
155.945
 31
0.0
 70
   160
  1
\fArial|b0|i0|c0|p0;0.9
  3
STEFANO
 13
481.57
 23
145.714
 33
0.0
 14
478.905
 24
144.814
 34
0.0
 50
90.0
1001
ACAD
1000
DSTYLE
1002
{
1070
   287
1070
     3
1070
     7
1000

1070
     6
1000

1070
   280
1070
     0
1070
    76
1070
     0
1070
    75
1070
     0
1070
   279
1070
     0
1002
}
  0
DIMENSION
  5
359
  8
0
  6
CONTINUOUS
 62
    11
  2
*D48
 10
460.905
 20
144.814
 30
0.0
 11
460.905
 21
155.945
 31
0.0
 70
   160
  1
\fArial|b0|i0|c0|p0;0.9
  3
STEFANO
 13
493.205
 23
145.714
 33
0.0
 14
494.105
 24
144.814
 34
0.0
 50
90.0
1001
ACAD
1000
DSTYLE
1002
{
1070
   287
1070
     3
1070
     7
1000

1070
     6
1000

1070
   280
1070
     0
1070
    76
1070
     0
1070
    75
1070
     0
1070
   279
1070
     0
1002
}
  0
DIMENSION
  5
369
  8
0
  6
CONTINUOUS
 62
    11
  2
*D49
 10
460.755
 20
100.914
 30
0.0
 11
460.755
 21
90.085
 31
0.0
 70
   160
  1
\fArial|b0|i0|c0|p0;0.6
  3
STEFANO
 13
479.505
 23
100.314
 33
0.0
 14
478.905
 24
100.914
 34
0.0
 50
90.0
1001
ACAD
1000
DSTYLE
1002
{
1070
   287
1070
     3
1070
   279
1070
     0
1002
}
  0
DIMENSION
  5
379
  8
0
  6
CONTINUOUS
 62
    11
  2
*D50
 10
463.155
 20
100.914
 30
0.0
 11
463.155
 21
111.142
 31
0.0
 70
   160
  1
\fArial|b0|i0|c0|p0;0.6
  3
STEFANO
 13
493.705
 23
100.314
 33
0.0
 14
494.105
 24
100.914
 34
0.0
 50
90.0
1001
ACAD
1000
DSTYLE
1002
{
1070
   287
1070
     3
1070
   279
1070
     0
1002
}
  0
DIMENSION
  5
389
  8
0
  6
CONTINUOUS
 62
    11
  2
*D51
 10
456.405
 20
86.014
 30
0.0
 11
456.405
 21
76.962
 31
0.0
 70
   160
  1
\fArial|b0|i0|c0|p0;1
  3
STEFANO
 13
480.305
 23
85.014
 33
0.0
 14
493.705
 24
86.014
 34
0.0
 50
90.0
1001
ACAD
1000
DSTYLE
1002
{
1070
   287
1070
     3
1070
   279
1070
     0
1002
}
  0
DIMENSION
  5
399
  8
0
  6
CONTINUOUS
 62
    11
  2
*D52
 10
465.405
 20
86.014
 30
0.0
 11
465.405
 21
76.962
 31
0.0
 70
   160
  1
\fArial|b0|i0|c0|p0;1
  3
STEFANO
 13
480.305
 23
85.014
 33
0.0
 14
479.305
 24
86.014
 34
0.0
 50
90.0
1001
ACAD
1000
DSTYLE
1002
{
1070
   287
1070
     3
1070
   279
1070
     0
1002
}
  0
DIMENSION
  5
3A9
  8
0
  6
CONTINUOUS
 62
    11
  2
*D53
 10
486.505
 20
141.686
 30
0.0
 11
495.678
 21
131.834
 31
0.0
 70
   164
  1
R0.64
  3
STEFANO
 15
486.942
 25
141.217
 35
0.0
 40
0.0
1001
ACAD
1000
DSTYLE
1002
{
1070
   172
1070
     0
1002
}
  0
DIMENSION
  5
3B4
  8
0
  6
CONTINUOUS
 62
    11
  2
*D54
 10
481.57
 20
154.814
 30
0.0
 11
470.118
 21
154.814
 31
0.0
 70
   160
  1
\fArial|b0|i0|c0|p0;4.93
  3
STEFANO
 13
486.505
 23
85.614
 33
0.0
 14
481.57
 24
145.714
 34
0.0
1001
ACAD
1000
DSTYLE
1002
{
1070
   287
1070
     3
1070
     7
1000

1070
     6
1000

1070
   280
1070
     0
1070
    76
1070
     0
1070
    75
1070
     0
1070
   279
1070
     0
1002
}
  0
DIMENSION
  5
3C4
  8
0
  6
CONTINUOUS
 62
    11
  2
*D55
 10
491.439
 20
163.814
 30
0.0
 11
475.052
 21
163.814
 31
0.0
 70
   160
  1
\fArial|b0|i0|c0|p0;4.93
  3
STEFANO
 13
486.505
 23
85.614
 33
0.0
 14
491.439
 24
145.714
 34
0.0
1001
ACAD
1000
DSTYLE
1002
{
1070
   287
1070
     3
1070
   279
1070
     0
1002
}
  0
DIMENSION
  5
3D4
  8
0
  6
CONTINUOUS
 62
    11
  2
*D56
 10
480.005
 20
115.314
 30
0.0
 11
440.79
 21
115.314
 31
0.0
 70
    34
  1
90
  3
STEFANO
 13
478.905
 23
116.414
 33
0.0
 14
480.005
 24
115.314
 34
0.0
 15
478.905
 25
114.214
 35
0.0
 16
445.054
 26
124.679
 36
0.0
1001
ACAD
1000
DSTYLE
1002
{
1070
   284
1070
    12
1002
}
  0
DIMENSION
  5
3E3
  8
0
  6
CONTINUOUS
 62
    11
  2
*D57
 10
478.905
 20
114.214
 30
0.0
 11
485.561
 21
111.457
 31
0.0
 70
    34
  1
135
  3
STEFANO
 13
478.905
 23
100.914
 33
0.0
 14
478.905
 24
114.214
 34
0.0
 15
480.005
 25
115.314
 35
0.0
 16
486.142
 26
106.976
 36
0.0
1001
ACAD
1000
DSTYLE
1002
{
1070
   284
1070
    12
1002
}
  0
LINE
  5
3F1
  8
0
  6
CONTINUOUS
 62
     7
 10
479.505
 20
100.314
 30
0.0
 11
478.905
 21
100.314
 31
0.0
  0
LINE
  5
3F2
  8
0
  6
CONTINUOUS
 62
     7
 10
494.105
 20
100.314
 30
0.0
 11
493.505
 21
100.314
 31
0.0
  0
DIMENSION
  5
3F3
  8
0
  6
CONTINUOUS
 62
    11
  2
*D58
 10
651.078
 20
64.117
 30
0.0
 11
646.584
 21
65.686
 31
0.0
 70
    34
  1
45
  3
STEFANO
 13
651.078
 23
64.117
 33
0.0
 14
651.078
 24
70.767
 34
0.0
 15
651.378
 25
63.817
 35
0.0
 16
654.079
 26
58.921
 36
0.0
1001
ACAD
1000
DSTYLE
1002
{
1070
   144
1040
2.0
1070
   284
1070
    12
1002
}
  0
DIMENSION
  5
405
  8
0
  6
CONTINUOUS
 62
    11
  2
*D59
 10
658.678
 20
86.067
 30
0.0
 11
656.609
 21
68.405
 31
0.0
 70
    34
  1
45
  3
STEFANO
 13
658.378
 23
63.817
 33
0.0
 14
658.678
 24
64.117
 34
0.0
 15
658.678
 25
64.117
 35
0.0
 16
657.125
 26
58.321
 36
0.0
1001
ACAD
1000
DSTYLE
1002
{
1070
   144
1040
2.0
1070
   284
1070
    12
1002
}
  0
DIMENSION
  5
417
  8
0
  6
CONTINUOUS
 62
    11
  2
*D60
 10
651.528
 20
86.517
 30
0.0
 11
639.979
 21
81.733
 31
0.0
 70
    34
  1
45
  3
STEFANO
 13
651.528
 23
86.517
 33
0.0
 14
652.411
 24
86.517
 34
0.0
 15
651.078
 25
86.067
 35
0.0
 16
636.531
 26
82.498
 36
0.0
1001
ACAD
1000
DSTYLE
1002
{
1070
   144
1040
2.0
1070
   284
1070
    12
1002
}
  0
DIMENSION
  5
428
  8
0
  6
CONTINUOUS
 62
    11
  2
*D61
 10
657.346
 20
86.517
 30
0.0
 11
657.492
 21
79.509
 31
0.0
 70
    34
  1
45
  3
STEFANO
 13
658.678
 23
86.067
 33
0.0
 14
658.228
 24
86.517
 34
0.0
 15
658.228
 25
86.517
 35
0.0
 16
666.934
 26
84.185
 36
0.0
1001
ACAD
1000
DSTYLE
1002
{
1070
   144
1040
2.0
1070
   284
1070
    12
1002
}
  0
DIMENSION
  5
439
  8
0
  6
CONTINUOUS
 62
    11
  2
*D62
 10
651.278
 20
56.667
 30
0.0
 11
646.784
 21
58.236
 31
0.0
 70
    34
  1
45
  3
STEFANO
 13
651.278
 23
56.667
 33
0.0
 14
651.278
 24
63.817
 34
0.0
 15
651.778
 25
56.167
 35
0.0
 16
654.278
 26
51.471
 36
0.0
1001
ACAD
1000
DSTYLE
1002
{
1070
   144
1040
2.0
1070
   284
1070
    12
1002
}
  0
DIMENSION
  5
44B
  8
0
  6
CONTINUOUS
 62
    11
  2
*D63
 10
658.478
 20
63.817
 30
0.0
 11
656.409
 21
60.955
 31
0.0
 70
    34
  1
45
  3
STEFANO
 13
657.978
 23
56.167
 33
0.0
 14
658.478
 24
56.667
 34
0.0
 15
658.478
 25
56.667
 35
0.0
 16
656.925
 26
50.871
 36
0.0
1001
ACAD
1000
DSTYLE
1002
{
1070
   144
1040
2.0
1070
   284
1070
    12
1002
}
  0
DIMENSION
  5
45D
  8
0
  6
CONTINUOUS
 62
    11
  2
*D64
 10
654.878
 20
38.217
 30
0.0
 11
641.078
 21
38.217
 31
0.0
 70
   160
  1
\fArial|b0|i0|c0|p0;7.2
  3
STEFANO
 13
651.278
 23
63.817
 33
0.0
 14
654.878
 24
56.467
 34
0.0
1001
ACAD
1000
DSTYLE
1002
{
1070
   287
1070
     3
1070
   279
1070
     0
1070
   144
1040
2.0
1002
}
  0
DIMENSION
  5
46D
  8
0
  6
CONTINUOUS
 62
    11
  2
*D65
 10
654.878
 20
38.217
 30
0.0
 11
668.678
 21
38.217
 31
0.0
 70
   160
  1
\fArial|b0|i0|c0|p0;7.2
  3
STEFANO
 13
658.478
 23
56.667
 33
0.0
 14
654.878
 24
56.467
 34
0.0
1001
ACAD
1000
DSTYLE
1002
{
1070
   287
1070
     3
1070
     7
1000

1070
     6
1000

1070
   280
1070
     0
1070
    76
1070
     0
1070
    75
1070
     0
1070
   279
1070
     0
1070
   144
1040
2.0
1002
}
  0
DIMENSION
  5
47D
  8
0
  6
CONTINUOUS
 62
    11
  2
*D66
 10
654.878
 20
113.567
 30
0.0
 11
640.862
 21
113.567
 31
0.0
 70
   160
  1
\fArial|b0|i0|c0|p0;7.6
  3
STEFANO
 13
651.078
 23
86.067
 33
0.0
 14
654.878
 24
56.467
 34
0.0
1001
ACAD
1000
DSTYLE
1002
{
1070
   287
1070
     3
1070
   279
1070
     0
1070
   144
1040
2.0
1002
}
  0
DIMENSION
  5
48D
  8
0
  6
CONTINUOUS
 62
    11
  2
*D67
 10
654.878
 20
113.492
 30
0.0
 11
644.662
 21
113.492
 31
0.0
 70
   160
  1
\fArial|b0|i0|c0|p0;7.6
  3
STEFANO
 13
658.678
 23
64.117
 33
0.0
 14
654.878
 24
56.467
 34
0.0
1001
ACAD
1000
DSTYLE
1002
{
1070
   287
1070
     3
1070
     7
1000

1070
     6
1000

1070
   280
1070
     0
1070
    76
1070
     0
1070
    75
1070
     0
1070
   279
1070
     0
1070
   144
1040
2.0
1002
}
  0
DIMENSION
  5
49D
  8
0
  6
CONTINUOUS
 62
    11
  2
*D68
 10
624.003
 20
71.317
 30
0.0
 11
624.003
 21
54.301
 31
0.0
 70
   160
  1
\fArial|b0|i0|c0|p0;15
  3
STEFANO
 13
651.378
 23
63.817
 33
0.0
 14
651.628
 24
71.317
 34
0.0
 50
90.0
1001
ACAD
1000
DSTYLE
1002
{
1070
   287
1070
     3
1070
   279
1070
     0
1070
   144
1040
2.0
1002
}
  0
DIMENSION
  5
4AD
  8
0
  6
CONTINUOUS
 62
    11
  2
*D69
 10
642.078
 20
70.767
 30
0.0
 11
642.078
 21
60.53
 31
0.0
 70
   161
  1
\fArial|b0|i0|c0|p0;2.2
  3
STEFANO
 13
651.078
 23
71.867
 33
0.0
 14
651.078
 24
70.767
 34
0.0
1001
ACAD
1000
DSTYLE
1002
{
1070
   287
1070
     3
1070
     7
1000

1070
     6
1000

1070
   280
1070
     0
1070
    76
1070
     0
1070
    75
1070
     0
1070
   279
1070
     0
1070
   144
1040
2.0
1002
}
  0
DIMENSION
  5
4BD
  8
0
  6
CONTINUOUS
 62
    11
  2
*D70
 10
654.652
 20
84.277
 30
0.0
 11
644.789
 21
108.408
 31
0.0
 70
    34
  1
45
  3
STEFANO
 13
654.878
 23
90.872
 33
0.0
 14
654.878
 24
56.467
 34
0.0
 15
652.411
 25
86.517
 35
0.0
 16
648.838
 26
106.594
 36
0.0
1001
ACAD
1000
DSTYLE
1002
{
1070
   144
1040
2.0
1070
   284
1070
    12
1002
}
  0
DIMENSION
  5
4CC
  8
0
  6
CONTINUOUS
 62
    11
  2
*D71
 10
602.703
 20
63.817
 30
0.0
 11
599.678
 21
75.167
 31
0.0
 70
    32
  1
\fArial|b0|i0|c0|p0;45.4
  3
STEFANO
 13
658.228
 23
86.517
 33
0.0
 14
658.478
 24
63.817
 34
0.0
 50
90.0
1001
ACAD
1000
DSTYLE
1002
{
1070
     7
1000

1070
     6
1000

1070
   280
1070
     0
1070
    76
1070
     0
1070
    75
1070
     0
1070
   144
1040
2.0
1002
}
  0
DIMENSION
  5
4D9
  8
0
  6
CONTINUOUS
 62
    11
  2
*D72
 10
612.828
 20
56.167
 30
0.0
 11
612.828
 21
44.916
 31
0.0
 70
   160
  1
\fArial|b0|i0|c0|p0;15.3
  3
STEFANO
 13
658.478
 23
63.817
 33
0.0
 14
651.778
 24
56.167
 34
0.0
 50
90.0
1001
ACAD
1000
DSTYLE
1002
{
1070
   287
1070
     3
1070
     7
1000

1070
     6
1000

1070
   280
1070
     0
1070
    76
1070
     0
1070
    75
1070
     0
1070
   279
1070
     0
1070
   144
1040
2.0
1002
}
  0
DIMENSION
  5
4E9
  8
0
  6
CONTINUOUS
 62
    11
  2
*D73
 10
654.878
 20
56.467
 30
0.0
 11
664.677
 21
107.706
 31
0.0
 70
    34
  1
45
  3
STEFANO
 13
657.346
 23
86.517
 33
0.0
 14
655.105
 24
84.277
 34
0.0
 15
654.878
 25
90.872
 35
0.0
 16
666.168
 26
103.605
 36
0.0
1001
ACAD
1000
DSTYLE
1002
{
1070
   144
1040
2.0
1070
   284
1070
    12
1002
}
  0
DIMENSION
  5
4F8
  8
0
  6
CONTINUOUS
 62
    11
  2
*D74
 10
632.203
 20
86.067
 30
0.0
 11
632.203
 21
96.749
 31
0.0
 70
   160
  1
\fArial|b0|i0|c0|p0;0.9
  3
STEFANO
 13
652.411
 23
86.517
 33
0.0
 14
651.078
 24
86.067
 34
0.0
 50
90.0
1001
ACAD
1000
DSTYLE
1002
{
1070
   287
1070
     3
1070
     7
1000

1070
     6
1000

1070
   280
1070
     0
1070
    76
1070
     0
1070
    75
1070
     0
1070
   279
1070
     0
1070
   144
1040
2.0
1002
}
  0
DIMENSION
  5
508
  8
0
  6
CONTINUOUS
 62
    11
  2
*D75
 10
637.578
 20
86.067
 30
0.0
 11
637.578
 21
96.749
 31
0.0
 70
   160
  1
\fArial|b0|i0|c0|p0;0.9
  3
STEFANO
 13
658.228
 23
86.517
 33
0.0
 14
658.678
 24
86.067
 34
0.0
 50
90.0
1001
ACAD
1000
DSTYLE
1002
{
1070
   287
1070
     3
1070
     7
1000

1070
     6
1000

1070
   280
1070
     0
1070
    76
1070
     0
1070
    75
1070
     0
1070
   279
1070
     0
1070
   144
1040
2.0
1002
}
  0
DIMENSION
  5
518
  8
0
  6
CONTINUOUS
 62
    11
  2
*D76
 10
633.003
 20
64.117
 30
0.0
 11
633.003
 21
53.589
 31
0.0
 70
   160
  1
\fArial|b0|i0|c0|p0;0.6
  3
STEFANO
 13
651.378
 23
63.817
 33
0.0
 14
651.078
 24
64.117
 34
0.0
 50
90.0
1001
ACAD
1000
DSTYLE
1002
{
1070
   287
1070
     3
1070
   279
1070
     0
1070
   144
1040
2.0
1002
}
  0
DIMENSION
  5
528
  8
0
  6
CONTINUOUS
 62
    11
  2
*D77
 10
638.703
 20
64.117
 30
0.0
 11
638.703
 21
74.346
 31
0.0
 70
   160
  1
\fArial|b0|i0|c0|p0;0.6
  3
STEFANO
 13
658.478
 23
63.817
 33
0.0
 14
658.678
 24
64.117
 34
0.0
 50
90.0
1001
ACAD
1000
DSTYLE
1002
{
1070
   287
1070
     3
1070
   279
1070
     0
1070
   144
1040
2.0
1002
}
  0
DIMENSION
  5
538
  8
0
  6
CONTINUOUS
 62
    11
  2
*D78
 10
630.828
 20
56.667
 30
0.0
 11
630.828
 21
48.115
 31
0.0
 70
   160
  1
\fArial|b0|i0|c0|p0;1
  3
STEFANO
 13
651.778
 23
56.167
 33
0.0
 14
658.478
 24
56.667
 34
0.0
 50
90.0
1001
ACAD
1000
DSTYLE
1002
{
1070
   287
1070
     3
1070
   279
1070
     0
1070
   144
1040
2.0
1002
}
  0
DIMENSION
  5
548
  8
0
  6
CONTINUOUS
 62
    11
  2
*D79
 10
639.828
 20
56.667
 30
0.0
 11
639.828
 21
48.115
 31
0.0
 70
   160
  1
\fArial|b0|i0|c0|p0;1
  3
STEFANO
 13
651.778
 23
56.167
 33
0.0
 14
651.278
 24
56.667
 34
0.0
 50
90.0
1001
ACAD
1000
DSTYLE
1002
{
1070
   287
1070
     3
1070
   279
1070
     0
1070
   144
1040
2.0
1002
}
  0
DIMENSION
  5
558
  8
0
  6
CONTINUOUS
 62
    11
  2
*D80
 10
654.878
 20
84.503
 30
0.0
 11
663.834
 21
74.886
 31
0.0
 70
   164
  1
R0.64
  3
STEFANO
 15
655.097
 25
84.269
 35
0.0
 40
0.0
1001
ACAD
1000
DSTYLE
1002
{
1070
   144
1040
2.0
1070
   172
1070
     0
1002
}
  0
DIMENSION
  5
563
  8
0
  6
CONTINUOUS
 62
    11
  2
*D81
 10
652.411
 20
95.567
 30
0.0
 11
640.959
 21
95.567
 31
0.0
 70
   160
  1
\fArial|b0|i0|c0|p0;4.93
  3
STEFANO
 13
654.878
 23
56.467
 33
0.0
 14
652.411
 24
86.517
 34
0.0
1001
ACAD
1000
DSTYLE
1002
{
1070
   287
1070
     3
1070
     7
1000

1070
     6
1000

1070
   280
1070
     0
1070
    76
1070
     0
1070
    75
1070
     0
1070
   279
1070
     0
1070
   144
1040
2.0
1002
}
  0
DIMENSION
  5
573
  8
0
  6
CONTINUOUS
 62
    11
  2
*D82
 10
657.346
 20
104.567
 30
0.0
 11
643.426
 21
104.567
 31
0.0
 70
   160
  1
\fArial|b0|i0|c0|p0;4.93
  3
STEFANO
 13
654.878
 23
56.467
 33
0.0
 14
657.346
 24
86.517
 34
0.0
1001
ACAD
1000
DSTYLE
1002
{
1070
   287
1070
     3
1070
   279
1070
     0
1070
   144
1040
2.0
1002
}
  0
DIMENSION
  5
583
  8
0
  6
CONTINUOUS
 62
    11
  2
*D83
 10
651.628
 20
71.317
 30
0.0
 11
630.505
 21
71.317
 31
0.0
 70
    34
  1
90
  3
STEFANO
 13
651.078
 23
71.867
 33
0.0
 14
651.628
 24
71.317
 34
0.0
 15
651.078
 25
70.767
 35
0.0
 16
634.153
 26
75.999
 36
0.0
1001
ACAD
1000
DSTYLE
1002
{
1070
   144
1040
2.0
1070
   284
1070
    12
1002
}
  0
DIMENSION
  5
592
  8
0
  6
CONTINUOUS
 62
    11
  2
*D84
 10
651.078
 20
70.767
 30
0.0
 11
653.821
 21
69.631
 31
0.0
 70
    34
  1
135
  3
STEFANO
 13
651.078
 23
64.117
 33
0.0
 14
651.078
 24
70.767
 34
0.0
 15
651.628
 25
71.317
 35
0.0
 16
655.321
 26
66.524
 36
0.0
1001
ACAD
1000
DSTYLE
1002
{
1070
   144
1040
2.0
1070
   284
1070
    12
1002
}
  0
DIMENSION
  5
5A2
  8
0
  6
CONTINUOUS
 62
    11
  2
*D85
 10
233.758
 20
66.083
 30
0.0
 11
228.775
 21
67.026
 31
0.0
 70
    34
  1
45
  3
STEFANO
 13
233.758
 23
66.083
 33
0.0
 14
233.758
 24
72.583
 34
0.0
 15
234.258
 25
65.583
 35
0.0
 16
236.995
 26
60.476
 36
0.0
1001
ACAD
1000
DSTYLE
1002
{
1070
   144
1040
2.0
1070
   284
1070
    12
1002
}
  0
DIMENSION
  5
5B4
  8
0
  6
CONTINUOUS
 62
    11
  2
*D86
 10
241.258
 20
87.683
 30
0.0
 11
239.189
 21
70.371
 31
0.0
 70
    34
  1
45
  3
STEFANO
 13
240.758
 23
65.583
 33
0.0
 14
241.258
 24
66.083
 34
0.0
 15
241.258
 25
66.083
 35
0.0
 16
239.705
 26
60.288
 36
0.0
1001
ACAD
1000
DSTYLE
1002
{
1070
   144
1040
2.0
1070
   284
1070
    12
1002
}
  0
DIMENSION
  5
5C6
  8
0
  6
CONTINUOUS
 62
    11
  2
*D87
 10
234.158
 20
88.083
 30
0.0
 11
220.701
 21
82.509
 31
0.0
 70
    34
  1
45
  3
STEFANO
 13
234.158
 23
88.083
 33
0.0
 14
235.008
 24
88.083
 34
0.0
 15
233.758
 25
87.683
 35
0.0
 16
217.166
 26
83.531
 36
0.0
1001
ACAD
1000
DSTYLE
1002
{
1070
   144
1040
2.0
1070
   284
1070
    12
1002
}
  0
DIMENSION
  5
5D5
  8
0
  6
CONTINUOUS
 62
    11
  2
*D88
 10
240.008
 20
88.083
 30
0.0
 11
240.11
 21
81.09
 31
0.0
 70
    34
  1
45
  3
STEFANO
 13
241.258
 23
87.683
 33
0.0
 14
240.858
 24
88.083
 34
0.0
 15
240.858
 25
88.083
 35
0.0
 16
249.547
 26
85.755
 36
0.0
1001
ACAD
1000
DSTYLE
1002
{
1070
   144
1040
2.0
1070
   284
1070
    12
1002
}
  0
DIMENSION
  5
5E6
  8
0
  6
CONTINUOUS
 62
    11
  2
*D89
 10
234.008
 20
58.583
 30
0.0
 11
228.975
 21
59.455
 31
0.0
 70
    34
  1
45
  3
STEFANO
 13
234.008
 23
58.583
 33
0.0
 14
234.008
 24
65.583
 34
0.0
 15
234.508
 25
58.083
 35
0.0
 16
237.272
 26
52.929
 36
0.0
1001
ACAD
1000
DSTYLE
1002
{
1070
   144
1040
2.0
1070
   284
1070
    12
1002
}
  0
DIMENSION
  5
5F8
  8
0
  6
CONTINUOUS
 62
    11
  2
*D90
 10
241.008
 20
65.583
 30
0.0
 11
237.727
 21
62.692
 31
0.0
 70
    34
  1
45
  3
STEFANO
 13
240.508
 23
58.083
 33
0.0
 14
241.008
 24
58.583
 34
0.0
 15
241.008
 25
58.583
 35
0.0
 16
239.262
 26
52.069
 36
0.0
1001
ACAD
1000
DSTYLE
1002
{
1070
   144
1040
2.0
1070
   284
1070
    12
1002
}
  0
DIMENSION
  5
60A
  8
0
  6
CONTINUOUS
 62
    11
  2
*D91
 10
237.508
 20
31.133
 30
0.0
 11
235.758
 21
31.133
 31
0.0
 70
   160
  1
\fArial|b0|i0|c0|p0;7
  3
STEFANO
 13
234.008
 23
65.583
 33
0.0
 14
237.508
 24
58.183
 34
0.0
1001
ACAD
1000
DSTYLE
1002
{
1070
   287
1070
     3
1070
   279
1070
     0
1070
   144
1040
2.0
1002
}
  0
DIMENSION
  5
619
  8
0
  6
CONTINUOUS
 62
    11
  2
*D92
 10
237.508
 20
40.183
 30
0.0
 11
239.258
 21
40.183
 31
0.0
 70
   160
  1
\fArial|b0|i0|c0|p0;7
  3
STEFANO
 13
241.008
 23
58.583
 33
0.0
 14
237.508
 24
58.183
 34
0.0
1001
ACAD
1000
DSTYLE
1002
{
1070
   287
1070
     3
1070
     7
1000

1070
     6
1000

1070
   280
1070
     0
1070
    76
1070
     0
1070
    75
1070
     0
1070
   279
1070
     0
1070
   144
1040
2.0
1002
}
  0
DIMENSION
  5
628
  8
0
  6
CONTINUOUS
 62
    11
  2
*D93
 10
237.508
 20
115.133
 30
0.0
 11
223.531
 21
115.133
 31
0.0
 70
   160
  1
\fArial|b0|i0|c0|p0;7.5
  3
STEFANO
 13
233.758
 23
87.683
 33
0.0
 14
237.508
 24
58.183
 34
0.0
1001
ACAD
1000
DSTYLE
1002
{
1070
   287
1070
     3
1070
   279
1070
     0
1070
   144
1040
2.0
1002
}
  0
DIMENSION
  5
638
  8
0
  6
CONTINUOUS
 62
    11
  2
*D94
 10
237.508
 20
115.183
 30
0.0
 11
227.281
 21
115.183
 31
0.0
 70
   160
  1
\fArial|b0|i0|c0|p0;7.5
  3
STEFANO
 13
241.258
 23
66.083
 33
0.0
 14
237.508
 24
58.183
 34
0.0
1001
ACAD
1000
DSTYLE
1002
{
1070
   287
1070
     3
1070
     7
1000

1070
     6
1000

1070
   280
1070
     0
1070
    76
1070
     0
1070
    75
1070
     0
1070
   279
1070
     0
1070
   144
1040
2.0
1002
}
  0
DIMENSION
  5
648
  8
0
  6
CONTINUOUS
 62
    11
  2
*D95
 10
206.808
 20
73.083
 30
0.0
 11
206.808
 21
56.067
 31
0.0
 70
   161
  1
\fArial|b0|i0|c0|p0;15
  3
STEFANO
 13
234.258
 23
65.583
 33
0.0
 14
234.258
 24
73.083
 34
0.0
1001
ACAD
1000
DSTYLE
1002
{
1070
   287
1070
     3
1070
   279
1070
     0
1070
   144
1040
2.0
1002
}
  0
DIMENSION
  5
658
  8
0
  6
CONTINUOUS
 62
    11
  2
*D96
 10
185.383
 20
65.583
 30
0.0
 11
182.357
 21
76.833
 31
0.0
 70
    32
  1
\fArial|b0|i0|c0|p0;45
  3
STEFANO
 13
240.858
 23
88.083
 33
0.0
 14
241.008
 24
65.583
 34
0.0
 50
90.0
1001
ACAD
1000
DSTYLE
1002
{
1070
     7
1000

1070
     6
1000

1070
   280
1070
     0
1070
    76
1070
     0
1070
    75
1070
     0
1070
   144
1040
2.0
1002
}
  0
DIMENSION
  5
665
  8
0
  6
CONTINUOUS
 62
    11
  2
*D97
 10
195.558
 20
58.083
 30
0.0
 11
195.558
 21
48.567
 31
0.0
 70
   160
  1
\fArial|b0|i0|c0|p0;15
  3
STEFANO
 13
241.008
 23
65.583
 33
0.0
 14
234.508
 24
58.083
 34
0.0
 50
90.0
1001
ACAD
1000
DSTYLE
1002
{
1070
   287
1070
     3
1070
     7
1000

1070
     6
1000

1070
   280
1070
     0
1070
    76
1070
     0
1070
    75
1070
     0
1070
   279
1070
     0
1070
   144
1040
2.0
1002
}
  0
DIMENSION
  5
675
  8
0
  6
CONTINUOUS
 62
    11
  2
*D98
 10
214.883
 20
87.683
 30
0.0
 11
214.883
 21
98.315
 31
0.0
 70
   160
  1
\fArial|b0|i0|c0|p0;0.8
  3
STEFANO
 13
235.008
 23
88.083
 33
0.0
 14
233.758
 24
87.683
 34
0.0
 50
90.0
1001
ACAD
1000
DSTYLE
1002
{
1070
   287
1070
     3
1070
     7
1000

1070
     6
1000

1070
   280
1070
     0
1070
    76
1070
     0
1070
    75
1070
     0
1070
   279
1070
     0
1070
   144
1040
2.0
1002
}
  0
DIMENSION
  5
685
  8
0
  6
CONTINUOUS
 62
    11
  2
*D99
 10
220.258
 20
87.683
 30
0.0
 11
220.258
 21
98.315
 31
0.0
 70
   160
  1
\fArial|b0|i0|c0|p0;0.8
  3
STEFANO
 13
240.858
 23
88.083
 33
0.0
 14
241.258
 24
87.683
 34
0.0
 50
90.0
1001
ACAD
1000
DSTYLE
1002
{
1070
   287
1070
     3
1070
     7
1000

1070
     6
1000

1070
   280
1070
     0
1070
    76
1070
     0
1070
    75
1070
     0
1070
   279
1070
     0
1070
   144
1040
2.0
1002
}
  0
DIMENSION
  5
695
  8
0
  6
CONTINUOUS
 62
    11
  2
*D100
 10
215.808
 20
66.083
 30
0.0
 11
215.808
 21
55.344
 31
0.0
 70
   160
  1
\fArial|b0|i0|c0|p0;0.5
  3
STEFANO
 13
234.258
 23
65.583
 33
0.0
 14
233.758
 24
66.083
 34
0.0
 50
90.0
1001
ACAD
1000
DSTYLE
1002
{
1070
   287
1070
     3
1070
   279
1070
     0
1070
   144
1040
2.0
1002
}
  0
DIMENSION
  5
6A5
  8
0
  6
CONTINUOUS
 62
    11
  2
*D101
 10
221.383
 20
66.083
 30
0.0
 11
221.383
 21
76.322
 31
0.0
 70
   160
  1
\fArial|b0|i0|c0|p0;0.5
  3
STEFANO
 13
241.008
 23
65.583
 33
0.0
 14
241.258
 24
66.083
 34
0.0
 50
90.0
1001
ACAD
1000
DSTYLE
1002
{
1070
   287
1070
     3
1070
   279
1070
     0
1070
   144
1040
2.0
1002
}
  0
DIMENSION
  5
6B5
  8
0
  6
CONTINUOUS
 62
    11
  2
*D102
 10
213.558
 20
58.583
 30
0.0
 11
213.558
 21
47.844
 31
0.0
 70
   160
  1
\fArial|b0|i0|c0|p0;0.5
  3
STEFANO
 13
234.508
 23
58.083
 33
0.0
 14
241.008
 24
58.583
 34
0.0
 50
90.0
1001
ACAD
1000
DSTYLE
1002
{
1070
   287
1070
     3
1070
   279
1070
     0
1070
   144
1040
2.0
1002
}
  0
DIMENSION
  5
6C5
  8
0
  6
CONTINUOUS
 62
    11
  2
*D103
 10
222.558
 20
58.583
 30
0.0
 11
222.558
 21
47.844
 31
0.0
 70
   160
  1
\fArial|b0|i0|c0|p0;0.5
  3
STEFANO
 13
234.508
 23
58.083
 33
0.0
 14
234.008
 24
58.583
 34
0.0
 50
90.0
1001
ACAD
1000
DSTYLE
1002
{
1070
   287
1070
     3
1070
   279
1070
     0
1070
   144
1040
2.0
1002
}
  0
DIMENSION
  5
6D5
  8
0
  6
CONTINUOUS
 62
    11
  2
*D104
 10
237.508
 20
85.937
 30
0.0
 11
245.628
 21
77.217
 31
0.0
 70
   164
  1
R0.8
  3
STEFANO
 15
237.678
 25
85.754
 35
0.0
 40
0.0
1001
ACAD
1000
DSTYLE
1002
{
1070
   144
1040
2.0
1070
   172
1070
     0
1002
}
  0
DIMENSION
  5
6E0
  8
0
  6
CONTINUOUS
 62
    11
  2
*D105
 10
235.008
 20
106.133
 30
0.0
 11
226.515
 21
106.133
 31
0.0
 70
   160
  1
\fArial|b0|i0|c0|p0;5
  3
STEFANO
 13
237.508
 23
58.183
 33
0.0
 14
235.008
 24
88.083
 34
0.0
1001
ACAD
1000
DSTYLE
1002
{
1070
   287
1070
     3
1070
     7
1000

1070
     6
1000

1070
   280
1070
     0
1070
    76
1070
     0
1070
    75
1070
     0
1070
   279
1070
     0
1070
   144
1040
2.0
1002
}
  0
DIMENSION
  5
6F0
  8
0
  6
CONTINUOUS
 62
    11
  2
*D106
 10
240.008
 20
97.133
 30
0.0
 11
229.015
 21
97.133
 31
0.0
 70
   160
  1
\fArial|b0|i0|c0|p0;5
  3
STEFANO
 13
237.508
 23
58.183
 33
0.0
 14
240.008
 24
88.083
 34
0.0
1001
ACAD
1000
DSTYLE
1002
{
1070
   287
1070
     3
1070
   279
1070
     0
1070
   144
1040
2.0
1002
}
  0
DIMENSION
  5
700
  8
0
  6
CONTINUOUS
 62
    11
  2
*D107
 10
234.258
 20
73.083
 30
0.0
 11
210.172
 21
73.083
 31
0.0
 70
    34
  1
90
  3
STEFANO
 13
233.758
 23
73.583
 33
0.0
 14
234.258
 24
73.083
 34
0.0
 15
233.758
 25
72.583
 35
0.0
 16
213.921
 26
78.533
 36
0.0
1001
ACAD
1000
DSTYLE
1002
{
1070
   144
1040
2.0
1070
   284
1070
    12
1002
}
  0
DIMENSION
  5
70F
  8
0
  6
CONTINUOUS
 62
    11
  2
*D108
 10
233.758
 20
72.583
 30
0.0
 11
237.963
 21
70.842
 31
0.0
 70
    34
  1
135
  3
STEFANO
 13
233.758
 23
66.083
 33
0.0
 14
233.758
 24
72.583
 34
0.0
 15
234.258
 25
73.083
 35
0.0
 16
239.12
 26
67.221
 36
0.0
1001
ACAD
1000
DSTYLE
1002
{
1070
   144
1040
2.0
1070
   284
1070
    12
1002
}
  0
DIMENSION
  5
71E
  8
0
  6
CONTINUOUS
 62
    11
  2
*D109
 10
234.593
 20
87.083
 30
0.0
 11
240.441
 21
101.2
 31
0.0
 70
   164
  1
R2
  3
STEFANO
 15
234.976
 25
88.007
 35
0.0
 40
0.0
1001
ACAD
1000
DSTYLE
1002
{
1070
   144
1040
2.0
1070
   172
1070
     0
1002
}
  0
DIMENSION
  5
729
  8
0
  6
CONTINUOUS
 62
    11
  2
*D110
 10
240.422
 20
87.083
 30
0.0
 11
235.416
 21
99.169
 31
0.0
 70
   164
  1
R2
  3
STEFANO
 15
240.039
 25
88.007
 35
0.0
 40
0.0
1001
ACAD
1000
DSTYLE
1002
{
1070
   144
1040
2.0
1070
   172
1070
     0
1002
}
  0
ARC
  5
734
  8
1
  6
CONTINUOUS
 62
     7
 10
-162.302
 20
149.425
 30
0.0
 40
0.2
 50
224.0
 51
316.0
  0
ARC
  5
735
  8
1
  6
CONTINUOUS
 62
     7
 10
-168.151
 20
152.315
 30
0.0
 40
2.0
 50
44.0
 51
90.0
  0
ARC
  5
736
  8
1
  6
CONTINUOUS
 62
     7
 10
-156.453
 20
152.315
 30
0.0
 40
2.0
 50
90.0
 51
136.0
  0
ENDSEC
  0
EOF
