  0
SECTION
  2
HEADER
  9
$ACADVER
  1
AC1012
  9
$DWGCODEPAGE
  3
iso8859-1
  9
$INSBASE
 10
0.0
 20
0.0
 30
0.0
  9
$EXTMIN
 10
22.988205
 20
189.461525
 30
0.0
  9
$EXTMAX
 10
212.642268
 20
276.25305
 30
0.0
  9
$LIMMIN
 10
0.0
 20
0.0
  9
$LIMMAX
 10
210.0
 20
297.0
  9
$ORTHOMODE
 70
     0
  9
$REGENMODE
 70
     1
  9
$FILLMODE
 70
     1
  9
$QTEXTMODE
 70
     0
  9
$MIRRTEXT
 70
     1
  9
$DRAGMODE
 70
     2
  9
$LTSCALE
 40
1.0
  9
$OSMODE
 70
     0
  9
$ATTMODE
 70
     1
  9
$TEXTSIZE
 40
1.6
  9
$TRACEWID
 40
0.05
  9
$TEXTSTYLE
  7
STANDARD
  9
$CLAYER
  8
TEMPRA
  9
$CELTYPE
  6
BYLAYER
  9
$CECOLOR
 62
   256
  9
$CELTSCALE
 40
1.0
  9
$DELOBJ
 70
     1
  9
$DISPSILH
 70
     0
  9
$DIMSCALE
 40
1.0
  9
$DIMASZ
 40
2.5
  9
$DIMEXO
 40
0.625
  9
$DIMDLI
 40
3.75
  9
$DIMRND
 40
0.0
  9
$DIMDLE
 40
0.0
  9
$DIMEXE
 40
1.25
  9
$DIMTP
 40
0.0
  9
$DIMTM
 40
0.0
  9
$DIMTXT
 40
5.0
  9
$DIMCEN
 40
0.0
  9
$DIMTSZ
 40
0.0
  9
$DIMTOL
 70
     0
  9
$DIMLIM
 70
     0
  9
$DIMTIH
 70
     0
  9
$DIMTOH
 70
     0
  9
$DIMSE1
 70
     0
  9
$DIMSE2
 70
     0
  9
$DIMTAD
 70
     1
  9
$DIMZIN
 70
     8
  9
$DIMBLK
  1

  9
$DIMASO
 70
     1
  9
$DIMSHO
 70
     1
  9
$DIMPOST
  1

  9
$DIMAPOST
  1

  9
$DIMALT
 70
     0
  9
$DIMALTD
 70
     2
  9
$DIMALTF
 40
0.03937
  9
$DIMLFAC
 40
1.0
  9
$DIMTOFL
 70
     0
  9
$DIMTVP
 40
0.0
  9
$DIMTIX
 70
     0
  9
$DIMSOXD
 70
     0
  9
$DIMSAH
 70
     0
  9
$DIMBLK1
  1

  9
$DIMBLK2
  1

  9
$DIMSTYLE
  2
STANDARD
  9
$DIMCLRD
 70
     0
  9
$DIMCLRE
 70
     0
  9
$DIMCLRT
 70
     0
  9
$DIMTFAC
 40
1.0
  9
$DIMGAP
 40
0.53
  9
$DIMJUST
 70
     0
  9
$DIMSD1
 70
     0
  9
$DIMSD2
 70
     0
  9
$DIMTOLJ
 70
     1
  9
$DIMTZIN
 70
     8
  9
$DIMALTZ
 70
     0
  9
$DIMALTTZ
 70
     0
  9
$DIMFIT
 70
     3
  9
$DIMUPT
 70
     0
  9
$DIMUNIT
 70
     2
  9
$DIMDEC
 70
     2
  9
$DIMTDEC
 70
     2
  9
$DIMALTU
 70
     2
  9
$DIMALTTD
 70
     2
  9
$DIMTXSTY
  7
STANDARD
  9
$DIMAUNIT
 70
     0
  9
$LUNITS
 70
     2
  9
$LUPREC
 70
     4
  9
$SKETCHINC
 40
0.1
  9
$FILLETRAD
 40
0.8
  9
$AUNITS
 70
     0
  9
$AUPREC
 70
     0
  9
$MENU
  1
acad
  9
$ELEVATION
 40
0.0
  9
$PELEVATION
 40
0.0
  9
$THICKNESS
 40
0.0
  9
$LIMCHECK
 70
     0
  9
$BLIPMODE
 70
     1
  9
$CHAMFERA
 40
0.0
  9
$CHAMFERB
 40
0.0
  9
$CHAMFERC
 40
20.0
  9
$CHAMFERD
 40
0.0
  9
$SKPOLY
 70
     0
  9
$TDCREATE
 40
2451765.372719675
  9
$TDUPDATE
 40
2451773.677039236
  9
$TDINDWG
 40
0.1372315972
  9
$TDUSRTIMER
 40
0.1372315972
  9
$USRTIMER
 70
     1
  9
$ANGBASE
 50
0.0
  9
$ANGDIR
 70
     0
  9
$PDMODE
 70
     0
  9
$PDSIZE
 40
0.0
  9
$PLINEWID
 40
0.0
  9
$COORDS
 70
     1
  9
$SPLFRAME
 70
     0
  9
$SPLINETYPE
 70
     6
  9
$SPLINESEGS
 70
     8
  9
$ATTDIA
 70
     0
  9
$ATTREQ
 70
     1
  9
$HANDLING
 70
     1
  9
$HANDSEED
  5
16AD
  9
$SURFTAB1
 70
     6
  9
$SURFTAB2
 70
     6
  9
$SURFTYPE
 70
     6
  9
$SURFU
 70
     6
  9
$SURFV
 70
     6
  9
$UCSNAME
  2

  9
$UCSORG
 10
0.0
 20
0.0
 30
0.0
  9
$UCSXDIR
 10
1.0
 20
0.0
 30
0.0
  9
$UCSYDIR
 10
0.0
 20
1.0
 30
0.0
  9
$PUCSNAME
  2

  9
$PUCSORG
 10
0.0
 20
0.0
 30
0.0
  9
$PUCSXDIR
 10
1.0
 20
0.0
 30
0.0
  9
$PUCSYDIR
 10
0.0
 20
1.0
 30
0.0
  9
$USERI1
 70
     0
  9
$USERI2
 70
     0
  9
$USERI3
 70
     0
  9
$USERI4
 70
     0
  9
$USERI5
 70
     0
  9
$USERR1
 40
0.0
  9
$USERR2
 40
0.0
  9
$USERR3
 40
0.0
  9
$USERR4
 40
0.0
  9
$USERR5
 40
0.0
  9
$WORLDVIEW
 70
     1
  9
$SHADEDGE
 70
     3
  9
$SHADEDIF
 70
    70
  9
$TILEMODE
 70
     1
  9
$MAXACTVP
 70
    16
  9
$PINSBASE
 10
0.0
 20
0.0
 30
0.0
  9
$PLIMCHECK
 70
     0
  9
$PEXTMIN
 10
1.000000E+20
 20
1.000000E+20
 30
1.000000E+20
  9
$PEXTMAX
 10
-1.000000E+20
 20
-1.000000E+20
 30
-1.000000E+20
  9
$PLIMMIN
 10
0.0
 20
0.0
  9
$PLIMMAX
 10
12.0
 20
9.0
  9
$UNITMODE
 70
     0
  9
$VISRETAIN
 70
     0
  9
$PLINEGEN
 70
     0
  9
$PSLTSCALE
 70
     1
  9
$TREEDEPTH
 70
  3020
  9
$PICKSTYLE
 70
     1
  9
$CMLSTYLE
  2
STANDARD
  9
$CMLJUST
 70
     0
  9
$CMLSCALE
 40
20.0
  9
$SAVEIMAGES
 70
     0
  0
ENDSEC
  0
SECTION
  2
CLASSES
  0
ENDSEC
  0
SECTION
  2
TABLES
  0
TABLE
  2
VPORT
  5
8
100
AcDbSymbolTable
 70
     2
  0
VPORT
  5
16AC
100
AcDbSymbolTableRecord
100
AcDbViewportTableRecord
  2
*ACTIVE
 70
     0
 10
0.0
 20
0.0
 11
1.0
 21
1.0
 12
73.380706
 22
231.06842
 13
0.0
 23
0.0
 14
10.0
 24
10.0
 15
10.0
 25
10.0
 16
0.0
 26
0.0
 36
1.0
 17
0.0
 27
0.0
 37
0.0
 40
159.556582
 41
1.650113
 42
50.0
 43
0.0
 44
0.0
 50
0.0
 51
0.0
 71
     0
 72
   100
 73
     1
 74
     0
 75
     0
 76
     0
 77
     0
 78
     0
  0
ENDTAB
  0
TABLE
  2
LTYPE
  5
5
100
AcDbSymbolTable
 70
     5
  0
LTYPE
  5
13
100
AcDbSymbolTableRecord
100
AcDbLinetypeTableRecord
  2
BYBLOCK
 70
     0
  3

 72
    65
 73
     0
 40
0.0
  0
LTYPE
  5
14
100
AcDbSymbolTableRecord
100
AcDbLinetypeTableRecord
  2
BYLAYER
 70
     0
  3

 72
    65
 73
     0
 40
0.0
  0
LTYPE
  5
15
100
AcDbSymbolTableRecord
100
AcDbLinetypeTableRecord
  2
CONTINUOUS
 70
    64
  3
Solid line
 72
    65
 73
     0
 40
0.0
  0
LTYPE
  5
94
100
AcDbSymbolTableRecord
100
AcDbLinetypeTableRecord
  2
ACAD_ISO04W100
 70
    64
  3
____ . ____ . ____ . ____ . ____ . ____ . ____ 
 72
    65
 73
     4
 40
30.5
 49
24.0
 74
     0
 49
-3.0
 74
     0
 49
0.5
 74
     0
 49
-3.0
 74
     0
  0
LTYPE
  5
225
100
AcDbSymbolTableRecord
100
AcDbLinetypeTableRecord
  2
TRATTEGGIATAX2
 70
    64
  3
____  ____  ____  ____  ____  ____  ____  ____ 
 72
    65
 73
     2
 40
1.5
 49
1.0
 74
     0
 49
-0.5
 74
     0
  0
LTYPE
  5
226
100
AcDbSymbolTableRecord
100
AcDbLinetypeTableRecord
  2
NASCOSTA
 70
    64
  3
__ __ __ __ __ __ __ __ __ __ __ __ __ __ __ __
 72
    65
 73
     2
 40
0.375
 49
0.25
 74
     0
 49
-0.125
 74
     0
  0
LTYPE
  5
424
100
AcDbSymbolTableRecord
100
AcDbLinetypeTableRecord
  2
LINEA-LINEETTEX2
 70
    64
  3
____________    ____    ____    ____________   
 72
    65
 73
     6
 40
5.0
 49
2.5
 74
     0
 49
-0.5
 74
     0
 49
0.5
 74
     0
 49
-0.5
 74
     0
 49
0.5
 74
     0
 49
-0.5
 74
     0
  0
ENDTAB
  0
TABLE
  2
LAYER
  5
2
100
AcDbSymbolTable
 70
    12
  0
LAYER
  5
F
100
AcDbSymbolTableRecord
100
AcDbLayerTableRecord
  2
0
 70
     0
 62
     7
  6
CONTINUOUS
  0
LAYER
  5
95
100
AcDbSymbolTableRecord
100
AcDbLayerTableRecord
  2
DISEGNO
 70
    64
 62
     7
  6
CONTINUOUS
  0
LAYER
  5
96
100
AcDbSymbolTableRecord
100
AcDbLayerTableRecord
  2
ASSI
 70
    64
 62
    -3
  6
ACAD_ISO04W100
  0
LAYER
  5
97
100
AcDbSymbolTableRecord
100
AcDbLayerTableRecord
  2
SEZIONE
 70
    64
 62
    -3
  6
CONTINUOUS
  0
LAYER
  5
98
100
AcDbSymbolTableRecord
100
AcDbLayerTableRecord
  2
TEMPRA
 70
    64
 62
     7
  6
CONTINUOUS
  0
LAYER
  5
99
100
AcDbSymbolTableRecord
100
AcDbLayerTableRecord
  2
QUOTE
 70
    64
 62
    -1
  6
CONTINUOUS
  0
LAYER
  5
9A
100
AcDbSymbolTableRecord
100
AcDbLayerTableRecord
  2
FOGLIO
 70
    64
 62
     8
  6
CONTINUOUS
  0
LAYER
  5
1A3
100
AcDbSymbolTableRecord
100
AcDbLayerTableRecord
  2
TRATTO
 70
    64
 62
     6
  6
NASCOSTA
  0
LAYER
  5
28D
100
AcDbSymbolTableRecord
100
AcDbLayerTableRecord
  2
DEFPOINTS
 70
    64
 62
     7
  6
CONTINUOUS
  0
LAYER
  5
425
100
AcDbSymbolTableRecord
100
AcDbLayerTableRecord
  2
OGGETTO
 70
    64
 62
   250
  6
CONTINUOUS
  0
LAYER
  5
426
100
AcDbSymbolTableRecord
100
AcDbLayerTableRecord
  2
CENTRO
 70
    64
 62
    -3
  6
LINEA-LINEETTEX2
  0
LAYER
  5
427
100
AcDbSymbolTableRecord
100
AcDbLayerTableRecord
  2
TESTO
 70
    64
 62
     6
  6
CONTINUOUS
  0
ENDTAB
  0
TABLE
  2
STYLE
  5
3
100
AcDbSymbolTable
 70
     2
  0
STYLE
  5
10
100
AcDbSymbolTableRecord
100
AcDbTextStyleTableRecord
  2
STANDARD
 70
    64
 40
5.0
 41
1.0
 50
0.0
 71
     0
 42
1.6
  3
C:\Programmi\AutoCAD LT\isocp.shx
  4

  0
STYLE
  5
B0
100
AcDbSymbolTableRecord
100
AcDbTextStyleTableRecord
  2
STYLE3
 70
    64
 40
0.0
 41
1.5
 50
0.0
 71
     0
 42
4.0
  3
C:\Programmi\AutoCAD LT\isocp3.shx
  4

  0
ENDTAB
  0
TABLE
  2
VIEW
  5
6
100
AcDbSymbolTable
 70
     0
  0
ENDTAB
  0
TABLE
  2
UCS
  5
7
100
AcDbSymbolTable
 70
     0
  0
ENDTAB
  0
TABLE
  2
APPID
  5
9
100
AcDbSymbolTable
 70
     1
  0
APPID
  5
11
100
AcDbSymbolTableRecord
100
AcDbRegAppTableRecord
  2
ACAD
 70
     0
  0
ENDTAB
  0
TABLE
  2
DIMSTYLE
  5
A
100
AcDbSymbolTable
 70
    13
  0
DIMSTYLE
105
1D
100
AcDbSymbolTableRecord
100
AcDbDimStyleTableRecord
  2
STANDARD
 70
     0
  3

  4

  5

  6

  7

 40
1.0
 41
2.5
 42
0.625
 43
3.75
 44
1.25
 45
0.0
 46
0.0
 47
0.0
 48
0.0
140
5.0
141
2.5
142
0.0
143
0.03937
144
1.0
145
0.0
146
1.0
147
0.53
 71
     0
 72
     0
 73
     0
 74
     0
 75
     0
 76
     0
 77
     1
 78
     8
170
     0
171
     2
172
     0
173
     0
174
     0
175
     0
176
     0
177
     0
178
     0
270
     2
271
     2
272
     2
273
     2
274
     2
340
10
275
     0
280
     0
281
     0
282
     0
283
     1
284
     8
285
     0
286
     0
287
     3
288
     0
  0
DIMSTYLE
105
198
100
AcDbSymbolTableRecord
100
AcDbDimStyleTableRecord
  2
TOLL-06
 70
     0
  3

  4

  5

  6

  7

 40
1.0
 41
2.5
 42
0.625
 43
3.75
 44
1.25
 45
0.0
 46
0.0
 47
-0.05
 48
0.0
140
3.0
141
2.5
142
0.0
143
0.03937
144
1.0
145
0.0
146
0.8
147
0.625
 71
     1
 72
     0
 73
     0
 74
     0
 75
     0
 76
     0
 77
     1
 78
     8
170
     0
171
     2
172
     0
173
     0
174
     0
175
     0
176
     0
177
     0
178
     0
270
     2
271
     2
272
     2
273
     2
274
     2
340
10
275
     0
280
     0
281
     0
282
     0
283
     2
284
     8
285
     0
286
     0
287
     3
288
     0
  0
DIMSTYLE
105
20B
100
AcDbSymbolTableRecord
100
AcDbDimStyleTableRecord
  2
TOLL-01
 70
     0
  3

  4

  5

  6

  7

 40
1.0
 41
2.5
 42
0.625
 43
3.75
 44
1.25
 45
0.0
 46
0.0
 47
0.02
 48
0.0
140
3.0
141
2.5
142
0.0
143
0.03937
144
1.0
145
0.0
146
0.8
147
0.625
 71
     1
 72
     0
 73
     0
 74
     0
 75
     0
 76
     0
 77
     1
 78
     8
170
     0
171
     2
172
     0
173
     0
174
     0
175
     0
176
     0
177
     0
178
     0
270
     2
271
     2
272
     2
273
     2
274
     2
340
10
275
     0
280
     0
281
     0
282
     0
283
     2
284
     8
285
     0
286
     0
287
     3
288
     0
  0
DIMSTYLE
105
232
100
AcDbSymbolTableRecord
100
AcDbDimStyleTableRecord
  2
TOLL-02
 70
     0
  3

  4

  5

  6

  7

 40
1.0
 41
2.5
 42
0.625
 43
3.75
 44
1.25
 45
0.0
 46
0.0
 47
-0.02
 48
0.0
140
3.0
141
2.5
142
0.0
143
0.03937
144
1.0
145
0.0
146
0.8
147
0.625
 71
     1
 72
     0
 73
     0
 74
     0
 75
     0
 76
     0
 77
     1
 78
     8
170
     0
171
     2
172
     0
173
     0
174
     0
175
     0
176
     0
177
     0
178
     0
270
     2
271
     2
272
     2
273
     2
274
     2
340
10
275
     0
280
     0
281
     0
282
     0
283
     2
284
     8
285
     0
286
     0
287
     3
288
     0
  0
DIMSTYLE
105
233
100
AcDbSymbolTableRecord
100
AcDbDimStyleTableRecord
  2
TOLL-03
 70
     0
  3

  4

  5

  6

  7

 40
1.0
 41
2.5
 42
0.625
 43
3.75
 44
1.25
 45
0.0
 46
0.0
 47
0.01
 48
0.01
140
3.0
141
2.5
142
0.0
143
0.03937
144
1.0
145
0.0
146
0.8
147
0.625
 71
     1
 72
     0
 73
     0
 74
     0
 75
     0
 76
     0
 77
     1
 78
     8
170
     0
171
     2
172
     0
173
     0
174
     0
175
     0
176
     0
177
     0
178
     0
270
     2
271
     2
272
     2
273
     2
274
     2
340
10
275
     0
280
     0
281
     0
282
     0
283
     2
284
     8
285
     0
286
     0
287
     3
288
     0
  0
DIMSTYLE
105
234
100
AcDbSymbolTableRecord
100
AcDbDimStyleTableRecord
  2
TOLL-04
 70
     0
  3

  4

  5

  6

  7

 40
1.0
 41
2.5
 42
0.625
 43
3.75
 44
1.25
 45
0.0
 46
0.0
 47
0.05
 48
0.05
140
3.0
141
2.5
142
0.0
143
0.03937
144
1.0
145
0.0
146
0.8
147
0.625
 71
     1
 72
     0
 73
     0
 74
     0
 75
     0
 76
     0
 77
     1
 78
     8
170
     0
171
     2
172
     0
173
     0
174
     0
175
     0
176
     0
177
     0
178
     0
270
     2
271
     2
272
     2
273
     2
274
     2
340
10
275
     0
280
     0
281
     0
282
     0
283
     2
284
     8
285
     0
286
     0
287
     3
288
     0
  0
DIMSTYLE
105
235
100
AcDbSymbolTableRecord
100
AcDbDimStyleTableRecord
  2
TOLL-05
 70
     0
  3

  4

  5

  6

  7

 40
1.0
 41
2.5
 42
0.625
 43
3.75
 44
1.25
 45
0.0
 46
0.0
 47
0.05
 48
0.0
140
3.0
141
2.5
142
0.0
143
0.03937
144
1.0
145
0.0
146
0.8
147
0.625
 71
     1
 72
     0
 73
     0
 74
     0
 75
     0
 76
     0
 77
     1
 78
     8
170
     0
171
     2
172
     0
173
     0
174
     0
175
     0
176
     0
177
     0
178
     0
270
     2
271
     2
272
     2
273
     2
274
     2
340
10
275
     0
280
     0
281
     0
282
     0
283
     2
284
     8
285
     0
286
     0
287
     3
288
     0
  0
DIMSTYLE
105
247
100
AcDbSymbolTableRecord
100
AcDbDimStyleTableRecord
  2
TOLL-07
 70
     0
  3

  4

  5

  6

  7

 40
1.0
 41
2.5
 42
0.625
 43
3.75
 44
1.25
 45
0.0
 46
0.0
 47
0.1
 48
0.1
140
3.0
141
2.5
142
0.0
143
0.03937
144
1.0
145
0.0
146
1.0
147
0.625
 71
     1
 72
     0
 73
     0
 74
     0
 75
     0
 76
     0
 77
     1
 78
     8
170
     0
171
     2
172
     0
173
     0
174
     0
175
     0
176
     0
177
     0
178
     0
270
     2
271
     2
272
     2
273
     2
274
     2
340
10
275
     0
280
     0
281
     0
282
     0
283
     1
284
     8
285
     0
286
     0
287
     3
288
     0
  0
DIMSTYLE
105
251
100
AcDbSymbolTableRecord
100
AcDbDimStyleTableRecord
  2
TOLL-08
 70
     0
  3

  4

  5

  6

  7

 40
1.0
 41
2.5
 42
0.625
 43
3.75
 44
1.25
 45
0.0
 46
0.0
 47
0.1
 48
0.0
140
3.0
141
2.5
142
0.0
143
0.03937
144
1.0
145
0.0
146
1.0
147
0.625
 71
     1
 72
     0
 73
     0
 74
     0
 75
     0
 76
     0
 77
     1
 78
     8
170
     0
171
     2
172
     0
173
     0
174
     0
175
     0
176
     0
177
     0
178
     0
270
     2
271
     2
272
     2
273
     2
274
     2
340
10
275
     0
280
     0
281
     0
282
     0
283
     1
284
     8
285
     0
286
     0
287
     3
288
     0
  0
DIMSTYLE
105
257
100
AcDbSymbolTableRecord
100
AcDbDimStyleTableRecord
  2
TOLL-09
 70
     0
  3

  4

  5

  6

  7

 40
1.0
 41
2.5
 42
0.625
 43
3.75
 44
1.25
 45
0.0
 46
0.0
 47
-0.1
 48
0.0
140
3.0
141
2.5
142
0.0
143
0.03937
144
1.0
145
0.0
146
1.0
147
0.625
 71
     1
 72
     0
 73
     0
 74
     0
 75
     0
 76
     0
 77
     1
 78
     8
170
     0
171
     2
172
     0
173
     0
174
     0
175
     0
176
     0
177
     0
178
     0
270
     2
271
     2
272
     2
273
     2
274
     2
340
10
275
     0
280
     0
281
     0
282
     0
283
     1
284
     8
285
     0
286
     0
287
     3
288
     0
  0
DIMSTYLE
105
258
100
AcDbSymbolTableRecord
100
AcDbDimStyleTableRecord
  2
TOLL-10
 70
     0
  3

  4

  5

  6

  7

 40
1.0
 41
2.5
 42
0.625
 43
3.75
 44
1.25
 45
0.0
 46
0.0
 47
0.2
 48
0.2
140
3.0
141
2.5
142
0.0
143
0.03937
144
1.0
145
0.0
146
1.0
147
0.625
 71
     1
 72
     0
 73
     0
 74
     0
 75
     0
 76
     0
 77
     1
 78
     8
170
     0
171
     2
172
     0
173
     0
174
     0
175
     0
176
     0
177
     0
178
     0
270
     2
271
     2
272
     2
273
     2
274
     2
340
10
275
     0
280
     0
281
     0
282
     0
283
     1
284
     8
285
     0
286
     0
287
     3
288
     0
  0
DIMSTYLE
105
259
100
AcDbSymbolTableRecord
100
AcDbDimStyleTableRecord
  2
TOLL-11
 70
     0
  3

  4

  5

  6

  7

 40
1.0
 41
2.5
 42
0.625
 43
3.75
 44
1.25
 45
0.0
 46
0.0
 47
0.2
 48
0.0
140
3.0
141
2.5
142
0.0
143
0.03937
144
1.0
145
0.0
146
1.0
147
0.625
 71
     1
 72
     0
 73
     0
 74
     0
 75
     0
 76
     0
 77
     1
 78
     8
170
     0
171
     2
172
     0
173
     0
174
     0
175
     0
176
     0
177
     0
178
     0
270
     2
271
     2
272
     2
273
     2
274
     2
340
10
275
     0
280
     0
281
     0
282
     0
283
     1
284
     8
285
     0
286
     0
287
     3
288
     0
  0
DIMSTYLE
105
428
100
AcDbSymbolTableRecord
100
AcDbDimStyleTableRecord
  2
ISO-25
 70
     0
  3

  4

  5

  6

  7

 40
1.0
 41
2.5
 42
0.625
 43
3.75
 44
1.25
 45
0.0
 46
0.0
 47
0.0
 48
0.0
140
2.5
141
2.5
142
0.0
143
0.0394
144
1.0
145
1.0
146
1.0
147
0.625
 71
     0
 72
     0
 73
     1
 74
     0
 75
     0
 76
     0
 77
     1
 78
     8
170
     0
171
     2
172
     1
173
     0
174
     0
175
     0
176
     0
177
     0
178
     0
270
     2
271
     4
272
     4
273
     2
274
     2
340
10
275
     0
280
     0
281
     0
282
     0
283
     1
284
     0
285
     0
286
     0
287
     3
288
     0
  0
ENDTAB
  0
TABLE
  2
BLOCK_RECORD
  5
1
100
AcDbSymbolTable
 70
    22
  0
BLOCK_RECORD
  5
19
100
AcDbSymbolTableRecord
100
AcDbBlockTableRecord
  2
*MODEL_SPACE
  0
BLOCK_RECORD
  5
16
100
AcDbSymbolTableRecord
100
AcDbBlockTableRecord
  2
*PAPER_SPACE
  0
BLOCK_RECORD
  5
373
100
AcDbSymbolTableRecord
100
AcDbBlockTableRecord
  2
*D0
  0
BLOCK_RECORD
  5
380
100
AcDbSymbolTableRecord
100
AcDbBlockTableRecord
  2
*D1
  0
BLOCK_RECORD
  5
3DC
100
AcDbSymbolTableRecord
100
AcDbBlockTableRecord
  2
*D2
  0
BLOCK_RECORD
  5
3E8
100
AcDbSymbolTableRecord
100
AcDbBlockTableRecord
  2
*D3
  0
BLOCK_RECORD
  5
3F4
100
AcDbSymbolTableRecord
100
AcDbBlockTableRecord
  2
*D4
  0
BLOCK_RECORD
  5
400
100
AcDbSymbolTableRecord
100
AcDbBlockTableRecord
  2
*D5
  0
BLOCK_RECORD
  5
40C
100
AcDbSymbolTableRecord
100
AcDbBlockTableRecord
  2
*D6
  0
BLOCK_RECORD
  5
418
100
AcDbSymbolTableRecord
100
AcDbBlockTableRecord
  2
*D7
  0
BLOCK_RECORD
  5
429
100
AcDbSymbolTableRecord
100
AcDbBlockTableRecord
  2
A$C5
  0
BLOCK_RECORD
  5
73E
100
AcDbSymbolTableRecord
100
AcDbBlockTableRecord
  2
RUGOSITA
  0
BLOCK_RECORD
  5
100F
100
AcDbSymbolTableRecord
100
AcDbBlockTableRecord
  2
*D10
  0
BLOCK_RECORD
  5
13DF
100
AcDbSymbolTableRecord
100
AcDbBlockTableRecord
  2
A$CB0E1
  0
BLOCK_RECORD
  5
14DD
100
AcDbSymbolTableRecord
100
AcDbBlockTableRecord
  2
*D15
  0
BLOCK_RECORD
  5
14E6
100
AcDbSymbolTableRecord
100
AcDbBlockTableRecord
  2
*D16
  0
BLOCK_RECORD
  5
14FF
100
AcDbSymbolTableRecord
100
AcDbBlockTableRecord
  2
*D17
  0
BLOCK_RECORD
  5
150D
100
AcDbSymbolTableRecord
100
AcDbBlockTableRecord
  2
*D18
  0
BLOCK_RECORD
  5
1564
100
AcDbSymbolTableRecord
100
AcDbBlockTableRecord
  2
*D19
  0
BLOCK_RECORD
  5
1575
100
AcDbSymbolTableRecord
100
AcDbBlockTableRecord
  2
*D20
  0
BLOCK_RECORD
  5
15C0
100
AcDbSymbolTableRecord
100
AcDbBlockTableRecord
  2
*X21
  0
ENDTAB
  0
ENDSEC
  0
SECTION
  2
BLOCKS
  0
BLOCK
  5
1A
100
AcDbEntity
  8
0
100
AcDbBlockBegin
  2
*MODEL_SPACE
 70
     0
 10
0.0
 20
0.0
 30
0.0
  3
*MODEL_SPACE
  1

  0
ENDBLK
  5
1B
100
AcDbEntity
  8
0
100
AcDbBlockEnd
  0
BLOCK
  5
17
100
AcDbEntity
 67
     1
  8
0
100
AcDbBlockBegin
  2
*PAPER_SPACE
 70
     0
 10
0.0
 20
0.0
 30
0.0
  3
*PAPER_SPACE
  1

  0
ENDBLK
  5
18
100
AcDbEntity
 67
     1
  8
0
100
AcDbBlockEnd
  0
BLOCK
  5
1451
100
AcDbEntity
  8
0
100
AcDbBlockBegin
  2
*D0
 70
    65
 10
0.0
 20
0.0
 30
0.0
  3
*D0
  1

  0
LINE
  5
1452
100
AcDbEntity
  8
0
  6
BYBLOCK
 62
     0
100
AcDbLine
 10
45.113449
 20
209.852667
 30
0.0
 11
45.113449
 21
189.461525
 31
0.0
  0
LINE
  5
1453
100
AcDbEntity
  8
0
  6
BYBLOCK
 62
     0
100
AcDbLine
 10
100.113449
 20
209.852667
 30
0.0
 11
100.113449
 21
189.461525
 31
0.0
  0
LINE
  5
1454
100
AcDbEntity
  8
0
  6
BYBLOCK
 62
     0
100
AcDbLine
 10
47.613449
 20
190.711525
 30
0.0
 11
97.613449
 21
190.711525
 31
0.0
  0
SOLID
  5
1455
100
AcDbEntity
  8
0
  6
BYBLOCK
 62
     0
100
AcDbTrace
 10
47.613449
 20
191.128192
 30
0.0
 11
47.613449
 21
190.294859
 31
0.0
 12
45.113449
 22
190.711525
 32
0.0
 13
45.113449
 23
190.711525
 33
0.0
  0
SOLID
  5
1456
100
AcDbEntity
  8
0
  6
BYBLOCK
 62
     0
100
AcDbTrace
 10
97.613449
 20
191.128192
 30
0.0
 11
97.613449
 21
190.294859
 31
0.0
 12
100.113449
 22
190.711525
 32
0.0
 13
100.113449
 23
190.711525
 33
0.0
  0
MTEXT
  5
1457
100
AcDbEntity
  8
0
  6
BYBLOCK
 62
     0
100
AcDbMText
 10
72.613449
 20
193.741525
 30
0.0
 40
5.0
 41
0.0
 71
     5
 72
     1
  1
\A1;55
  0
POINT
  5
1458
100
AcDbEntity
  8
DEFPOINTS
  6
BYBLOCK
 62
     0
100
AcDbPoint
 10
45.113449
 20
210.477667
 30
0.0
  0
POINT
  5
1459
100
AcDbEntity
  8
DEFPOINTS
  6
BYBLOCK
 62
     0
100
AcDbPoint
 10
100.113449
 20
210.477667
 30
0.0
  0
POINT
  5
145A
100
AcDbEntity
  8
DEFPOINTS
  6
BYBLOCK
 62
     0
100
AcDbPoint
 10
100.113449
 20
190.711525
 30
0.0
  0
ENDBLK
  5
145B
100
AcDbEntity
  8
0
100
AcDbBlockEnd
  0
BLOCK
  5
145C
100
AcDbEntity
  8
0
100
AcDbBlockBegin
  2
*D1
 70
    65
 10
0.0
 20
0.0
 30
0.0
  3
*D1
  1

  0
LINE
  5
145D
100
AcDbEntity
  8
0
  6
BYBLOCK
 62
     0
100
AcDbLine
 10
45.488449
 20
235.477667
 30
0.0
 11
27.268205
 21
235.477667
 31
0.0
  0
LINE
  5
145E
100
AcDbEntity
  8
0
  6
BYBLOCK
 62
     0
100
AcDbLine
 10
45.488449
 20
209.477667
 30
0.0
 11
27.268205
 21
209.477667
 31
0.0
  0
LINE
  5
145F
100
AcDbEntity
  8
0
  6
BYBLOCK
 62
     0
100
AcDbLine
 10
28.518205
 20
232.977667
 30
0.0
 11
28.518205
 21
211.977667
 31
0.0
  0
SOLID
  5
1460
100
AcDbEntity
  8
0
  6
BYBLOCK
 62
     0
100
AcDbTrace
 10
28.101538
 20
232.977667
 30
0.0
 11
28.934871
 21
232.977667
 31
0.0
 12
28.518205
 22
235.477667
 32
0.0
 13
28.518205
 23
235.477667
 33
0.0
  0
SOLID
  5
1461
100
AcDbEntity
  8
0
  6
BYBLOCK
 62
     0
100
AcDbTrace
 10
28.101538
 20
211.977667
 30
0.0
 11
28.934871
 21
211.977667
 31
0.0
 12
28.518205
 22
209.477667
 32
0.0
 13
28.518205
 23
209.477667
 33
0.0
  0
MTEXT
  5
1462
100
AcDbEntity
  8
0
  6
BYBLOCK
 62
     0
100
AcDbMText
 10
25.488205
 20
222.477667
 30
0.0
 40
5.0
 41
0.0
 71
     5
 72
     1
  1
\A1;26
 11
0.0
 21
1.0
 31
0.0
  0
POINT
  5
1463
100
AcDbEntity
  8
DEFPOINTS
  6
BYBLOCK
 62
     0
100
AcDbPoint
 10
46.113449
 20
235.477667
 30
0.0
  0
POINT
  5
1464
100
AcDbEntity
  8
DEFPOINTS
  6
BYBLOCK
 62
     0
100
AcDbPoint
 10
46.113449
 20
209.477667
 30
0.0
  0
POINT
  5
1465
100
AcDbEntity
  8
DEFPOINTS
  6
BYBLOCK
 62
     0
100
AcDbPoint
 10
28.518205
 20
209.477667
 30
0.0
  0
ENDBLK
  5
1466
100
AcDbEntity
  8
0
100
AcDbBlockEnd
  0
BLOCK
  5
3E6
100
AcDbEntity
  8
0
100
AcDbBlockBegin
  2
*D2
 70
    65
 10
0.0
 20
0.0
 30
0.0
  3
*D2
  1

  0
LINE
  5
3DD
100
AcDbEntity
  8
0
  6
BYBLOCK
 62
     0
100
AcDbLine
 10
45.055909
 20
68.536088
 30
0.0
 11
45.055909
 21
77.639304
 31
0.0
  0
LINE
  5
3DE
100
AcDbEntity
  8
0
  6
BYBLOCK
 62
     0
100
AcDbLine
 10
65.855909
 20
68.536088
 30
0.0
 11
65.855909
 21
77.639304
 31
0.0
  0
LINE
  5
3DF
100
AcDbEntity
  8
0
  6
BYBLOCK
 62
     0
100
AcDbLine
 10
47.655909
 20
76.587104
 30
0.0
 11
63.255909
 21
76.587104
 31
0.0
  0
SOLID
  5
3E0
100
AcDbEntity
  8
0
  6
BYBLOCK
 62
     0
100
AcDbTrace
 10
47.655909
 20
77.020438
 30
0.0
 11
47.655909
 21
76.153771
 31
0.0
 12
45.055909
 22
76.587104
 32
0.0
 13
45.055909
 23
76.587104
 33
0.0
  0
SOLID
  5
3E1
100
AcDbEntity
  8
0
  6
BYBLOCK
 62
     0
100
AcDbTrace
 10
63.255909
 20
77.020438
 30
0.0
 11
63.255909
 21
76.153771
 31
0.0
 12
65.855909
 22
76.587104
 32
0.0
 13
65.855909
 23
76.587104
 33
0.0
  0
MTEXT
  5
3E2
100
AcDbEntity
  8
0
  6
BYBLOCK
 62
     0
100
AcDbMText
 10
55.455909
 20
78.617104
 30
0.0
 40
3.0
 41
0.0
 71
     5
 72
     1
  1
\A1;{104}
  0
POINT
  5
3E3
100
AcDbEntity
  8
DEFPOINTS
  6
BYBLOCK
 62
     0
100
AcDbPoint
 10
45.055909
 20
68.009988
 30
0.0
  0
POINT
  5
3E4
100
AcDbEntity
  8
DEFPOINTS
  6
BYBLOCK
 62
     0
100
AcDbPoint
 10
65.855909
 20
68.009988
 30
0.0
  0
POINT
  5
3E5
100
AcDbEntity
  8
DEFPOINTS
  6
BYBLOCK
 62
     0
100
AcDbPoint
 10
65.855909
 20
76.587104
 30
0.0
  0
ENDBLK
  5
3E7
100
AcDbEntity
  8
0
100
AcDbBlockEnd
  0
BLOCK
  5
3F2
100
AcDbEntity
  8
0
100
AcDbBlockBegin
  2
*D3
 70
    65
 10
0.0
 20
0.0
 30
0.0
  3
*D3
  1

  0
LINE
  5
3E9
100
AcDbEntity
  8
0
  6
BYBLOCK
 62
     0
100
AcDbLine
 10
65.855909
 20
68.536088
 30
0.0
 11
65.855909
 21
77.639304
 31
0.0
  0
LINE
  5
3EA
100
AcDbEntity
  8
0
  6
BYBLOCK
 62
     0
100
AcDbLine
 10
107.655909
 20
68.536088
 30
0.0
 11
107.655909
 21
77.639304
 31
0.0
  0
LINE
  5
3EB
100
AcDbEntity
  8
0
  6
BYBLOCK
 62
     0
100
AcDbLine
 10
68.455909
 20
76.587104
 30
0.0
 11
105.055909
 21
76.587104
 31
0.0
  0
SOLID
  5
3EC
100
AcDbEntity
  8
0
  6
BYBLOCK
 62
     0
100
AcDbTrace
 10
68.455909
 20
77.020438
 30
0.0
 11
68.455909
 21
76.153771
 31
0.0
 12
65.855909
 22
76.587104
 32
0.0
 13
65.855909
 23
76.587104
 33
0.0
  0
SOLID
  5
3ED
100
AcDbEntity
  8
0
  6
BYBLOCK
 62
     0
100
AcDbTrace
 10
105.055909
 20
77.020438
 30
0.0
 11
105.055909
 21
76.153771
 31
0.0
 12
107.655909
 22
76.587104
 32
0.0
 13
107.655909
 23
76.587104
 33
0.0
  0
MTEXT
  5
3EE
100
AcDbEntity
  8
0
  6
BYBLOCK
 62
     0
100
AcDbMText
 10
86.755909
 20
78.617104
 30
0.0
 40
3.0
 41
0.0
 71
     5
 72
     1
  1
\A1;{209}
  0
POINT
  5
3EF
100
AcDbEntity
  8
DEFPOINTS
  6
BYBLOCK
 62
     0
100
AcDbPoint
 10
65.855909
 20
68.009988
 30
0.0
  0
POINT
  5
3F0
100
AcDbEntity
  8
DEFPOINTS
  6
BYBLOCK
 62
     0
100
AcDbPoint
 10
107.655909
 20
68.009988
 30
0.0
  0
POINT
  5
3F1
100
AcDbEntity
  8
DEFPOINTS
  6
BYBLOCK
 62
     0
100
AcDbPoint
 10
107.655909
 20
76.587104
 30
0.0
  0
ENDBLK
  5
3F3
100
AcDbEntity
  8
0
100
AcDbBlockEnd
  0
BLOCK
  5
3FE
100
AcDbEntity
  8
0
100
AcDbBlockBegin
  2
*D4
 70
    65
 10
0.0
 20
0.0
 30
0.0
  3
*D4
  1

  0
LINE
  5
3F5
100
AcDbEntity
  8
0
  6
BYBLOCK
 62
     0
100
AcDbLine
 10
107.655909
 20
68.536088
 30
0.0
 11
107.655909
 21
77.639304
 31
0.0
  0
LINE
  5
3F6
100
AcDbEntity
  8
0
  6
BYBLOCK
 62
     0
100
AcDbLine
 10
149.455909
 20
68.536088
 30
0.0
 11
149.455909
 21
77.639304
 31
0.0
  0
LINE
  5
3F7
100
AcDbEntity
  8
0
  6
BYBLOCK
 62
     0
100
AcDbLine
 10
110.255909
 20
76.587104
 30
0.0
 11
146.855909
 21
76.587104
 31
0.0
  0
SOLID
  5
3F8
100
AcDbEntity
  8
0
  6
BYBLOCK
 62
     0
100
AcDbTrace
 10
110.255909
 20
77.020438
 30
0.0
 11
110.255909
 21
76.153771
 31
0.0
 12
107.655909
 22
76.587104
 32
0.0
 13
107.655909
 23
76.587104
 33
0.0
  0
SOLID
  5
3F9
100
AcDbEntity
  8
0
  6
BYBLOCK
 62
     0
100
AcDbTrace
 10
146.855909
 20
77.020438
 30
0.0
 11
146.855909
 21
76.153771
 31
0.0
 12
149.455909
 22
76.587104
 32
0.0
 13
149.455909
 23
76.587104
 33
0.0
  0
MTEXT
  5
3FA
100
AcDbEntity
  8
0
  6
BYBLOCK
 62
     0
100
AcDbMText
 10
128.555909
 20
78.617104
 30
0.0
 40
3.0
 41
0.0
 71
     5
 72
     1
  1
\A1;{209}
  0
POINT
  5
3FB
100
AcDbEntity
  8
DEFPOINTS
  6
BYBLOCK
 62
     0
100
AcDbPoint
 10
107.655909
 20
68.009988
 30
0.0
  0
POINT
  5
3FC
100
AcDbEntity
  8
DEFPOINTS
  6
BYBLOCK
 62
     0
100
AcDbPoint
 10
149.455909
 20
68.009988
 30
0.0
  0
POINT
  5
3FD
100
AcDbEntity
  8
DEFPOINTS
  6
BYBLOCK
 62
     0
100
AcDbPoint
 10
149.455909
 20
76.587104
 30
0.0
  0
ENDBLK
  5
3FF
100
AcDbEntity
  8
0
100
AcDbBlockEnd
  0
BLOCK
  5
40A
100
AcDbEntity
  8
0
100
AcDbBlockBegin
  2
*D5
 70
    65
 10
0.0
 20
0.0
 30
0.0
  3
*D5
  1

  0
LINE
  5
401
100
AcDbEntity
  8
0
  6
BYBLOCK
 62
     0
100
AcDbLine
 10
149.455909
 20
68.536088
 30
0.0
 11
149.455909
 21
77.639305
 31
0.0
  0
LINE
  5
402
100
AcDbEntity
  8
0
  6
BYBLOCK
 62
     0
100
AcDbLine
 10
191.255909
 20
68.536088
 30
0.0
 11
191.255909
 21
77.639305
 31
0.0
  0
LINE
  5
403
100
AcDbEntity
  8
0
  6
BYBLOCK
 62
     0
100
AcDbLine
 10
152.055909
 20
76.587105
 30
0.0
 11
188.655909
 21
76.587105
 31
0.0
  0
SOLID
  5
404
100
AcDbEntity
  8
0
  6
BYBLOCK
 62
     0
100
AcDbTrace
 10
152.055909
 20
77.020438
 30
0.0
 11
152.055909
 21
76.153771
 31
0.0
 12
149.455909
 22
76.587105
 32
0.0
 13
149.455909
 23
76.587105
 33
0.0
  0
SOLID
  5
405
100
AcDbEntity
  8
0
  6
BYBLOCK
 62
     0
100
AcDbTrace
 10
188.655909
 20
77.020438
 30
0.0
 11
188.655909
 21
76.153771
 31
0.0
 12
191.255909
 22
76.587105
 32
0.0
 13
191.255909
 23
76.587105
 33
0.0
  0
MTEXT
  5
406
100
AcDbEntity
  8
0
  6
BYBLOCK
 62
     0
100
AcDbMText
 10
170.355909
 20
78.617105
 30
0.0
 40
3.0
 41
0.0
 71
     5
 72
     1
  1
\A1;{209}
  0
POINT
  5
407
100
AcDbEntity
  8
DEFPOINTS
  6
BYBLOCK
 62
     0
100
AcDbPoint
 10
149.455909
 20
68.009988
 30
0.0
  0
POINT
  5
408
100
AcDbEntity
  8
DEFPOINTS
  6
BYBLOCK
 62
     0
100
AcDbPoint
 10
191.255909
 20
68.009988
 30
0.0
  0
POINT
  5
409
100
AcDbEntity
  8
DEFPOINTS
  6
BYBLOCK
 62
     0
100
AcDbPoint
 10
191.255909
 20
76.587105
 30
0.0
  0
ENDBLK
  5
40B
100
AcDbEntity
  8
0
100
AcDbBlockEnd
  0
BLOCK
  5
416
100
AcDbEntity
  8
0
100
AcDbBlockBegin
  2
*D6
 70
    65
 10
0.0
 20
0.0
 30
0.0
  3
*D6
  1

  0
LINE
  5
40D
100
AcDbEntity
  8
0
  6
BYBLOCK
 62
     0
100
AcDbLine
 10
191.255909
 20
68.536088
 30
0.0
 11
191.255909
 21
77.639305
 31
0.0
  0
LINE
  5
40E
100
AcDbEntity
  8
0
  6
BYBLOCK
 62
     0
100
AcDbLine
 10
212.055909
 20
68.536088
 30
0.0
 11
212.055909
 21
77.639305
 31
0.0
  0
LINE
  5
40F
100
AcDbEntity
  8
0
  6
BYBLOCK
 62
     0
100
AcDbLine
 10
193.855909
 20
76.587105
 30
0.0
 11
209.455909
 21
76.587105
 31
0.0
  0
SOLID
  5
410
100
AcDbEntity
  8
0
  6
BYBLOCK
 62
     0
100
AcDbTrace
 10
193.855909
 20
77.020438
 30
0.0
 11
193.855909
 21
76.153771
 31
0.0
 12
191.255909
 22
76.587105
 32
0.0
 13
191.255909
 23
76.587105
 33
0.0
  0
SOLID
  5
411
100
AcDbEntity
  8
0
  6
BYBLOCK
 62
     0
100
AcDbTrace
 10
209.455909
 20
77.020438
 30
0.0
 11
209.455909
 21
76.153771
 31
0.0
 12
212.055909
 22
76.587105
 32
0.0
 13
212.055909
 23
76.587105
 33
0.0
  0
MTEXT
  5
412
100
AcDbEntity
  8
0
  6
BYBLOCK
 62
     0
100
AcDbMText
 10
201.655909
 20
78.617105
 30
0.0
 40
3.0
 41
0.0
 71
     5
 72
     1
  1
\A1;{104}
  0
POINT
  5
413
100
AcDbEntity
  8
DEFPOINTS
  6
BYBLOCK
 62
     0
100
AcDbPoint
 10
191.255909
 20
68.009988
 30
0.0
  0
POINT
  5
414
100
AcDbEntity
  8
DEFPOINTS
  6
BYBLOCK
 62
     0
100
AcDbPoint
 10
212.055909
 20
68.009988
 30
0.0
  0
POINT
  5
415
100
AcDbEntity
  8
DEFPOINTS
  6
BYBLOCK
 62
     0
100
AcDbPoint
 10
212.055909
 20
76.587105
 30
0.0
  0
ENDBLK
  5
417
100
AcDbEntity
  8
0
100
AcDbBlockEnd
  0
BLOCK
  5
422
100
AcDbEntity
  8
0
100
AcDbBlockBegin
  2
*D7
 70
    65
 10
0.0
 20
0.0
 30
0.0
  3
*D7
  1

  0
LINE
  5
419
100
AcDbEntity
  8
0
  6
BYBLOCK
 62
     0
100
AcDbLine
 10
45.055909
 20
68.536088
 30
0.0
 11
45.055909
 21
87.036375
 31
0.0
  0
LINE
  5
41A
100
AcDbEntity
  8
0
  6
BYBLOCK
 62
     0
100
AcDbLine
 10
212.055909
 20
68.536088
 30
0.0
 11
212.055909
 21
87.036375
 31
0.0
  0
LINE
  5
41B
100
AcDbEntity
  8
0
  6
BYBLOCK
 62
     0
100
AcDbLine
 10
47.655909
 20
85.984175
 30
0.0
 11
209.455909
 21
85.984175
 31
0.0
  0
SOLID
  5
41C
100
AcDbEntity
  8
0
  6
BYBLOCK
 62
     0
100
AcDbTrace
 10
47.655909
 20
86.417509
 30
0.0
 11
47.655909
 21
85.550842
 31
0.0
 12
45.055909
 22
85.984175
 32
0.0
 13
45.055909
 23
85.984175
 33
0.0
  0
SOLID
  5
41D
100
AcDbEntity
  8
0
  6
BYBLOCK
 62
     0
100
AcDbTrace
 10
209.455909
 20
86.417509
 30
0.0
 11
209.455909
 21
85.550842
 31
0.0
 12
212.055909
 22
85.984175
 32
0.0
 13
212.055909
 23
85.984175
 33
0.0
  0
MTEXT
  5
41E
100
AcDbEntity
  8
0
  6
BYBLOCK
 62
     0
100
AcDbMText
 10
128.555909
 20
88.014175
 30
0.0
 40
3.0
 41
0.0
 71
     5
 72
     1
  1
\A1;{835}
  0
POINT
  5
41F
100
AcDbEntity
  8
DEFPOINTS
  6
BYBLOCK
 62
     0
100
AcDbPoint
 10
45.055909
 20
68.009988
 30
0.0
  0
POINT
  5
420
100
AcDbEntity
  8
DEFPOINTS
  6
BYBLOCK
 62
     0
100
AcDbPoint
 10
212.055909
 20
68.009988
 30
0.0
  0
POINT
  5
421
100
AcDbEntity
  8
DEFPOINTS
  6
BYBLOCK
 62
     0
100
AcDbPoint
 10
212.055909
 20
85.984175
 30
0.0
  0
ENDBLK
  5
423
100
AcDbEntity
  8
0
100
AcDbBlockEnd
  0
BLOCK
  5
445
100
AcDbEntity
  8
QUOTE
100
AcDbBlockBegin
  2
A$C5
 70
     0
 10
0.0
 20
0.0
 30
0.0
  3
A$C5
  1

  0
LINE
  5
42A
100
AcDbEntity
  8
OGGETTO
  6
CONTINUOUS
100
AcDbLine
 10
167.354735
 20
25.420397
 30
0.0
 11
0.354735
 21
25.420397
 31
0.0
  0
DIMENSION
  5
42B
100
AcDbEntity
  8
QUOTE
  6
CONTINUOUS
100
AcDbDimension
  2
*D7
 10
167.354735
 20
43.394584
 30
0.0
 11
83.854735
 21
45.424584
 31
0.0
 12
-44.701173
 22
-42.589591
 32
0.0
  1
{835}
  3
ISO-25
100
AcDbAlignedDimension
 13
0.354735
 23
25.420397
 33
0.0
 14
167.354735
 24
25.420397
 34
0.0
100
AcDbRotatedDimension
1001
ACAD
1000
DSTYLE
1002
{
1070
   140
1040
2.6
1070
    47
1040
0.02
1070
    48
1040
0.02
1070
    73
1070
     0
1070
   272
1070
     2
1070
   147
1040
0.53
1070
    42
1040
0.5261
1070
    44
1040
1.0522
1070
    43
1040
3.1566
1070
   271
1070
     2
1070
   141
1040
2.1044
1070
    41
1040
2.6
1002
}
  0
DIMENSION
  5
42C
100
AcDbEntity
  8
QUOTE
  6
CONTINUOUS
100
AcDbDimension
  2
*D4
 10
104.754735
 20
33.997513
 30
0.0
 11
83.854735
 21
36.027513
 31
0.0
 12
-44.701173
 22
-42.589591
 32
0.0
  1
{209}
  3
ISO-25
100
AcDbAlignedDimension
 13
62.954735
 23
25.420397
 33
0.0
 14
104.754735
 24
25.420397
 34
0.0
100
AcDbRotatedDimension
1001
ACAD
1000
DSTYLE
1002
{
1070
   140
1040
2.6
1070
    47
1040
0.02
1070
    48
1040
0.02
1070
    73
1070
     0
1070
   272
1070
     2
1070
   147
1040
0.53
1070
    42
1040
0.5261
1070
    44
1040
1.0522
1070
    43
1040
3.1566
1070
   271
1070
     2
1070
   141
1040
2.1044
1070
    41
1040
2.6
1002
}
  0
LINE
  5
42D
100
AcDbEntity
  8
CENTRO
  6
LINEA-LINEETTEX2
100
AcDbLine
 10
0.354735
 20
19.920397
 30
0.0
 11
167.354735
 21
19.920397
 31
0.0
  0
LINE
  5
42E
100
AcDbEntity
  8
OGGETTO
  6
CONTINUOUS
100
AcDbLine
 10
167.354735
 20
14.420397
 30
0.0
 11
0.354735
 21
14.420397
 31
0.0
  0
DIMENSION
  5
42F
100
AcDbEntity
  8
QUOTE
  6
CONTINUOUS
100
AcDbDimension
  2
*D2
 10
21.154735
 20
33.997513
 30
0.0
 11
10.754735
 21
36.027513
 31
0.0
 12
-44.701173
 22
-42.589591
 32
0.0
  1
{104}
  3
ISO-25
100
AcDbAlignedDimension
 13
0.354735
 23
25.420397
 33
0.0
 14
21.154735
 24
25.420397
 34
0.0
100
AcDbRotatedDimension
1001
ACAD
1000
DSTYLE
1002
{
1070
   140
1040
2.6
1070
    47
1040
0.02
1070
    48
1040
0.02
1070
    73
1070
     0
1070
   272
1070
     2
1070
   147
1040
0.53
1070
    42
1040
0.5261
1070
    44
1040
1.0522
1070
    43
1040
3.1566
1070
   271
1070
     2
1070
   141
1040
2.1044
1070
    41
1040
2.6
1002
}
  0
LINE
  5
430
100
AcDbEntity
  8
OGGETTO
  6
CONTINUOUS
100
AcDbLine
 10
0.354735
 20
14.420397
 30
0.0
 11
0.354735
 21
25.420397
 31
0.0
  0
LINE
  5
431
100
AcDbEntity
  8
QUOTE
  6
CONTINUOUS
100
AcDbLine
 10
49.809398
 20
60.875468
 30
0.0
 11
39.667262
 21
60.875468
 31
0.0
  0
LINE
  5
432
100
AcDbEntity
  8
QUOTE
  6
CONTINUOUS
100
AcDbLine
 10
44.73833
 20
65.946536
 30
0.0
 11
39.667262
 21
60.875468
 31
0.0
  0
DIMENSION
  5
433
100
AcDbEntity
  8
QUOTE
  6
CONTINUOUS
100
AcDbDimension
  2
*D3
 10
62.954735
 20
33.997513
 30
0.0
 11
42.054735
 21
36.027513
 31
0.0
 12
-44.701173
 22
-42.589591
 32
0.0
  1
{209}
  3
ISO-25
100
AcDbAlignedDimension
 13
21.154735
 23
25.420397
 33
0.0
 14
62.954735
 24
25.420397
 34
0.0
100
AcDbRotatedDimension
1001
ACAD
1000
DSTYLE
1002
{
1070
   140
1040
2.6
1070
    47
1040
0.02
1070
    48
1040
0.02
1070
    73
1070
     0
1070
   272
1070
     2
1070
   147
1040
0.53
1070
    42
1040
0.5261
1070
    44
1040
1.0522
1070
    43
1040
3.1566
1070
   271
1070
     2
1070
   141
1040
2.1044
1070
    41
1040
2.6
1002
}
  0
CIRCLE
  5
434
100
AcDbEntity
  8
OGGETTO
  6
CONTINUOUS
100
AcDbCircle
 10
21.154735
 20
19.920397
 30
0.0
 40
0.8
  0
LINE
  5
435
100
AcDbEntity
  8
CENTRO
  6
LINEA-LINEETTEX2
100
AcDbLine
 10
21.154735
 20
25.420397
 30
0.0
 11
21.154735
 21
14.420397
 31
0.0
  0
TEXT
  5
436
100
AcDbEntity
  8
TESTO
  6
CONTINUOUS
100
AcDbText
 10
34.311757
 20
54.535807
 30
0.0
 40
3.0
  1
" A "
100
AcDbText
  0
LINE
  5
437
100
AcDbEntity
  8
CENTRO
  6
LINEA-LINEETTEX2
100
AcDbLine
 10
62.954735
 20
25.420397
 30
0.0
 11
62.954735
 21
14.420397
 31
0.0
  0
CIRCLE
  5
438
100
AcDbEntity
  8
OGGETTO
  6
CONTINUOUS
100
AcDbCircle
 10
62.954735
 20
19.920397
 30
0.0
 40
0.8
  0
LINE
  5
439
100
AcDbEntity
  8
QUOTE
  6
CONTINUOUS
100
AcDbLine
 10
44.73833
 20
65.946536
 30
0.0
 11
44.73833
 21
51.51532
 31
0.0
  0
LINE
  5
43A
100
AcDbEntity
  8
QUOTE
  6
CONTINUOUS
100
AcDbLine
 10
44.73833
 20
65.946536
 30
0.0
 11
49.809398
 21
60.875468
 31
0.0
  0
TEXT
  5
43B
100
AcDbEntity
  8
TESTO
  6
CONTINUOUS
100
AcDbText
 10
113.552731
 20
0.370442
 30
0.0
 40
3.0
  1
SMUSSI NON QUOTATI 0.5X45°
100
AcDbText
  0
TEXT
  5
43C
100
AcDbEntity
  8
TESTO
  6
CONTINUOUS
100
AcDbText
 10
90.008858
 20
7.082636
 30
0.0
 40
3.0
  1
TOLLERANZA INTERASSE FORI = +/- 0.2 MM
100
AcDbText
  0
TEXT
  5
43D
100
AcDbEntity
  8
TESTO
  6
CONTINUOUS
100
AcDbText
 10
112.207367
 20
51.850931
 30
0.0
 40
3.0
  1
VISTA DA " A " SCALA 1 : 5
100
AcDbText
  0
DIMENSION
  5
43E
100
AcDbEntity
  8
QUOTE
  6
CONTINUOUS
100
AcDbDimension
  2
*D5
 10
146.554735
 20
33.997514
 30
0.0
 11
125.654735
 21
36.027514
 31
0.0
 12
-44.701173
 22
-42.589591
 32
0.0
  1
{209}
  3
ISO-25
100
AcDbAlignedDimension
 13
104.754735
 23
25.420397
 33
0.0
 14
146.554735
 24
25.420397
 34
0.0
100
AcDbRotatedDimension
1001
ACAD
1000
DSTYLE
1002
{
1070
   140
1040
2.6
1070
    47
1040
0.02
1070
    48
1040
0.02
1070
    73
1070
     0
1070
   272
1070
     2
1070
   147
1040
0.53
1070
    42
1040
0.5261
1070
    44
1040
1.0522
1070
    43
1040
3.1566
1070
   271
1070
     2
1070
   141
1040
2.1044
1070
    41
1040
2.6
1002
}
  0
LINE
  5
43F
100
AcDbEntity
  8
CENTRO
  6
LINEA-LINEETTEX2
100
AcDbLine
 10
104.754735
 20
25.420397
 30
0.0
 11
104.754735
 21
14.420397
 31
0.0
  0
CIRCLE
  5
440
100
AcDbEntity
  8
OGGETTO
  6
CONTINUOUS
100
AcDbCircle
 10
104.754735
 20
19.920397
 30
0.0
 40
0.8
  0
DIMENSION
  5
441
100
AcDbEntity
  8
QUOTE
  6
CONTINUOUS
100
AcDbDimension
  2
*D6
 10
167.354735
 20
33.997514
 30
0.0
 11
156.954735
 21
36.027514
 31
0.0
 12
-44.701173
 22
-42.589591
 32
0.0
  1
{104}
  3
ISO-25
100
AcDbAlignedDimension
 13
146.554735
 23
25.420397
 33
0.0
 14
167.354735
 24
25.420397
 34
0.0
100
AcDbRotatedDimension
1001
ACAD
1000
DSTYLE
1002
{
1070
   140
1040
2.6
1070
    47
1040
0.02
1070
    48
1040
0.02
1070
    73
1070
     0
1070
   272
1070
     2
1070
   147
1040
0.53
1070
    42
1040
0.5261
1070
    44
1040
1.0522
1070
    43
1040
3.1566
1070
   271
1070
     2
1070
   141
1040
2.1044
1070
    41
1040
2.6
1002
}
  0
LINE
  5
442
100
AcDbEntity
  8
CENTRO
  6
LINEA-LINEETTEX2
100
AcDbLine
 10
146.554735
 20
25.420397
 30
0.0
 11
146.554735
 21
14.420397
 31
0.0
  0
CIRCLE
  5
443
100
AcDbEntity
  8
OGGETTO
  6
CONTINUOUS
100
AcDbCircle
 10
146.554735
 20
19.920397
 30
0.0
 40
0.8
  0
LINE
  5
444
100
AcDbEntity
  8
OGGETTO
  6
CONTINUOUS
100
AcDbLine
 10
167.354735
 20
25.420397
 30
0.0
 11
167.354735
 21
14.420397
 31
0.0
  0
ENDBLK
  5
446
100
AcDbEntity
  8
QUOTE
100
AcDbBlockEnd
  0
BLOCK
  5
743
100
AcDbEntity
  8
QUOTE
100
AcDbBlockBegin
  2
RUGOSITA
 70
     2
 10
0.0
 20
0.0
 30
0.0
  3
RUGOSITA
  1

  0
ATTDEF
  5
73F
100
AcDbEntity
  8
QUOTE
100
AcDbText
 10
-1.071886
 20
3.214106
 30
0.0
 40
1.5
  1
0.8
100
AcDbAttributeDefinition
  3
CHE RUGOSITA ?
  2
RUGOSITA
 70
     0
  0
LINE
  5
740
100
AcDbEntity
  8
QUOTE
100
AcDbLine
 10
0.0
 20
0.0
 30
0.0
 11
4.0
 21
6.928203
 31
0.0
  0
LINE
  5
741
100
AcDbEntity
  8
QUOTE
100
AcDbLine
 10
0.0
 20
0.0
 30
0.0
 11
-1.75
 21
3.031089
 31
0.0
  0
LINE
  5
742
100
AcDbEntity
  8
QUOTE
100
AcDbLine
 10
-1.75
 20
3.031089
 30
0.0
 11
1.75
 21
3.031089
 31
0.0
  0
ENDBLK
  5
744
100
AcDbEntity
  8
QUOTE
100
AcDbBlockEnd
  0
BLOCK
  5
14CA
100
AcDbEntity
  8
0
100
AcDbBlockBegin
  2
*D10
 70
    65
 10
0.0
 20
0.0
 30
0.0
  3
*D10
  1

  0
LINE
  5
14CB
100
AcDbEntity
  8
0
  6
BYBLOCK
 62
     0
100
AcDbLine
 10
84.113449
 20
236.102667
 30
0.0
 11
84.113449
 21
250.656984
 31
0.0
  0
LINE
  5
14CC
100
AcDbEntity
  8
0
  6
BYBLOCK
 62
     0
100
AcDbLine
 10
96.113449
 20
236.102667
 30
0.0
 11
96.113449
 21
250.656984
 31
0.0
  0
LINE
  5
14CD
100
AcDbEntity
  8
0
  6
BYBLOCK
 62
     0
100
AcDbLine
 10
86.613449
 20
249.406984
 30
0.0
 11
93.613449
 21
249.406984
 31
0.0
  0
SOLID
  5
14CE
100
AcDbEntity
  8
0
  6
BYBLOCK
 62
     0
100
AcDbTrace
 10
86.613449
 20
249.82365
 30
0.0
 11
86.613449
 21
248.990317
 31
0.0
 12
84.113449
 22
249.406984
 32
0.0
 13
84.113449
 23
249.406984
 33
0.0
  0
SOLID
  5
14CF
100
AcDbEntity
  8
0
  6
BYBLOCK
 62
     0
100
AcDbTrace
 10
93.613449
 20
249.82365
 30
0.0
 11
93.613449
 21
248.990317
 31
0.0
 12
96.113449
 22
249.406984
 32
0.0
 13
96.113449
 23
249.406984
 33
0.0
  0
MTEXT
  5
14D0
100
AcDbEntity
  8
0
  6
BYBLOCK
 62
     0
100
AcDbMText
 10
90.113449
 20
252.437476
 30
0.0
 40
5.0
 41
0.0
 71
     5
 72
     1
  1
\A1;12
  0
POINT
  5
14D1
100
AcDbEntity
  8
DEFPOINTS
  6
BYBLOCK
 62
     0
100
AcDbPoint
 10
84.113449
 20
235.477667
 30
0.0
  0
POINT
  5
14D2
100
AcDbEntity
  8
DEFPOINTS
  6
BYBLOCK
 62
     0
100
AcDbPoint
 10
96.113449
 20
235.477667
 30
0.0
  0
POINT
  5
14D3
100
AcDbEntity
  8
DEFPOINTS
  6
BYBLOCK
 62
     0
100
AcDbPoint
 10
96.113449
 20
249.406984
 30
0.0
  0
ENDBLK
  5
14D4
100
AcDbEntity
  8
0
100
AcDbBlockEnd
  0
BLOCK
  5
1411
100
AcDbEntity
  8
TEMPRA
100
AcDbBlockBegin
  2
A$CB0E1
 70
     0
 10
0.0
 20
0.0
 30
0.0
  3
A$CB0E1
  1

  0
TEXT
  5
13E0
100
AcDbEntity
  8
SEZIONE
  6
CONTINUOUS
 62
     7
100
AcDbText
 10
4.16705
 20
4.842204
 30
0.0
 40
5.0
  1
M 26-88-03/C
100
AcDbText
  0
LINE
  5
13E1
100
AcDbEntity
  8
SEZIONE
  6
CONTINUOUS
 62
     7
100
AcDbLine
 10
0.057052
 20
44.208521
 30
0.0
 11
92.057052
 21
44.208521
 31
0.0
  0
LINE
  5
13E2
100
AcDbEntity
  8
DISEGNO
  6
CONTINUOUS
100
AcDbLine
 10
2.057052
 20
2.208521
 30
0.0
 11
52.057052
 21
2.208521
 31
0.0
  0
LINE
  5
13E3
100
AcDbEntity
  8
DISEGNO
  6
CONTINUOUS
100
AcDbLine
 10
2.057052
 20
12.208521
 30
0.0
 11
52.057052
 21
12.208521
 31
0.0
  0
LINE
  5
13E4
100
AcDbEntity
  8
DISEGNO
  6
CONTINUOUS
100
AcDbLine
 10
2.057052
 20
0.208521
 30
0.0
 11
52.057052
 21
0.208521
 31
0.0
  0
LINE
  5
13E5
100
AcDbEntity
  8
DISEGNO
  6
CONTINUOUS
100
AcDbLine
 10
60.057052
 20
0.208521
 30
0.0
 11
0.057052
 21
0.208521
 31
0.0
  0
POLYLINE
  5
13E6
100
AcDbEntity
  8
FOGLIO
  6
CONTINUOUS
100
AcDb2dPolyline
 66
     1
 10
0.0
 20
0.0
 30
0.0
  0
VERTEX
  5
13E7
100
AcDbEntity
  8
FOGLIO
  6
CONTINUOUS
100
AcDbVertex
100
AcDb2dVertex
 10
90.057052
 20
22.208521
 30
0.0
  0
VERTEX
  5
13E8
100
AcDbEntity
  8
FOGLIO
  6
CONTINUOUS
100
AcDbVertex
100
AcDb2dVertex
 10
90.057052
 20
12.208521
 30
0.0
  0
VERTEX
  5
13E9
100
AcDbEntity
  8
FOGLIO
  6
CONTINUOUS
100
AcDbVertex
100
AcDb2dVertex
 10
60.057052
 20
12.208521
 30
0.0
  0
VERTEX
  5
13EA
100
AcDbEntity
  8
FOGLIO
  6
CONTINUOUS
100
AcDbVertex
100
AcDb2dVertex
 10
60.057052
 20
2.208521
 30
0.0
  0
VERTEX
  5
13EB
100
AcDbEntity
  8
FOGLIO
  6
CONTINUOUS
100
AcDbVertex
100
AcDb2dVertex
 10
2.057052
 20
2.208521
 30
0.0
  0
VERTEX
  5
13EC
100
AcDbEntity
  8
FOGLIO
  6
CONTINUOUS
100
AcDbVertex
100
AcDb2dVertex
 10
2.057052
 20
12.208521
 30
0.0
  0
VERTEX
  5
13ED
100
AcDbEntity
  8
FOGLIO
  6
CONTINUOUS
100
AcDbVertex
100
AcDb2dVertex
 10
60.057052
 20
12.208521
 30
0.0
  0
VERTEX
  5
13EE
100
AcDbEntity
  8
FOGLIO
  6
CONTINUOUS
100
AcDbVertex
100
AcDb2dVertex
 10
60.057052
 20
22.208521
 30
0.0
  0
VERTEX
  5
13EF
100
AcDbEntity
  8
FOGLIO
  6
CONTINUOUS
100
AcDbVertex
100
AcDb2dVertex
 10
60.057052
 20
42.208521
 30
0.0
  0
VERTEX
  5
13F0
100
AcDbEntity
  8
FOGLIO
  6
CONTINUOUS
100
AcDbVertex
100
AcDb2dVertex
 10
90.057052
 20
42.208521
 30
0.0
  0
VERTEX
  5
13F1
100
AcDbEntity
  8
FOGLIO
  6
CONTINUOUS
100
AcDbVertex
100
AcDb2dVertex
 10
90.057052
 20
22.208521
 30
0.0
  0
VERTEX
  5
13F2
100
AcDbEntity
  8
FOGLIO
  6
CONTINUOUS
100
AcDbVertex
100
AcDb2dVertex
 10
60.057052
 20
22.208521
 30
0.0
  0
VERTEX
  5
13F3
100
AcDbEntity
  8
FOGLIO
  6
CONTINUOUS
100
AcDbVertex
100
AcDb2dVertex
 10
2.057052
 20
22.208521
 30
0.0
  0
VERTEX
  5
13F4
100
AcDbEntity
  8
FOGLIO
  6
CONTINUOUS
100
AcDbVertex
100
AcDb2dVertex
 10
2.057052
 20
42.208521
 30
0.0
  0
VERTEX
  5
13F5
100
AcDbEntity
  8
FOGLIO
  6
CONTINUOUS
100
AcDbVertex
100
AcDb2dVertex
 10
60.057052
 20
42.208521
 30
0.0
  0
VERTEX
  5
13F6
100
AcDbEntity
  8
FOGLIO
  6
CONTINUOUS
100
AcDbVertex
100
AcDb2dVertex
 10
60.057052
 20
32.208521
 30
0.0
  0
SEQEND
  5
13F7
100
AcDbEntity
  8
FOGLIO
  6
CONTINUOUS
  0
LINE
  5
13F8
100
AcDbEntity
  8
SEZIONE
  6
CONTINUOUS
 62
     7
100
AcDbLine
 10
0.057052
 20
44.208521
 30
0.0
 11
0.057052
 21
0.208521
 31
0.0
  0
TEXT
  5
13F9
100
AcDbEntity
  8
SEZIONE
  6
CONTINUOUS
 62
     7
100
AcDbText
 10
4.16705
 20
14.842204
 30
0.0
 40
5.0
  1
M 26-88-03
100
AcDbText
  0
TEXT
  5
13FA
100
AcDbEntity
  8
SEZIONE
  6
CONTINUOUS
 62
     7
100
AcDbText
 10
4.252515
 20
34.201135
 30
0.0
 40
5.0
  1
CODE
100
AcDbText
  0
LINE
  5
13FB
100
AcDbEntity
  8
FOGLIO
  6
CONTINUOUS
100
AcDbLine
 10
2.057052
 20
22.208521
 30
0.0
 11
2.057052
 21
12.208521
 31
0.0
  0
LINE
  5
13FC
100
AcDbEntity
  8
DISEGNO
  6
CONTINUOUS
100
AcDbLine
 10
92.057052
 20
22.208521
 30
0.0
 11
92.057052
 21
44.208521
 31
0.0
  0
TEXT
  5
13FD
100
AcDbEntity
  8
SEZIONE
  6
CONTINUOUS
 62
     7
100
AcDbText
 10
63.557052
 20
34.708521
 30
0.0
 40
5.0
  1
LENGTH
 72
     4
 11
75.057052
 21
37.208521
 31
0.0
100
AcDbText
  0
TEXT
  5
13FE
100
AcDbEntity
  8
SEZIONE
  6
CONTINUOUS
 62
     7
100
AcDbText
 10
70.684762
 20
25.367911
 30
0.0
 40
5.0
  1
mm
 72
     4
 11
75.275371
 21
27.208521
 31
0.0
100
AcDbText
  0
LINE
  5
13FF
100
AcDbEntity
  8
DISEGNO
  6
CONTINUOUS
100
AcDbLine
 10
60.057052
 20
0.208521
 30
0.0
 11
92.057052
 21
0.208521
 31
0.0
  0
LINE
  5
1400
100
AcDbEntity
  8
DISEGNO
  6
CONTINUOUS
100
AcDbLine
 10
90.057052
 20
2.208521
 30
0.0
 11
60.057052
 21
2.208521
 31
0.0
  0
LINE
  5
1401
100
AcDbEntity
  8
DISEGNO
  6
CONTINUOUS
100
AcDbLine
 10
90.057052
 20
12.208521
 30
0.0
 11
60.057052
 21
12.208521
 31
0.0
  0
TEXT
  5
1402
100
AcDbEntity
  8
SEZIONE
  6
CONTINUOUS
 62
     7
100
AcDbText
 10
67.953499
 20
4.812074
 30
0.0
 40
5.0
  1
 415
 72
     4
 11
75.057052
 21
7.208521
 31
0.0
100
AcDbText
  0
POLYLINE
  5
1403
100
AcDbEntity
  8
FOGLIO
  6
CONTINUOUS
100
AcDb2dPolyline
 66
     1
 10
0.0
 20
0.0
 30
0.0
  0
VERTEX
  5
1404
100
AcDbEntity
  8
FOGLIO
  6
CONTINUOUS
100
AcDbVertex
100
AcDb2dVertex
 10
60.057052
 20
2.208521
 30
0.0
  0
VERTEX
  5
1405
100
AcDbEntity
  8
FOGLIO
  6
CONTINUOUS
100
AcDbVertex
100
AcDb2dVertex
 10
90.057052
 20
2.208521
 30
0.0
  0
VERTEX
  5
1406
100
AcDbEntity
  8
FOGLIO
  6
CONTINUOUS
100
AcDbVertex
100
AcDb2dVertex
 10
90.057052
 20
12.208521
 30
0.0
  0
SEQEND
  5
1407
100
AcDbEntity
  8
FOGLIO
  6
CONTINUOUS
  0
TEXT
  5
1408
100
AcDbEntity
  8
SEZIONE
  6
CONTINUOUS
 62
     7
100
AcDbText
 10
69.703499
 20
14.812074
 30
0.0
 40
5.0
  1
835
 72
     4
 11
75.057052
 21
17.208521
 31
0.0
100
AcDbText
  0
LINE
  5
1409
100
AcDbEntity
  8
DISEGNO
  6
CONTINUOUS
100
AcDbLine
 10
60.057052
 20
12.208521
 30
0.0
 11
60.057052
 21
22.208521
 31
0.0
  0
LINE
  5
140A
100
AcDbEntity
  8
DISEGNO
  6
CONTINUOUS
100
AcDbLine
 10
60.057052
 20
2.208521
 30
0.0
 11
60.057052
 21
12.208521
 31
0.0
  0
LINE
  5
140B
100
AcDbEntity
  8
DISEGNO
  6
CONTINUOUS
100
AcDbLine
 10
60.057052
 20
32.208521
 30
0.0
 11
60.057052
 21
22.208521
 31
0.0
  0
LINE
  5
140C
100
AcDbEntity
  8
DISEGNO
  6
CONTINUOUS
100
AcDbLine
 10
92.057052
 20
12.208521
 30
0.0
 11
92.057052
 21
22.208521
 31
0.0
  0
LINE
  5
140D
100
AcDbEntity
  8
DISEGNO
  6
CONTINUOUS
100
AcDbLine
 10
90.057052
 20
12.208521
 30
0.0
 11
90.057052
 21
22.208521
 31
0.0
  0
LINE
  5
140E
100
AcDbEntity
  8
DISEGNO
  6
CONTINUOUS
100
AcDbLine
 10
92.057052
 20
0.208521
 30
0.0
 11
92.057052
 21
12.208521
 31
0.0
  0
LINE
  5
140F
100
AcDbEntity
  8
DISEGNO
  6
CONTINUOUS
100
AcDbLine
 10
90.057052
 20
2.208521
 30
0.0
 11
90.057052
 21
12.208521
 31
0.0
  0
LINE
  5
1410
100
AcDbEntity
  8
DISEGNO
  6
CONTINUOUS
100
AcDbLine
 10
90.057052
 20
0.208521
 30
0.0
 11
92.057052
 21
0.208521
 31
0.0
  0
ENDBLK
  5
1412
100
AcDbEntity
  8
TEMPRA
100
AcDbBlockEnd
  0
BLOCK
  5
14EF
100
AcDbEntity
  8
0
100
AcDbBlockBegin
  2
*D15
 70
    65
 10
0.0
 20
0.0
 30
0.0
  3
*D15
  1

  0
LINE
  5
14F0
100
AcDbEntity
  8
0
  6
BYBLOCK
 62
     0
100
AcDbLine
 10
59.485417
 20
237.054534
 30
0.0
 11
70.450733
 21
247.574147
 31
0.0
  0
SOLID
  5
14F1
100
AcDbEntity
  8
0
  6
BYBLOCK
 62
     0
100
AcDbTrace
 10
59.196963
 20
237.355209
 30
0.0
 11
59.77387
 21
236.753859
 31
0.0
 12
57.681366
 22
235.323811
 32
0.0
 13
57.681366
 23
235.323811
 33
0.0
  0
MTEXT
  5
14F2
100
AcDbEntity
  8
0
  6
BYBLOCK
 62
     0
100
AcDbMText
 10
63.927
 20
245.514466
 30
0.0
 40
5.0
 41
0.0
 71
     5
 72
     1
  1
\A1;R0.5
 11
0.72162
 21
0.692289
 31
0.0
  0
POINT
  5
14F3
100
AcDbEntity
  8
DEFPOINTS
  6
BYBLOCK
 62
     0
100
AcDbPoint
 10
57.681366
 20
235.323811
 30
0.0
  0
POINT
  5
14F4
100
AcDbEntity
  8
DEFPOINTS
  6
BYBLOCK
 62
     0
100
AcDbPoint
 10
57.320556
 20
234.977667
 30
0.0
  0
ENDBLK
  5
14F5
100
AcDbEntity
  8
0
100
AcDbBlockEnd
  0
BLOCK
  5
14F6
100
AcDbEntity
  8
0
100
AcDbBlockBegin
  2
*D16
 70
    65
 10
0.0
 20
0.0
 30
0.0
  3
*D16
  1

  0
LINE
  5
14F7
100
AcDbEntity
  8
0
  6
BYBLOCK
 62
     0
100
AcDbLine
 10
98.759382
 20
237.029858
 30
0.0
 11
110.010431
 21
248.463821
 31
0.0
  0
SOLID
  5
14F8
100
AcDbEntity
  8
0
  6
BYBLOCK
 62
     0
100
AcDbTrace
 10
98.462388
 20
237.3221
 30
0.0
 11
99.056376
 21
236.737615
 31
0.0
 12
97.005926
 22
235.247895
 32
0.0
 13
97.005926
 23
235.247895
 33
0.0
  0
MTEXT
  5
14F9
100
AcDbEntity
  8
0
  6
BYBLOCK
 62
     0
100
AcDbMText
 10
103.621356
 20
246.290915
 30
0.0
 40
5.0
 41
0.0
 71
     5
 72
     1
  1
\A1;R0.8
 11
0.701382
 21
0.712785
 31
0.0
  0
POINT
  5
14FA
100
AcDbEntity
  8
DEFPOINTS
  6
BYBLOCK
 62
     0
100
AcDbPoint
 10
97.005926
 20
235.247895
 30
0.0
  0
POINT
  5
14FB
100
AcDbEntity
  8
DEFPOINTS
  6
BYBLOCK
 62
     0
100
AcDbPoint
 10
96.44482
 20
234.677667
 30
0.0
  0
ENDBLK
  5
14FC
100
AcDbEntity
  8
0
100
AcDbBlockEnd
  0
BLOCK
  5
1500
100
AcDbEntity
  8
0
100
AcDbBlockBegin
  2
*D17
 70
    65
 10
0.0
 20
0.0
 30
0.0
  3
*D17
  1

  0
LINE
  5
1501
100
AcDbEntity
  8
0
  6
BYBLOCK
 62
     0
100
AcDbLine
 10
45.113449
 20
235.102667
 30
0.0
 11
45.113449
 21
271.97305
 31
0.0
  0
LINE
  5
1502
100
AcDbEntity
  8
0
  6
BYBLOCK
 62
     0
100
AcDbLine
 10
53.113449
 20
270.516052
 30
0.0
 11
53.113449
 21
269.47305
 31
0.0
  0
LINE
  5
1503
100
AcDbEntity
  8
0
  6
BYBLOCK
 62
     0
100
AcDbLine
 10
42.613449
 20
270.72305
 30
0.0
 11
40.113449
 21
270.72305
 31
0.0
  0
LINE
  5
1504
100
AcDbEntity
  8
0
  6
BYBLOCK
 62
     0
100
AcDbLine
 10
55.613449
 20
270.72305
 30
0.0
 11
58.113449
 21
270.72305
 31
0.0
  0
SOLID
  5
1505
100
AcDbEntity
  8
0
  6
BYBLOCK
 62
     0
100
AcDbTrace
 10
42.613449
 20
271.139717
 30
0.0
 11
42.613449
 21
270.306384
 31
0.0
 12
45.113449
 22
270.72305
 32
0.0
 13
45.113449
 23
270.72305
 33
0.0
  0
SOLID
  5
1506
100
AcDbEntity
  8
0
  6
BYBLOCK
 62
     0
100
AcDbTrace
 10
55.613449
 20
271.139717
 30
0.0
 11
55.613449
 21
270.306384
 31
0.0
 12
53.113449
 22
270.72305
 32
0.0
 13
53.113449
 23
270.72305
 33
0.0
  0
MTEXT
  5
1507
100
AcDbEntity
  8
0
  6
BYBLOCK
 62
     0
100
AcDbMText
 10
49.113449
 20
273.75305
 30
0.0
 40
5.0
 41
0.0
 71
     5
 72
     1
  1
\A1;8
  0
POINT
  5
1508
100
AcDbEntity
  8
DEFPOINTS
  6
BYBLOCK
 62
     0
100
AcDbPoint
 10
45.113449
 20
234.477667
 30
0.0
  0
POINT
  5
1509
100
AcDbEntity
  8
DEFPOINTS
  6
BYBLOCK
 62
     0
100
AcDbPoint
 10
53.113449
 20
271.141052
 30
0.0
  0
POINT
  5
150A
100
AcDbEntity
  8
DEFPOINTS
  6
BYBLOCK
 62
     0
100
AcDbPoint
 10
53.113449
 20
270.72305
 30
0.0
  0
ENDBLK
  5
150B
100
AcDbEntity
  8
0
100
AcDbBlockEnd
  0
BLOCK
  5
150E
100
AcDbEntity
  8
0
100
AcDbBlockBegin
  2
*D18
 70
    65
 10
0.0
 20
0.0
 30
0.0
  3
*D18
  1

  0
LINE
  5
150F
100
AcDbEntity
  8
0
  6
BYBLOCK
 62
     0
100
AcDbLine
 10
53.113449
 20
271.34805
 30
0.0
 11
53.113449
 21
271.97305
 31
0.0
  0
LINE
  5
1510
100
AcDbEntity
  8
0
  6
BYBLOCK
 62
     0
100
AcDbLine
 10
90.113449
 20
270.516052
 30
0.0
 11
90.113449
 21
269.47305
 31
0.0
  0
LINE
  5
1511
100
AcDbEntity
  8
0
  6
BYBLOCK
 62
     0
100
AcDbLine
 10
55.613449
 20
270.72305
 30
0.0
 11
87.613449
 21
270.72305
 31
0.0
  0
SOLID
  5
1512
100
AcDbEntity
  8
0
  6
BYBLOCK
 62
     0
100
AcDbTrace
 10
55.613449
 20
271.139717
 30
0.0
 11
55.613449
 21
270.306384
 31
0.0
 12
53.113449
 22
270.72305
 32
0.0
 13
53.113449
 23
270.72305
 33
0.0
  0
SOLID
  5
1513
100
AcDbEntity
  8
0
  6
BYBLOCK
 62
     0
100
AcDbTrace
 10
87.613449
 20
271.139717
 30
0.0
 11
87.613449
 21
270.306384
 31
0.0
 12
90.113449
 22
270.72305
 32
0.0
 13
90.113449
 23
270.72305
 33
0.0
  0
MTEXT
  5
1514
100
AcDbEntity
  8
0
  6
BYBLOCK
 62
     0
100
AcDbMText
 10
71.613449
 20
273.75305
 30
0.0
 40
5.0
 41
0.0
 71
     5
 72
     1
  1
\A1;37
  0
POINT
  5
1515
100
AcDbEntity
  8
DEFPOINTS
  6
BYBLOCK
 62
     0
100
AcDbPoint
 10
53.113449
 20
270.72305
 30
0.0
  0
POINT
  5
1516
100
AcDbEntity
  8
DEFPOINTS
  6
BYBLOCK
 62
     0
100
AcDbPoint
 10
90.113449
 20
271.141052
 30
0.0
  0
POINT
  5
1517
100
AcDbEntity
  8
DEFPOINTS
  6
BYBLOCK
 62
     0
100
AcDbPoint
 10
90.113449
 20
270.72305
 30
0.0
  0
ENDBLK
  5
1518
100
AcDbEntity
  8
0
100
AcDbBlockEnd
  0
BLOCK
  5
1565
100
AcDbEntity
  8
0
100
AcDbBlockBegin
  2
*D19
 70
    65
 10
0.0
 20
0.0
 30
0.0
  3
*D19
  1

  0
LINE
  5
1566
100
AcDbEntity
  8
0
  6
BYBLOCK
 62
     0
100
AcDbLine
 10
89.679287
 20
228.814897
 30
0.0
 11
81.30814
 21
220.14632
 31
0.0
  0
LINE
  5
1567
100
AcDbEntity
  8
0
  6
BYBLOCK
 62
     0
100
AcDbLine
 10
90.54761
 20
228.814897
 30
0.0
 11
98.918758
 21
220.14632
 31
0.0
  0
ARC
  5
1568
100
AcDbEntity
  8
0
  6
BYBLOCK
 62
     0
100
AcDbCircle
 10
90.113449
 20
229.264485
 30
0.0
 40
11.425741
100
AcDbArc
 50
238.561701
 51
301.438299
  0
SOLID
  5
1569
100
AcDbEntity
  8
0
  6
BYBLOCK
 62
     0
100
AcDbTrace
 10
83.899097
 20
219.186425
 30
0.0
 11
84.408923
 21
219.845608
 31
0.0
 12
82.176463
 22
221.045495
 32
0.0
 13
82.176463
 23
221.045495
 33
0.0
  0
SOLID
  5
156A
100
AcDbEntity
  8
0
  6
BYBLOCK
 62
     0
100
AcDbTrace
 10
95.817974
 20
219.845608
 30
0.0
 11
96.327801
 21
219.186425
 31
0.0
 12
98.050435
 22
221.045495
 32
0.0
 13
98.050435
 23
221.045495
 33
0.0
  0
MTEXT
  5
156B
100
AcDbEntity
  8
0
  6
BYBLOCK
 62
     0
100
AcDbMText
 10
90.113449
 20
220.868744
 30
0.0
 40
5.0
 41
0.0
 71
     5
 72
     1
  1
\A1;88°
  0
POINT
  5
156C
100
AcDbEntity
  8
DEFPOINTS
  6
BYBLOCK
 62
     0
100
AcDbPoint
 10
87.220507
 20
218.211049
 30
0.0
  0
POINT
  5
156D
100
AcDbEntity
  8
DEFPOINTS
  6
BYBLOCK
 62
     0
100
AcDbPoint
 10
84.113449
 20
235.477667
 30
0.0
  0
POINT
  5
156E
100
AcDbEntity
  8
DEFPOINTS
  6
BYBLOCK
 62
     0
100
AcDbPoint
 10
96.113449
 20
235.477667
 30
0.0
  0
POINT
  5
156F
100
AcDbEntity
  8
DEFPOINTS
  6
BYBLOCK
 62
     0
100
AcDbPoint
 10
90.113449
 20
229.264485
 30
0.0
  0
POINT
  5
1570
100
AcDbEntity
  8
DEFPOINTS
  6
BYBLOCK
 62
     0
100
AcDbPoint
 10
90.113449
 20
229.264485
 30
0.0
  0
ENDBLK
  5
1571
100
AcDbEntity
  8
0
100
AcDbBlockEnd
  0
BLOCK
  5
1576
100
AcDbEntity
  8
0
100
AcDbBlockBegin
  2
*D20
 70
    65
 10
0.0
 20
0.0
 30
0.0
  3
*D20
  1

  0
LINE
  5
1577
100
AcDbEntity
  8
0
  6
BYBLOCK
 62
     0
100
AcDbLine
 10
52.679287
 20
230.885958
 30
0.0
 11
44.047452
 21
221.947431
 31
0.0
  0
LINE
  5
1578
100
AcDbEntity
  8
0
  6
BYBLOCK
 62
     0
100
AcDbLine
 10
53.54761
 20
230.885958
 30
0.0
 11
62.179446
 21
221.947431
 31
0.0
  0
ARC
  5
1579
100
AcDbEntity
  8
0
  6
BYBLOCK
 62
     0
100
AcDbCircle
 10
53.113449
 20
231.335545
 30
0.0
 40
11.801015
100
AcDbArc
 50
238.160705
 51
301.839295
  0
SOLID
  5
157A
100
AcDbEntity
  8
0
  6
BYBLOCK
 62
     0
100
AcDbTrace
 10
46.631893
 20
220.981519
 30
0.0
 11
47.144023
 21
221.638913
 31
0.0
 12
44.915775
 22
222.846605
 32
0.0
 13
44.915775
 23
222.846605
 33
0.0
  0
SOLID
  5
157B
100
AcDbEntity
  8
0
  6
BYBLOCK
 62
     0
100
AcDbTrace
 10
59.082875
 20
221.638913
 30
0.0
 11
59.595004
 21
220.981519
 31
0.0
 12
61.311123
 22
222.846605
 32
0.0
 13
61.311123
 23
222.846605
 33
0.0
  0
MTEXT
  5
157C
100
AcDbEntity
  8
0
  6
BYBLOCK
 62
     0
100
AcDbMText
 10
53.113449
 20
222.56453
 30
0.0
 40
5.0
 41
0.0
 71
     5
 72
     1
  1
\A1;88°
  0
POINT
  5
157D
100
AcDbEntity
  8
DEFPOINTS
  6
BYBLOCK
 62
     0
100
AcDbPoint
 10
50.125489
 20
219.919064
 30
0.0
  0
POINT
  5
157E
100
AcDbEntity
  8
DEFPOINTS
  6
BYBLOCK
 62
     0
100
AcDbPoint
 10
49.260881
 20
235.324996
 30
0.0
  0
POINT
  5
157F
100
AcDbEntity
  8
DEFPOINTS
  6
BYBLOCK
 62
     0
100
AcDbPoint
 10
56.966016
 20
235.324996
 30
0.0
  0
POINT
  5
1580
100
AcDbEntity
  8
DEFPOINTS
  6
BYBLOCK
 62
     0
100
AcDbPoint
 10
53.113449
 20
231.335545
 30
0.0
  0
POINT
  5
1581
100
AcDbEntity
  8
DEFPOINTS
  6
BYBLOCK
 62
     0
100
AcDbPoint
 10
53.113449
 20
231.335545
 30
0.0
  0
ENDBLK
  5
1582
100
AcDbEntity
  8
0
100
AcDbBlockEnd
  0
BLOCK
  5
15C1
100
AcDbEntity
  8
0
100
AcDbBlockBegin
  2
*X21
 70
    65
 10
0.0
 20
0.0
 30
0.0
  3
*X21
  1

  0
LINE
  5
15C3
100
AcDbEntity
  8
0
 62
     0
100
AcDbLine
 10
73.266468
 20
233.56404
 30
0.0
 11
74.780095
 21
235.077667
 31
0.0
  0
LINE
  5
15C4
100
AcDbEntity
  8
0
 62
     0
100
AcDbLine
 10
73.041962
 20
233.56404
 30
0.0
 11
74.555589
 21
235.077667
 31
0.0
  0
LINE
  5
15C5
100
AcDbEntity
  8
0
 62
     0
100
AcDbLine
 10
72.817455
 20
233.56404
 30
0.0
 11
74.331082
 21
235.077667
 31
0.0
  0
LINE
  5
15C6
100
AcDbEntity
  8
0
 62
     0
100
AcDbLine
 10
72.592949
 20
233.56404
 30
0.0
 11
74.106576
 21
235.077667
 31
0.0
  0
LINE
  5
15C7
100
AcDbEntity
  8
0
 62
     0
100
AcDbLine
 10
72.368443
 20
233.56404
 30
0.0
 11
73.882069
 21
235.077667
 31
0.0
  0
LINE
  5
15C8
100
AcDbEntity
  8
0
 62
     0
100
AcDbLine
 10
72.143936
 20
233.56404
 30
0.0
 11
73.657563
 21
235.077667
 31
0.0
  0
LINE
  5
15C9
100
AcDbEntity
  8
0
 62
     0
100
AcDbLine
 10
71.91943
 20
233.56404
 30
0.0
 11
73.433057
 21
235.077667
 31
0.0
  0
LINE
  5
15CA
100
AcDbEntity
  8
0
 62
     0
100
AcDbLine
 10
71.694923
 20
233.56404
 30
0.0
 11
73.20855
 21
235.077667
 31
0.0
  0
LINE
  5
15CB
100
AcDbEntity
  8
0
 62
     0
100
AcDbLine
 10
71.470417
 20
233.56404
 30
0.0
 11
72.984044
 21
235.077667
 31
0.0
  0
LINE
  5
15CC
100
AcDbEntity
  8
0
 62
     0
100
AcDbLine
 10
71.24591
 20
233.56404
 30
0.0
 11
72.759537
 21
235.077667
 31
0.0
  0
LINE
  5
15CD
100
AcDbEntity
  8
0
 62
     0
100
AcDbLine
 10
71.021404
 20
233.56404
 30
0.0
 11
72.535031
 21
235.077667
 31
0.0
  0
LINE
  5
15CE
100
AcDbEntity
  8
0
 62
     0
100
AcDbLine
 10
70.796898
 20
233.56404
 30
0.0
 11
72.310525
 21
235.077667
 31
0.0
  0
LINE
  5
15CF
100
AcDbEntity
  8
0
 62
     0
100
AcDbLine
 10
70.572391
 20
233.56404
 30
0.0
 11
72.086018
 21
235.077667
 31
0.0
  0
LINE
  5
15D0
100
AcDbEntity
  8
0
 62
     0
100
AcDbLine
 10
70.347885
 20
233.56404
 30
0.0
 11
71.861512
 21
235.077667
 31
0.0
  0
LINE
  5
15D1
100
AcDbEntity
  8
0
 62
     0
100
AcDbLine
 10
70.123378
 20
233.56404
 30
0.0
 11
71.637005
 21
235.077667
 31
0.0
  0
LINE
  5
15D2
100
AcDbEntity
  8
0
 62
     0
100
AcDbLine
 10
69.898872
 20
233.56404
 30
0.0
 11
71.412499
 21
235.077667
 31
0.0
  0
LINE
  5
15D3
100
AcDbEntity
  8
0
 62
     0
100
AcDbLine
 10
69.674366
 20
233.56404
 30
0.0
 11
71.187992
 21
235.077667
 31
0.0
  0
LINE
  5
15D4
100
AcDbEntity
  8
0
 62
     0
100
AcDbLine
 10
69.449859
 20
233.56404
 30
0.0
 11
70.963486
 21
235.077667
 31
0.0
  0
LINE
  5
15D5
100
AcDbEntity
  8
0
 62
     0
100
AcDbLine
 10
69.225353
 20
233.56404
 30
0.0
 11
70.73898
 21
235.077667
 31
0.0
  0
LINE
  5
15D6
100
AcDbEntity
  8
0
 62
     0
100
AcDbLine
 10
69.000846
 20
233.56404
 30
0.0
 11
70.514473
 21
235.077667
 31
0.0
  0
LINE
  5
15D7
100
AcDbEntity
  8
0
 62
     0
100
AcDbLine
 10
68.77634
 20
233.56404
 30
0.0
 11
70.289967
 21
235.077667
 31
0.0
  0
LINE
  5
15D8
100
AcDbEntity
  8
0
 62
     0
100
AcDbLine
 10
68.551834
 20
233.56404
 30
0.0
 11
70.06546
 21
235.077667
 31
0.0
  0
LINE
  5
15D9
100
AcDbEntity
  8
0
 62
     0
100
AcDbLine
 10
68.327327
 20
233.56404
 30
0.0
 11
69.840954
 21
235.077667
 31
0.0
  0
LINE
  5
15DA
100
AcDbEntity
  8
0
 62
     0
100
AcDbLine
 10
68.102821
 20
233.56404
 30
0.0
 11
69.616448
 21
235.077667
 31
0.0
  0
LINE
  5
15DB
100
AcDbEntity
  8
0
 62
     0
100
AcDbLine
 10
67.878314
 20
233.56404
 30
0.0
 11
69.391941
 21
235.077667
 31
0.0
  0
LINE
  5
15DC
100
AcDbEntity
  8
0
 62
     0
100
AcDbLine
 10
67.653808
 20
233.56404
 30
0.0
 11
69.167435
 21
235.077667
 31
0.0
  0
LINE
  5
15DD
100
AcDbEntity
  8
0
 62
     0
100
AcDbLine
 10
67.429302
 20
233.56404
 30
0.0
 11
68.942928
 21
235.077667
 31
0.0
  0
LINE
  5
15DE
100
AcDbEntity
  8
0
 62
     0
100
AcDbLine
 10
67.204795
 20
233.56404
 30
0.0
 11
68.718422
 21
235.077667
 31
0.0
  0
LINE
  5
15DF
100
AcDbEntity
  8
0
 62
     0
100
AcDbLine
 10
66.980289
 20
233.56404
 30
0.0
 11
68.493916
 21
235.077667
 31
0.0
  0
LINE
  5
15E0
100
AcDbEntity
  8
0
 62
     0
100
AcDbLine
 10
66.755782
 20
233.56404
 30
0.0
 11
68.269409
 21
235.077667
 31
0.0
  0
LINE
  5
15E1
100
AcDbEntity
  8
0
 62
     0
100
AcDbLine
 10
66.531276
 20
233.56404
 30
0.0
 11
68.044903
 21
235.077667
 31
0.0
  0
LINE
  5
15E2
100
AcDbEntity
  8
0
 62
     0
100
AcDbLine
 10
66.30677
 20
233.56404
 30
0.0
 11
67.820396
 21
235.077667
 31
0.0
  0
LINE
  5
15E3
100
AcDbEntity
  8
0
 62
     0
100
AcDbLine
 10
66.082263
 20
233.56404
 30
0.0
 11
67.59589
 21
235.077667
 31
0.0
  0
LINE
  5
15E4
100
AcDbEntity
  8
0
 62
     0
100
AcDbLine
 10
65.857757
 20
233.56404
 30
0.0
 11
67.371384
 21
235.077667
 31
0.0
  0
LINE
  5
15E5
100
AcDbEntity
  8
0
 62
     0
100
AcDbLine
 10
65.63325
 20
233.56404
 30
0.0
 11
67.146877
 21
235.077667
 31
0.0
  0
LINE
  5
15E6
100
AcDbEntity
  8
0
 62
     0
100
AcDbLine
 10
65.408744
 20
233.56404
 30
0.0
 11
66.922371
 21
235.077667
 31
0.0
  0
LINE
  5
15E7
100
AcDbEntity
  8
0
 62
     0
100
AcDbLine
 10
65.184238
 20
233.56404
 30
0.0
 11
66.697864
 21
235.077667
 31
0.0
  0
LINE
  5
15E8
100
AcDbEntity
  8
0
 62
     0
100
AcDbLine
 10
64.959731
 20
233.56404
 30
0.0
 11
66.473358
 21
235.077667
 31
0.0
  0
LINE
  5
15E9
100
AcDbEntity
  8
0
 62
     0
100
AcDbLine
 10
64.735225
 20
233.56404
 30
0.0
 11
66.248852
 21
235.077667
 31
0.0
  0
LINE
  5
15EA
100
AcDbEntity
  8
0
 62
     0
100
AcDbLine
 10
64.510718
 20
233.56404
 30
0.0
 11
66.024345
 21
235.077667
 31
0.0
  0
LINE
  5
15EB
100
AcDbEntity
  8
0
 62
     0
100
AcDbLine
 10
64.286212
 20
233.56404
 30
0.0
 11
65.799839
 21
235.077667
 31
0.0
  0
LINE
  5
15EC
100
AcDbEntity
  8
0
 62
     0
100
AcDbLine
 10
64.061706
 20
233.56404
 30
0.0
 11
65.575332
 21
235.077667
 31
0.0
  0
LINE
  5
15ED
100
AcDbEntity
  8
0
 62
     0
100
AcDbLine
 10
63.837199
 20
233.56404
 30
0.0
 11
65.350826
 21
235.077667
 31
0.0
  0
LINE
  5
15EE
100
AcDbEntity
  8
0
 62
     0
100
AcDbLine
 10
63.612693
 20
233.56404
 30
0.0
 11
65.12632
 21
235.077667
 31
0.0
  0
LINE
  5
15EF
100
AcDbEntity
  8
0
 62
     0
100
AcDbLine
 10
63.388186
 20
233.56404
 30
0.0
 11
64.901813
 21
235.077667
 31
0.0
  0
LINE
  5
15F0
100
AcDbEntity
  8
0
 62
     0
100
AcDbLine
 10
63.16368
 20
233.56404
 30
0.0
 11
64.677307
 21
235.077667
 31
0.0
  0
LINE
  5
15F1
100
AcDbEntity
  8
0
 62
     0
100
AcDbLine
 10
62.939174
 20
233.56404
 30
0.0
 11
64.4528
 21
235.077667
 31
0.0
  0
LINE
  5
15F2
100
AcDbEntity
  8
0
 62
     0
100
AcDbLine
 10
62.714667
 20
233.56404
 30
0.0
 11
64.228294
 21
235.077667
 31
0.0
  0
LINE
  5
15F3
100
AcDbEntity
  8
0
 62
     0
100
AcDbLine
 10
62.490161
 20
233.56404
 30
0.0
 11
64.003788
 21
235.077667
 31
0.0
  0
LINE
  5
15F4
100
AcDbEntity
  8
0
 62
     0
100
AcDbLine
 10
62.265654
 20
233.56404
 30
0.0
 11
63.779281
 21
235.077667
 31
0.0
  0
LINE
  5
15F5
100
AcDbEntity
  8
0
 62
     0
100
AcDbLine
 10
62.041148
 20
233.56404
 30
0.0
 11
63.554775
 21
235.077667
 31
0.0
  0
LINE
  5
15F6
100
AcDbEntity
  8
0
 62
     0
100
AcDbLine
 10
61.816642
 20
233.56404
 30
0.0
 11
63.330268
 21
235.077667
 31
0.0
  0
LINE
  5
15F7
100
AcDbEntity
  8
0
 62
     0
100
AcDbLine
 10
61.592135
 20
233.56404
 30
0.0
 11
63.105762
 21
235.077667
 31
0.0
  0
LINE
  5
15F8
100
AcDbEntity
  8
0
 62
     0
100
AcDbLine
 10
61.367629
 20
233.56404
 30
0.0
 11
62.881256
 21
235.077667
 31
0.0
  0
LINE
  5
15F9
100
AcDbEntity
  8
0
 62
     0
100
AcDbLine
 10
61.143122
 20
233.56404
 30
0.0
 11
62.656749
 21
235.077667
 31
0.0
  0
LINE
  5
15FA
100
AcDbEntity
  8
0
 62
     0
100
AcDbLine
 10
60.918616
 20
233.56404
 30
0.0
 11
62.432243
 21
235.077667
 31
0.0
  0
LINE
  5
15FB
100
AcDbEntity
  8
0
 62
     0
100
AcDbLine
 10
60.69411
 20
233.56404
 30
0.0
 11
62.207736
 21
235.077667
 31
0.0
  0
LINE
  5
15FC
100
AcDbEntity
  8
0
 62
     0
100
AcDbLine
 10
60.469603
 20
233.56404
 30
0.0
 11
61.98323
 21
235.077667
 31
0.0
  0
LINE
  5
15FD
100
AcDbEntity
  8
0
 62
     0
100
AcDbLine
 10
60.245097
 20
233.56404
 30
0.0
 11
61.758724
 21
235.077667
 31
0.0
  0
LINE
  5
15FE
100
AcDbEntity
  8
0
 62
     0
100
AcDbLine
 10
60.02059
 20
233.56404
 30
0.0
 11
61.534217
 21
235.077667
 31
0.0
  0
LINE
  5
15FF
100
AcDbEntity
  8
0
 62
     0
100
AcDbLine
 10
59.796084
 20
233.56404
 30
0.0
 11
61.309711
 21
235.077667
 31
0.0
  0
LINE
  5
1600
100
AcDbEntity
  8
0
 62
     0
100
AcDbLine
 10
59.571578
 20
233.56404
 30
0.0
 11
61.085204
 21
235.077667
 31
0.0
  0
LINE
  5
1601
100
AcDbEntity
  8
0
 62
     0
100
AcDbLine
 10
59.347071
 20
233.56404
 30
0.0
 11
60.860698
 21
235.077667
 31
0.0
  0
LINE
  5
1602
100
AcDbEntity
  8
0
 62
     0
100
AcDbLine
 10
59.122565
 20
233.56404
 30
0.0
 11
60.636192
 21
235.077667
 31
0.0
  0
LINE
  5
1603
100
AcDbEntity
  8
0
 62
     0
100
AcDbLine
 10
58.898058
 20
233.56404
 30
0.0
 11
60.462567
 21
235.128549
 31
0.0
  0
LINE
  5
1604
100
AcDbEntity
  8
0
 62
     0
100
AcDbLine
 10
58.673552
 20
233.56404
 30
0.0
 11
60.350314
 21
235.240802
 31
0.0
  0
LINE
  5
1605
100
AcDbEntity
  8
0
 62
     0
100
AcDbLine
 10
58.449046
 20
233.56404
 30
0.0
 11
60.238061
 21
235.353055
 31
0.0
  0
LINE
  5
1606
100
AcDbEntity
  8
0
 62
     0
100
AcDbLine
 10
58.224539
 20
233.56404
 30
0.0
 11
60.125807
 21
235.465308
 31
0.0
  0
LINE
  5
1607
100
AcDbEntity
  8
0
 62
     0
100
AcDbLine
 10
58.000033
 20
233.56404
 30
0.0
 11
59.91366
 21
235.477667
 31
0.0
  0
LINE
  5
1608
100
AcDbEntity
  8
0
 62
     0
100
AcDbLine
 10
57.775526
 20
233.56404
 30
0.0
 11
59.689153
 21
235.477667
 31
0.0
  0
LINE
  5
1609
100
AcDbEntity
  8
0
 62
     0
100
AcDbLine
 10
57.508277
 20
233.521297
 30
0.0
 11
59.464647
 21
235.477667
 31
0.0
  0
LINE
  5
160A
100
AcDbEntity
  8
0
 62
     0
100
AcDbLine
 10
57.130206
 20
233.367732
 30
0.0
 11
59.24014
 21
235.477667
 31
0.0
  0
LINE
  5
160B
100
AcDbEntity
  8
0
 62
     0
100
AcDbLine
 10
56.752135
 20
233.214168
 30
0.0
 11
59.015634
 21
235.477667
 31
0.0
  0
LINE
  5
160C
100
AcDbEntity
  8
0
 62
     0
100
AcDbLine
 10
56.374065
 20
233.060604
 30
0.0
 11
58.791128
 21
235.477667
 31
0.0
  0
LINE
  5
160D
100
AcDbEntity
  8
0
 62
     0
100
AcDbLine
 10
55.995994
 20
232.907039
 30
0.0
 11
58.566621
 21
235.477667
 31
0.0
  0
LINE
  5
160E
100
AcDbEntity
  8
0
 62
     0
100
AcDbLine
 10
55.617923
 20
232.753475
 30
0.0
 11
58.342115
 21
235.477667
 31
0.0
  0
LINE
  5
160F
100
AcDbEntity
  8
0
 62
     0
100
AcDbLine
 10
55.239853
 20
232.599911
 30
0.0
 11
58.117608
 21
235.477667
 31
0.0
  0
LINE
  5
1610
100
AcDbEntity
  8
0
 62
     0
100
AcDbLine
 10
54.861782
 20
232.446347
 30
0.0
 11
57.893102
 21
235.477667
 31
0.0
  0
LINE
  5
1611
100
AcDbEntity
  8
0
 62
     0
100
AcDbLine
 10
54.483711
 20
232.292782
 30
0.0
 11
57.668595
 21
235.477667
 31
0.0
  0
LINE
  5
1612
100
AcDbEntity
  8
0
 62
     0
100
AcDbLine
 10
54.10564
 20
232.139218
 30
0.0
 11
57.444089
 21
235.477667
 31
0.0
  0
LINE
  5
1613
100
AcDbEntity
  8
0
 62
     0
100
AcDbLine
 10
54.126314
 20
232.384398
 30
0.0
 11
57.204732
 21
235.462816
 31
0.0
  0
LINE
  5
1614
100
AcDbEntity
  8
0
 62
     0
100
AcDbLine
 10
52.05626
 20
232.334902
 30
0.0
 11
52.103125
 21
232.381767
 31
0.0
  0
LINE
  5
1615
100
AcDbEntity
  8
0
 62
     0
100
AcDbLine
 10
51.89401
 20
232.397158
 30
0.0
 11
51.992831
 21
232.495979
 31
0.0
  0
LINE
  5
1616
100
AcDbEntity
  8
0
 62
     0
100
AcDbLine
 10
51.73176
 20
232.459414
 30
0.0
 11
51.882537
 21
232.610192
 31
0.0
  0
LINE
  5
1617
100
AcDbEntity
  8
0
 62
     0
100
AcDbLine
 10
51.56951
 20
232.521671
 30
0.0
 11
51.772243
 21
232.724404
 31
0.0
  0
LINE
  5
1618
100
AcDbEntity
  8
0
 62
     0
100
AcDbLine
 10
51.40726
 20
232.583927
 30
0.0
 11
51.66195
 21
232.838617
 31
0.0
  0
LINE
  5
1619
100
AcDbEntity
  8
0
 62
     0
100
AcDbLine
 10
51.24501
 20
232.646183
 30
0.0
 11
51.551656
 21
232.952829
 31
0.0
  0
LINE
  5
161A
100
AcDbEntity
  8
0
 62
     0
100
AcDbLine
 10
51.08276
 20
232.70844
 30
0.0
 11
51.441362
 21
233.067042
 31
0.0
  0
LINE
  5
161B
100
AcDbEntity
  8
0
 62
     0
100
AcDbLine
 10
50.92051
 20
232.770696
 30
0.0
 11
51.331068
 21
233.181255
 31
0.0
  0
LINE
  5
161C
100
AcDbEntity
  8
0
 62
     0
100
AcDbLine
 10
50.75826
 20
232.832952
 30
0.0
 11
51.220774
 21
233.295467
 31
0.0
  0
LINE
  5
161D
100
AcDbEntity
  8
0
 62
     0
100
AcDbLine
 10
50.59601
 20
232.895209
 30
0.0
 11
51.110481
 21
233.40968
 31
0.0
  0
LINE
  5
161E
100
AcDbEntity
  8
0
 62
     0
100
AcDbLine
 10
50.43376
 20
232.957465
 30
0.0
 11
51.000187
 21
233.523892
 31
0.0
  0
LINE
  5
161F
100
AcDbEntity
  8
0
 62
     0
100
AcDbLine
 10
50.27151
 20
233.019722
 30
0.0
 11
50.889893
 21
233.638105
 31
0.0
  0
LINE
  5
1620
100
AcDbEntity
  8
0
 62
     0
100
AcDbLine
 10
50.109259
 20
233.081978
 30
0.0
 11
50.779599
 21
233.752318
 31
0.0
  0
LINE
  5
1621
100
AcDbEntity
  8
0
 62
     0
100
AcDbLine
 10
49.947009
 20
233.144234
 30
0.0
 11
50.669305
 21
233.86653
 31
0.0
  0
LINE
  5
1622
100
AcDbEntity
  8
0
 62
     0
100
AcDbLine
 10
49.784759
 20
233.206491
 30
0.0
 11
50.559011
 21
233.980743
 31
0.0
  0
LINE
  5
1623
100
AcDbEntity
  8
0
 62
     0
100
AcDbLine
 10
49.622509
 20
233.268747
 30
0.0
 11
50.448718
 21
234.094955
 31
0.0
  0
LINE
  5
1624
100
AcDbEntity
  8
0
 62
     0
100
AcDbLine
 10
49.460259
 20
233.331003
 30
0.0
 11
50.338424
 21
234.209168
 31
0.0
  0
LINE
  5
1625
100
AcDbEntity
  8
0
 62
     0
100
AcDbLine
 10
49.298009
 20
233.39326
 30
0.0
 11
50.22813
 21
234.323381
 31
0.0
  0
LINE
  5
1626
100
AcDbEntity
  8
0
 62
     0
100
AcDbLine
 10
49.135759
 20
233.455516
 30
0.0
 11
50.117836
 21
234.437593
 31
0.0
  0
LINE
  5
1627
100
AcDbEntity
  8
0
 62
     0
100
AcDbLine
 10
48.973509
 20
233.517772
 30
0.0
 11
50.007542
 21
234.551806
 31
0.0
  0
LINE
  5
1628
100
AcDbEntity
  8
0
 62
     0
100
AcDbLine
 10
48.79527
 20
233.56404
 30
0.0
 11
49.897249
 21
234.666018
 31
0.0
  0
LINE
  5
1629
100
AcDbEntity
  8
0
 62
     0
100
AcDbLine
 10
48.570764
 20
233.56404
 30
0.0
 11
49.786955
 21
234.780231
 31
0.0
  0
LINE
  5
162A
100
AcDbEntity
  8
0
 62
     0
100
AcDbLine
 10
48.346257
 20
233.56404
 30
0.0
 11
49.676661
 21
234.894443
 31
0.0
  0
LINE
  5
162B
100
AcDbEntity
  8
0
 62
     0
100
AcDbLine
 10
48.121751
 20
233.56404
 30
0.0
 11
49.566367
 21
235.008656
 31
0.0
  0
LINE
  5
162C
100
AcDbEntity
  8
0
 62
     0
100
AcDbLine
 10
47.897245
 20
233.56404
 30
0.0
 11
49.456073
 21
235.122869
 31
0.0
  0
LINE
  5
162D
100
AcDbEntity
  8
0
 62
     0
100
AcDbLine
 10
47.672738
 20
233.56404
 30
0.0
 11
49.34578
 21
235.237081
 31
0.0
  0
LINE
  5
162E
100
AcDbEntity
  8
0
 62
     0
100
AcDbLine
 10
47.448232
 20
233.56404
 30
0.0
 11
49.23454
 21
235.350349
 31
0.0
  0
LINE
  5
162F
100
AcDbEntity
  8
0
 62
     0
100
AcDbLine
 10
47.223725
 20
233.56404
 30
0.0
 11
49.097298
 21
235.437612
 31
0.0
  0
LINE
  5
1630
100
AcDbEntity
  8
0
 62
     0
100
AcDbLine
 10
46.999219
 20
233.56404
 30
0.0
 11
48.912713
 21
235.477534
 31
0.0
  0
LINE
  5
1631
100
AcDbEntity
  8
0
 62
     0
100
AcDbLine
 10
46.774713
 20
233.56404
 30
0.0
 11
48.688339
 21
235.477667
 31
0.0
  0
LINE
  5
1632
100
AcDbEntity
  8
0
 62
     0
100
AcDbLine
 10
46.550206
 20
233.56404
 30
0.0
 11
48.463833
 21
235.477667
 31
0.0
  0
LINE
  5
1633
100
AcDbEntity
  8
0
 62
     0
100
AcDbLine
 10
46.3257
 20
233.56404
 30
0.0
 11
48.239327
 21
235.477667
 31
0.0
  0
LINE
  5
1634
100
AcDbEntity
  8
0
 62
     0
100
AcDbLine
 10
46.101193
 20
233.56404
 30
0.0
 11
48.01482
 21
235.477667
 31
0.0
  0
LINE
  5
1635
100
AcDbEntity
  8
0
 62
     0
100
AcDbLine
 10
45.876687
 20
233.56404
 30
0.0
 11
47.790314
 21
235.477667
 31
0.0
  0
LINE
  5
1636
100
AcDbEntity
  8
0
 62
     0
100
AcDbLine
 10
45.652181
 20
233.56404
 30
0.0
 11
47.565807
 21
235.477667
 31
0.0
  0
LINE
  5
1637
100
AcDbEntity
  8
0
 62
     0
100
AcDbLine
 10
45.427674
 20
233.56404
 30
0.0
 11
47.341301
 21
235.477667
 31
0.0
  0
LINE
  5
1638
100
AcDbEntity
  8
0
 62
     0
100
AcDbLine
 10
45.203168
 20
233.56404
 30
0.0
 11
47.116795
 21
235.477667
 31
0.0
  0
LINE
  5
1639
100
AcDbEntity
  8
0
 62
     0
100
AcDbLine
 10
45.113449
 20
233.698827
 30
0.0
 11
46.892288
 21
235.477667
 31
0.0
  0
LINE
  5
163A
100
AcDbEntity
  8
0
 62
     0
100
AcDbLine
 10
45.113449
 20
233.923334
 30
0.0
 11
46.667782
 21
235.477667
 31
0.0
  0
LINE
  5
163B
100
AcDbEntity
  8
0
 62
     0
100
AcDbLine
 10
45.113449
 20
234.14784
 30
0.0
 11
46.443275
 21
235.477667
 31
0.0
  0
LINE
  5
163C
100
AcDbEntity
  8
0
 62
     0
100
AcDbLine
 10
45.113449
 20
234.372347
 30
0.0
 11
46.218769
 21
235.477667
 31
0.0
  0
LINE
  5
163D
100
AcDbEntity
  8
0
 62
     0
100
AcDbLine
 10
73.490975
 20
233.56404
 30
0.0
 11
75.004601
 21
235.077667
 31
0.0
  0
LINE
  5
163E
100
AcDbEntity
  8
0
 62
     0
100
AcDbLine
 10
73.715481
 20
233.56404
 30
0.0
 11
75.229108
 21
235.077667
 31
0.0
  0
LINE
  5
163F
100
AcDbEntity
  8
0
 62
     0
100
AcDbLine
 10
73.939987
 20
233.56404
 30
0.0
 11
75.453614
 21
235.077667
 31
0.0
  0
LINE
  5
1640
100
AcDbEntity
  8
0
 62
     0
100
AcDbLine
 10
74.164494
 20
233.56404
 30
0.0
 11
75.678121
 21
235.077667
 31
0.0
  0
LINE
  5
1641
100
AcDbEntity
  8
0
 62
     0
100
AcDbLine
 10
74.389
 20
233.56404
 30
0.0
 11
75.902627
 21
235.077667
 31
0.0
  0
LINE
  5
1642
100
AcDbEntity
  8
0
 62
     0
100
AcDbLine
 10
74.613507
 20
233.56404
 30
0.0
 11
76.127133
 21
235.077667
 31
0.0
  0
LINE
  5
1643
100
AcDbEntity
  8
0
 62
     0
100
AcDbLine
 10
74.838013
 20
233.56404
 30
0.0
 11
76.35164
 21
235.077667
 31
0.0
  0
LINE
  5
1644
100
AcDbEntity
  8
0
 62
     0
100
AcDbLine
 10
75.062519
 20
233.56404
 30
0.0
 11
76.576146
 21
235.077667
 31
0.0
  0
LINE
  5
1645
100
AcDbEntity
  8
0
 62
     0
100
AcDbLine
 10
75.287026
 20
233.56404
 30
0.0
 11
76.800653
 21
235.077667
 31
0.0
  0
LINE
  5
1646
100
AcDbEntity
  8
0
 62
     0
100
AcDbLine
 10
75.511532
 20
233.56404
 30
0.0
 11
77.025159
 21
235.077667
 31
0.0
  0
LINE
  5
1647
100
AcDbEntity
  8
0
 62
     0
100
AcDbLine
 10
75.736039
 20
233.56404
 30
0.0
 11
77.249665
 21
235.077667
 31
0.0
  0
LINE
  5
1648
100
AcDbEntity
  8
0
 62
     0
100
AcDbLine
 10
75.960545
 20
233.56404
 30
0.0
 11
77.474172
 21
235.077667
 31
0.0
  0
LINE
  5
1649
100
AcDbEntity
  8
0
 62
     0
100
AcDbLine
 10
76.185051
 20
233.56404
 30
0.0
 11
77.698678
 21
235.077667
 31
0.0
  0
LINE
  5
164A
100
AcDbEntity
  8
0
 62
     0
100
AcDbLine
 10
76.409558
 20
233.56404
 30
0.0
 11
77.923185
 21
235.077667
 31
0.0
  0
LINE
  5
164B
100
AcDbEntity
  8
0
 62
     0
100
AcDbLine
 10
76.634064
 20
233.56404
 30
0.0
 11
78.147691
 21
235.077667
 31
0.0
  0
LINE
  5
164C
100
AcDbEntity
  8
0
 62
     0
100
AcDbLine
 10
76.858571
 20
233.56404
 30
0.0
 11
78.372197
 21
235.077667
 31
0.0
  0
LINE
  5
164D
100
AcDbEntity
  8
0
 62
     0
100
AcDbLine
 10
77.083077
 20
233.56404
 30
0.0
 11
78.596704
 21
235.077667
 31
0.0
  0
LINE
  5
164E
100
AcDbEntity
  8
0
 62
     0
100
AcDbLine
 10
77.307583
 20
233.56404
 30
0.0
 11
78.82121
 21
235.077667
 31
0.0
  0
LINE
  5
164F
100
AcDbEntity
  8
0
 62
     0
100
AcDbLine
 10
77.53209
 20
233.56404
 30
0.0
 11
79.045717
 21
235.077667
 31
0.0
  0
LINE
  5
1650
100
AcDbEntity
  8
0
 62
     0
100
AcDbLine
 10
77.756596
 20
233.56404
 30
0.0
 11
79.270223
 21
235.077667
 31
0.0
  0
LINE
  5
1651
100
AcDbEntity
  8
0
 62
     0
100
AcDbLine
 10
77.981103
 20
233.56404
 30
0.0
 11
79.494729
 21
235.077667
 31
0.0
  0
LINE
  5
1652
100
AcDbEntity
  8
0
 62
     0
100
AcDbLine
 10
78.205609
 20
233.56404
 30
0.0
 11
79.719236
 21
235.077667
 31
0.0
  0
LINE
  5
1653
100
AcDbEntity
  8
0
 62
     0
100
AcDbLine
 10
78.430115
 20
233.56404
 30
0.0
 11
79.943742
 21
235.077667
 31
0.0
  0
LINE
  5
1654
100
AcDbEntity
  8
0
 62
     0
100
AcDbLine
 10
78.654622
 20
233.56404
 30
0.0
 11
80.168249
 21
235.077667
 31
0.0
  0
LINE
  5
1655
100
AcDbEntity
  8
0
 62
     0
100
AcDbLine
 10
78.879128
 20
233.56404
 30
0.0
 11
80.392755
 21
235.077667
 31
0.0
  0
LINE
  5
1656
100
AcDbEntity
  8
0
 62
     0
100
AcDbLine
 10
79.103635
 20
233.56404
 30
0.0
 11
80.617261
 21
235.077667
 31
0.0
  0
LINE
  5
1657
100
AcDbEntity
  8
0
 62
     0
100
AcDbLine
 10
79.328141
 20
233.56404
 30
0.0
 11
81.241768
 21
235.477667
 31
0.0
  0
LINE
  5
1658
100
AcDbEntity
  8
0
 62
     0
100
AcDbLine
 10
79.552647
 20
233.56404
 30
0.0
 11
81.466274
 21
235.477667
 31
0.0
  0
LINE
  5
1659
100
AcDbEntity
  8
0
 62
     0
100
AcDbLine
 10
79.777154
 20
233.56404
 30
0.0
 11
81.690781
 21
235.477667
 31
0.0
  0
LINE
  5
165A
100
AcDbEntity
  8
0
 62
     0
100
AcDbLine
 10
80.00166
 20
233.56404
 30
0.0
 11
81.915287
 21
235.477667
 31
0.0
  0
LINE
  5
165B
100
AcDbEntity
  8
0
 62
     0
100
AcDbLine
 10
80.226167
 20
233.56404
 30
0.0
 11
82.139793
 21
235.477667
 31
0.0
  0
LINE
  5
165C
100
AcDbEntity
  8
0
 62
     0
100
AcDbLine
 10
80.450673
 20
233.56404
 30
0.0
 11
82.3643
 21
235.477667
 31
0.0
  0
LINE
  5
165D
100
AcDbEntity
  8
0
 62
     0
100
AcDbLine
 10
80.675179
 20
233.56404
 30
0.0
 11
82.588806
 21
235.477667
 31
0.0
  0
LINE
  5
165E
100
AcDbEntity
  8
0
 62
     0
100
AcDbLine
 10
80.899686
 20
233.56404
 30
0.0
 11
82.813313
 21
235.477667
 31
0.0
  0
LINE
  5
165F
100
AcDbEntity
  8
0
 62
     0
100
AcDbLine
 10
81.124192
 20
233.56404
 30
0.0
 11
83.037819
 21
235.477667
 31
0.0
  0
LINE
  5
1660
100
AcDbEntity
  8
0
 62
     0
100
AcDbLine
 10
81.348699
 20
233.56404
 30
0.0
 11
83.262325
 21
235.477667
 31
0.0
  0
LINE
  5
1661
100
AcDbEntity
  8
0
 62
     0
100
AcDbLine
 10
81.573205
 20
233.56404
 30
0.0
 11
83.486832
 21
235.477667
 31
0.0
  0
LINE
  5
1662
100
AcDbEntity
  8
0
 62
     0
100
AcDbLine
 10
81.797711
 20
233.56404
 30
0.0
 11
83.711338
 21
235.477667
 31
0.0
  0
LINE
  5
1663
100
AcDbEntity
  8
0
 62
     0
100
AcDbLine
 10
82.022218
 20
233.56404
 30
0.0
 11
83.922009
 21
235.463831
 31
0.0
  0
LINE
  5
1664
100
AcDbEntity
  8
0
 62
     0
100
AcDbLine
 10
82.246724
 20
233.56404
 30
0.0
 11
84.093656
 21
235.410972
 31
0.0
  0
LINE
  5
1665
100
AcDbEntity
  8
0
 62
     0
100
AcDbLine
 10
82.471231
 20
233.56404
 30
0.0
 11
84.237099
 21
235.329908
 31
0.0
  0
LINE
  5
1666
100
AcDbEntity
  8
0
 62
     0
100
AcDbLine
 10
82.695737
 20
233.56404
 30
0.0
 11
84.357078
 21
235.225381
 31
0.0
  0
LINE
  5
1667
100
AcDbEntity
  8
0
 62
     0
100
AcDbLine
 10
82.920243
 20
233.56404
 30
0.0
 11
84.467372
 21
235.111168
 31
0.0
  0
LINE
  5
1668
100
AcDbEntity
  8
0
 62
     0
100
AcDbLine
 10
83.14475
 20
233.56404
 30
0.0
 11
84.577666
 21
234.996956
 31
0.0
  0
LINE
  5
1669
100
AcDbEntity
  8
0
 62
     0
100
AcDbLine
 10
83.369256
 20
233.56404
 30
0.0
 11
84.68796
 21
234.882743
 31
0.0
  0
LINE
  5
166A
100
AcDbEntity
  8
0
 62
     0
100
AcDbLine
 10
83.593763
 20
233.56404
 30
0.0
 11
84.798253
 21
234.768531
 31
0.0
  0
LINE
  5
166B
100
AcDbEntity
  8
0
 62
     0
100
AcDbLine
 10
83.785408
 20
233.531179
 30
0.0
 11
84.908547
 21
234.654318
 31
0.0
  0
LINE
  5
166C
100
AcDbEntity
  8
0
 62
     0
100
AcDbLine
 10
83.927839
 20
233.449104
 30
0.0
 11
85.018841
 21
234.540106
 31
0.0
  0
LINE
  5
166D
100
AcDbEntity
  8
0
 62
     0
100
AcDbLine
 10
84.07027
 20
233.367028
 30
0.0
 11
85.129135
 21
234.425893
 31
0.0
  0
LINE
  5
166E
100
AcDbEntity
  8
0
 62
     0
100
AcDbLine
 10
84.212701
 20
233.284953
 30
0.0
 11
85.239429
 21
234.31168
 31
0.0
  0
LINE
  5
166F
100
AcDbEntity
  8
0
 62
     0
100
AcDbLine
 10
84.355132
 20
233.202878
 30
0.0
 11
85.349723
 21
234.197468
 31
0.0
  0
LINE
  5
1670
100
AcDbEntity
  8
0
 62
     0
100
AcDbLine
 10
84.497563
 20
233.120802
 30
0.0
 11
85.460016
 21
234.083255
 31
0.0
  0
LINE
  5
1671
100
AcDbEntity
  8
0
 62
     0
100
AcDbLine
 10
84.639994
 20
233.038727
 30
0.0
 11
85.57031
 21
233.969043
 31
0.0
  0
LINE
  5
1672
100
AcDbEntity
  8
0
 62
     0
100
AcDbLine
 10
84.782426
 20
232.956652
 30
0.0
 11
85.680604
 21
233.85483
 31
0.0
  0
LINE
  5
1673
100
AcDbEntity
  8
0
 62
     0
100
AcDbLine
 10
84.924857
 20
232.874576
 30
0.0
 11
85.790898
 21
233.740617
 31
0.0
  0
LINE
  5
1674
100
AcDbEntity
  8
0
 62
     0
100
AcDbLine
 10
85.067288
 20
232.792501
 30
0.0
 11
85.901192
 21
233.626405
 31
0.0
  0
LINE
  5
1675
100
AcDbEntity
  8
0
 62
     0
100
AcDbLine
 10
85.209719
 20
232.710425
 30
0.0
 11
86.011485
 21
233.512192
 31
0.0
  0
LINE
  5
1676
100
AcDbEntity
  8
0
 62
     0
100
AcDbLine
 10
85.35215
 20
232.62835
 30
0.0
 11
86.121779
 21
233.39798
 31
0.0
  0
LINE
  5
1677
100
AcDbEntity
  8
0
 62
     0
100
AcDbLine
 10
85.494581
 20
232.546275
 30
0.0
 11
86.232073
 21
233.283767
 31
0.0
  0
LINE
  5
1678
100
AcDbEntity
  8
0
 62
     0
100
AcDbLine
 10
85.637012
 20
232.464199
 30
0.0
 11
86.342367
 21
233.169554
 31
0.0
  0
LINE
  5
1679
100
AcDbEntity
  8
0
 62
     0
100
AcDbLine
 10
85.779443
 20
232.382124
 30
0.0
 11
86.452661
 21
233.055342
 31
0.0
  0
LINE
  5
167A
100
AcDbEntity
  8
0
 62
     0
100
AcDbLine
 10
85.921874
 20
232.300049
 30
0.0
 11
86.562955
 21
232.941129
 31
0.0
  0
LINE
  5
167B
100
AcDbEntity
  8
0
 62
     0
100
AcDbLine
 10
86.064305
 20
232.217973
 30
0.0
 11
86.673248
 21
232.826917
 31
0.0
  0
LINE
  5
167C
100
AcDbEntity
  8
0
 62
     0
100
AcDbLine
 10
86.206736
 20
232.135898
 30
0.0
 11
86.783542
 21
232.712704
 31
0.0
  0
LINE
  5
167D
100
AcDbEntity
  8
0
 62
     0
100
AcDbLine
 10
86.349167
 20
232.053823
 30
0.0
 11
86.893836
 21
232.598492
 31
0.0
  0
LINE
  5
167E
100
AcDbEntity
  8
0
 62
     0
100
AcDbLine
 10
86.491598
 20
231.971747
 30
0.0
 11
87.00413
 21
232.484279
 31
0.0
  0
LINE
  5
167F
100
AcDbEntity
  8
0
 62
     0
100
AcDbLine
 10
86.634029
 20
231.889672
 30
0.0
 11
87.114424
 21
232.370066
 31
0.0
  0
LINE
  5
1680
100
AcDbEntity
  8
0
 62
     0
100
AcDbLine
 10
86.77646
 20
231.807597
 30
0.0
 11
87.224717
 21
232.255854
 31
0.0
  0
LINE
  5
1681
100
AcDbEntity
  8
0
 62
     0
100
AcDbLine
 10
86.918891
 20
231.725521
 30
0.0
 11
87.335011
 21
232.141641
 31
0.0
  0
LINE
  5
1682
100
AcDbEntity
  8
0
 62
     0
100
AcDbLine
 10
87.061322
 20
231.643446
 30
0.0
 11
87.445305
 21
232.027429
 31
0.0
  0
LINE
  5
1683
100
AcDbEntity
  8
0
 62
     0
100
AcDbLine
 10
87.203753
 20
231.561371
 30
0.0
 11
87.555599
 21
231.913216
 31
0.0
  0
LINE
  5
1684
100
AcDbEntity
  8
0
 62
     0
100
AcDbLine
 10
87.346184
 20
231.479295
 30
0.0
 11
87.665893
 21
231.799003
 31
0.0
  0
LINE
  5
1685
100
AcDbEntity
  8
0
 62
     0
100
AcDbLine
 10
87.488616
 20
231.39722
 30
0.0
 11
87.776186
 21
231.684791
 31
0.0
  0
LINE
  5
1686
100
AcDbEntity
  8
0
 62
     0
100
AcDbLine
 10
87.631047
 20
231.315145
 30
0.0
 11
87.88648
 21
231.570578
 31
0.0
  0
LINE
  5
1687
100
AcDbEntity
  8
0
 62
     0
100
AcDbLine
 10
87.773478
 20
231.233069
 30
0.0
 11
87.996774
 21
231.456366
 31
0.0
  0
LINE
  5
1688
100
AcDbEntity
  8
0
 62
     0
100
AcDbLine
 10
87.915909
 20
231.150994
 30
0.0
 11
88.107068
 21
231.342153
 31
0.0
  0
LINE
  5
1689
100
AcDbEntity
  8
0
 62
     0
100
AcDbLine
 10
88.05834
 20
231.068918
 30
0.0
 11
88.217362
 21
231.22794
 31
0.0
  0
LINE
  5
168A
100
AcDbEntity
  8
0
 62
     0
100
AcDbLine
 10
88.200771
 20
230.986843
 30
0.0
 11
88.327656
 21
231.113728
 31
0.0
  0
LINE
  5
168B
100
AcDbEntity
  8
0
 62
     0
100
AcDbLine
 10
88.343202
 20
230.904768
 30
0.0
 11
88.437949
 21
230.999515
 31
0.0
  0
LINE
  5
168C
100
AcDbEntity
  8
0
 62
     0
100
AcDbLine
 10
88.485633
 20
230.822692
 30
0.0
 11
88.548243
 21
230.885303
 31
0.0
  0
LINE
  5
168D
100
AcDbEntity
  8
0
 62
     0
100
AcDbLine
 10
88.628064
 20
230.740617
 30
0.0
 11
88.658537
 21
230.77109
 31
0.0
  0
LINE
  5
168E
100
AcDbEntity
  8
0
 62
     0
100
AcDbLine
 10
91.321823
 20
230.515793
 30
0.0
 11
96.26008
 21
235.45405
 31
0.0
  0
LINE
  5
168F
100
AcDbEntity
  8
0
 62
     0
100
AcDbLine
 10
91.763702
 20
230.733166
 30
0.0
 11
96.508203
 21
235.477667
 31
0.0
  0
LINE
  5
1690
100
AcDbEntity
  8
0
 62
     0
100
AcDbLine
 10
92.29304
 20
231.037997
 30
0.0
 11
96.73271
 21
235.477667
 31
0.0
  0
LINE
  5
1691
100
AcDbEntity
  8
0
 62
     0
100
AcDbLine
 10
92.822378
 20
231.342829
 30
0.0
 11
96.957216
 21
235.477667
 31
0.0
  0
LINE
  5
1692
100
AcDbEntity
  8
0
 62
     0
100
AcDbLine
 10
93.351716
 20
231.64766
 30
0.0
 11
97.181722
 21
235.477667
 31
0.0
  0
LINE
  5
1693
100
AcDbEntity
  8
0
 62
     0
100
AcDbLine
 10
93.881054
 20
231.952492
 30
0.0
 11
97.406229
 21
235.477667
 31
0.0
  0
LINE
  5
1694
100
AcDbEntity
  8
0
 62
     0
100
AcDbLine
 10
94.410392
 20
232.257324
 30
0.0
 11
97.630735
 21
235.477667
 31
0.0
  0
LINE
  5
1695
100
AcDbEntity
  8
0
 62
     0
100
AcDbLine
 10
94.93973
 20
232.562155
 30
0.0
 11
97.855242
 21
235.477667
 31
0.0
  0
LINE
  5
1696
100
AcDbEntity
  8
0
 62
     0
100
AcDbLine
 10
95.469068
 20
232.866987
 30
0.0
 11
98.079748
 21
235.477667
 31
0.0
  0
LINE
  5
1697
100
AcDbEntity
  8
0
 62
     0
100
AcDbLine
 10
95.998406
 20
233.171818
 30
0.0
 11
98.304254
 21
235.477667
 31
0.0
  0
LINE
  5
1698
100
AcDbEntity
  8
0
 62
     0
100
AcDbLine
 10
96.527744
 20
233.47665
 30
0.0
 11
98.528761
 21
235.477667
 31
0.0
  0
LINE
  5
1699
100
AcDbEntity
  8
0
 62
     0
100
AcDbLine
 10
96.83964
 20
233.56404
 30
0.0
 11
98.753267
 21
235.477667
 31
0.0
  0
LINE
  5
169A
100
AcDbEntity
  8
0
 62
     0
100
AcDbLine
 10
97.064147
 20
233.56404
 30
0.0
 11
98.977774
 21
235.477667
 31
0.0
  0
LINE
  5
169B
100
AcDbEntity
  8
0
 62
     0
100
AcDbLine
 10
97.288653
 20
233.56404
 30
0.0
 11
99.157864
 21
235.433251
 31
0.0
  0
LINE
  5
169C
100
AcDbEntity
  8
0
 62
     0
100
AcDbLine
 10
97.51316
 20
233.56404
 30
0.0
 11
99.270118
 21
235.320998
 31
0.0
  0
LINE
  5
169D
100
AcDbEntity
  8
0
 62
     0
100
AcDbLine
 10
97.737666
 20
233.56404
 30
0.0
 11
99.382371
 21
235.208745
 31
0.0
  0
LINE
  5
169E
100
AcDbEntity
  8
0
 62
     0
100
AcDbLine
 10
97.962172
 20
233.56404
 30
0.0
 11
99.494624
 21
235.096491
 31
0.0
  0
LINE
  5
169F
100
AcDbEntity
  8
0
 62
     0
100
AcDbLine
 10
98.186679
 20
233.56404
 30
0.0
 11
99.606877
 21
234.984238
 31
0.0
  0
LINE
  5
16A0
100
AcDbEntity
  8
0
 62
     0
100
AcDbLine
 10
98.411185
 20
233.56404
 30
0.0
 11
99.71913
 21
234.871985
 31
0.0
  0
LINE
  5
16A1
100
AcDbEntity
  8
0
 62
     0
100
AcDbLine
 10
98.635692
 20
233.56404
 30
0.0
 11
99.831384
 21
234.759732
 31
0.0
  0
LINE
  5
16A2
100
AcDbEntity
  8
0
 62
     0
100
AcDbLine
 10
98.860198
 20
233.56404
 30
0.0
 11
99.943637
 21
234.647479
 31
0.0
  0
LINE
  5
16A3
100
AcDbEntity
  8
0
 62
     0
100
AcDbLine
 10
99.084704
 20
233.56404
 30
0.0
 11
100.05589
 21
234.535225
 31
0.0
  0
LINE
  5
16A4
100
AcDbEntity
  8
0
 62
     0
100
AcDbLine
 10
99.309211
 20
233.56404
 30
0.0
 11
100.113449
 21
234.368278
 31
0.0
  0
LINE
  5
16A5
100
AcDbEntity
  8
0
 62
     0
100
AcDbLine
 10
99.533717
 20
233.56404
 30
0.0
 11
100.113449
 21
234.143771
 31
0.0
  0
LINE
  5
16A6
100
AcDbEntity
  8
0
 62
     0
100
AcDbLine
 10
99.758224
 20
233.56404
 30
0.0
 11
100.113449
 21
233.919265
 31
0.0
  0
LINE
  5
16A7
100
AcDbEntity
  8
0
 62
     0
100
AcDbLine
 10
99.98273
 20
233.56404
 30
0.0
 11
100.113449
 21
233.694759
 31
0.0
  0
ENDBLK
  5
16A8
100
AcDbEntity
  8
0
100
AcDbBlockEnd
  0
ENDSEC
  0
SECTION
  2
ENTITIES
  0
LINE
  5
278
100
AcDbEntity
  8
DISEGNO
100
AcDbLine
 10
46.113449
 20
209.477667
 30
0.0
 11
99.113449
 21
209.477667
 31
0.0
1001
ACAD
1000
ASC_BOUNDS
1002
{
1070
    19
1002
}
  0
LINE
  5
279
100
AcDbEntity
  8
DISEGNO
100
AcDbLine
 10
100.113449
 20
210.477667
 30
0.0
 11
100.113449
 21
234.477667
 31
0.0
1001
ACAD
1000
ASC_BOUNDS
1002
{
1070
    19
1002
}
  0
LINE
  5
27B
100
AcDbEntity
  8
DISEGNO
100
AcDbLine
 10
45.113449
 20
234.477667
 30
0.0
 11
45.113449
 21
210.477667
 31
0.0
1001
ACAD
1000
ASC_BOUNDS
1002
{
1070
    19
1002
}
  0
LINE
  5
36F
100
AcDbEntity
  8
DISEGNO
100
AcDbLine
 10
99.113449
 20
235.477667
 30
0.0
 11
100.113449
 21
234.477667
 31
0.0
1001
ACAD
1000
ASC_BOUNDS
1002
{
1070
    19
1002
}
  0
LINE
  5
370
100
AcDbEntity
  8
DISEGNO
100
AcDbLine
 10
99.113449
 20
209.477667
 30
0.0
 11
100.113449
 21
210.477667
 31
0.0
  0
LINE
  5
371
100
AcDbEntity
  8
DISEGNO
100
AcDbLine
 10
46.113449
 20
209.477667
 30
0.0
 11
45.113449
 21
210.477667
 31
0.0
  0
LINE
  5
372
100
AcDbEntity
  8
DISEGNO
100
AcDbLine
 10
45.113449
 20
234.477667
 30
0.0
 11
46.113449
 21
235.477667
 31
0.0
1001
ACAD
1000
ASC_BOUNDS
1002
{
1070
    19
1002
}
  0
DIMENSION
  5
37F
100
AcDbEntity
  8
QUOTE
100
AcDbDimension
  2
*D0
 10
100.113449
 20
190.711525
 30
0.0
 11
72.613449
 21
193.741525
 31
0.0
 70
    32
  3
STANDARD
100
AcDbAlignedDimension
 13
45.113449
 23
210.477667
 33
0.0
 14
100.113449
 24
210.477667
 34
0.0
100
AcDbRotatedDimension
  0
DIMENSION
  5
38C
100
AcDbEntity
  8
QUOTE
100
AcDbDimension
  2
*D1
 10
28.518205
 20
209.477667
 30
0.0
 11
25.488205
 21
222.477667
 31
0.0
 70
    32
  3
STANDARD
100
AcDbAlignedDimension
 13
46.113449
 23
235.477667
 33
0.0
 14
46.113449
 24
209.477667
 34
0.0
 50
90.0
100
AcDbRotatedDimension
  0
LINE
  5
9CE
100
AcDbEntity
  8
DISEGNO
100
AcDbLine
 10
99.113449
 20
235.477667
 30
0.0
 11
96.453029
 21
235.477667
 31
0.0
1001
ACAD
1000
ASC_BOUNDS
1002
{
1070
    19
1002
}
  0
LINE
  5
CBD
100
AcDbEntity
  8
DISEGNO
100
AcDbLine
 10
81.113449
 20
235.477667
 30
0.0
 11
80.713449
 21
235.077667
 31
0.0
1001
ACAD
1000
ASC_BOUNDS
1002
{
1070
    19
1002
}
  0
LINE
  5
CC1
100
AcDbEntity
  8
DISEGNO
100
AcDbLine
 10
82.720864
 20
235.477667
 30
0.0
 11
81.113449
 21
235.477667
 31
0.0
1001
ACAD
1000
ASC_BOUNDS
1002
{
1070
    19
1002
}
  0
LINE
  5
CC2
100
AcDbEntity
  8
DISEGNO
100
AcDbLine
 10
80.713449
 20
235.077667
 30
0.0
 11
60.513449
 21
235.077667
 31
0.0
1001
ACAD
1000
ASC_BOUNDS
1002
{
1070
    19
1002
}
  0
LINE
  5
FFD
100
AcDbEntity
  8
DISEGNO
100
AcDbLine
 10
57.325686
 20
235.477667
 30
0.0
 11
60.113449
 21
235.477667
 31
0.0
1001
ACAD
1000
ASC_BOUNDS
1002
{
1070
    19
1002
}
  0
LINE
  5
FFE
100
AcDbEntity
  8
DISEGNO
100
AcDbLine
 10
60.113449
 20
235.477667
 30
0.0
 11
60.513449
 21
235.077667
 31
0.0
1001
ACAD
1000
ASC_BOUNDS
1002
{
1070
    19
1002
}
  0
DIMENSION
  5
101B
100
AcDbEntity
  8
QUOTE
100
AcDbDimension
  2
*D10
 10
96.113449
 20
249.406984
 30
0.0
 11
90.113449
 21
252.437476
 31
0.0
 70
    32
  3
STANDARD
100
AcDbAlignedDimension
 13
84.113449
 23
235.477667
 33
0.0
 14
96.113449
 24
235.477667
 34
0.0
100
AcDbRotatedDimension
  0
POINT
  5
13CA
100
AcDbEntity
  8
QUOTE
  6
BYBLOCK
 62
     1
100
AcDbPoint
 10
49.241253
 20
235.348927
 30
0.0
  0
POINT
  5
13CB
100
AcDbEntity
  8
QUOTE
  6
BYBLOCK
 62
     1
100
AcDbPoint
 10
48.906342
 20
234.977667
 30
0.0
  0
LINE
  5
13CC
100
AcDbEntity
  8
QUOTE
  6
BYBLOCK
 62
     1
100
AcDbLine
 10
49.113449
 20
236.102667
 30
0.0
 11
49.113449
 21
250.82366
 31
0.0
  0
LINE
  5
13CD
100
AcDbEntity
  8
QUOTE
  6
BYBLOCK
 62
     1
100
AcDbLine
 10
57.113449
 20
236.102667
 30
0.0
 11
57.113449
 21
242.590321
 31
0.0
  0
LINE
  5
13CE
100
AcDbEntity
  8
QUOTE
  6
BYBLOCK
 62
     1
100
AcDbLine
 10
51.613449
 20
249.57366
 30
0.0
 11
54.613449
 21
249.57366
 31
0.0
  0
SOLID
  5
13CF
100
AcDbEntity
  8
QUOTE
  6
BYBLOCK
 62
     1
100
AcDbTrace
 10
51.613449
 20
249.990327
 30
0.0
 11
51.613449
 21
249.156994
 31
0.0
 12
49.113449
 22
249.57366
 32
0.0
 13
49.113449
 23
249.57366
 33
0.0
  0
SOLID
  5
13D0
100
AcDbEntity
  8
QUOTE
  6
BYBLOCK
 62
     1
100
AcDbTrace
 10
54.613449
 20
249.990327
 30
0.0
 11
54.613449
 21
249.156994
 31
0.0
 12
57.113449
 22
249.57366
 32
0.0
 13
57.113449
 23
249.57366
 33
0.0
  0
MTEXT
  5
13D1
100
AcDbEntity
  8
QUOTE
  6
BYBLOCK
 62
     1
100
AcDbMText
 10
53.113449
 20
252.703985
 30
0.0
 40
5.0
 41
0.0
 71
     5
 72
     1
  1
\A1;8
  0
POINT
  5
13D2
100
AcDbEntity
  8
QUOTE
  6
BYBLOCK
 62
     1
100
AcDbPoint
 10
49.113449
 20
235.477667
 30
0.0
  0
POINT
  5
13D3
100
AcDbEntity
  8
QUOTE
  6
BYBLOCK
 62
     1
100
AcDbPoint
 10
57.113449
 20
235.477667
 30
0.0
  0
POINT
  5
13D4
100
AcDbEntity
  8
QUOTE
  6
BYBLOCK
 62
     1
100
AcDbPoint
 10
57.113449
 20
249.57366
 30
0.0
  0
POINT
  5
13DA
100
AcDbEntity
  8
QUOTE
  6
BYBLOCK
 62
     1
100
AcDbPoint
 10
84.339449
 20
235.251546
 30
0.0
  0
POINT
  5
13DB
100
AcDbEntity
  8
QUOTE
  6
BYBLOCK
 62
     1
100
AcDbPoint
 10
83.782078
 20
234.677667
 30
0.0
  0
LINE
  5
13DC
100
AcDbEntity
  8
QUOTE
  6
BYBLOCK
 62
     1
100
AcDbLine
 10
57.113449
 20
246.611619
 30
0.0
 11
57.113449
 21
250.82366
 31
0.0
  0
TEXT
  5
1414
100
AcDbEntity
  8
SEZIONE
  6
CONTINUOUS
 62
     7
100
AcDbText
 10
124.752266
 20
214.037797
 30
0.0
 40
5.0
  1
M 26-88-02/C
100
AcDbText
  0
LINE
  5
1415
100
AcDbEntity
  8
SEZIONE
  6
CONTINUOUS
 62
     7
100
AcDbLine
 10
120.642268
 20
253.404113
 30
0.0
 11
212.642268
 21
253.404113
 31
0.0
  0
LINE
  5
142C
100
AcDbEntity
  8
SEZIONE
  6
CONTINUOUS
 62
     7
100
AcDbLine
 10
120.642268
 20
253.404113
 30
0.0
 11
120.642268
 21
209.404113
 31
0.0
  0
TEXT
  5
142D
100
AcDbEntity
  8
SEZIONE
  6
CONTINUOUS
 62
     7
100
AcDbText
 10
124.752266
 20
224.037797
 30
0.0
 40
5.0
  1
M 26-88-02
100
AcDbText
  0
TEXT
  5
142E
100
AcDbEntity
  8
SEZIONE
  6
CONTINUOUS
 62
     7
100
AcDbText
 10
124.83773
 20
243.396728
 30
0.0
 40
5.0
  1
CODE
100
AcDbText
  0
TEXT
  5
1431
100
AcDbEntity
  8
SEZIONE
  6
CONTINUOUS
 62
     7
100
AcDbText
 10
184.142268
 20
243.904113
 30
0.0
 40
5.0
  1
LENGTH
 72
     4
 11
195.642268
 21
246.404113
 31
0.0
100
AcDbText
  0
TEXT
  5
1432
100
AcDbEntity
  8
SEZIONE
  6
CONTINUOUS
 62
     7
100
AcDbText
 10
191.269978
 20
234.563504
 30
0.0
 40
5.0
  1
mm
 72
     4
 11
195.860587
 21
236.404113
 31
0.0
100
AcDbText
  0
TEXT
  5
1436
100
AcDbEntity
  8
SEZIONE
  6
CONTINUOUS
 62
     7
100
AcDbText
 10
188.538714
 20
214.007667
 30
0.0
 40
5.0
  1
 415
 72
     4
 11
195.642268
 21
216.404113
 31
0.0
100
AcDbText
  0
TEXT
  5
143C
100
AcDbEntity
  8
SEZIONE
  6
CONTINUOUS
 62
     7
100
AcDbText
 10
190.288714
 20
224.007667
 30
0.0
 40
5.0
  1
835
 72
     4
 11
195.642268
 21
226.404113
 31
0.0
100
AcDbText
  0
LINE
  5
14DB
100
AcDbEntity
  8
ASSI
100
AcDbLine
 10
90.113449
 20
229.477667
 30
0.0
 11
90.113449
 21
247.516808
 31
0.0
  0
LINE
  5
14DC
100
AcDbEntity
  8
ASSI
100
AcDbLine
 10
53.113449
 20
231.477667
 30
0.0
 11
53.113449
 21
248.187025
 31
0.0
  0
DIMENSION
  5
14E5
100
AcDbEntity
  8
QUOTE
100
AcDbDimension
  2
*D15
 10
57.320556
 20
234.977667
 30
0.0
 11
66.024636
 21
243.327956
 31
0.0
 70
   164
  3
STANDARD
100
AcDbRadialDimension
 15
57.681366
 25
235.323811
 35
0.0
 40
0.0
1001
ACAD
1000
DSTYLE
1002
{
1070
   141
1040
0.0
1002
}
  0
DIMENSION
  5
14EE
100
AcDbEntity
  8
QUOTE
100
AcDbDimension
  2
*D16
 10
96.44482
 20
234.677667
 30
0.0
 11
105.781095
 21
244.165727
 31
0.0
 70
   164
  3
STANDARD
100
AcDbRadialDimension
 15
97.005926
 25
235.247895
 35
0.0
 40
0.0
1001
ACAD
1000
DSTYLE
1002
{
1070
   141
1040
0.0
1002
}
  0
LINE
  5
14FD
100
AcDbEntity
  8
ASSI
100
AcDbLine
 10
90.113449
 20
256.397175
 30
0.0
 11
90.113449
 21
271.141052
 31
0.0
  0
LINE
  5
14FE
100
AcDbEntity
  8
ASSI
100
AcDbLine
 10
53.113449
 20
256.56473
 30
0.0
 11
53.113449
 21
271.141052
 31
0.0
  0
DIMENSION
  5
150C
100
AcDbEntity
  8
QUOTE
100
AcDbDimension
  2
*D17
 10
53.113449
 20
270.72305
 30
0.0
 11
49.113449
 21
273.75305
 31
0.0
 70
    32
  3
STANDARD
100
AcDbAlignedDimension
 13
45.113449
 23
234.477667
 33
0.0
 14
53.113449
 24
271.141052
 34
0.0
100
AcDbRotatedDimension
1001
ACAD
1000
DSTYLE
1002
{
1070
   141
1040
0.0
1002
}
  0
DIMENSION
  5
1519
100
AcDbEntity
  8
QUOTE
100
AcDbDimension
  2
*D18
 10
90.113449
 20
270.72305
 30
0.0
 11
71.613449
 21
273.75305
 31
0.0
 70
    32
  3
STANDARD
100
AcDbAlignedDimension
 13
53.113449
 23
270.72305
 33
0.0
 14
90.113449
 24
271.141052
 34
0.0
100
AcDbRotatedDimension
1001
ACAD
1000
DSTYLE
1002
{
1070
   141
1040
0.0
1002
}
  0
LINE
  5
1528
100
AcDbEntity
  8
QUOTE
  6
BYBLOCK
 62
     1
100
AcDbLine
 10
100.113449
 20
235.102667
 30
0.0
 11
100.113449
 21
236.804841
 31
0.0
  0
LINE
  5
152A
100
AcDbEntity
  8
QUOTE
  6
BYBLOCK
 62
     1
100
AcDbLine
 10
102.613449
 20
270.72305
 30
0.0
 11
105.113449
 21
270.72305
 31
0.0
  0
LINE
  5
152B
100
AcDbEntity
  8
QUOTE
  6
BYBLOCK
 62
     1
100
AcDbLine
 10
85.113449
 20
270.72305
 30
0.0
 11
82.613449
 21
270.72305
 31
0.0
  0
SOLID
  5
152C
100
AcDbEntity
  8
QUOTE
  6
BYBLOCK
 62
     1
100
AcDbTrace
 10
102.613449
 20
271.139717
 30
0.0
 11
102.613449
 21
270.306384
 31
0.0
 12
100.113449
 22
270.72305
 32
0.0
 13
100.113449
 23
270.72305
 33
0.0
  0
SOLID
  5
152D
100
AcDbEntity
  8
QUOTE
  6
BYBLOCK
 62
     1
100
AcDbTrace
 10
85.113449
 20
271.139717
 30
0.0
 11
85.113449
 21
270.306384
 31
0.0
 12
87.613449
 22
270.72305
 32
0.0
 13
87.613449
 23
270.72305
 33
0.0
  0
MTEXT
  5
152E
100
AcDbEntity
  8
QUOTE
  6
BYBLOCK
 62
     1
100
AcDbMText
 10
94.55088
 20
273.75305
 30
0.0
 40
5.0
 41
0.0
 71
     5
 72
     1
  1
\A1;12.5
  0
POINT
  5
152F
100
AcDbEntity
  8
QUOTE
  6
BYBLOCK
 62
     1
100
AcDbPoint
 10
100.113449
 20
234.477667
 30
0.0
  0
POINT
  5
1530
100
AcDbEntity
  8
QUOTE
  6
BYBLOCK
 62
     1
100
AcDbPoint
 10
87.613449
 20
270.306384
 30
0.0
  0
POINT
  5
1531
100
AcDbEntity
  8
QUOTE
  6
BYBLOCK
 62
     1
100
AcDbPoint
 10
87.613449
 20
270.72305
 30
0.0
  0
LINE
  5
1532
100
AcDbEntity
  8
QUOTE
  6
BYBLOCK
 62
     1
100
AcDbLine
 10
100.113449
 20
247.02564
 30
0.0
 11
100.113449
 21
271.97305
 31
0.0
  0
LINE
  5
1538
100
AcDbEntity
  8
QUOTE
100
AcDbLine
 10
57.113449
 20
246.611619
 30
0.0
 11
57.113449
 21
242.590321
 31
0.0
  0
LINE
  5
1559
100
AcDbEntity
  8
OGGETTO
100
AcDbLine
 10
56.966016
 20
235.324996
 30
0.0
 11
53.113449
 21
231.335545
 31
0.0
1001
ACAD
1000
ASC_BOUNDS
1002
{
1070
    19
1002
}
  0
LINE
  5
155A
100
AcDbEntity
  8
OGGETTO
100
AcDbLine
 10
49.260881
 20
235.324996
 30
0.0
 11
53.113449
 21
231.335545
 31
0.0
1001
ACAD
1000
ASC_BOUNDS
1002
{
1070
    19
1002
}
  0
LINE
  5
155B
100
AcDbEntity
  8
OGGETTO
100
AcDbLine
 10
46.113449
 20
235.477667
 30
0.0
 11
48.901211
 21
235.477667
 31
0.0
1001
ACAD
1000
ASC_BOUNDS
1002
{
1070
    19
1002
}
  0
ARC
  5
155C
100
AcDbEntity
  8
OGGETTO
100
AcDbCircle
 10
48.901211
 20
234.977667
 30
0.0
 40
0.5
100
AcDbArc
 50
44.0
 51
90.0
1001
ACAD
1000
ASC_BOUNDS
1002
{
1070
    19
1002
}
  0
ARC
  5
155D
100
AcDbEntity
  8
OGGETTO
100
AcDbCircle
 10
57.325686
 20
234.977667
 30
0.0
 40
0.5
100
AcDbArc
 50
90.0
 51
136.0
1001
ACAD
1000
ASC_BOUNDS
1002
{
1070
    19
1002
}
  0
LINE
  5
1560
100
AcDbEntity
  8
OGGETTO
100
AcDbLine
 10
95.877557
 20
235.233393
 30
0.0
 11
90.113449
 21
229.264485
 31
0.0
1001
ACAD
1000
ASC_BOUNDS
1002
{
1070
    19
1002
}
  0
LINE
  5
1562
100
AcDbEntity
  8
OGGETTO
100
AcDbLine
 10
84.349341
 20
235.233393
 30
0.0
 11
90.113449
 21
229.264485
 31
0.0
1001
ACAD
1000
ASC_BOUNDS
1002
{
1070
    19
1002
}
  0
LINE
  5
1563
100
AcDbEntity
  8
DISEGNO
100
AcDbLine
 10
83.773869
 20
235.477667
 30
0.0
 11
82.720864
 21
235.477667
 31
0.0
1001
ACAD
1000
ASC_BOUNDS
1002
{
1070
    19
1002
}
  0
DIMENSION
  5
1572
100
AcDbEntity
  8
QUOTE
100
AcDbDimension
  2
*D19
 10
90.113449
 20
229.264485
 30
0.0
 11
90.113449
 21
220.868744
 31
0.0
 70
    34
  3
STANDARD
100
AcDb2LineAngularDimension
 13
96.113449
 23
235.477667
 33
0.0
 14
90.113449
 24
229.264485
 34
0.0
 15
84.113449
 25
235.477667
 35
0.0
 16
87.220507
 26
218.211049
 36
0.0
1001
ACAD
1000
DSTYLE
1002
{
1070
   141
1040
0.0
1002
}
  0
ARC
  5
1573
100
AcDbEntity
  8
OGGETTO
100
AcDbCircle
 10
83.773869
 20
234.677667
 30
0.0
 40
0.8
100
AcDbArc
 50
44.0
 51
90.0
1001
ACAD
1000
ASC_BOUNDS
1002
{
1070
    19
1002
}
  0
ARC
  5
1574
100
AcDbEntity
  8
OGGETTO
100
AcDbCircle
 10
96.453029
 20
234.677667
 30
0.0
 40
0.8
100
AcDbArc
 50
90.0
 51
136.0
1001
ACAD
1000
ASC_BOUNDS
1002
{
1070
    19
1002
}
  0
DIMENSION
  5
1583
100
AcDbEntity
  8
QUOTE
100
AcDbDimension
  2
*D20
 10
53.113449
 20
231.335545
 30
0.0
 11
53.113449
 21
222.56453
 31
0.0
 70
    34
  3
STANDARD
100
AcDb2LineAngularDimension
 13
56.966016
 23
235.324996
 33
0.0
 14
53.113449
 24
231.335545
 34
0.0
 15
49.260881
 25
235.324996
 35
0.0
 16
50.125489
 26
219.919064
 36
0.0
1001
ACAD
1000
DSTYLE
1002
{
1070
   141
1040
0.0
1002
}
  0
ENDSEC
  0
SECTION
  2
OBJECTS
  0
DICTIONARY
  5
C
100
AcDbDictionary
  3
ACAD_GROUP
350
D
  3
ACAD_MLINESTYLE
350
E
  0
DICTIONARY
  5
D
102
{ACAD_REACTORS
330
C
102
}
100
AcDbDictionary
  0
DICTIONARY
  5
E
102
{ACAD_REACTORS
330
C
102
}
100
AcDbDictionary
  3
STANDARD
350
1C
  0
MLINESTYLE
  5
1C
102
{ACAD_REACTORS
330
E
102
}
100
AcDbMlineStyle
  2
STANDARD
 70
     0
  3

 62
     0
 51
90.0
 52
90.0
 71
     2
 49
0.5
 62
   256
  6
BYLAYER
 49
-0.5
 62
   256
  6
BYLAYER
  0
ENDSEC
  0
EOF
