  0
SECTION
  2
HEADER
  9
$ACADVER
  1
AC1012
  9
$DWGCODEPAGE
  3
iso8859-1
  9
$INSBASE
 10
0.0
 20
0.0
 30
0.0
  9
$EXTMIN
 10
-1940.234365
 20
-1659.251698
 30
0.0
  9
$EXTMAX
 10
-1740.234365
 20
-1372.037392
 30
0.0
  9
$LIMMIN
 10
0.0
 20
0.0
  9
$LIMMAX
 10
210.0
 20
297.0
  9
$ORTHOMODE
 70
     0
  9
$REGENMODE
 70
     1
  9
$FILLMODE
 70
     1
  9
$QTEXTMODE
 70
     0
  9
$MIRRTEXT
 70
     1
  9
$DRAGMODE
 70
     2
  9
$LTSCALE
 40
1.0
  9
$OSMODE
 70
     0
  9
$ATTMODE
 70
     1
  9
$TEXTSIZE
 40
3.0
  9
$TRACEWID
 40
0.05
  9
$TEXTSTYLE
  7
STANDARD
  9
$CLAYER
  8
QUOTE
  9
$CELTYPE
  6
BYLAYER
  9
$CECOLOR
 62
   256
  9
$CELTSCALE
 40
1.0
  9
$DELOBJ
 70
     1
  9
$DISPSILH
 70
     0
  9
$DIMSCALE
 40
1.0
  9
$DIMASZ
 40
2.5
  9
$DIMEXO
 40
0.625
  9
$DIMDLI
 40
3.75
  9
$DIMRND
 40
0.0
  9
$DIMDLE
 40
0.0
  9
$DIMEXE
 40
1.25
  9
$DIMTP
 40
0.0
  9
$DIMTM
 40
0.0
  9
$DIMTXT
 40
3.0
  9
$DIMCEN
 40
0.0
  9
$DIMTSZ
 40
0.0
  9
$DIMTOL
 70
     0
  9
$DIMLIM
 70
     0
  9
$DIMTIH
 70
     0
  9
$DIMTOH
 70
     0
  9
$DIMSE1
 70
     0
  9
$DIMSE2
 70
     0
  9
$DIMTAD
 70
     1
  9
$DIMZIN
 70
     8
  9
$DIMBLK
  1

  9
$DIMASO
 70
     1
  9
$DIMSHO
 70
     1
  9
$DIMPOST
  1

  9
$DIMAPOST
  1

  9
$DIMALT
 70
     0
  9
$DIMALTD
 70
     2
  9
$DIMALTF
 40
0.03937
  9
$DIMLFAC
 40
1.0
  9
$DIMTOFL
 70
     0
  9
$DIMTVP
 40
0.0
  9
$DIMTIX
 70
     0
  9
$DIMSOXD
 70
     0
  9
$DIMSAH
 70
     0
  9
$DIMBLK1
  1

  9
$DIMBLK2
  1

  9
$DIMSTYLE
  2
STANDARD
  9
$DIMCLRD
 70
     0
  9
$DIMCLRE
 70
     0
  9
$DIMCLRT
 70
     0
  9
$DIMTFAC
 40
1.0
  9
$DIMGAP
 40
0.625
  9
$DIMJUST
 70
     0
  9
$DIMSD1
 70
     0
  9
$DIMSD2
 70
     0
  9
$DIMTOLJ
 70
     1
  9
$DIMTZIN
 70
     8
  9
$DIMALTZ
 70
     0
  9
$DIMALTTZ
 70
     0
  9
$DIMFIT
 70
     3
  9
$DIMUPT
 70
     0
  9
$DIMUNIT
 70
     2
  9
$DIMDEC
 70
     2
  9
$DIMTDEC
 70
     2
  9
$DIMALTU
 70
     2
  9
$DIMALTTD
 70
     2
  9
$DIMTXSTY
  7
STANDARD
  9
$DIMAUNIT
 70
     0
  9
$LUNITS
 70
     2
  9
$LUPREC
 70
     4
  9
$SKETCHINC
 40
0.1
  9
$FILLETRAD
 40
0.25
  9
$AUNITS
 70
     0
  9
$AUPREC
 70
     0
  9
$MENU
  1
acad
  9
$ELEVATION
 40
0.0
  9
$PELEVATION
 40
0.0
  9
$THICKNESS
 40
0.0
  9
$LIMCHECK
 70
     0
  9
$BLIPMODE
 70
     1
  9
$CHAMFERA
 40
0.5
  9
$CHAMFERB
 40
0.5
  9
$CHAMFERC
 40
20.0
  9
$CHAMFERD
 40
0.0
  9
$SKPOLY
 70
     0
  9
$TDCREATE
 40
2451969.580350116
  9
$TDUPDATE
 40
2452401.673719560
  9
$TDINDWG
 40
0.0515535880
  9
$TDUSRTIMER
 40
0.0515535880
  9
$USRTIMER
 70
     1
  9
$ANGBASE
 50
0.0
  9
$ANGDIR
 70
     0
  9
$PDMODE
 70
     0
  9
$PDSIZE
 40
0.0
  9
$PLINEWID
 40
0.0
  9
$COORDS
 70
     1
  9
$SPLFRAME
 70
     0
  9
$SPLINETYPE
 70
     6
  9
$SPLINESEGS
 70
     8
  9
$ATTDIA
 70
     0
  9
$ATTREQ
 70
     1
  9
$HANDLING
 70
     1
  9
$HANDSEED
  5
CF9
  9
$SURFTAB1
 70
     6
  9
$SURFTAB2
 70
     6
  9
$SURFTYPE
 70
     6
  9
$SURFU
 70
     6
  9
$SURFV
 70
     6
  9
$UCSNAME
  2

  9
$UCSORG
 10
0.0
 20
0.0
 30
0.0
  9
$UCSXDIR
 10
1.0
 20
0.0
 30
0.0
  9
$UCSYDIR
 10
0.0
 20
1.0
 30
0.0
  9
$PUCSNAME
  2

  9
$PUCSORG
 10
0.0
 20
0.0
 30
0.0
  9
$PUCSXDIR
 10
1.0
 20
0.0
 30
0.0
  9
$PUCSYDIR
 10
0.0
 20
1.0
 30
0.0
  9
$USERI1
 70
     0
  9
$USERI2
 70
     0
  9
$USERI3
 70
     0
  9
$USERI4
 70
     0
  9
$USERI5
 70
     0
  9
$USERR1
 40
0.0
  9
$USERR2
 40
0.0
  9
$USERR3
 40
0.0
  9
$USERR4
 40
0.0
  9
$USERR5
 40
0.0
  9
$WORLDVIEW
 70
     1
  9
$SHADEDGE
 70
     3
  9
$SHADEDIF
 70
    70
  9
$TILEMODE
 70
     1
  9
$MAXACTVP
 70
    16
  9
$PINSBASE
 10
0.0
 20
0.0
 30
0.0
  9
$PLIMCHECK
 70
     0
  9
$PEXTMIN
 10
1.000000E+20
 20
1.000000E+20
 30
1.000000E+20
  9
$PEXTMAX
 10
-1.000000E+20
 20
-1.000000E+20
 30
-1.000000E+20
  9
$PLIMMIN
 10
0.0
 20
0.0
  9
$PLIMMAX
 10
12.0
 20
9.0
  9
$UNITMODE
 70
     0
  9
$VISRETAIN
 70
     0
  9
$PLINEGEN
 70
     0
  9
$PSLTSCALE
 70
     1
  9
$TREEDEPTH
 70
  3020
  9
$PICKSTYLE
 70
     1
  9
$CMLSTYLE
  2
STANDARD
  9
$CMLJUST
 70
     0
  9
$CMLSCALE
 40
20.0
  9
$SAVEIMAGES
 70
     0
  0
ENDSEC
  0
SECTION
  2
CLASSES
  0
ENDSEC
  0
SECTION
  2
TABLES
  0
TABLE
  2
VPORT
  5
8
100
AcDbSymbolTable
 70
     2
  0
VPORT
  5
CF8
100
AcDbSymbolTableRecord
100
AcDbViewportTableRecord
  2
*ACTIVE
 70
     0
 10
0.0
 20
0.0
 11
1.0
 21
1.0
 12
-1798.822232
 22
-1481.45361
 13
0.0
 23
0.0
 14
10.0
 24
10.0
 15
10.0
 25
10.0
 16
0.0
 26
0.0
 36
1.0
 17
0.0
 27
0.0
 37
0.0
 40
131.769275
 41
1.873134
 42
50.0
 43
0.0
 44
0.0
 50
0.0
 51
0.0
 71
     0
 72
   100
 73
     1
 74
     0
 75
     0
 76
     0
 77
     0
 78
     0
  0
ENDTAB
  0
TABLE
  2
LTYPE
  5
5
100
AcDbSymbolTable
 70
     4
  0
LTYPE
  5
13
100
AcDbSymbolTableRecord
100
AcDbLinetypeTableRecord
  2
BYBLOCK
 70
     0
  3

 72
    65
 73
     0
 40
0.0
  0
LTYPE
  5
14
100
AcDbSymbolTableRecord
100
AcDbLinetypeTableRecord
  2
BYLAYER
 70
     0
  3

 72
    65
 73
     0
 40
0.0
  0
LTYPE
  5
15
100
AcDbSymbolTableRecord
100
AcDbLinetypeTableRecord
  2
CONTINUOUS
 70
    64
  3
Solid line
 72
    65
 73
     0
 40
0.0
  0
LTYPE
  5
94
100
AcDbSymbolTableRecord
100
AcDbLinetypeTableRecord
  2
ACAD_ISO04W100
 70
    64
  3
____ . ____ . ____ . ____ . ____ . ____ . ____ 
 72
    65
 73
     4
 40
30.5
 49
24.0
 74
     0
 49
-3.0
 74
     0
 49
0.5
 74
     0
 49
-3.0
 74
     0
  0
LTYPE
  5
225
100
AcDbSymbolTableRecord
100
AcDbLinetypeTableRecord
  2
TRATTEGGIATAX2
 70
    64
  3
____  ____  ____  ____  ____  ____  ____  ____ 
 72
    65
 73
     2
 40
1.5
 49
1.0
 74
     0
 49
-0.5
 74
     0
  0
LTYPE
  5
226
100
AcDbSymbolTableRecord
100
AcDbLinetypeTableRecord
  2
NASCOSTA
 70
    64
  3
__ __ __ __ __ __ __ __ __ __ __ __ __ __ __ __
 72
    65
 73
     2
 40
0.375
 49
0.25
 74
     0
 49
-0.125
 74
     0
  0
ENDTAB
  0
TABLE
  2
LAYER
  5
2
100
AcDbSymbolTable
 70
    10
  0
LAYER
  5
F
100
AcDbSymbolTableRecord
100
AcDbLayerTableRecord
  2
0
 70
     0
 62
     7
  6
CONTINUOUS
  0
LAYER
  5
95
100
AcDbSymbolTableRecord
100
AcDbLayerTableRecord
  2
DISEGNO
 70
    64
 62
     7
  6
CONTINUOUS
  0
LAYER
  5
96
100
AcDbSymbolTableRecord
100
AcDbLayerTableRecord
  2
ASSI
 70
    64
 62
     1
  6
ACAD_ISO04W100
  0
LAYER
  5
97
100
AcDbSymbolTableRecord
100
AcDbLayerTableRecord
  2
SEZIONE
 70
    64
 62
     3
  6
CONTINUOUS
  0
LAYER
  5
98
100
AcDbSymbolTableRecord
100
AcDbLayerTableRecord
  2
TEMPRA
 70
    64
 62
     2
  6
CONTINUOUS
  0
LAYER
  5
99
100
AcDbSymbolTableRecord
100
AcDbLayerTableRecord
  2
QUOTE
 70
    64
 62
     5
  6
CONTINUOUS
  0
LAYER
  5
9A
100
AcDbSymbolTableRecord
100
AcDbLayerTableRecord
  2
FOGLIO
 70
    64
 62
     8
  6
CONTINUOUS
  0
LAYER
  5
1A3
100
AcDbSymbolTableRecord
100
AcDbLayerTableRecord
  2
TRATTO
 70
    64
 62
     6
  6
NASCOSTA
  0
LAYER
  5
28A
100
AcDbSymbolTableRecord
100
AcDbLayerTableRecord
  2
DEFPOINTS
 70
    64
 62
     7
  6
CONTINUOUS
  0
LAYER
  5
4A6
100
AcDbSymbolTableRecord
100
AcDbLayerTableRecord
  2
TABELLA
 70
    64
 62
     8
  6
CONTINUOUS
  0
ENDTAB
  0
TABLE
  2
STYLE
  5
3
100
AcDbSymbolTable
 70
     2
  0
STYLE
  5
10
100
AcDbSymbolTableRecord
100
AcDbTextStyleTableRecord
  2
STANDARD
 70
    64
 40
0.0
 41
1.1
 50
0.0
 71
     0
 42
3.0
  3
C:\Programmi\AutoCAD LT\isocp.shx
  4

  0
STYLE
  5
B0
100
AcDbSymbolTableRecord
100
AcDbTextStyleTableRecord
  2
STYLE3
 70
    64
 40
0.0
 41
1.5
 50
0.0
 71
     0
 42
4.0
  3
C:\Programmi\AutoCAD LT\isocp3.shx
  4

  0
ENDTAB
  0
TABLE
  2
VIEW
  5
6
100
AcDbSymbolTable
 70
     0
  0
ENDTAB
  0
TABLE
  2
UCS
  5
7
100
AcDbSymbolTable
 70
     0
  0
ENDTAB
  0
TABLE
  2
APPID
  5
9
100
AcDbSymbolTable
 70
     1
  0
APPID
  5
11
100
AcDbSymbolTableRecord
100
AcDbRegAppTableRecord
  2
ACAD
 70
     0
  0
ENDTAB
  0
TABLE
  2
DIMSTYLE
  5
A
100
AcDbSymbolTable
 70
    13
  0
DIMSTYLE
105
1D
100
AcDbSymbolTableRecord
100
AcDbDimStyleTableRecord
  2
STANDARD
 70
     0
  3

  4

  5

  6

  7

 40
1.0
 41
2.5
 42
0.625
 43
3.75
 44
1.25
 45
0.0
 46
0.0
 47
0.0
 48
0.0
140
3.0
141
2.5
142
0.0
143
0.03937
144
1.0
145
0.0
146
1.0
147
0.625
 71
     0
 72
     0
 73
     0
 74
     0
 75
     0
 76
     0
 77
     1
 78
     8
170
     0
171
     2
172
     0
173
     0
174
     0
175
     0
176
     0
177
     0
178
     0
270
     2
271
     2
272
     2
273
     2
274
     2
340
10
275
     0
280
     0
281
     0
282
     0
283
     1
284
     8
285
     0
286
     0
287
     3
288
     0
  0
DIMSTYLE
105
198
100
AcDbSymbolTableRecord
100
AcDbDimStyleTableRecord
  2
TOLL-06
 70
     0
  3

  4

  5

  6

  7

 40
1.0
 41
2.5
 42
0.625
 43
3.75
 44
1.25
 45
0.0
 46
0.0
 47
-0.05
 48
0.0
140
3.0
141
2.5
142
0.0
143
0.03937
144
1.0
145
0.0
146
0.8
147
0.625
 71
     1
 72
     0
 73
     0
 74
     0
 75
     0
 76
     0
 77
     1
 78
     8
170
     0
171
     2
172
     0
173
     0
174
     0
175
     0
176
     0
177
     0
178
     0
270
     2
271
     2
272
     2
273
     2
274
     2
340
10
275
     0
280
     0
281
     0
282
     0
283
     2
284
     8
285
     0
286
     0
287
     3
288
     0
  0
DIMSTYLE
105
20B
100
AcDbSymbolTableRecord
100
AcDbDimStyleTableRecord
  2
TOLL-01
 70
     0
  3

  4

  5

  6

  7

 40
1.0
 41
2.5
 42
0.625
 43
3.75
 44
1.25
 45
0.0
 46
0.0
 47
0.02
 48
0.0
140
3.0
141
2.5
142
0.0
143
0.03937
144
1.0
145
0.0
146
0.8
147
0.625
 71
     1
 72
     0
 73
     0
 74
     0
 75
     0
 76
     0
 77
     1
 78
     8
170
     0
171
     2
172
     0
173
     0
174
     0
175
     0
176
     0
177
     0
178
     0
270
     2
271
     2
272
     2
273
     2
274
     2
340
10
275
     0
280
     0
281
     0
282
     0
283
     2
284
     8
285
     0
286
     0
287
     3
288
     0
  0
DIMSTYLE
105
232
100
AcDbSymbolTableRecord
100
AcDbDimStyleTableRecord
  2
TOLL-02
 70
     0
  3

  4

  5

  6

  7

 40
1.0
 41
2.5
 42
0.625
 43
3.75
 44
1.25
 45
0.0
 46
0.0
 47
-0.02
 48
0.0
140
3.0
141
2.5
142
0.0
143
0.03937
144
1.0
145
0.0
146
0.8
147
0.625
 71
     1
 72
     0
 73
     0
 74
     0
 75
     0
 76
     0
 77
     1
 78
     8
170
     0
171
     2
172
     0
173
     0
174
     0
175
     0
176
     0
177
     0
178
     0
270
     2
271
     2
272
     2
273
     2
274
     2
340
10
275
     0
280
     0
281
     0
282
     0
283
     2
284
     8
285
     0
286
     0
287
     3
288
     0
  0
DIMSTYLE
105
233
100
AcDbSymbolTableRecord
100
AcDbDimStyleTableRecord
  2
TOLL-03
 70
     0
  3

  4

  5

  6

  7

 40
1.0
 41
2.5
 42
0.625
 43
3.75
 44
1.25
 45
0.0
 46
0.0
 47
0.01
 48
0.01
140
3.0
141
2.5
142
0.0
143
0.03937
144
1.0
145
0.0
146
0.8
147
0.625
 71
     1
 72
     0
 73
     0
 74
     0
 75
     0
 76
     0
 77
     1
 78
     8
170
     0
171
     2
172
     0
173
     0
174
     0
175
     0
176
     0
177
     0
178
     0
270
     2
271
     2
272
     2
273
     2
274
     2
340
10
275
     0
280
     0
281
     0
282
     0
283
     2
284
     8
285
     0
286
     0
287
     3
288
     0
  0
DIMSTYLE
105
234
100
AcDbSymbolTableRecord
100
AcDbDimStyleTableRecord
  2
TOLL-04
 70
     0
  3

  4

  5

  6

  7

 40
1.0
 41
2.5
 42
0.625
 43
3.75
 44
1.25
 45
0.0
 46
0.0
 47
0.05
 48
0.05
140
3.0
141
2.5
142
0.0
143
0.03937
144
1.0
145
0.0
146
0.8
147
0.625
 71
     1
 72
     0
 73
     0
 74
     0
 75
     0
 76
     0
 77
     1
 78
     8
170
     0
171
     2
172
     0
173
     0
174
     0
175
     0
176
     0
177
     0
178
     0
270
     2
271
     2
272
     2
273
     2
274
     2
340
10
275
     0
280
     0
281
     0
282
     0
283
     2
284
     8
285
     0
286
     0
287
     3
288
     0
  0
DIMSTYLE
105
235
100
AcDbSymbolTableRecord
100
AcDbDimStyleTableRecord
  2
TOLL-05
 70
     0
  3

  4

  5

  6

  7

 40
1.0
 41
2.5
 42
0.625
 43
3.75
 44
1.25
 45
0.0
 46
0.0
 47
0.05
 48
0.0
140
3.0
141
2.5
142
0.0
143
0.03937
144
1.0
145
0.0
146
0.8
147
0.625
 71
     1
 72
     0
 73
     0
 74
     0
 75
     0
 76
     0
 77
     1
 78
     8
170
     0
171
     2
172
     0
173
     0
174
     0
175
     0
176
     0
177
     0
178
     0
270
     2
271
     2
272
     2
273
     2
274
     2
340
10
275
     0
280
     0
281
     0
282
     0
283
     2
284
     8
285
     0
286
     0
287
     3
288
     0
  0
DIMSTYLE
105
247
100
AcDbSymbolTableRecord
100
AcDbDimStyleTableRecord
  2
TOLL-07
 70
     0
  3

  4

  5

  6

  7

 40
1.0
 41
2.5
 42
0.625
 43
3.75
 44
1.25
 45
0.0
 46
0.0
 47
0.1
 48
0.1
140
3.0
141
2.5
142
0.0
143
0.03937
144
1.0
145
0.0
146
1.0
147
0.625
 71
     1
 72
     0
 73
     0
 74
     0
 75
     0
 76
     0
 77
     1
 78
     8
170
     0
171
     2
172
     0
173
     0
174
     0
175
     0
176
     0
177
     0
178
     0
270
     2
271
     2
272
     2
273
     2
274
     2
340
10
275
     0
280
     0
281
     0
282
     0
283
     1
284
     8
285
     0
286
     0
287
     3
288
     0
  0
DIMSTYLE
105
251
100
AcDbSymbolTableRecord
100
AcDbDimStyleTableRecord
  2
TOLL-08
 70
     0
  3

  4

  5

  6

  7

 40
1.0
 41
2.5
 42
0.625
 43
3.75
 44
1.25
 45
0.0
 46
0.0
 47
0.1
 48
0.0
140
3.0
141
2.5
142
0.0
143
0.03937
144
1.0
145
0.0
146
1.0
147
0.625
 71
     1
 72
     0
 73
     0
 74
     0
 75
     0
 76
     0
 77
     1
 78
     8
170
     0
171
     2
172
     0
173
     0
174
     0
175
     0
176
     0
177
     0
178
     0
270
     2
271
     2
272
     2
273
     2
274
     2
340
10
275
     0
280
     0
281
     0
282
     0
283
     1
284
     8
285
     0
286
     0
287
     3
288
     0
  0
DIMSTYLE
105
257
100
AcDbSymbolTableRecord
100
AcDbDimStyleTableRecord
  2
TOLL-09
 70
     0
  3

  4

  5

  6

  7

 40
1.0
 41
2.5
 42
0.625
 43
3.75
 44
1.25
 45
0.0
 46
0.0
 47
-0.1
 48
0.0
140
3.0
141
2.5
142
0.0
143
0.03937
144
1.0
145
0.0
146
1.0
147
0.625
 71
     1
 72
     0
 73
     0
 74
     0
 75
     0
 76
     0
 77
     1
 78
     8
170
     0
171
     2
172
     0
173
     0
174
     0
175
     0
176
     0
177
     0
178
     0
270
     2
271
     2
272
     2
273
     2
274
     2
340
10
275
     0
280
     0
281
     0
282
     0
283
     1
284
     8
285
     0
286
     0
287
     3
288
     0
  0
DIMSTYLE
105
258
100
AcDbSymbolTableRecord
100
AcDbDimStyleTableRecord
  2
TOLL-10
 70
     0
  3

  4

  5

  6

  7

 40
1.0
 41
2.5
 42
0.625
 43
3.75
 44
1.25
 45
0.0
 46
0.0
 47
0.2
 48
0.2
140
3.0
141
2.5
142
0.0
143
0.03937
144
1.0
145
0.0
146
1.0
147
0.625
 71
     1
 72
     0
 73
     0
 74
     0
 75
     0
 76
     0
 77
     1
 78
     8
170
     0
171
     2
172
     0
173
     0
174
     0
175
     0
176
     0
177
     0
178
     0
270
     2
271
     2
272
     2
273
     2
274
     2
340
10
275
     0
280
     0
281
     0
282
     0
283
     1
284
     8
285
     0
286
     0
287
     3
288
     0
  0
DIMSTYLE
105
259
100
AcDbSymbolTableRecord
100
AcDbDimStyleTableRecord
  2
TOLL-11
 70
     0
  3

  4

  5

  6

  7

 40
1.0
 41
2.5
 42
0.625
 43
3.75
 44
1.25
 45
0.0
 46
0.0
 47
0.2
 48
0.0
140
3.0
141
2.5
142
0.0
143
0.03937
144
1.0
145
0.0
146
1.0
147
0.625
 71
     1
 72
     0
 73
     0
 74
     0
 75
     0
 76
     0
 77
     1
 78
     8
170
     0
171
     2
172
     0
173
     0
174
     0
175
     0
176
     0
177
     0
178
     0
270
     2
271
     2
272
     2
273
     2
274
     2
340
10
275
     0
280
     0
281
     0
282
     0
283
     1
284
     8
285
     0
286
     0
287
     3
288
     0
  0
DIMSTYLE
105
4A7
100
AcDbSymbolTableRecord
100
AcDbDimStyleTableRecord
  2
ISO-25
 70
     0
  3

  4

  5

  6

  7

 40
1.0
 41
2.5
 42
0.625
 43
3.75
 44
1.25
 45
0.0
 46
0.0
 47
0.0
 48
0.0
140
2.5
141
2.5
142
0.0
143
0.0394
144
1.0
145
1.0
146
1.0
147
0.625
 71
     0
 72
     0
 73
     1
 74
     0
 75
     0
 76
     0
 77
     1
 78
     8
170
     0
171
     2
172
     1
173
     0
174
     0
175
     0
176
     0
177
     0
178
     0
270
     2
271
     4
272
     4
273
     2
274
     2
340
10
275
     0
280
     0
281
     0
282
     0
283
     1
284
     0
285
     0
286
     0
287
     3
288
     0
  0
ENDTAB
  0
TABLE
  2
BLOCK_RECORD
  5
1
100
AcDbSymbolTable
 70
    33
  0
BLOCK_RECORD
  5
19
100
AcDbSymbolTableRecord
100
AcDbBlockTableRecord
  2
*MODEL_SPACE
  0
BLOCK_RECORD
  5
16
100
AcDbSymbolTableRecord
100
AcDbBlockTableRecord
  2
*PAPER_SPACE
  0
BLOCK_RECORD
  5
3A2
100
AcDbSymbolTableRecord
100
AcDbBlockTableRecord
  2
RUGOSITA
  0
BLOCK_RECORD
  5
4A8
100
AcDbSymbolTableRecord
100
AcDbBlockTableRecord
  2
A$C52B2
  0
BLOCK_RECORD
  5
559
100
AcDbSymbolTableRecord
100
AcDbBlockTableRecord
  2
*D2
  0
BLOCK_RECORD
  5
566
100
AcDbSymbolTableRecord
100
AcDbBlockTableRecord
  2
*D3
  0
BLOCK_RECORD
  5
572
100
AcDbSymbolTableRecord
100
AcDbBlockTableRecord
  2
*D4
  0
BLOCK_RECORD
  5
580
100
AcDbSymbolTableRecord
100
AcDbBlockTableRecord
  2
*D5
  0
BLOCK_RECORD
  5
58C
100
AcDbSymbolTableRecord
100
AcDbBlockTableRecord
  2
*D6
  0
BLOCK_RECORD
  5
596
100
AcDbSymbolTableRecord
100
AcDbBlockTableRecord
  2
*D7
  0
BLOCK_RECORD
  5
5A4
100
AcDbSymbolTableRecord
100
AcDbBlockTableRecord
  2
*X8
  0
BLOCK_RECORD
  5
5C7
100
AcDbSymbolTableRecord
100
AcDbBlockTableRecord
  2
*D9
  0
BLOCK_RECORD
  5
5D4
100
AcDbSymbolTableRecord
100
AcDbBlockTableRecord
  2
A$C8384
  0
BLOCK_RECORD
  5
610
100
AcDbSymbolTableRecord
100
AcDbBlockTableRecord
  2
*D11
  0
BLOCK_RECORD
  5
641
100
AcDbSymbolTableRecord
100
AcDbBlockTableRecord
  2
*D12
  0
BLOCK_RECORD
  5
65C
100
AcDbSymbolTableRecord
100
AcDbBlockTableRecord
  2
*D13
  0
BLOCK_RECORD
  5
6C4
100
AcDbSymbolTableRecord
100
AcDbBlockTableRecord
  2
*D14
  0
BLOCK_RECORD
  5
6D1
100
AcDbSymbolTableRecord
100
AcDbBlockTableRecord
  2
*D15
  0
BLOCK_RECORD
  5
6DE
100
AcDbSymbolTableRecord
100
AcDbBlockTableRecord
  2
*D16
  0
BLOCK_RECORD
  5
6F8
100
AcDbSymbolTableRecord
100
AcDbBlockTableRecord
  2
*D17
  0
BLOCK_RECORD
  5
705
100
AcDbSymbolTableRecord
100
AcDbBlockTableRecord
  2
*D18
  0
BLOCK_RECORD
  5
713
100
AcDbSymbolTableRecord
100
AcDbBlockTableRecord
  2
*D19
  0
BLOCK_RECORD
  5
744
100
AcDbSymbolTableRecord
100
AcDbBlockTableRecord
  2
*D20
  0
BLOCK_RECORD
  5
7B4
100
AcDbSymbolTableRecord
100
AcDbBlockTableRecord
  2
*D21
  0
BLOCK_RECORD
  5
851
100
AcDbSymbolTableRecord
100
AcDbBlockTableRecord
  2
*D22
  0
BLOCK_RECORD
  5
85E
100
AcDbSymbolTableRecord
100
AcDbBlockTableRecord
  2
*D23
  0
BLOCK_RECORD
  5
8B3
100
AcDbSymbolTableRecord
100
AcDbBlockTableRecord
  2
*D24
  0
BLOCK_RECORD
  5
8E1
100
AcDbSymbolTableRecord
100
AcDbBlockTableRecord
  2
*D25
  0
BLOCK_RECORD
  5
8FB
100
AcDbSymbolTableRecord
100
AcDbBlockTableRecord
  2
*D26
  0
BLOCK_RECORD
  5
C6A
100
AcDbSymbolTableRecord
100
AcDbBlockTableRecord
  2
*D29
  0
BLOCK_RECORD
  5
C9F
100
AcDbSymbolTableRecord
100
AcDbBlockTableRecord
  2
*X30
  0
BLOCK_RECORD
  5
CBF
100
AcDbSymbolTableRecord
100
AcDbBlockTableRecord
  2
*D31
  0
BLOCK_RECORD
  5
CE3
100
AcDbSymbolTableRecord
100
AcDbBlockTableRecord
  2
*D32
  0
ENDTAB
  0
ENDSEC
  0
SECTION
  2
BLOCKS
  0
BLOCK
  5
1A
100
AcDbEntity
  8
0
100
AcDbBlockBegin
  2
*MODEL_SPACE
 70
     0
 10
0.0
 20
0.0
 30
0.0
  3
*MODEL_SPACE
  1

  0
ENDBLK
  5
1B
100
AcDbEntity
  8
0
100
AcDbBlockEnd
  0
BLOCK
  5
17
100
AcDbEntity
 67
     1
  8
0
100
AcDbBlockBegin
  2
*PAPER_SPACE
 70
     0
 10
0.0
 20
0.0
 30
0.0
  3
*PAPER_SPACE
  1

  0
ENDBLK
  5
18
100
AcDbEntity
 67
     1
  8
0
100
AcDbBlockEnd
  0
BLOCK
  5
3A7
100
AcDbEntity
  8
DISEGNO
100
AcDbBlockBegin
  2
RUGOSITA
 70
     2
 10
0.0
 20
0.0
 30
0.0
  3
RUGOSITA
  1

  0
ATTDEF
  5
3A3
100
AcDbEntity
  8
QUOTE
100
AcDbText
 10
-1.071886
 20
3.214106
 30
0.0
 40
1.5
  1
0.8
100
AcDbAttributeDefinition
  3
CHE RUGOSITA ?
  2
RUGOSITA
 70
     0
  0
LINE
  5
3A4
100
AcDbEntity
  8
QUOTE
100
AcDbLine
 10
0.0
 20
0.0
 30
0.0
 11
4.0
 21
6.928203
 31
0.0
  0
LINE
  5
3A5
100
AcDbEntity
  8
QUOTE
100
AcDbLine
 10
0.0
 20
0.0
 30
0.0
 11
-1.75
 21
3.031089
 31
0.0
  0
LINE
  5
3A6
100
AcDbEntity
  8
QUOTE
100
AcDbLine
 10
-1.75
 20
3.031089
 30
0.0
 11
1.75
 21
3.031089
 31
0.0
  0
ENDBLK
  5
3A8
100
AcDbEntity
  8
DISEGNO
100
AcDbBlockEnd
  0
BLOCK
  5
547
100
AcDbEntity
  8
QUOTE
100
AcDbBlockBegin
  2
A$C52B2
 70
     0
 10
0.0
 20
0.0
 30
0.0
  3
A$C52B2
  1

  0
LINE
  5
4A9
100
AcDbEntity
  8
TABELLA
  6
CONTINUOUS
100
AcDbLine
 10
100.781064
 20
5.387067
 30
0.0
 11
103.281064
 21
0.387067
 31
0.0
  0
LINE
  5
4AA
100
AcDbEntity
  8
TABELLA
  6
CONTINUOUS
100
AcDbLine
 10
100.781064
 20
0.387067
 30
0.0
 11
103.281064
 21
0.387067
 31
0.0
  0
LINE
  5
4AB
100
AcDbEntity
  8
TABELLA
  6
CONTINUOUS
100
AcDbLine
 10
103.281064
 20
287.387067
 30
0.0
 11
100.781064
 21
282.387067
 31
0.0
  0
LINE
  5
4AC
100
AcDbEntity
  8
TABELLA
  6
CONTINUOUS
100
AcDbLine
 10
100.781064
 20
287.387067
 30
0.0
 11
103.281064
 21
287.387067
 31
0.0
  0
TEXT
  5
4AD
100
AcDbEntity
  8
TABELLA
  6
CONTINUOUS
100
AcDbText
 10
83.891226
 20
14.123583
 30
0.0
 40
6.0
  1
ROLLERI
100
AcDbText
  0
LINE
  5
4AE
100
AcDbEntity
  8
TABELLA
  6
CONTINUOUS
100
AcDbLine
 10
115.706968
 20
22.612261
 30
0.0
 11
84.107383
 21
22.612261
 31
0.0
1001
ACAD
1000
ASC_BOUNDS
1002
{
1070
    19
1002
}
  0
LINE
  5
4AF
100
AcDbEntity
  8
TABELLA
  6
CONTINUOUS
100
AcDbLine
 10
82.055262
 20
11.456564
 30
0.0
 11
113.654847
 21
11.456564
 31
0.0
1001
ACAD
1000
ASC_BOUNDS
1002
{
1070
    19
1002
}
  0
LINE
  5
4B0
100
AcDbEntity
  8
TABELLA
  6
CONTINUOUS
100
AcDbLine
 10
116.407176
 20
23.612261
 30
0.0
 11
83.407176
 21
23.612261
 31
0.0
1001
ACAD
1000
ASC_BOUNDS
1002
{
1070
    19
1002
}
  0
LINE
  5
4B1
100
AcDbEntity
  8
TABELLA
  6
CONTINUOUS
100
AcDbLine
 10
81.355055
 20
10.456564
 30
0.0
 11
114.355055
 21
10.456564
 31
0.0
1001
ACAD
1000
ASC_BOUNDS
1002
{
1070
    19
1002
}
  0
TEXT
  5
4B2
100
AcDbEntity
  8
TABELLA
  6
CONTINUOUS
100
AcDbText
 10
79.770815
 20
6.679292
 30
0.0
 40
2.0
  1
Vigolzone ( Piacenza ) - ITALIA
100
AcDbText
  0
LINE
  5
4B3
100
AcDbEntity
  8
TABELLA
  6
CONTINUOUS
100
AcDbLine
 10
125.782064
 20
35.387067
 30
0.0
 11
75.782064
 21
35.387067
 31
0.0
  0
LINE
  5
4B4
100
AcDbEntity
  8
TABELLA
  6
CONTINUOUS
100
AcDbLine
 10
195.782064
 20
45.387067
 30
0.0
 11
5.697058
 21
45.395351
 31
0.0
  0
LINE
  5
4B5
100
AcDbEntity
  8
TABELLA
  6
CONTINUOUS
100
AcDbLine
 10
125.782064
 20
25.387067
 30
0.0
 11
75.782064
 21
25.387067
 31
0.0
  0
LINE
  5
4B6
100
AcDbEntity
  8
TABELLA
  6
CONTINUOUS
100
AcDbLine
 10
195.782064
 20
5.387067
 30
0.0
 11
5.782064
 21
5.387067
 31
0.0
  0
LINE
  5
4B7
100
AcDbEntity
  8
TABELLA
  6
CONTINUOUS
100
AcDbLine
 10
5.782064
 20
282.387067
 30
0.0
 11
195.782064
 21
282.387067
 31
0.0
  0
LINE
  5
4B8
100
AcDbEntity
  8
TABELLA
  6
CONTINUOUS
100
AcDbLine
 10
5.782064
 20
143.887067
 30
0.0
 11
0.782064
 21
141.387067
 31
0.0
  0
LINE
  5
4B9
100
AcDbEntity
  8
TABELLA
  6
CONTINUOUS
100
AcDbLine
 10
0.782064
 20
143.887067
 30
0.0
 11
0.782064
 21
141.387067
 31
0.0
  0
LINE
  5
4BA
100
AcDbEntity
  8
TABELLA
  6
CONTINUOUS
100
AcDbLine
 10
5.782064
 20
5.387067
 30
0.0
 11
5.782064
 21
282.387067
 31
0.0
  0
POLYLINE
  5
4BB
100
AcDbEntity
  8
QUOTE
100
AcDb2dPolyline
 66
     1
 10
0.0
 20
0.0
 30
0.0
 70
     1
  0
VERTEX
  5
4BC
100
AcDbEntity
  8
QUOTE
100
AcDbVertex
100
AcDb2dVertex
 10
11.507487
 20
62.582414
 30
0.0
  0
VERTEX
  5
4BD
100
AcDbEntity
  8
QUOTE
100
AcDbVertex
100
AcDb2dVertex
 10
11.507487
 20
49.867806
 30
0.0
  0
VERTEX
  5
4BE
100
AcDbEntity
  8
QUOTE
100
AcDbVertex
100
AcDb2dVertex
 10
52.626527
 20
49.867806
 30
0.0
  0
VERTEX
  5
4BF
100
AcDbEntity
  8
QUOTE
100
AcDbVertex
100
AcDb2dVertex
 10
52.626527
 20
62.582414
 30
0.0
  0
SEQEND
  5
4C0
100
AcDbEntity
  8
QUOTE
  0
TOLERANCE
  5
4C1
100
AcDbEntity
  8
QUOTE
  6
CONTINUOUS
100
AcDbFcf
  3
ISO-25
 10
30.863585
 20
54.182522
 30
0.0
  1
{\Fgdt;u}%%v0.02%%v%%v%%v%%v
1001
ACAD
1000
DSTYLE
1002
{
1070
   140
1040
2.6
1070
    47
1040
0.02
1070
    73
1070
     0
1070
   272
1070
     2
1070
   147
1040
0.53
1070
    42
1040
0.5261
1070
    44
1040
1.0522
1070
    43
1040
3.1566
1070
   271
1070
     2
1070
   141
1040
2.1044
1070
    41
1040
2.6
1002
}
  0
TEXT
  5
4C2
100
AcDbEntity
  8
QUOTE
100
AcDbText
 10
12.101072
 20
58.118453
 30
0.0
 40
2.5
  1
TOLLERANZE AL METRO
 41
1.1
100
AcDbText
  0
TEXT
  5
4C3
100
AcDbEntity
  8
TABELLA
  6
CONTINUOUS
100
AcDbText
 10
7.271803
 20
15.7314
 30
0.0
 40
2.0
  1
- Angoli su superfici lavorate = +/- 30'
100
AcDbText
  0
TEXT
  5
4C4
100
AcDbEntity
  8
TABELLA
  6
CONTINUOUS
100
AcDbText
 10
7.271803
 20
23.3314
 30
0.0
 40
2.0
  1
   da mm 151 a mm 500 = +/- 0.4
100
AcDbText
  0
TEXT
  5
4C5
100
AcDbEntity
  8
TABELLA
  6
CONTINUOUS
100
AcDbText
 10
7.271803
 20
27.1314
 30
0.0
 40
2.0
  1
   da mm 51 a mm 150 = +/- 0.3
100
AcDbText
  0
TEXT
  5
4C6
100
AcDbEntity
  8
TABELLA
  6
CONTINUOUS
100
AcDbText
 10
7.271803
 20
30.9314
 30
0.0
 40
2.0
  1
- Superfici lavorate da mm 1 a mm 50 = +/- 0.2
100
AcDbText
  0
TEXT
  5
4C7
100
AcDbEntity
  8
TABELLA
  6
CONTINUOUS
100
AcDbText
 10
7.271803
 20
34.7314
 30
0.0
 40
2.0
  1
- Parti fuse con spessori >10 mm = +/- 10%
100
AcDbText
  0
TEXT
  5
4C8
100
AcDbEntity
  8
TABELLA
  6
CONTINUOUS
100
AcDbText
 10
7.271803
 20
38.5314
 30
0.0
 40
2.0
  1
- Parti fuse con spessori <10 mm = +/- 1 mm
100
AcDbText
  0
TOLERANCE
  5
4C9
100
AcDbEntity
  8
QUOTE
  6
CONTINUOUS
100
AcDbFcf
  3
ISO-25
 10
15.305627
 20
54.182522
 30
0.0
  1
{\Fgdt;b}%%v0.02%%v%%v%%v%%v
1001
ACAD
1000
DSTYLE
1002
{
1070
   140
1040
2.6
1070
    47
1040
0.02
1070
    73
1070
     0
1070
   272
1070
     2
1070
   147
1040
0.53
1070
    42
1040
0.5261
1070
    44
1040
1.0522
1070
    43
1040
3.1566
1070
   271
1070
     2
1070
   141
1040
2.1044
1070
    41
1040
2.6
1002
}
  0
TEXT
  5
4CA
100
AcDbEntity
  8
TABELLA
  6
CONTINUOUS
100
AcDbText
 10
0.769342
 20
51.259863
 30
0.0
 40
4.0
  1
B
100
AcDbText
  0
TEXT
  5
4CB
100
AcDbEntity
  8
TABELLA
  6
CONTINUOUS
100
AcDbText
 10
0.353187
 20
15.100813
 30
0.0
 40
4.0
  1
A
100
AcDbText
  0
LINE
  5
4CC
100
AcDbEntity
  8
TABELLA
  6
CONTINUOUS
100
AcDbLine
 10
5.782064
 20
36.262067
 30
0.0
 11
0.782064
 21
36.262067
 31
0.0
  0
TEXT
  5
4CD
100
AcDbEntity
  8
TABELLA
  6
CONTINUOUS
100
AcDbText
 10
15.583223
 20
0.138446
 30
0.0
 40
4.0
  1
6
100
AcDbText
  0
LINE
  5
4CE
100
AcDbEntity
  8
TABELLA
  6
CONTINUOUS
100
AcDbLine
 10
34.115064
 20
5.387067
 30
0.0
 11
34.115064
 21
0.387067
 31
0.0
  0
TEXT
  5
4CF
100
AcDbEntity
  8
TABELLA
  6
CONTINUOUS
100
AcDbText
 10
7.271803
 20
11.9314
 30
0.0
 40
2.0
  1
- Interassi fori = +/- 0.25
100
AcDbText
  0
TEXT
  5
4D0
100
AcDbEntity
  8
TABELLA
  6
CONTINUOUS
100
AcDbText
 10
7.271803
 20
19.5314
 30
0.0
 40
2.0
  1
   oltre 500 mm = +/- 0.5
100
AcDbText
  0
TEXT
  5
4D1
100
AcDbEntity
  8
TABELLA
  6
CONTINUOUS
100
AcDbText
 10
7.271803
 20
42.3314
 30
0.0
 40
2.0
  1
TOLLERANZE GENERALI :
100
AcDbText
  0
LINE
  5
4D2
100
AcDbEntity
  8
TABELLA
  6
CONTINUOUS
100
AcDbLine
 10
5.782064
 20
72.137067
 30
0.0
 11
0.782064
 21
72.137067
 31
0.0
  0
TEXT
  5
4D3
100
AcDbEntity
  8
TABELLA
  6
CONTINUOUS
100
AcDbText
 10
0.769342
 20
87.459725
 30
0.0
 40
4.0
  1
C
100
AcDbText
  0
LINE
  5
4D4
100
AcDbEntity
  8
TABELLA
  6
CONTINUOUS
100
AcDbLine
 10
5.782064
 20
108.012067
 30
0.0
 11
0.782064
 21
108.012067
 31
0.0
  0
TEXT
  5
4D5
100
AcDbEntity
  8
TABELLA
  6
CONTINUOUS
100
AcDbText
 10
0.769342
 20
124.034397
 30
0.0
 40
4.0
  1
D
100
AcDbText
  0
LINE
  5
4D6
100
AcDbEntity
  8
TABELLA
  6
CONTINUOUS
100
AcDbLine
 10
65.792444
 20
45.394891
 30
0.0
 11
65.782064
 21
5.389662
 31
0.0
  0
TEXT
  5
4D7
100
AcDbEntity
  8
TABELLA
  6
CONTINUOUS
100
AcDbText
 10
68.438556
 20
7.454028
 30
0.0
 40
1.5
  1
A termine di legge la Rolleri si riserva la
 50
90.0
100
AcDbText
  0
TEXT
  5
4D8
100
AcDbEntity
  8
TABELLA
  6
CONTINUOUS
100
AcDbText
 10
49.29176
 20
0.138446
 30
0.0
 40
4.0
  1
5
100
AcDbText
  0
LINE
  5
4D9
100
AcDbEntity
  8
TABELLA
  6
CONTINUOUS
100
AcDbLine
 10
67.448064
 20
5.387067
 30
0.0
 11
67.448064
 21
0.387067
 31
0.0
  0
LINE
  5
4DA
100
AcDbEntity
  8
TABELLA
  6
CONTINUOUS
100
AcDbLine
 10
75.792442
 20
45.387067
 30
0.0
 11
75.792442
 21
5.387067
 31
0.0
  0
TEXT
  5
4DB
100
AcDbEntity
  8
TABELLA
  6
CONTINUOUS
100
AcDbText
 10
74.138556
 20
7.454028
 30
0.0
 40
1.5
  1
di riprodurlo e di comunicarlo a terzi.
 50
90.0
100
AcDbText
  0
TEXT
  5
4DC
100
AcDbEntity
  8
TABELLA
  6
CONTINUOUS
100
AcDbText
 10
71.288556
 20
7.454028
 30
0.0
 40
1.5
  1
proprietà di questo disegno, con divieto
 50
90.0
100
AcDbText
  0
TEXT
  5
4DD
100
AcDbEntity
  8
TABELLA
  6
CONTINUOUS
100
AcDbText
 10
83.416451
 20
0.554068
 30
0.0
 40
4.0
  1
4
100
AcDbText
  0
LINE
  5
4DE
100
AcDbEntity
  8
TABELLA
  6
CONTINUOUS
100
AcDbLine
 10
98.281064
 20
0.387067
 30
0.0
 11
100.781064
 21
5.387067
 31
0.0
  0
LINE
  5
4DF
100
AcDbEntity
  8
TABELLA
  6
CONTINUOUS
100
AcDbLine
 10
100.781064
 20
5.387067
 30
0.0
 11
100.781064
 21
0.387067
 31
0.0
  0
LINE
  5
4E0
100
AcDbEntity
  8
TABELLA
  6
CONTINUOUS
100
AcDbLine
 10
100.781064
 20
0.387067
 30
0.0
 11
98.281064
 21
0.387067
 31
0.0
  0
TEXT
  5
4E1
100
AcDbEntity
  8
TABELLA
  6
CONTINUOUS
100
AcDbText
 10
77.180326
 20
42.484843
 30
0.0
 40
2.0
  1
Materiale
100
AcDbText
  0
TEXT
  5
4E2
100
AcDbEntity
  8
TABELLA
  6
CONTINUOUS
100
AcDbText
 10
76.949018
 20
32.320687
 30
0.0
 40
2.0
  1
Disegnato da
100
AcDbText
  0
LINE
  5
4E3
100
AcDbEntity
  8
TABELLA
  6
CONTINUOUS
100
AcDbLine
 10
84.107383
 20
22.612261
 30
0.0
 11
81.051152
 21
14.215335
 31
0.0
1001
ACAD
1000
ASC_BOUNDS
1002
{
1070
    19
1002
}
  0
LINE
  5
4E4
100
AcDbEntity
  8
TABELLA
  6
CONTINUOUS
100
AcDbLine
 10
83.407176
 20
23.612261
 30
0.0
 11
79.986974
 21
14.215335
 31
0.0
1001
ACAD
1000
ASC_BOUNDS
1002
{
1070
    19
1002
}
  0
LINE
  5
4E5
100
AcDbEntity
  8
TABELLA
  6
CONTINUOUS
100
AcDbLine
 10
81.051152
 20
14.215335
 30
0.0
 11
82.055262
 21
11.456564
 31
0.0
1001
ACAD
1000
ASC_BOUNDS
1002
{
1070
    19
1002
}
  0
LINE
  5
4E6
100
AcDbEntity
  8
TABELLA
  6
CONTINUOUS
100
AcDbLine
 10
79.986974
 20
14.215335
 30
0.0
 11
81.355055
 21
10.456564
 31
0.0
1001
ACAD
1000
ASC_BOUNDS
1002
{
1070
    19
1002
}
  0
LINE
  5
4E7
100
AcDbEntity
  8
TABELLA
  6
CONTINUOUS
100
AcDbLine
 10
100.782064
 20
35.387067
 30
0.0
 11
100.782064
 21
25.387067
 31
0.0
  0
TEXT
  5
4E8
100
AcDbEntity
  8
TABELLA
  6
CONTINUOUS
100
AcDbText
 10
1.185497
 20
230.800736
 30
0.0
 40
4.0
  1
G
100
AcDbText
  0
LINE
  5
4E9
100
AcDbEntity
  8
TABELLA
  6
CONTINUOUS
100
AcDbLine
 10
0.782064
 20
146.387067
 30
0.0
 11
5.782064
 21
143.887067
 31
0.0
  0
LINE
  5
4EA
100
AcDbEntity
  8
TABELLA
  6
CONTINUOUS
100
AcDbLine
 10
5.782064
 20
143.887067
 30
0.0
 11
0.782064
 21
143.887067
 31
0.0
  0
LINE
  5
4EB
100
AcDbEntity
  8
TABELLA
  6
CONTINUOUS
100
AcDbLine
 10
0.782064
 20
143.887067
 30
0.0
 11
0.782064
 21
146.387067
 31
0.0
  0
TEXT
  5
4EC
100
AcDbEntity
  8
TABELLA
  6
CONTINUOUS
100
AcDbText
 10
1.601651
 20
158.319393
 30
0.0
 40
4.0
  1
E
100
AcDbText
  0
LINE
  5
4ED
100
AcDbEntity
  8
TABELLA
  6
CONTINUOUS
100
AcDbLine
 10
5.782064
 20
179.762067
 30
0.0
 11
0.782064
 21
179.762067
 31
0.0
  0
TEXT
  5
4EE
100
AcDbEntity
  8
TABELLA
  6
CONTINUOUS
100
AcDbText
 10
1.185497
 20
195.309687
 30
0.0
 40
4.0
  1
F
100
AcDbText
  0
LINE
  5
4EF
100
AcDbEntity
  8
TABELLA
  6
CONTINUOUS
100
AcDbLine
 10
5.782064
 20
215.637067
 30
0.0
 11
0.782064
 21
215.637067
 31
0.0
  0
LINE
  5
4F0
100
AcDbEntity
  8
TABELLA
  6
CONTINUOUS
100
AcDbLine
 10
5.782064
 20
251.512067
 30
0.0
 11
0.782064
 21
251.512067
 31
0.0
  0
TEXT
  5
4F1
100
AcDbEntity
  8
TABELLA
  6
CONTINUOUS
100
AcDbText
 10
1.185497
 20
268.206651
 30
0.0
 40
4.0
  1
H
100
AcDbText
  0
TEXT
  5
4F2
100
AcDbEntity
  8
TABELLA
  6
CONTINUOUS
100
AcDbText
 10
15.583224
 20
283.209827
 30
0.0
 40
4.0
  1
6
100
AcDbText
  0
LINE
  5
4F3
100
AcDbEntity
  8
TABELLA
  6
CONTINUOUS
100
AcDbLine
 10
34.115064
 20
282.387067
 30
0.0
 11
34.115064
 21
287.387067
 31
0.0
  0
TEXT
  5
4F4
100
AcDbEntity
  8
TABELLA
  6
CONTINUOUS
100
AcDbText
 10
50.12407
 20
283.250638
 30
0.0
 40
4.0
  1
5
100
AcDbText
  0
LINE
  5
4F5
100
AcDbEntity
  8
TABELLA
  6
CONTINUOUS
100
AcDbLine
 10
67.448064
 20
282.387067
 30
0.0
 11
67.448064
 21
287.387067
 31
0.0
  0
TEXT
  5
4F6
100
AcDbEntity
  8
TABELLA
  6
CONTINUOUS
100
AcDbText
 10
83.832607
 20
283.250638
 30
0.0
 40
4.0
  1
4
100
AcDbText
  0
LINE
  5
4F7
100
AcDbEntity
  8
TABELLA
  6
CONTINUOUS
100
AcDbLine
 10
100.781064
 20
282.387067
 30
0.0
 11
98.281064
 21
287.387067
 31
0.0
  0
LINE
  5
4F8
100
AcDbEntity
  8
TABELLA
  6
CONTINUOUS
100
AcDbLine
 10
100.781064
 20
282.387067
 30
0.0
 11
100.781064
 21
287.387067
 31
0.0
  0
LINE
  5
4F9
100
AcDbEntity
  8
TABELLA
  6
CONTINUOUS
100
AcDbLine
 10
100.781064
 20
287.387067
 30
0.0
 11
98.281064
 21
287.387067
 31
0.0
  0
LINE
  5
4FA
100
AcDbEntity
  8
TABELLA
  6
CONTINUOUS
100
AcDbLine
 10
200.782064
 20
141.387067
 30
0.0
 11
195.782064
 21
143.887067
 31
0.0
  0
LINE
  5
4FB
100
AcDbEntity
  8
TABELLA
  6
CONTINUOUS
100
AcDbLine
 10
200.782064
 20
143.887067
 30
0.0
 11
200.782064
 21
141.387067
 31
0.0
  0
LINE
  5
4FC
100
AcDbEntity
  8
TABELLA
  6
CONTINUOUS
100
AcDbLine
 10
191.781227
 20
165.387241
 30
0.0
 11
191.781227
 21
45.387241
 31
0.0
  0
LINE
  5
4FD
100
AcDbEntity
  8
TABELLA
  6
CONTINUOUS
100
AcDbLine
 10
195.782064
 20
5.387067
 30
0.0
 11
195.782064
 21
282.387067
 31
0.0
  0
TEXT
  5
4FE
100
AcDbEntity
  8
TABELLA
  6
CONTINUOUS
100
AcDbText
 10
147.267168
 20
42.484843
 30
0.0
 40
2.0
  1
Trattamento Termico
100
AcDbText
  0
TEXT
  5
4FF
100
AcDbEntity
  8
TABELLA
  6
CONTINUOUS
100
AcDbText
 10
161.83968
 20
32.089683
 30
0.0
 40
2.0
  1
Scala
100
AcDbText
  0
TEXT
  5
500
100
AcDbEntity
  8
TABELLA
  6
CONTINUOUS
100
AcDbText
 10
162.070991
 20
12.223377
 30
0.0
 40
2.0
  1
Data
100
AcDbText
  0
LINE
  5
501
100
AcDbEntity
  8
TABELLA
  6
CONTINUOUS
100
AcDbLine
 10
125.782064
 20
35.387067
 30
0.0
 11
195.782064
 21
35.387067
 31
0.0
  0
LINE
  5
502
100
AcDbEntity
  8
TABELLA
  6
CONTINUOUS
100
AcDbLine
 10
125.782064
 20
25.387067
 30
0.0
 11
195.782064
 21
25.387067
 31
0.0
  0
LINE
  5
503
100
AcDbEntity
  8
TABELLA
  6
CONTINUOUS
100
AcDbLine
 10
120.666552
 20
15.457427
 30
0.0
 11
195.782064
 21
15.387067
 31
0.0
  0
TEXT
  5
504
100
AcDbEntity
  8
TABELLA
  6
CONTINUOUS
100
AcDbText
 10
116.965597
 20
42.484843
 30
0.0
 40
2.0
  1
Dimensioni di prelievo
100
AcDbText
  0
TEXT
  5
505
100
AcDbEntity
  8
TABELLA
  6
CONTINUOUS
100
AcDbText
 10
126.911915
 20
32.089683
 30
0.0
 40
2.0
  1
Approvato da - data
100
AcDbText
  0
TEXT
  5
506
100
AcDbEntity
  8
TABELLA
  6
CONTINUOUS
100
AcDbText
 10
121.823101
 20
22.387534
 30
0.0
 40
2.0
  1
Particolare
100
AcDbText
  0
LINE
  5
507
100
AcDbEntity
  8
TABELLA
  6
CONTINUOUS
100
AcDbLine
 10
120.782064
 20
15.387067
 30
0.0
 11
120.782064
 21
5.387067
 31
0.0
  0
TEXT
  5
508
100
AcDbEntity
  8
TABELLA
  6
CONTINUOUS
100
AcDbText
 10
116.708833
 20
0.138446
 30
0.0
 40
4.0
  1
3
100
AcDbText
  0
LINE
  5
509
100
AcDbEntity
  8
TABELLA
  6
CONTINUOUS
100
AcDbLine
 10
116.711078
 20
19.853491
 30
0.0
 11
115.706968
 21
22.612261
 31
0.0
1001
ACAD
1000
ASC_BOUNDS
1002
{
1070
    19
1002
}
  0
LINE
  5
50A
100
AcDbEntity
  8
TABELLA
  6
CONTINUOUS
100
AcDbLine
 10
113.654847
 20
11.456564
 30
0.0
 11
116.711078
 21
19.853491
 31
0.0
1001
ACAD
1000
ASC_BOUNDS
1002
{
1070
    19
1002
}
  0
LINE
  5
50B
100
AcDbEntity
  8
TABELLA
  6
CONTINUOUS
100
AcDbLine
 10
114.355055
 20
10.456564
 30
0.0
 11
117.775256
 21
19.853491
 31
0.0
1001
ACAD
1000
ASC_BOUNDS
1002
{
1070
    19
1002
}
  0
TEXT
  5
50C
100
AcDbEntity
  8
TABELLA
  6
CONTINUOUS
100
AcDbText
 10
101.930465
 20
32.089683
 30
0.0
 40
2.0
  1
Controllato da
100
AcDbText
  0
LINE
  5
50D
100
AcDbEntity
  8
TABELLA
  6
CONTINUOUS
100
AcDbLine
 10
115.782064
 20
35.387067
 30
0.0
 11
115.782064
 21
45.387067
 31
0.0
  0
LINE
  5
50E
100
AcDbEntity
  8
TABELLA
  6
CONTINUOUS
100
AcDbLine
 10
125.782064
 20
35.387067
 30
0.0
 11
125.782064
 21
25.387067
 31
0.0
  0
TEXT
  5
50F
100
AcDbEntity
  8
TABELLA
  6
CONTINUOUS
100
AcDbText
 10
121.591791
 20
12.223377
 30
0.0
 40
2.0
  1
Disegno
100
AcDbText
  0
LINE
  5
510
100
AcDbEntity
  8
TABELLA
  6
CONTINUOUS
100
AcDbLine
 10
117.775256
 20
19.853491
 30
0.0
 11
116.407176
 21
23.612261
 31
0.0
1001
ACAD
1000
ASC_BOUNDS
1002
{
1070
    19
1002
}
  0
LINE
  5
511
100
AcDbEntity
  8
TABELLA
  6
CONTINUOUS
100
AcDbLine
 10
120.782064
 20
25.387067
 30
0.0
 11
120.782064
 21
15.387067
 31
0.0
  0
LINE
  5
512
100
AcDbEntity
  8
TABELLA
  6
CONTINUOUS
100
AcDbLine
 10
160.782064
 20
15.387067
 30
0.0
 11
160.782064
 21
5.387067
 31
0.0
  0
LINE
  5
513
100
AcDbEntity
  8
TABELLA
  6
CONTINUOUS
100
AcDbLine
 10
134.114064
 20
5.387067
 30
0.0
 11
134.114064
 21
0.387067
 31
0.0
  0
TEXT
  5
514
100
AcDbEntity
  8
TABELLA
  6
CONTINUOUS
100
AcDbText
 10
150.41737
 20
0.138446
 30
0.0
 40
4.0
  1
2
100
AcDbText
  0
LINE
  5
515
100
AcDbEntity
  8
TABELLA
  6
CONTINUOUS
100
AcDbLine
 10
145.782064
 20
35.387067
 30
0.0
 11
145.782064
 21
45.387067
 31
0.0
  0
LINE
  5
516
100
AcDbEntity
  8
TABELLA
  6
CONTINUOUS
100
AcDbLine
 10
160.782064
 20
35.387067
 30
0.0
 11
160.782064
 21
25.387067
 31
0.0
  0
TEXT
  5
517
100
AcDbEntity
  8
TABELLA
  6
CONTINUOUS
100
AcDbText
 10
197.026704
 20
51.259863
 30
0.0
 40
4.0
  1
B
100
AcDbText
  0
TEXT
  5
518
100
AcDbEntity
  8
TABELLA
  6
CONTINUOUS
100
AcDbText
 10
195.001816
 20
46.303578
 30
0.0
 40
2.0
  1
N° rev.
 50
90.0
100
AcDbText
  0
LINE
  5
519
100
AcDbEntity
  8
TABELLA
  6
CONTINUOUS
100
AcDbLine
 10
176.747411
 20
30.474182
 30
0.0
 11
194.673913
 21
30.474182
 31
0.0
  0
LINE
  5
51A
100
AcDbEntity
  8
TABELLA
  6
CONTINUOUS
100
AcDbLine
 10
180.782064
 20
15.387067
 30
0.0
 11
180.782064
 21
5.387067
 31
0.0
  0
LINE
  5
51B
100
AcDbEntity
  8
TABELLA
  6
CONTINUOUS
100
AcDbLine
 10
167.447064
 20
5.387067
 30
0.0
 11
167.447064
 21
0.387067
 31
0.0
  0
TEXT
  5
51C
100
AcDbEntity
  8
TABELLA
  6
CONTINUOUS
100
AcDbText
 10
184.542061
 20
0.138446
 30
0.0
 40
4.0
  1
1
100
AcDbText
  0
LINE
  5
51D
100
AcDbEntity
  8
TABELLA
  6
CONTINUOUS
100
AcDbLine
 10
176.747411
 20
31.974182
 30
0.0
 11
182.656258
 21
33.016071
 31
0.0
  0
LINE
  5
51E
100
AcDbEntity
  8
TABELLA
  6
CONTINUOUS
100
AcDbLine
 10
176.747411
 20
28.974182
 30
0.0
 11
182.656258
 21
27.932293
 31
0.0
  0
LINE
  5
51F
100
AcDbEntity
  8
TABELLA
  6
CONTINUOUS
100
AcDbLine
 10
176.747411
 20
31.974182
 30
0.0
 11
176.747411
 21
28.974182
 31
0.0
  0
LINE
  5
520
100
AcDbEntity
  8
TABELLA
  6
CONTINUOUS
100
AcDbLine
 10
175.782064
 20
35.387067
 30
0.0
 11
175.782064
 21
25.387067
 31
0.0
  0
CIRCLE
  5
521
100
AcDbEntity
  8
TABELLA
  6
CONTINUOUS
100
AcDbCircle
 10
189.932065
 20
30.474182
 30
0.0
 40
1.5
  0
LINE
  5
522
100
AcDbEntity
  8
TABELLA
  6
CONTINUOUS
100
AcDbLine
 10
189.932065
 20
28.369782
 30
0.0
 11
189.932065
 21
32.578582
 31
0.0
  0
CIRCLE
  5
523
100
AcDbEntity
  8
TABELLA
  6
CONTINUOUS
100
AcDbCircle
 10
189.932065
 20
30.474182
 30
0.0
 40
2.54
  0
LINE
  5
524
100
AcDbEntity
  8
TABELLA
  6
CONTINUOUS
100
AcDbLine
 10
182.656258
 20
33.016071
 30
0.0
 11
182.656258
 21
27.932293
 31
0.0
  0
TEXT
  5
525
100
AcDbEntity
  8
TABELLA
  6
CONTINUOUS
100
AcDbText
 10
181.963625
 20
11.992375
 30
0.0
 40
2.0
  1
Formato
100
AcDbText
  0
LINE
  5
526
100
AcDbEntity
  8
TABELLA
  6
CONTINUOUS
100
AcDbLine
 10
187.827665
 20
30.474182
 30
0.0
 11
192.036465
 21
30.474182
 31
0.0
  0
LINE
  5
527
100
AcDbEntity
  8
TABELLA
  6
CONTINUOUS
100
AcDbLine
 10
195.782064
 20
5.387067
 30
0.0
 11
195.782064
 21
35.387067
 31
0.0
  0
TEXT
  5
528
100
AcDbEntity
  8
TABELLA
  6
CONTINUOUS
100
AcDbText
 10
197.026704
 20
14.685191
 30
0.0
 40
4.0
  1
A
100
AcDbText
  0
LINE
  5
529
100
AcDbEntity
  8
TABELLA
  6
CONTINUOUS
100
AcDbLine
 10
195.782064
 20
36.262067
 30
0.0
 11
200.782064
 21
36.262067
 31
0.0
  0
TEXT
  5
52A
100
AcDbEntity
  8
TABELLA
  6
CONTINUOUS
100
AcDbText
 10
195.209894
 20
130.984517
 30
0.0
 40
2.0
  1
Data
 50
90.0
100
AcDbText
  0
TEXT
  5
52B
100
AcDbEntity
  8
TABELLA
  6
CONTINUOUS
100
AcDbText
 10
195.209894
 20
56.278486
 30
0.0
 40
2.0
  1
Nota di revisione
 50
90.0
100
AcDbText
  0
LINE
  5
52C
100
AcDbEntity
  8
TABELLA
  6
CONTINUOUS
100
AcDbLine
 10
191.781227
 20
55.387241
 30
0.0
 11
195.782064
 21
55.387241
 31
0.0
  0
LINE
  5
52D
100
AcDbEntity
  8
TABELLA
  6
CONTINUOUS
100
AcDbLine
 10
191.781227
 20
130.387241
 30
0.0
 11
195.782064
 21
130.387241
 31
0.0
  0
LINE
  5
52E
100
AcDbEntity
  8
TABELLA
  6
CONTINUOUS
100
AcDbLine
 10
195.782064
 20
72.137067
 30
0.0
 11
200.782064
 21
72.137067
 31
0.0
  0
TEXT
  5
52F
100
AcDbEntity
  8
TABELLA
  6
CONTINUOUS
100
AcDbText
 10
197.442859
 20
87.459725
 30
0.0
 40
4.0
  1
C
100
AcDbText
  0
LINE
  5
530
100
AcDbEntity
  8
TABELLA
  6
CONTINUOUS
100
AcDbLine
 10
195.782064
 20
108.012067
 30
0.0
 11
200.782064
 21
108.012067
 31
0.0
  0
TEXT
  5
531
100
AcDbEntity
  8
TABELLA
  6
CONTINUOUS
100
AcDbText
 10
197.442859
 20
123.618776
 30
0.0
 40
4.0
  1
D
100
AcDbText
  0
TEXT
  5
532
100
AcDbEntity
  8
TABELLA
  6
CONTINUOUS
100
AcDbText
 10
116.708835
 20
283.250638
 30
0.0
 40
4.0
  1
3
100
AcDbText
  0
LINE
  5
533
100
AcDbEntity
  8
TABELLA
  6
CONTINUOUS
100
AcDbLine
 10
134.114064
 20
282.387067
 30
0.0
 11
134.114064
 21
287.387067
 31
0.0
  0
TEXT
  5
534
100
AcDbEntity
  8
TABELLA
  6
CONTINUOUS
100
AcDbText
 10
150.417372
 20
283.250638
 30
0.0
 40
4.0
  1
2
100
AcDbText
  0
TEXT
  5
535
100
AcDbEntity
  8
TABELLA
  6
CONTINUOUS
100
AcDbText
 10
197.026704
 20
230.800736
 30
0.0
 40
4.0
  1
G
100
AcDbText
  0
TEXT
  5
536
100
AcDbEntity
  8
TABELLA
  6
CONTINUOUS
100
AcDbText
 10
195.209894
 20
155.7956
 30
0.0
 40
2.0
  1
Control.
 50
90.0
100
AcDbText
  0
TEXT
  5
537
100
AcDbEntity
  8
TABELLA
  6
CONTINUOUS
100
AcDbText
 10
195.209894
 20
146.028502
 30
0.0
 40
2.0
  1
Firma
 50
90.0
100
AcDbText
  0
LINE
  5
538
100
AcDbEntity
  8
TABELLA
  6
CONTINUOUS
100
AcDbLine
 10
191.781227
 20
145.387241
 30
0.0
 11
195.782064
 21
145.387241
 31
0.0
  0
LINE
  5
539
100
AcDbEntity
  8
TABELLA
  6
CONTINUOUS
100
AcDbLine
 10
191.781227
 20
155.387241
 30
0.0
 11
195.782064
 21
155.387241
 31
0.0
  0
LINE
  5
53A
100
AcDbEntity
  8
TABELLA
  6
CONTINUOUS
100
AcDbLine
 10
191.781227
 20
165.387241
 30
0.0
 11
195.782064
 21
165.387241
 31
0.0
  0
LINE
  5
53B
100
AcDbEntity
  8
TABELLA
  6
CONTINUOUS
100
AcDbLine
 10
195.782064
 20
143.887067
 30
0.0
 11
200.782064
 21
146.387067
 31
0.0
  0
LINE
  5
53C
100
AcDbEntity
  8
TABELLA
  6
CONTINUOUS
100
AcDbLine
 10
195.782064
 20
143.887067
 30
0.0
 11
200.782064
 21
143.887067
 31
0.0
  0
LINE
  5
53D
100
AcDbEntity
  8
TABELLA
  6
CONTINUOUS
100
AcDbLine
 10
200.782064
 20
143.887067
 30
0.0
 11
200.782064
 21
146.387067
 31
0.0
  0
TEXT
  5
53E
100
AcDbEntity
  8
TABELLA
  6
CONTINUOUS
100
AcDbText
 10
197.442859
 20
158.319393
 30
0.0
 40
4.0
  1
E
100
AcDbText
  0
LINE
  5
53F
100
AcDbEntity
  8
TABELLA
  6
CONTINUOUS
100
AcDbLine
 10
195.782064
 20
179.762067
 30
0.0
 11
200.782064
 21
179.762067
 31
0.0
  0
TEXT
  5
540
100
AcDbEntity
  8
TABELLA
  6
CONTINUOUS
100
AcDbText
 10
197.859013
 20
195.309687
 30
0.0
 40
4.0
  1
F
100
AcDbText
  0
LINE
  5
541
100
AcDbEntity
  8
TABELLA
  6
CONTINUOUS
100
AcDbLine
 10
195.782064
 20
215.637067
 30
0.0
 11
200.782064
 21
215.637067
 31
0.0
  0
LINE
  5
542
100
AcDbEntity
  8
TABELLA
  6
CONTINUOUS
100
AcDbLine
 10
167.447064
 20
282.387067
 30
0.0
 11
167.447064
 21
287.387067
 31
0.0
  0
TEXT
  5
543
100
AcDbEntity
  8
TABELLA
  6
CONTINUOUS
100
AcDbText
 10
184.958217
 20
283.250638
 30
0.0
 40
4.0
  1
1
100
AcDbText
  0
LINE
  5
544
100
AcDbEntity
  8
TABELLA
  6
CONTINUOUS
100
AcDbLine
 10
195.782064
 20
282.387067
 30
0.0
 11
195.782064
 21
278.387067
 31
0.0
  0
LINE
  5
545
100
AcDbEntity
  8
TABELLA
  6
CONTINUOUS
100
AcDbLine
 10
195.782064
 20
251.512067
 30
0.0
 11
200.782064
 21
251.512067
 31
0.0
  0
TEXT
  5
546
100
AcDbEntity
  8
TABELLA
  6
CONTINUOUS
100
AcDbText
 10
197.026704
 20
268.206651
 30
0.0
 40
4.0
  1
H
100
AcDbText
  0
ENDBLK
  5
548
100
AcDbEntity
  8
QUOTE
100
AcDbBlockEnd
  0
BLOCK
  5
564
100
AcDbEntity
  8
0
100
AcDbBlockBegin
  2
*D2
 70
    65
 10
0.0
 20
0.0
 30
0.0
  3
*D2
  1

  0
LINE
  5
55A
100
AcDbEntity
  8
0
  6
BYBLOCK
 62
     0
100
AcDbLine
 10
93.63638
 20
198.921647
 30
0.0
 11
93.63638
 21
219.61649
 31
0.0
  0
LINE
  5
55B
100
AcDbEntity
  8
0
  6
BYBLOCK
 62
     0
100
AcDbLine
 10
107.63638
 20
198.921647
 30
0.0
 11
107.63638
 21
219.61649
 31
0.0
  0
LINE
  5
55C
100
AcDbEntity
  8
0
  6
BYBLOCK
 62
     0
100
AcDbLine
 10
91.13638
 20
218.36649
 30
0.0
 11
88.63638
 21
218.36649
 31
0.0
  0
LINE
  5
55D
100
AcDbEntity
  8
0
  6
BYBLOCK
 62
     0
100
AcDbLine
 10
110.13638
 20
218.36649
 30
0.0
 11
112.63638
 21
218.36649
 31
0.0
  0
SOLID
  5
55E
100
AcDbEntity
  8
0
  6
BYBLOCK
 62
     0
100
AcDbTrace
 10
91.13638
 20
218.783156
 30
0.0
 11
91.13638
 21
217.949823
 31
0.0
 12
93.63638
 22
218.36649
 32
0.0
 13
93.63638
 23
218.36649
 33
0.0
  0
SOLID
  5
55F
100
AcDbEntity
  8
0
  6
BYBLOCK
 62
     0
100
AcDbTrace
 10
110.13638
 20
218.783156
 30
0.0
 11
110.13638
 21
217.949823
 31
0.0
 12
107.63638
 22
218.36649
 32
0.0
 13
107.63638
 23
218.36649
 33
0.0
  0
MTEXT
  5
560
100
AcDbEntity
  8
0
  6
BYBLOCK
 62
     0
100
AcDbMText
 10
100.63638
 20
220.49149
 30
0.0
 40
3.0
 41
0.0
 71
     5
 72
     1
  1
\A2;14{\H2.400000;±0.01}
  0
POINT
  5
561
100
AcDbEntity
  8
DEFPOINTS
  6
BYBLOCK
 62
     0
100
AcDbPoint
 10
93.63638
 20
198.296647
 30
0.0
  0
POINT
  5
562
100
AcDbEntity
  8
DEFPOINTS
  6
BYBLOCK
 62
     0
100
AcDbPoint
 10
107.63638
 20
198.296647
 30
0.0
  0
POINT
  5
563
100
AcDbEntity
  8
DEFPOINTS
  6
BYBLOCK
 62
     0
100
AcDbPoint
 10
107.63638
 20
218.36649
 30
0.0
  0
ENDBLK
  5
565
100
AcDbEntity
  8
0
100
AcDbBlockEnd
  0
BLOCK
  5
570
100
AcDbEntity
  8
0
100
AcDbBlockBegin
  2
*D3
 70
    65
 10
0.0
 20
0.0
 30
0.0
  3
*D3
  1

  0
LINE
  5
567
100
AcDbEntity
  8
0
  6
BYBLOCK
 62
     0
100
AcDbLine
 10
107.26138
 20
199.296647
 30
0.0
 11
130.179666
 21
199.296647
 31
0.0
  0
LINE
  5
568
100
AcDbEntity
  8
0
  6
BYBLOCK
 62
     0
100
AcDbLine
 10
108.26138
 20
173.296647
 30
0.0
 11
130.179666
 21
173.296647
 31
0.0
  0
LINE
  5
569
100
AcDbEntity
  8
0
  6
BYBLOCK
 62
     0
100
AcDbLine
 10
128.929666
 20
196.796647
 30
0.0
 11
128.929666
 21
175.796647
 31
0.0
  0
SOLID
  5
56A
100
AcDbEntity
  8
0
  6
BYBLOCK
 62
     0
100
AcDbTrace
 10
128.513
 20
196.796647
 30
0.0
 11
129.346333
 21
196.796647
 31
0.0
 12
128.929666
 22
199.296647
 32
0.0
 13
128.929666
 23
199.296647
 33
0.0
  0
SOLID
  5
56B
100
AcDbEntity
  8
0
  6
BYBLOCK
 62
     0
100
AcDbTrace
 10
128.513
 20
175.796647
 30
0.0
 11
129.346333
 21
175.796647
 31
0.0
 12
128.929666
 22
173.296647
 32
0.0
 13
128.929666
 23
173.296647
 33
0.0
  0
MTEXT
  5
56C
100
AcDbEntity
  8
0
  6
BYBLOCK
 62
     0
100
AcDbMText
 10
126.804666
 20
186.296647
 30
0.0
 40
3.0
 41
0.0
 71
     5
 72
     1
  1
\A1;26
 11
0.0
 21
1.0
 31
0.0
  0
POINT
  5
56D
100
AcDbEntity
  8
DEFPOINTS
  6
BYBLOCK
 62
     0
100
AcDbPoint
 10
106.63638
 20
199.296647
 30
0.0
  0
POINT
  5
56E
100
AcDbEntity
  8
DEFPOINTS
  6
BYBLOCK
 62
     0
100
AcDbPoint
 10
107.63638
 20
173.296647
 30
0.0
  0
POINT
  5
56F
100
AcDbEntity
  8
DEFPOINTS
  6
BYBLOCK
 62
     0
100
AcDbPoint
 10
128.929666
 20
173.296647
 30
0.0
  0
ENDBLK
  5
571
100
AcDbEntity
  8
0
100
AcDbBlockEnd
  0
BLOCK
  5
57E
100
AcDbEntity
  8
0
100
AcDbBlockBegin
  2
*D4
 70
    65
 10
0.0
 20
0.0
 30
0.0
  3
*D4
  1

  0
LINE
  5
573
100
AcDbEntity
  8
0
  6
BYBLOCK
 62
     0
100
AcDbLine
 10
107.63638
 20
172.671647
 30
0.0
 11
107.63638
 21
162.653464
 31
0.0
  0
LINE
  5
574
100
AcDbEntity
  8
0
  6
BYBLOCK
 62
     0
100
AcDbLine
 10
108.078322
 20
173.738589
 30
0.0
 11
115.162247
 21
180.822514
 31
0.0
  0
ARC
  5
575
100
AcDbEntity
  8
0
  6
BYBLOCK
 62
     0
100
AcDbCircle
 10
107.63638
 20
173.296647
 30
0.0
 40
9.393183
100
AcDbArc
 50
285.294668
 51
29.705332
  0
SOLID
  5
576
100
AcDbEntity
  8
0
  6
BYBLOCK
 62
     0
100
AcDbTrace
 10
110.169593
 20
163.823191
 30
0.0
 11
110.058697
 21
164.649112
 31
0.0
 12
107.63638
 22
163.903464
 32
0.0
 13
107.63638
 23
163.903464
 33
0.0
  0
SOLID
  5
577
100
AcDbEntity
  8
0
  6
BYBLOCK
 62
     0
100
AcDbTrace
 10
115.463947
 20
177.698541
 30
0.0
 11
116.126377
 21
178.20414
 31
0.0
 12
114.278364
 22
179.938631
 32
0.0
 13
114.278364
 23
179.938631
 33
0.0
  0
MTEXT
  5
578
100
AcDbEntity
  8
0
  6
BYBLOCK
 62
     0
100
AcDbMText
 10
114.351306
 20
170.515234
 30
0.0
 40
3.0
 41
0.0
 71
     5
 72
     1
  1
\A1;135°
 11
0.382683
 21
0.92388
 31
0.0
  0
POINT
  5
579
100
AcDbEntity
  8
DEFPOINTS
  6
BYBLOCK
 62
     0
100
AcDbPoint
 10
114.278364
 20
166.654663
 30
0.0
  0
POINT
  5
57A
100
AcDbEntity
  8
DEFPOINTS
  6
BYBLOCK
 62
     0
100
AcDbPoint
 10
107.63638
 20
198.296647
 30
0.0
  0
POINT
  5
57B
100
AcDbEntity
  8
DEFPOINTS
  6
BYBLOCK
 62
     0
100
AcDbPoint
 10
107.63638
 20
173.296647
 30
0.0
  0
POINT
  5
57C
100
AcDbEntity
  8
DEFPOINTS
  6
BYBLOCK
 62
     0
100
AcDbPoint
 10
104.13638
 20
169.796647
 30
0.0
  0
POINT
  5
57D
100
AcDbEntity
  8
DEFPOINTS
  6
BYBLOCK
 62
     0
100
AcDbPoint
 10
107.63638
 20
173.296647
 30
0.0
  0
ENDBLK
  5
57F
100
AcDbEntity
  8
0
100
AcDbBlockEnd
  0
BLOCK
  5
58A
100
AcDbEntity
  8
0
100
AcDbBlockBegin
  2
*D5
 70
    65
 10
0.0
 20
0.0
 30
0.0
  3
*D5
  1

  0
LINE
  5
581
100
AcDbEntity
  8
0
  6
BYBLOCK
 62
     0
100
AcDbLine
 10
107.26138
 20
199.296647
 30
0.0
 11
142.576265
 21
199.296647
 31
0.0
  0
LINE
  5
582
100
AcDbEntity
  8
0
  6
BYBLOCK
 62
     0
100
AcDbLine
 10
101.26138
 20
104.296647
 30
0.0
 11
142.576265
 21
104.296647
 31
0.0
  0
LINE
  5
583
100
AcDbEntity
  8
0
  6
BYBLOCK
 62
     0
100
AcDbLine
 10
141.326265
 20
196.796647
 30
0.0
 11
141.326265
 21
106.796647
 31
0.0
  0
SOLID
  5
584
100
AcDbEntity
  8
0
  6
BYBLOCK
 62
     0
100
AcDbTrace
 10
140.909598
 20
196.796647
 30
0.0
 11
141.742932
 21
196.796647
 31
0.0
 12
141.326265
 22
199.296647
 32
0.0
 13
141.326265
 23
199.296647
 33
0.0
  0
SOLID
  5
585
100
AcDbEntity
  8
0
  6
BYBLOCK
 62
     0
100
AcDbTrace
 10
140.909598
 20
106.796647
 30
0.0
 11
141.742932
 21
106.796647
 31
0.0
 12
141.326265
 22
104.296647
 32
0.0
 13
141.326265
 23
104.296647
 33
0.0
  0
MTEXT
  5
586
100
AcDbEntity
  8
0
  6
BYBLOCK
 62
     0
100
AcDbMText
 10
137.960556
 20
151.796647
 30
0.0
 40
3.0
 41
0.0
 71
     5
 72
     1
  1
\A2;95{\H2.400000;\S+0.02^  0;}
 11
0.0
 21
1.0
 31
0.0
  0
POINT
  5
587
100
AcDbEntity
  8
DEFPOINTS
  6
BYBLOCK
 62
     0
100
AcDbPoint
 10
106.63638
 20
199.296647
 30
0.0
  0
POINT
  5
588
100
AcDbEntity
  8
DEFPOINTS
  6
BYBLOCK
 62
     0
100
AcDbPoint
 10
100.63638
 20
104.296647
 30
0.0
  0
POINT
  5
589
100
AcDbEntity
  8
DEFPOINTS
  6
BYBLOCK
 62
     0
100
AcDbPoint
 10
141.326265
 20
104.296647
 30
0.0
  0
ENDBLK
  5
58B
100
AcDbEntity
  8
0
100
AcDbBlockEnd
  0
BLOCK
  5
594
100
AcDbEntity
  8
0
100
AcDbBlockBegin
  2
*D6
 70
    65
 10
0.0
 20
0.0
 30
0.0
  3
*D6
  1

  0
LINE
  5
58D
100
AcDbEntity
  8
0
  6
BYBLOCK
 62
     0
100
AcDbLine
 10
101.33519
 20
101.876438
 30
0.0
 11
105.061774
 21
85.770401
 31
0.0
  0
SOLID
  5
58E
100
AcDbEntity
  8
0
  6
BYBLOCK
 62
     0
100
AcDbTrace
 10
101.741132
 20
101.970364
 30
0.0
 11
100.929248
 21
101.782512
 31
0.0
 12
100.771633
 22
104.31209
 32
0.0
 13
100.771633
 23
104.31209
 33
0.0
  0
MTEXT
  5
58F
100
AcDbEntity
  8
0
  6
BYBLOCK
 62
     0
100
AcDbMText
 10
106.132196
 20
90.570847
 30
0.0
 40
3.0
 41
0.0
 71
     5
 72
     1
  1
\A1;R0.6
 11
0.225423
 21
-0.974261
 31
0.0
  0
LINE
  5
590
100
AcDbEntity
  8
0
  6
BYBLOCK
 62
     0
100
AcDbLine
 10
98.13638
 20
104.896647
 30
0.0
 11
103.13638
 21
104.896647
 31
0.0
  0
LINE
  5
591
100
AcDbEntity
  8
0
  6
BYBLOCK
 62
     0
100
AcDbLine
 10
100.63638
 20
102.396647
 30
0.0
 11
100.63638
 21
107.396647
 31
0.0
  0
POINT
  5
592
100
AcDbEntity
  8
DEFPOINTS
  6
BYBLOCK
 62
     0
100
AcDbPoint
 10
100.771633
 20
104.31209
 30
0.0
  0
POINT
  5
593
100
AcDbEntity
  8
DEFPOINTS
  6
BYBLOCK
 62
     0
100
AcDbPoint
 10
100.63638
 20
104.896647
 30
0.0
  0
ENDBLK
  5
595
100
AcDbEntity
  8
0
100
AcDbBlockEnd
  0
BLOCK
  5
5A2
100
AcDbEntity
  8
0
100
AcDbBlockBegin
  2
*D7
 70
    65
 10
0.0
 20
0.0
 30
0.0
  3
*D7
  1

  0
LINE
  5
597
100
AcDbEntity
  8
0
  6
BYBLOCK
 62
     0
100
AcDbLine
 10
100.202218
 20
103.583326
 30
0.0
 11
80.111698
 21
82.778983
 31
0.0
  0
LINE
  5
598
100
AcDbEntity
  8
0
  6
BYBLOCK
 62
     0
100
AcDbLine
 10
101.070541
 20
103.583326
 30
0.0
 11
121.161061
 21
82.778983
 31
0.0
  0
ARC
  5
599
100
AcDbEntity
  8
0
  6
BYBLOCK
 62
     0
100
AcDbCircle
 10
100.63638
 20
104.032913
 30
0.0
 40
28.29644
100
AcDbArc
 50
231.063749
 51
308.936251
  0
SOLID
  5
59A
100
AcDbEntity
  8
0
  6
BYBLOCK
 62
     0
100
AcDbTrace
 10
82.577414
 20
81.710431
 30
0.0
 11
83.12925
 21
82.334868
 31
0.0
 12
80.980021
 22
83.678158
 32
0.0
 13
80.980021
 23
83.678158
 33
0.0
  0
SOLID
  5
59B
100
AcDbEntity
  8
0
  6
BYBLOCK
 62
     0
100
AcDbTrace
 10
118.14351
 20
82.334868
 30
0.0
 11
118.695346
 21
81.710431
 31
0.0
 12
120.292738
 22
83.678158
 32
0.0
 13
120.292738
 23
83.678158
 33
0.0
  0
MTEXT
  5
59C
100
AcDbEntity
  8
0
  6
BYBLOCK
 62
     0
100
AcDbMText
 10
100.876168
 20
77.862572
 30
0.0
 40
3.0
 41
0.0
 71
     5
 72
     1
  1
\A1;88°
 11
0.999958
 21
0.009162
 31
0.0
  0
POINT
  5
59D
100
AcDbEntity
  8
DEFPOINTS
  6
BYBLOCK
 62
     0
100
AcDbPoint
 10
93.471858
 20
76.658507
 30
0.0
  0
POINT
  5
59E
100
AcDbEntity
  8
DEFPOINTS
  6
BYBLOCK
 62
     0
100
AcDbPoint
 10
100.204776
 20
104.479852
 30
0.0
  0
POINT
  5
59F
100
AcDbEntity
  8
DEFPOINTS
  6
BYBLOCK
 62
     0
100
AcDbPoint
 10
101.067984
 20
104.479852
 30
0.0
  0
POINT
  5
5A0
100
AcDbEntity
  8
DEFPOINTS
  6
BYBLOCK
 62
     0
100
AcDbPoint
 10
104.13638
 20
107.657269
 30
0.0
  0
POINT
  5
5A1
100
AcDbEntity
  8
DEFPOINTS
  6
BYBLOCK
 62
     0
100
AcDbPoint
 10
97.13638
 20
107.657269
 30
0.0
  0
ENDBLK
  5
5A3
100
AcDbEntity
  8
0
100
AcDbBlockEnd
  0
BLOCK
  5
5C5
100
AcDbEntity
  8
0
100
AcDbBlockBegin
  2
*X8
 70
    65
 10
0.0
 20
0.0
 30
0.0
  3
*X8
  1

  0
LINE
  5
5A5
100
AcDbEntity
  8
0
 62
     0
100
AcDbLine
 10
99.878539
 20
104.81768
 30
0.0
 11
100.63638
 21
105.575521
 31
0.0
  0
LINE
  5
5A6
100
AcDbEntity
  8
0
 62
     0
100
AcDbLine
 10
100.63638
 20
105.575521
 30
0.0
 11
100.858151
 21
105.797292
 31
0.0
  0
LINE
  5
5A7
100
AcDbEntity
  8
0
 62
     0
100
AcDbLine
 10
99.768245
 20
104.931893
 30
0.0
 11
100.627502
 21
105.791149
 31
0.0
  0
LINE
  5
5A8
100
AcDbEntity
  8
0
 62
     0
100
AcDbLine
 10
99.657952
 20
105.046105
 30
0.0
 11
100.409429
 21
105.797583
 31
0.0
  0
LINE
  5
5A9
100
AcDbEntity
  8
0
 62
     0
100
AcDbLine
 10
99.547658
 20
105.160318
 30
0.0
 11
100.202122
 21
105.814782
 31
0.0
  0
LINE
  5
5AA
100
AcDbEntity
  8
0
 62
     0
100
AcDbLine
 10
99.437364
 20
105.27453
 30
0.0
 11
100.004239
 21
105.841405
 31
0.0
  0
LINE
  5
5AB
100
AcDbEntity
  8
0
 62
     0
100
AcDbLine
 10
99.32707
 20
105.388743
 30
0.0
 11
99.814758
 21
105.876431
 31
0.0
  0
LINE
  5
5AC
100
AcDbEntity
  8
0
 62
     0
100
AcDbLine
 10
99.216776
 20
105.502956
 30
0.0
 11
99.632882
 21
105.919061
 31
0.0
  0
LINE
  5
5AD
100
AcDbEntity
  8
0
 62
     0
100
AcDbLine
 10
99.106483
 20
105.617168
 30
0.0
 11
99.457973
 21
105.968659
 31
0.0
  0
LINE
  5
5AE
100
AcDbEntity
  8
0
 62
     0
100
AcDbLine
 10
98.996189
 20
105.731381
 30
0.0
 11
99.289521
 21
106.024713
 31
0.0
  0
LINE
  5
5AF
100
AcDbEntity
  8
0
 62
     0
100
AcDbLine
 10
98.885895
 20
105.845593
 30
0.0
 11
99.127106
 21
106.086805
 31
0.0
  0
LINE
  5
5B0
100
AcDbEntity
  8
0
 62
     0
100
AcDbLine
 10
98.775601
 20
105.959806
 30
0.0
 11
98.970388
 21
106.154593
 31
0.0
  0
LINE
  5
5B1
100
AcDbEntity
  8
0
 62
     0
100
AcDbLine
 10
98.665307
 20
106.074019
 30
0.0
 11
98.819083
 21
106.227794
 31
0.0
  0
LINE
  5
5B2
100
AcDbEntity
  8
0
 62
     0
100
AcDbLine
 10
98.555013
 20
106.188231
 30
0.0
 11
98.672958
 21
106.306175
 31
0.0
  0
LINE
  5
5B3
100
AcDbEntity
  8
0
 62
     0
100
AcDbLine
 10
98.44472
 20
106.302444
 30
0.0
 11
98.531822
 21
106.389546
 31
0.0
  0
LINE
  5
5B4
100
AcDbEntity
  8
0
 62
     0
100
AcDbLine
 10
98.334426
 20
106.416656
 30
0.0
 11
98.39552
 21
106.47775
 31
0.0
  0
LINE
  5
5B5
100
AcDbEntity
  8
0
 62
     0
100
AcDbLine
 10
98.224132
 20
106.530869
 30
0.0
 11
98.263926
 21
106.570663
 31
0.0
  0
LINE
  5
5B6
100
AcDbEntity
  8
0
 62
     0
100
AcDbLine
 10
98.113838
 20
106.645081
 30
0.0
 11
98.136945
 21
106.668188
 31
0.0
  0
LINE
  5
5B7
100
AcDbEntity
  8
0
 62
     0
100
AcDbLine
 10
98.003544
 20
106.759294
 30
0.0
 11
98.014502
 21
106.770252
 31
0.0
  0
LINE
  5
5B8
100
AcDbEntity
  8
0
 62
     0
100
AcDbLine
 10
97.893251
 20
106.873507
 30
0.0
 11
97.89655
 21
106.876807
 31
0.0
  0
LINE
  5
5B9
100
AcDbEntity
  8
0
 62
     0
100
AcDbLine
 10
97.782957
 20
106.987719
 30
0.0
 11
97.783062
 21
106.987824
 31
0.0
  0
LINE
  5
5BA
100
AcDbEntity
  8
0
 62
     0
100
AcDbLine
 10
99.988833
 20
104.703467
 30
0.0
 11
100.63638
 21
105.351014
 31
0.0
  0
LINE
  5
5BB
100
AcDbEntity
  8
0
 62
     0
100
AcDbLine
 10
100.63638
 20
105.351014
 30
0.0
 11
101.103923
 21
105.818558
 31
0.0
  0
LINE
  5
5BC
100
AcDbEntity
  8
0
 62
     0
100
AcDbLine
 10
100.099127
 20
104.589255
 30
0.0
 11
100.63638
 21
105.126508
 31
0.0
  0
LINE
  5
5BD
100
AcDbEntity
  8
0
 62
     0
100
AcDbLine
 10
100.63638
 20
105.126508
 30
0.0
 11
101.368601
 21
105.858729
 31
0.0
  0
LINE
  5
5BE
100
AcDbEntity
  8
0
 62
     0
100
AcDbLine
 10
100.209447
 20
104.475069
 30
0.0
 11
100.63638
 21
104.902001
 31
0.0
  0
LINE
  5
5BF
100
AcDbEntity
  8
0
 62
     0
100
AcDbLine
 10
100.63638
 20
104.902001
 30
0.0
 11
101.658246
 21
105.923868
 31
0.0
  0
LINE
  5
5C0
100
AcDbEntity
  8
0
 62
     0
100
AcDbLine
 10
100.336086
 20
104.377201
 30
0.0
 11
100.63638
 21
104.677495
 31
0.0
  0
LINE
  5
5C1
100
AcDbEntity
  8
0
 62
     0
100
AcDbLine
 10
100.63638
 20
104.677495
 30
0.0
 11
101.983797
 21
106.024912
 31
0.0
  0
LINE
  5
5C2
100
AcDbEntity
  8
0
 62
     0
100
AcDbLine
 10
100.496558
 20
104.313166
 30
0.0
 11
100.63638
 21
104.452989
 31
0.0
  0
LINE
  5
5C3
100
AcDbEntity
  8
0
 62
     0
100
AcDbLine
 10
100.63638
 20
104.452989
 30
0.0
 11
102.369487
 21
106.186096
 31
0.0
  0
LINE
  5
5C4
100
AcDbEntity
  8
0
 62
     0
100
AcDbLine
 10
100.708949
 20
104.301052
 30
0.0
 11
102.903693
 21
106.495795
 31
0.0
  0
ENDBLK
  5
5C6
100
AcDbEntity
  8
0
100
AcDbBlockEnd
  0
BLOCK
  5
5D2
100
AcDbEntity
  8
0
100
AcDbBlockBegin
  2
*D9
 70
    65
 10
0.0
 20
0.0
 30
0.0
  3
*D9
  1

  0
LINE
  5
5C8
100
AcDbEntity
  8
0
  6
BYBLOCK
 62
     0
100
AcDbLine
 10
97.63638
 20
186.294117
 30
0.0
 11
97.63638
 21
183.966081
 31
0.0
  0
LINE
  5
5C9
100
AcDbEntity
  8
0
  6
BYBLOCK
 62
     0
100
AcDbLine
 10
103.63638
 20
186.050827
 30
0.0
 11
103.63638
 21
183.966081
 31
0.0
  0
LINE
  5
5CA
100
AcDbEntity
  8
0
  6
BYBLOCK
 62
     0
100
AcDbLine
 10
95.13638
 20
185.216081
 30
0.0
 11
92.63638
 21
185.216081
 31
0.0
  0
LINE
  5
5CB
100
AcDbEntity
  8
0
  6
BYBLOCK
 62
     0
100
AcDbLine
 10
106.13638
 20
185.216081
 30
0.0
 11
119.06038
 21
185.216081
 31
0.0
  0
SOLID
  5
5CC
100
AcDbEntity
  8
0
  6
BYBLOCK
 62
     0
100
AcDbTrace
 10
95.13638
 20
185.632748
 30
0.0
 11
95.13638
 21
184.799414
 31
0.0
 12
97.63638
 22
185.216081
 32
0.0
 13
97.63638
 23
185.216081
 33
0.0
  0
SOLID
  5
5CD
100
AcDbEntity
  8
0
  6
BYBLOCK
 62
     0
100
AcDbTrace
 10
106.13638
 20
185.632748
 30
0.0
 11
106.13638
 21
184.799414
 31
0.0
 12
103.63638
 22
185.216081
 32
0.0
 13
103.63638
 23
185.216081
 33
0.0
  0
MTEXT
  5
5CE
100
AcDbEntity
  8
0
  6
BYBLOCK
 62
     0
100
AcDbMText
 10
113.84838
 20
187.341081
 30
0.0
 40
3.0
 41
0.0
 71
     5
 72
     1
  1
\A2;6{\H2.400000;±0.01}
  0
POINT
  5
5CF
100
AcDbEntity
  8
DEFPOINTS
  6
BYBLOCK
 62
     0
100
AcDbPoint
 10
97.63638
 20
186.919117
 30
0.0
  0
POINT
  5
5D0
100
AcDbEntity
  8
DEFPOINTS
  6
BYBLOCK
 62
     0
100
AcDbPoint
 10
103.63638
 20
186.675827
 30
0.0
  0
POINT
  5
5D1
100
AcDbEntity
  8
DEFPOINTS
  6
BYBLOCK
 62
     0
100
AcDbPoint
 10
103.63638
 20
185.216081
 30
0.0
  0
ENDBLK
  5
5D3
100
AcDbEntity
  8
0
100
AcDbBlockEnd
  0
BLOCK
  5
5F1
100
AcDbEntity
  8
QUOTE
100
AcDbBlockBegin
  2
A$C8384
 70
     0
 10
0.0
 20
0.0
 30
0.0
  3
A$C8384
  1

  0
DIMENSION
  5
5D5
100
AcDbEntity
  8
QUOTE
100
AcDbDimension
  2
*D9
 10
45.933487
 20
74.775308
 30
0.0
 11
56.145487
 21
76.900308
 31
0.0
 12
-57.702892
 22
-110.440773
 32
0.0
  3
TOLL-03
100
AcDbAlignedDimension
 13
39.933487
 23
76.478344
 33
0.0
 14
45.933487
 24
76.235053
 34
0.0
100
AcDbRotatedDimension
  0
DIMENSION
  5
5D6
100
AcDbEntity
  8
QUOTE
100
AcDbDimension
  2
*D7
 10
39.433487
 20
32.250386
 30
0.0
 11
43.192746
 21
0.330778
 31
0.0
 12
-57.702892
 22
-75.406883
 32
0.0
 70
   130
  3
STANDARD
100
AcDb2LineAngularDimension
 13
43.365091
 23
29.072969
 33
0.0
 14
46.433487
 24
32.250386
 34
0.0
 15
42.501884
 25
29.072969
 35
0.0
 16
35.768966
 26
1.251624
 36
0.0
  0
DIMENSION
  5
5D7
100
AcDbEntity
  8
QUOTE
100
AcDbDimension
  2
*D6
 10
42.933487
 20
29.489764
 30
0.0
 11
46.358999
 21
14.68494
 31
0.0
 12
-57.702892
 22
-75.406883
 32
0.0
 70
   132
  3
STANDARD
100
AcDbRadialDimension
 15
43.068741
 25
28.905207
 35
0.0
 40
0.0
  0
DIMENSION
  5
5D8
100
AcDbEntity
  8
QUOTE
100
AcDbDimension
  2
*D5
 10
83.623373
 20
28.889764
 30
0.0
 11
80.257664
 21
76.389764
 31
0.0
 12
-57.702892
 22
-75.406883
 32
0.0
  3
TOLL-01
100
AcDbAlignedDimension
 13
48.933487
 23
123.889764
 33
0.0
 14
42.933487
 24
28.889764
 34
0.0
 50
90.0
100
AcDbRotatedDimension
  0
DIMENSION
  5
5D9
100
AcDbEntity
  8
QUOTE
100
AcDbDimension
  2
*D4
 10
49.933487
 20
97.889764
 30
0.0
 11
56.648413
 21
95.10835
 31
0.0
 12
-57.702892
 22
-75.406883
 32
0.0
 70
     2
  3
STANDARD
100
AcDb2LineAngularDimension
 13
49.933487
 23
97.889764
 33
0.0
 14
46.433487
 24
94.389764
 34
0.0
 15
49.933487
 25
122.889764
 35
0.0
 16
56.575471
 26
91.24778
 36
0.0
  0
DIMENSION
  5
5DA
100
AcDbEntity
  8
QUOTE
100
AcDbDimension
  2
*D2
 10
49.933487
 20
142.959606
 30
0.0
 11
42.933487
 21
145.084606
 31
0.0
 12
-57.702892
 22
-75.406883
 32
0.0
  3
TOLL-03
100
AcDbAlignedDimension
 13
35.933487
 23
122.889764
 33
0.0
 14
49.933487
 24
122.889764
 34
0.0
100
AcDbRotatedDimension
  0
LINE
  5
5DB
100
AcDbEntity
  8
DISEGNO
100
AcDbLine
 10
49.933487
 20
97.889764
 30
0.0
 11
45.933487
 21
93.889764
 31
0.0
  0
LINE
  5
5DC
100
AcDbEntity
  8
DISEGNO
100
AcDbLine
 10
46.433487
 20
123.889764
 30
0.0
 11
48.933487
 21
123.889764
 31
0.0
  0
LINE
  5
5DD
100
AcDbEntity
  8
DISEGNO
100
AcDbLine
 10
45.933487
 20
31.732621
 30
0.0
 11
45.933487
 21
93.889764
 31
0.0
  0
LINE
  5
5DE
100
AcDbEntity
  8
DISEGNO
100
AcDbLine
 10
39.933487
 20
31.732621
 30
0.0
 11
39.933487
 21
93.889764
 31
0.0
  0
LINE
  5
5DF
100
AcDbEntity
  8
ASSI
100
AcDbLine
 10
42.933487
 20
23.043818
 30
0.0
 11
42.933487
 21
138.245144
 31
0.0
1001
ACAD
1000
ASC_BOUNDS
1002
{
1070
    19
1005
5E0
1005
5E0
1002
}
  0
INSERT
  5
5E0
100
AcDbEntity
  8
TEMPRA
100
AcDbBlockReference
  2
*X8
 10
-57.702892
 20
-75.406883
 30
0.0
1001
ACAD
1000
HATCH
1002
{
1070
    19
1000
ANSI31
1040
0.05
1040
0.0
1000
ASC_BOUNDS
1070
     2
1070
     1
1070
     4
1005
5E1
1005
5DF
1005
5E2
1005
5E4
1070
     1
1070
     4
1005
5E1
1005
5E3
1005
5E2
1005
5DF
1000
ASC_SEEDPOINT
1011
42.465939
1021
29.947107
1031
0.0
1002
}
  0
ARC
  5
5E1
100
AcDbEntity
  8
TEMPRA
100
AcDbCircle
 10
42.933487
 20
34.384256
 30
0.0
 40
4.0
100
AcDbArc
 50
208.955024
 51
331.044976
1001
ACAD
1000
ASC_BOUNDS
1002
{
1070
    19
1005
5E0
1005
5E0
1002
}
  0
ARC
  5
5E2
100
AcDbEntity
  8
DISEGNO
100
AcDbCircle
 10
42.933487
 20
29.489764
 30
0.0
 40
0.6
100
AcDbArc
 50
224.0
 51
316.0
1001
ACAD
1000
ASC_BOUNDS
1002
{
1070
    19
1005
5E0
1005
5E0
1002
}
  0
LINE
  5
5E3
100
AcDbEntity
  8
DISEGNO
100
AcDbLine
 10
42.501884
 20
29.072969
 30
0.0
 11
39.933487
 21
31.732621
 31
0.0
1001
ACAD
1000
ASC_BOUNDS
1002
{
1070
    19
1005
5E0
1002
}
  0
LINE
  5
5E4
100
AcDbEntity
  8
DISEGNO
100
AcDbLine
 10
43.365091
 20
29.072969
 30
0.0
 11
45.933487
 21
31.732621
 31
0.0
1001
ACAD
1000
ASC_BOUNDS
1002
{
1070
    19
1005
5E0
1002
}
  0
LEADER
  5
5E5
100
AcDbEntity
  8
QUOTE
100
AcDbLeader
  3
STANDARD
 73
     0
 75
     1
 40
3.0
 41
25.74
 76
     3
 10
36.411512
 20
123.367788
 30
0.0
 10
29.38914
 20
131.419997
 30
0.0
 10
26.88914
 20
131.419997
 30
0.0
 77
   256
  0
TEXT
  5
5E6
100
AcDbEntity
  8
QUOTE
100
AcDbText
 10
39.832779
 20
72.350767
 30
0.0
 40
2.5
  1
=  =
 41
1.1
100
AcDbText
  0
LINE
  5
5E7
100
AcDbEntity
  8
DISEGNO
100
AcDbLine
 10
35.933487
 20
122.889764
 30
0.0
 11
35.933487
 21
97.889764
 31
0.0
  0
LINE
  5
5E8
100
AcDbEntity
  8
DISEGNO
100
AcDbLine
 10
35.933487
 20
97.889764
 30
0.0
 11
39.933487
 21
93.889764
 31
0.0
  0
LINE
  5
5E9
100
AcDbEntity
  8
DISEGNO
100
AcDbLine
 10
46.433487
 20
123.889764
 30
0.0
 11
36.933487
 21
123.889764
 31
0.0
  0
LINE
  5
5EA
100
AcDbEntity
  8
DISEGNO
100
AcDbLine
 10
36.933487
 20
123.889764
 30
0.0
 11
35.933487
 21
122.889764
 31
0.0
  0
MTEXT
  5
5EB
100
AcDbEntity
  8
QUOTE
100
AcDbMText
 10
26.26414
 20
132.044997
 30
0.0
 40
3.0
 41
0.0
 71
     9
 72
     1
  1
{N°2 SM 1X45°}
  0
LINE
  5
5EC
100
AcDbEntity
  8
ASSI
100
AcDbLine
 10
42.933487
 20
148.706653
 30
0.0
 11
42.933487
 21
160.25988
 31
0.0
  0
TEXT
  5
5ED
100
AcDbEntity
  8
QUOTE
100
AcDbText
 10
39.589221
 20
140.228929
 30
0.0
 40
2.5
  1
=   =
 41
1.1
100
AcDbText
  0
DIMENSION
  5
5EE
100
AcDbEntity
  8
QUOTE
100
AcDbDimension
  2
*D3
 10
71.226774
 20
97.889764
 30
0.0
 11
69.101774
 21
110.889764
 31
0.0
 12
-57.702892
 22
-75.406883
 32
0.0
  3
STANDARD
100
AcDbAlignedDimension
 13
48.933487
 23
123.889764
 33
0.0
 14
49.933487
 24
97.889764
 34
0.0
 50
90.0
100
AcDbRotatedDimension
  0
LINE
  5
5EF
100
AcDbEntity
  8
DISEGNO
100
AcDbLine
 10
49.933487
 20
122.889764
 30
0.0
 11
49.933487
 21
97.889764
 31
0.0
  0
LINE
  5
5F0
100
AcDbEntity
  8
DISEGNO
100
AcDbLine
 10
48.933487
 20
123.889764
 30
0.0
 11
49.933487
 21
122.889764
 31
0.0
  0
ENDBLK
  5
5F2
100
AcDbEntity
  8
QUOTE
100
AcDbBlockEnd
  0
BLOCK
  5
86B
100
AcDbEntity
  8
0
100
AcDbBlockBegin
  2
*D11
 70
    65
 10
0.0
 20
0.0
 30
0.0
  3
*D11
  1

  0
LINE
  5
86C
100
AcDbEntity
  8
0
  6
BYBLOCK
 62
     0
100
AcDbLine
 10
-1815.081858
 20
-1496.398618
 30
0.0
 11
-1815.081858
 21
-1498.726654
 31
0.0
  0
LINE
  5
86D
100
AcDbEntity
  8
0
  6
BYBLOCK
 62
     0
100
AcDbLine
 10
-1809.081858
 20
-1496.641909
 30
0.0
 11
-1809.081858
 21
-1498.726654
 31
0.0
  0
LINE
  5
86E
100
AcDbEntity
  8
0
  6
BYBLOCK
 62
     0
100
AcDbLine
 10
-1817.581858
 20
-1497.476654
 30
0.0
 11
-1820.081858
 21
-1497.476654
 31
0.0
  0
LINE
  5
86F
100
AcDbEntity
  8
0
  6
BYBLOCK
 62
     0
100
AcDbLine
 10
-1806.581858
 20
-1497.476654
 30
0.0
 11
-1793.020506
 21
-1497.476654
 31
0.0
  0
SOLID
  5
870
100
AcDbEntity
  8
0
  6
BYBLOCK
 62
     0
100
AcDbTrace
 10
-1817.581858
 20
-1497.059987
 30
0.0
 11
-1817.581858
 21
-1497.893321
 31
0.0
 12
-1815.081858
 22
-1497.476654
 32
0.0
 13
-1815.081858
 23
-1497.476654
 33
0.0
  0
SOLID
  5
871
100
AcDbEntity
  8
0
  6
BYBLOCK
 62
     0
100
AcDbTrace
 10
-1806.581858
 20
-1497.059987
 30
0.0
 11
-1806.581858
 21
-1497.893321
 31
0.0
 12
-1809.081858
 22
-1497.476654
 32
0.0
 13
-1809.081858
 23
-1497.476654
 33
0.0
  0
MTEXT
  5
872
100
AcDbEntity
  8
0
  6
BYBLOCK
 62
     0
100
AcDbMText
 10
-1798.551182
 20
-1495.351654
 30
0.0
 40
3.0
 41
0.0
 71
     5
 72
     1
  1
\A2;6{\H2.400000;±0.05}
  0
POINT
  5
873
100
AcDbEntity
  8
DEFPOINTS
  6
BYBLOCK
 62
     0
100
AcDbPoint
 10
-1815.081858
 20
-1495.773618
 30
0.0
  0
POINT
  5
874
100
AcDbEntity
  8
DEFPOINTS
  6
BYBLOCK
 62
     0
100
AcDbPoint
 10
-1809.081858
 20
-1496.016909
 30
0.0
  0
POINT
  5
875
100
AcDbEntity
  8
DEFPOINTS
  6
BYBLOCK
 62
     0
100
AcDbPoint
 10
-1809.081858
 20
-1497.476654
 30
0.0
  0
ENDBLK
  5
876
100
AcDbEntity
  8
0
100
AcDbBlockEnd
  0
BLOCK
  5
695
100
AcDbEntity
  8
0
100
AcDbBlockBegin
  2
*D12
 70
    65
 10
0.0
 20
0.0
 30
0.0
  3
*D12
  1

  0
LINE
  5
696
100
AcDbEntity
  8
0
  6
BYBLOCK
 62
     0
100
AcDbLine
 10
-1821.647674
 20
-1487.717528
 30
0.0
 11
-1821.647674
 21
-1497.735712
 31
0.0
  0
LINE
  5
697
100
AcDbEntity
  8
0
  6
BYBLOCK
 62
     0
100
AcDbLine
 10
-1821.205732
 20
-1486.650587
 30
0.0
 11
-1814.121807
 21
-1479.566661
 31
0.0
  0
ARC
  5
698
100
AcDbEntity
  8
0
  6
BYBLOCK
 62
     0
100
AcDbCircle
 10
-1821.647674
 20
-1487.092528
 30
0.0
 40
9.393183
100
AcDbArc
 50
285.294668
 51
29.705332
  0
SOLID
  5
699
100
AcDbEntity
  8
0
  6
BYBLOCK
 62
     0
100
AcDbTrace
 10
-1819.114461
 20
-1496.565985
 30
0.0
 11
-1819.225357
 21
-1495.740063
 31
0.0
 12
-1821.647674
 22
-1496.485712
 32
0.0
 13
-1821.647674
 23
-1496.485712
 33
0.0
  0
SOLID
  5
69A
100
AcDbEntity
  8
0
  6
BYBLOCK
 62
     0
100
AcDbTrace
 10
-1813.820107
 20
-1482.690635
 30
0.0
 11
-1813.157677
 21
-1482.185035
 31
0.0
 12
-1815.00569
 22
-1480.450545
 32
0.0
 13
-1815.00569
 23
-1480.450545
 33
0.0
  0
MTEXT
  5
69B
100
AcDbEntity
  8
0
  6
BYBLOCK
 62
     0
100
AcDbMText
 10
-1814.932748
 20
-1489.873942
 30
0.0
 40
3.0
 41
0.0
 71
     5
 72
     1
  1
\A1;135°
 11
0.382683
 21
0.92388
 31
0.0
  0
POINT
  5
69C
100
AcDbEntity
  8
DEFPOINTS
  6
BYBLOCK
 62
     0
100
AcDbPoint
 10
-1815.00569
 20
-1493.734512
 30
0.0
  0
POINT
  5
69D
100
AcDbEntity
  8
DEFPOINTS
  6
BYBLOCK
 62
     0
100
AcDbPoint
 10
-1821.647674
 20
-1462.092528
 30
0.0
  0
POINT
  5
69E
100
AcDbEntity
  8
DEFPOINTS
  6
BYBLOCK
 62
     0
100
AcDbPoint
 10
-1821.647674
 20
-1487.092528
 30
0.0
  0
POINT
  5
69F
100
AcDbEntity
  8
DEFPOINTS
  6
BYBLOCK
 62
     0
100
AcDbPoint
 10
-1825.147674
 20
-1490.592528
 30
0.0
  0
POINT
  5
6A0
100
AcDbEntity
  8
DEFPOINTS
  6
BYBLOCK
 62
     0
100
AcDbPoint
 10
-1821.647674
 20
-1487.092528
 30
0.0
  0
ENDBLK
  5
6A1
100
AcDbEntity
  8
0
100
AcDbBlockEnd
  0
BLOCK
  5
6AE
100
AcDbEntity
  8
0
100
AcDbBlockBegin
  2
*D13
 70
    65
 10
0.0
 20
0.0
 30
0.0
  3
*D13
  1

  0
LINE
  5
6AF
100
AcDbEntity
  8
0
  6
BYBLOCK
 62
     0
100
AcDbLine
 10
-1822.022674
 20
-1461.092528
 30
0.0
 11
-1799.104388
 21
-1461.092528
 31
0.0
  0
LINE
  5
6B0
100
AcDbEntity
  8
0
  6
BYBLOCK
 62
     0
100
AcDbLine
 10
-1821.022674
 20
-1487.092528
 30
0.0
 11
-1799.104388
 21
-1487.092528
 31
0.0
  0
LINE
  5
6B1
100
AcDbEntity
  8
0
  6
BYBLOCK
 62
     0
100
AcDbLine
 10
-1800.354388
 20
-1463.592528
 30
0.0
 11
-1800.354388
 21
-1484.592528
 31
0.0
  0
SOLID
  5
6B2
100
AcDbEntity
  8
0
  6
BYBLOCK
 62
     0
100
AcDbTrace
 10
-1800.771054
 20
-1463.592528
 30
0.0
 11
-1799.937721
 21
-1463.592528
 31
0.0
 12
-1800.354388
 22
-1461.092528
 32
0.0
 13
-1800.354388
 23
-1461.092528
 33
0.0
  0
SOLID
  5
6B3
100
AcDbEntity
  8
0
  6
BYBLOCK
 62
     0
100
AcDbTrace
 10
-1800.771054
 20
-1484.592528
 30
0.0
 11
-1799.937721
 21
-1484.592528
 31
0.0
 12
-1800.354388
 22
-1487.092528
 32
0.0
 13
-1800.354388
 23
-1487.092528
 33
0.0
  0
MTEXT
  5
6B4
100
AcDbEntity
  8
0
  6
BYBLOCK
 62
     0
100
AcDbMText
 10
-1802.479388
 20
-1474.092528
 30
0.0
 40
3.0
 41
0.0
 71
     5
 72
     1
  1
\A1;26
 11
0.0
 21
1.0
 31
0.0
  0
POINT
  5
6B5
100
AcDbEntity
  8
DEFPOINTS
  6
BYBLOCK
 62
     0
100
AcDbPoint
 10
-1822.647674
 20
-1461.092528
 30
0.0
  0
POINT
  5
6B6
100
AcDbEntity
  8
DEFPOINTS
  6
BYBLOCK
 62
     0
100
AcDbPoint
 10
-1821.647674
 20
-1487.092528
 30
0.0
  0
POINT
  5
6B7
100
AcDbEntity
  8
DEFPOINTS
  6
BYBLOCK
 62
     0
100
AcDbPoint
 10
-1800.354388
 20
-1487.092528
 30
0.0
  0
ENDBLK
  5
6B8
100
AcDbEntity
  8
0
100
AcDbBlockEnd
  0
BLOCK
  5
738
100
AcDbEntity
  8
0
100
AcDbBlockBegin
  2
*D14
 70
    65
 10
0.0
 20
0.0
 30
0.0
  3
*D14
  1

  0
LINE
  5
739
100
AcDbEntity
  8
0
  6
BYBLOCK
 62
     0
100
AcDbLine
 10
-1848.647674
 20
-1430.467528
 30
0.0
 11
-1848.647674
 21
-1411.50966
 31
0.0
  0
LINE
  5
73A
100
AcDbEntity
  8
0
  6
BYBLOCK
 62
     0
100
AcDbLine
 10
-1835.647674
 20
-1430.467528
 30
0.0
 11
-1835.647674
 21
-1411.50966
 31
0.0
  0
LINE
  5
73B
100
AcDbEntity
  8
0
  6
BYBLOCK
 62
     0
100
AcDbLine
 10
-1838.147674
 20
-1412.75966
 30
0.0
 11
-1846.147674
 21
-1412.75966
 31
0.0
  0
LINE
  5
73C
100
AcDbEntity
  8
0
  6
BYBLOCK
 62
     0
100
AcDbLine
 10
-1848.647674
 20
-1412.75966
 30
0.0
 11
-1870.192979
 21
-1412.75966
 31
0.0
  0
SOLID
  5
73D
100
AcDbEntity
  8
0
  6
BYBLOCK
 62
     0
100
AcDbTrace
 10
-1838.147674
 20
-1412.342993
 30
0.0
 11
-1838.147674
 21
-1413.176327
 31
0.0
 12
-1835.647674
 22
-1412.75966
 32
0.0
 13
-1835.647674
 23
-1412.75966
 33
0.0
  0
SOLID
  5
73E
100
AcDbEntity
  8
0
  6
BYBLOCK
 62
     0
100
AcDbTrace
 10
-1846.147674
 20
-1412.342993
 30
0.0
 11
-1846.147674
 21
-1413.176327
 31
0.0
 12
-1848.647674
 22
-1412.75966
 32
0.0
 13
-1848.647674
 23
-1412.75966
 33
0.0
  0
MTEXT
  5
73F
100
AcDbEntity
  8
0
  6
BYBLOCK
 62
     0
100
AcDbMText
 10
-1863.495979
 20
-1409.393951
 30
0.0
 40
3.0
 41
0.0
 71
     5
 72
     1
  1
\A2;13{\H2.400000;\S+0.02^  0;}
  0
POINT
  5
740
100
AcDbEntity
  8
DEFPOINTS
  6
BYBLOCK
 62
     0
100
AcDbPoint
 10
-1848.647674
 20
-1431.092528
 30
0.0
  0
POINT
  5
741
100
AcDbEntity
  8
DEFPOINTS
  6
BYBLOCK
 62
     0
100
AcDbPoint
 10
-1835.647674
 20
-1431.092528
 30
0.0
  0
POINT
  5
742
100
AcDbEntity
  8
DEFPOINTS
  6
BYBLOCK
 62
     0
100
AcDbPoint
 10
-1835.647674
 20
-1412.75966
 30
0.0
  0
ENDBLK
  5
743
100
AcDbEntity
  8
0
100
AcDbBlockEnd
  0
BLOCK
  5
6D2
100
AcDbEntity
  8
0
100
AcDbBlockBegin
  2
*D15
 70
    65
 10
0.0
 20
0.0
 30
0.0
  3
*D15
  1

  0
LINE
  5
6D3
100
AcDbEntity
  8
0
  6
BYBLOCK
 62
     0
100
AcDbLine
 10
-1848.647674
 20
-1430.467528
 30
0.0
 11
-1848.647674
 21
-1398.947613
 31
0.0
  0
LINE
  5
6D4
100
AcDbEntity
  8
0
  6
BYBLOCK
 62
     0
100
AcDbLine
 10
-1821.647674
 20
-1461.467528
 30
0.0
 11
-1821.647674
 21
-1398.947613
 31
0.0
  0
LINE
  5
6D5
100
AcDbEntity
  8
0
  6
BYBLOCK
 62
     0
100
AcDbLine
 10
-1846.147674
 20
-1400.197613
 30
0.0
 11
-1824.147674
 21
-1400.197613
 31
0.0
  0
SOLID
  5
6D6
100
AcDbEntity
  8
0
  6
BYBLOCK
 62
     0
100
AcDbTrace
 10
-1846.147674
 20
-1399.780947
 30
0.0
 11
-1846.147674
 21
-1400.61428
 31
0.0
 12
-1848.647674
 22
-1400.197613
 32
0.0
 13
-1848.647674
 23
-1400.197613
 33
0.0
  0
SOLID
  5
6D7
100
AcDbEntity
  8
0
  6
BYBLOCK
 62
     0
100
AcDbTrace
 10
-1824.147674
 20
-1399.780947
 30
0.0
 11
-1824.147674
 21
-1400.61428
 31
0.0
 12
-1821.647674
 22
-1400.197613
 32
0.0
 13
-1821.647674
 23
-1400.197613
 33
0.0
  0
MTEXT
  5
6D8
100
AcDbEntity
  8
0
  6
BYBLOCK
 62
     0
100
AcDbMText
 10
-1835.147674
 20
-1398.072613
 30
0.0
 40
3.0
 41
0.0
 71
     5
 72
     1
  1
\A1;27
  0
POINT
  5
6D9
100
AcDbEntity
  8
DEFPOINTS
  6
BYBLOCK
 62
     0
100
AcDbPoint
 10
-1848.647674
 20
-1431.092528
 30
0.0
  0
POINT
  5
6DA
100
AcDbEntity
  8
DEFPOINTS
  6
BYBLOCK
 62
     0
100
AcDbPoint
 10
-1821.647674
 20
-1462.092528
 30
0.0
  0
POINT
  5
6DB
100
AcDbEntity
  8
DEFPOINTS
  6
BYBLOCK
 62
     0
100
AcDbPoint
 10
-1821.647674
 20
-1400.197613
 30
0.0
  0
ENDBLK
  5
6DC
100
AcDbEntity
  8
0
100
AcDbBlockEnd
  0
BLOCK
  5
6DF
100
AcDbEntity
  8
0
100
AcDbBlockBegin
  2
*D16
 70
    65
 10
0.0
 20
0.0
 30
0.0
  3
*D16
  1

  0
LINE
  5
6E0
100
AcDbEntity
  8
0
  6
BYBLOCK
 62
     0
100
AcDbLine
 10
-1835.022674
 20
-1431.092528
 30
0.0
 11
-1786.850774
 21
-1431.092528
 31
0.0
  0
LINE
  5
6E1
100
AcDbEntity
  8
0
  6
BYBLOCK
 62
     0
100
AcDbLine
 10
-1822.022674
 20
-1461.092528
 30
0.0
 11
-1786.850774
 21
-1461.092528
 31
0.0
  0
LINE
  5
6E2
100
AcDbEntity
  8
0
  6
BYBLOCK
 62
     0
100
AcDbLine
 10
-1788.100774
 20
-1433.592528
 30
0.0
 11
-1788.100774
 21
-1458.592528
 31
0.0
  0
SOLID
  5
6E3
100
AcDbEntity
  8
0
  6
BYBLOCK
 62
     0
100
AcDbTrace
 10
-1788.517441
 20
-1433.592528
 30
0.0
 11
-1787.684108
 21
-1433.592528
 31
0.0
 12
-1788.100774
 22
-1431.092528
 32
0.0
 13
-1788.100774
 23
-1431.092528
 33
0.0
  0
SOLID
  5
6E4
100
AcDbEntity
  8
0
  6
BYBLOCK
 62
     0
100
AcDbTrace
 10
-1788.517441
 20
-1458.592528
 30
0.0
 11
-1787.684108
 21
-1458.592528
 31
0.0
 12
-1788.100774
 22
-1461.092528
 32
0.0
 13
-1788.100774
 23
-1461.092528
 33
0.0
  0
MTEXT
  5
6E5
100
AcDbEntity
  8
0
  6
BYBLOCK
 62
     0
100
AcDbMText
 10
-1790.225774
 20
-1446.092528
 30
0.0
 40
3.0
 41
0.0
 71
     5
 72
     1
  1
\A1;30
 11
0.0
 21
1.0
 31
0.0
  0
POINT
  5
6E6
100
AcDbEntity
  8
DEFPOINTS
  6
BYBLOCK
 62
     0
100
AcDbPoint
 10
-1835.647674
 20
-1431.092528
 30
0.0
  0
POINT
  5
6E7
100
AcDbEntity
  8
DEFPOINTS
  6
BYBLOCK
 62
     0
100
AcDbPoint
 10
-1822.647674
 20
-1461.092528
 30
0.0
  0
POINT
  5
6E8
100
AcDbEntity
  8
DEFPOINTS
  6
BYBLOCK
 62
     0
100
AcDbPoint
 10
-1788.100774
 20
-1461.092528
 30
0.0
  0
ENDBLK
  5
6E9
100
AcDbEntity
  8
0
100
AcDbBlockEnd
  0
BLOCK
  5
6F9
100
AcDbEntity
  8
0
100
AcDbBlockBegin
  2
*D17
 70
    65
 10
0.0
 20
0.0
 30
0.0
  3
*D17
  1

  0
LINE
  5
6FA
100
AcDbEntity
  8
0
  6
BYBLOCK
 62
     0
100
AcDbLine
 10
-1849.272674
 20
-1431.092528
 30
0.0
 11
-1864.231843
 21
-1431.092528
 31
0.0
  0
LINE
  5
6FB
100
AcDbEntity
  8
0
  6
BYBLOCK
 62
     0
100
AcDbLine
 10
-1849.272674
 20
-1448.092528
 30
0.0
 11
-1864.231843
 21
-1448.092528
 31
0.0
  0
LINE
  5
6FC
100
AcDbEntity
  8
0
  6
BYBLOCK
 62
     0
100
AcDbLine
 10
-1862.981843
 20
-1433.592528
 30
0.0
 11
-1862.981843
 21
-1445.592528
 31
0.0
  0
SOLID
  5
6FD
100
AcDbEntity
  8
0
  6
BYBLOCK
 62
     0
100
AcDbTrace
 10
-1863.398509
 20
-1433.592528
 30
0.0
 11
-1862.565176
 21
-1433.592528
 31
0.0
 12
-1862.981843
 22
-1431.092528
 32
0.0
 13
-1862.981843
 23
-1431.092528
 33
0.0
  0
SOLID
  5
6FE
100
AcDbEntity
  8
0
  6
BYBLOCK
 62
     0
100
AcDbTrace
 10
-1863.398509
 20
-1445.592528
 30
0.0
 11
-1862.565176
 21
-1445.592528
 31
0.0
 12
-1862.981843
 22
-1448.092528
 32
0.0
 13
-1862.981843
 23
-1448.092528
 33
0.0
  0
MTEXT
  5
6FF
100
AcDbEntity
  8
0
  6
BYBLOCK
 62
     0
100
AcDbMText
 10
-1865.106843
 20
-1439.592528
 30
0.0
 40
3.0
 41
0.0
 71
     5
 72
     1
  1
\A1;17
 11
0.0
 21
1.0
 31
0.0
  0
POINT
  5
700
100
AcDbEntity
  8
DEFPOINTS
  6
BYBLOCK
 62
     0
100
AcDbPoint
 10
-1848.647674
 20
-1431.092528
 30
0.0
  0
POINT
  5
701
100
AcDbEntity
  8
DEFPOINTS
  6
BYBLOCK
 62
     0
100
AcDbPoint
 10
-1848.647674
 20
-1448.092528
 30
0.0
  0
POINT
  5
702
100
AcDbEntity
  8
DEFPOINTS
  6
BYBLOCK
 62
     0
100
AcDbPoint
 10
-1862.981843
 20
-1448.092528
 30
0.0
  0
ENDBLK
  5
703
100
AcDbEntity
  8
0
100
AcDbBlockEnd
  0
BLOCK
  5
706
100
AcDbEntity
  8
0
100
AcDbBlockBegin
  2
*D18
 70
    65
 10
0.0
 20
0.0
 30
0.0
  3
*D18
  1

  0
LINE
  5
707
100
AcDbEntity
  8
0
  6
BYBLOCK
 62
     0
100
AcDbLine
 10
-1849.272674
 20
-1448.092528
 30
0.0
 11
-1864.231843
 21
-1448.092528
 31
0.0
  0
LINE
  5
708
100
AcDbEntity
  8
0
  6
BYBLOCK
 62
     0
100
AcDbLine
 10
-1849.272674
 20
-1456.492528
 30
0.0
 11
-1864.231843
 21
-1456.492528
 31
0.0
  0
LINE
  5
709
100
AcDbEntity
  8
0
  6
BYBLOCK
 62
     0
100
AcDbLine
 10
-1862.981843
 20
-1445.592528
 30
0.0
 11
-1862.981843
 21
-1443.092528
 31
0.0
  0
LINE
  5
70A
100
AcDbEntity
  8
0
  6
BYBLOCK
 62
     0
100
AcDbLine
 10
-1862.981843
 20
-1458.992528
 30
0.0
 11
-1862.981843
 21
-1461.492528
 31
0.0
  0
SOLID
  5
70B
100
AcDbEntity
  8
0
  6
BYBLOCK
 62
     0
100
AcDbTrace
 10
-1863.398509
 20
-1445.592528
 30
0.0
 11
-1862.565176
 21
-1445.592528
 31
0.0
 12
-1862.981843
 22
-1448.092528
 32
0.0
 13
-1862.981843
 23
-1448.092528
 33
0.0
  0
SOLID
  5
70C
100
AcDbEntity
  8
0
  6
BYBLOCK
 62
     0
100
AcDbTrace
 10
-1863.398509
 20
-1458.992528
 30
0.0
 11
-1862.565176
 21
-1458.992528
 31
0.0
 12
-1862.981843
 22
-1456.492528
 32
0.0
 13
-1862.981843
 23
-1456.492528
 33
0.0
  0
MTEXT
  5
70D
100
AcDbEntity
  8
0
  6
BYBLOCK
 62
     0
100
AcDbMText
 10
-1865.106843
 20
-1452.292528
 30
0.0
 40
3.0
 41
0.0
 71
     5
 72
     1
  1
\A1;8.4
 11
0.0
 21
1.0
 31
0.0
  0
POINT
  5
70E
100
AcDbEntity
  8
DEFPOINTS
  6
BYBLOCK
 62
     0
100
AcDbPoint
 10
-1848.647674
 20
-1448.092528
 30
0.0
  0
POINT
  5
70F
100
AcDbEntity
  8
DEFPOINTS
  6
BYBLOCK
 62
     0
100
AcDbPoint
 10
-1848.647674
 20
-1456.492528
 30
0.0
  0
POINT
  5
710
100
AcDbEntity
  8
DEFPOINTS
  6
BYBLOCK
 62
     0
100
AcDbPoint
 10
-1862.981843
 20
-1456.492528
 30
0.0
  0
ENDBLK
  5
711
100
AcDbEntity
  8
0
100
AcDbBlockEnd
  0
BLOCK
  5
88E
100
AcDbEntity
  8
0
100
AcDbBlockBegin
  2
*D19
 70
    65
 10
0.0
 20
0.0
 30
0.0
  3
*D19
  1

  0
LINE
  5
88F
100
AcDbEntity
  8
0
  6
BYBLOCK
 62
     0
100
AcDbLine
 10
-1828.581858
 20
-1434.737198
 30
0.0
 11
-1828.581858
 21
-1425.252232
 31
0.0
  0
LINE
  5
890
100
AcDbEntity
  8
0
  6
BYBLOCK
 62
     0
100
AcDbLine
 10
-1832.081858
 20
-1434.737198
 30
0.0
 11
-1832.081858
 21
-1425.252232
 31
0.0
  0
LINE
  5
891
100
AcDbEntity
  8
0
  6
BYBLOCK
 62
     0
100
AcDbLine
 10
-1826.081858
 20
-1426.502232
 30
0.0
 11
-1823.581858
 21
-1426.502232
 31
0.0
  0
LINE
  5
892
100
AcDbEntity
  8
0
  6
BYBLOCK
 62
     0
100
AcDbLine
 10
-1834.581858
 20
-1426.502232
 30
0.0
 11
-1843.088548
 21
-1426.502232
 31
0.0
  0
SOLID
  5
893
100
AcDbEntity
  8
0
  6
BYBLOCK
 62
     0
100
AcDbTrace
 10
-1826.081858
 20
-1426.085565
 30
0.0
 11
-1826.081858
 21
-1426.918899
 31
0.0
 12
-1828.581858
 22
-1426.502232
 32
0.0
 13
-1828.581858
 23
-1426.502232
 33
0.0
  0
SOLID
  5
894
100
AcDbEntity
  8
0
  6
BYBLOCK
 62
     0
100
AcDbTrace
 10
-1834.581858
 20
-1426.085565
 30
0.0
 11
-1834.581858
 21
-1426.918899
 31
0.0
 12
-1832.081858
 22
-1426.502232
 32
0.0
 13
-1832.081858
 23
-1426.502232
 33
0.0
  0
MTEXT
  5
895
100
AcDbEntity
  8
0
  6
BYBLOCK
 62
     0
100
AcDbMText
 10
-1840.085203
 20
-1424.377232
 30
0.0
 40
3.0
 41
0.0
 71
     5
 72
     1
  1
\A1;3.5
  0
POINT
  5
896
100
AcDbEntity
  8
DEFPOINTS
  6
BYBLOCK
 62
     0
100
AcDbPoint
 10
-1828.581858
 20
-1435.362198
 30
0.0
  0
POINT
  5
897
100
AcDbEntity
  8
DEFPOINTS
  6
BYBLOCK
 62
     0
100
AcDbPoint
 10
-1832.081858
 20
-1435.362198
 30
0.0
  0
POINT
  5
898
100
AcDbEntity
  8
DEFPOINTS
  6
BYBLOCK
 62
     0
100
AcDbPoint
 10
-1832.081858
 20
-1426.502232
 30
0.0
  0
ENDBLK
  5
899
100
AcDbEntity
  8
0
100
AcDbBlockEnd
  0
BLOCK
  5
76A
100
AcDbEntity
  8
0
100
AcDbBlockBegin
  2
*D20
 70
    65
 10
0.0
 20
0.0
 30
0.0
  3
*D20
  1

  0
LINE
  5
76B
100
AcDbEntity
  8
0
  6
BYBLOCK
 62
     0
100
AcDbLine
 10
-1835.647674
 20
-1430.467528
 30
0.0
 11
-1835.647674
 21
-1411.50966
 31
0.0
  0
LINE
  5
76C
100
AcDbEntity
  8
0
  6
BYBLOCK
 62
     0
100
AcDbLine
 10
-1828.647674
 20
-1424.097412
 30
0.0
 11
-1828.647674
 21
-1411.50966
 31
0.0
  0
LINE
  5
76D
100
AcDbEntity
  8
0
  6
BYBLOCK
 62
     0
100
AcDbLine
 10
-1833.147674
 20
-1412.75966
 30
0.0
 11
-1831.147674
 21
-1412.75966
 31
0.0
  0
LINE
  5
76E
100
AcDbEntity
  8
0
  6
BYBLOCK
 62
     0
100
AcDbLine
 10
-1828.647674
 20
-1412.75966
 30
0.0
 11
-1802.85222
 21
-1412.75966
 31
0.0
  0
SOLID
  5
76F
100
AcDbEntity
  8
0
  6
BYBLOCK
 62
     0
100
AcDbTrace
 10
-1833.147674
 20
-1412.342993
 30
0.0
 11
-1833.147674
 21
-1413.176327
 31
0.0
 12
-1835.647674
 22
-1412.75966
 32
0.0
 13
-1835.647674
 23
-1412.75966
 33
0.0
  0
SOLID
  5
770
100
AcDbEntity
  8
0
  6
BYBLOCK
 62
     0
100
AcDbTrace
 10
-1831.147674
 20
-1412.342993
 30
0.0
 11
-1831.147674
 21
-1413.176327
 31
0.0
 12
-1828.647674
 22
-1412.75966
 32
0.0
 13
-1828.647674
 23
-1412.75966
 33
0.0
  0
MTEXT
  5
771
100
AcDbEntity
  8
0
  6
BYBLOCK
 62
     0
100
AcDbMText
 10
-1808.06422
 20
-1410.63466
 30
0.0
 40
3.0
 41
0.0
 71
     5
 72
     1
  1
\A2;7{\H2.400000;±0.01}
  0
POINT
  5
772
100
AcDbEntity
  8
DEFPOINTS
  6
BYBLOCK
 62
     0
100
AcDbPoint
 10
-1835.647674
 20
-1431.092528
 30
0.0
  0
POINT
  5
773
100
AcDbEntity
  8
DEFPOINTS
  6
BYBLOCK
 62
     0
100
AcDbPoint
 10
-1828.647674
 20
-1424.722412
 30
0.0
  0
POINT
  5
774
100
AcDbEntity
  8
DEFPOINTS
  6
BYBLOCK
 62
     0
100
AcDbPoint
 10
-1828.647674
 20
-1412.75966
 30
0.0
  0
ENDBLK
  5
775
100
AcDbEntity
  8
0
100
AcDbBlockEnd
  0
BLOCK
  5
7E6
100
AcDbEntity
  8
0
100
AcDbBlockBegin
  2
*D21
 70
    65
 10
0.0
 20
0.0
 30
0.0
  3
*D21
  1

  0
LINE
  5
7E7
100
AcDbEntity
  8
0
  6
BYBLOCK
 62
     0
100
AcDbLine
 10
-1829.081836
 20
-1556.652005
 30
0.0
 11
-1849.307116
 21
-1577.595896
 31
0.0
  0
LINE
  5
7E8
100
AcDbEntity
  8
0
  6
BYBLOCK
 62
     0
100
AcDbLine
 10
-1828.213513
 20
-1556.652005
 30
0.0
 11
-1807.988232
 21
-1577.595896
 31
0.0
  0
ARC
  5
7E9
100
AcDbEntity
  8
0
  6
BYBLOCK
 62
     0
100
AcDbCircle
 10
-1828.647674
 20
-1556.202418
 30
0.0
 40
28.490435
100
AcDbArc
 50
231.029247
 51
308.970753
  0
SOLID
  5
7EA
100
AcDbEntity
  8
0
  6
BYBLOCK
 62
     0
100
AcDbTrace
 10
-1846.841993
 20
-1578.664929
 30
0.0
 11
-1846.289969
 21
-1578.040658
 31
0.0
 12
-1848.438793
 22
-1576.696721
 32
0.0
 13
-1848.438793
 23
-1576.696721
 33
0.0
  0
SOLID
  5
7EB
100
AcDbEntity
  8
0
  6
BYBLOCK
 62
     0
100
AcDbTrace
 10
-1811.005379
 20
-1578.040658
 30
0.0
 11
-1810.453355
 21
-1578.664929
 31
0.0
 12
-1808.856555
 22
-1576.696721
 32
0.0
 13
-1808.856555
 23
-1576.696721
 33
0.0
  0
MTEXT
  5
7EC
100
AcDbEntity
  8
0
  6
BYBLOCK
 62
     0
100
AcDbMText
 10
-1828.647674
 20
-1582.567852
 30
0.0
 40
3.0
 41
0.0
 71
     5
 72
     1
  1
\A1;88°
  0
POINT
  5
7ED
100
AcDbEntity
  8
DEFPOINTS
  6
BYBLOCK
 62
     0
100
AcDbPoint
 10
-1835.861314
 20
-1583.764498
 30
0.0
  0
POINT
  5
7EE
100
AcDbEntity
  8
DEFPOINTS
  6
BYBLOCK
 62
     0
100
AcDbPoint
 10
-1828.827509
 20
-1556.016193
 30
0.0
  0
POINT
  5
7EF
100
AcDbEntity
  8
DEFPOINTS
  6
BYBLOCK
 62
     0
100
AcDbPoint
 10
-1828.467839
 20
-1556.016193
 30
0.0
  0
POINT
  5
7F0
100
AcDbEntity
  8
DEFPOINTS
  6
BYBLOCK
 62
     0
100
AcDbPoint
 10
-1825.647674
 20
-1553.095827
 30
0.0
  0
POINT
  5
7F1
100
AcDbEntity
  8
DEFPOINTS
  6
BYBLOCK
 62
     0
100
AcDbPoint
 10
-1831.647674
 20
-1553.095827
 30
0.0
  0
ENDBLK
  5
7F2
100
AcDbEntity
  8
0
100
AcDbBlockEnd
  0
BLOCK
  5
852
100
AcDbEntity
  8
0
100
AcDbBlockBegin
  2
*D22
 70
    65
 10
0.0
 20
0.0
 30
0.0
  3
*D22
  1

  0
LINE
  5
853
100
AcDbEntity
  8
0
  6
BYBLOCK
 62
     0
100
AcDbLine
 10
-1831.706858
 20
-1418.362198
 30
0.0
 11
-1863.877253
 21
-1418.362198
 31
0.0
  0
LINE
  5
854
100
AcDbEntity
  8
0
  6
BYBLOCK
 62
     0
100
AcDbLine
 10
-1832.706858
 20
-1461.362198
 30
0.0
 11
-1863.877253
 21
-1461.362198
 31
0.0
  0
LINE
  5
855
100
AcDbEntity
  8
0
  6
BYBLOCK
 62
     0
100
AcDbLine
 10
-1862.627253
 20
-1420.862198
 30
0.0
 11
-1862.627253
 21
-1458.862198
 31
0.0
  0
SOLID
  5
856
100
AcDbEntity
  8
0
  6
BYBLOCK
 62
     0
100
AcDbTrace
 10
-1863.04392
 20
-1420.862198
 30
0.0
 11
-1862.210586
 21
-1420.862198
 31
0.0
 12
-1862.627253
 22
-1418.362198
 32
0.0
 13
-1862.627253
 23
-1418.362198
 33
0.0
  0
SOLID
  5
857
100
AcDbEntity
  8
0
  6
BYBLOCK
 62
     0
100
AcDbTrace
 10
-1863.04392
 20
-1458.862198
 30
0.0
 11
-1862.210586
 21
-1458.862198
 31
0.0
 12
-1862.627253
 22
-1461.362198
 32
0.0
 13
-1862.627253
 23
-1461.362198
 33
0.0
  0
MTEXT
  5
858
100
AcDbEntity
  8
0
  6
BYBLOCK
 62
     0
100
AcDbMText
 10
-1864.752253
 20
-1439.862198
 30
0.0
 40
3.0
 41
0.0
 71
     5
 72
     1
  1
\A1;43
 11
0.0
 21
1.0
 31
0.0
  0
POINT
  5
859
100
AcDbEntity
  8
DEFPOINTS
  6
BYBLOCK
 62
     0
100
AcDbPoint
 10
-1831.081858
 20
-1418.362198
 30
0.0
  0
POINT
  5
85A
100
AcDbEntity
  8
DEFPOINTS
  6
BYBLOCK
 62
     0
100
AcDbPoint
 10
-1832.081858
 20
-1461.362198
 30
0.0
  0
POINT
  5
85B
100
AcDbEntity
  8
DEFPOINTS
  6
BYBLOCK
 62
     0
100
AcDbPoint
 10
-1862.627253
 20
-1461.362198
 30
0.0
  0
ENDBLK
  5
85C
100
AcDbEntity
  8
0
100
AcDbBlockEnd
  0
BLOCK
  5
85F
100
AcDbEntity
  8
0
100
AcDbBlockBegin
  2
*D23
 70
    65
 10
0.0
 20
0.0
 30
0.0
  3
*D23
  1

  0
ARC
  5
860
100
AcDbEntity
  8
0
  6
BYBLOCK
 62
     0
100
AcDbCircle
 10
-1815.081858
 20
-1478.362198
 30
0.0
 40
10.001003
100
AcDbArc
 50
149.360064
 51
255.639936
  0
SOLID
  5
861
100
AcDbEntity
  8
0
  6
BYBLOCK
 62
     0
100
AcDbTrace
 10
-1824.015733
 20
-1473.009782
 30
0.0
 11
-1823.357449
 21
-1473.520767
 31
0.0
 12
-1822.153635
 22
-1471.290421
 32
0.0
 13
-1822.153635
 23
-1471.290421
 33
0.0
  0
SOLID
  5
862
100
AcDbEntity
  8
0
  6
BYBLOCK
 62
     0
100
AcDbTrace
 10
-1817.510176
 20
-1487.637333
 30
0.0
 11
-1817.614332
 21
-1488.464132
 31
0.0
 12
-1815.081858
 22
-1488.363201
 32
0.0
 13
-1815.081858
 23
-1488.363201
 33
0.0
  0
MTEXT
  5
863
100
AcDbEntity
  8
0
  6
BYBLOCK
 62
     0
100
AcDbMText
 10
-1822.358336
 20
-1481.376214
 30
0.0
 40
3.0
 41
0.0
 71
     5
 72
     1
  1
\A1;135°
 11
0.382683
 21
-0.92388
 31
0.0
  0
POINT
  5
864
100
AcDbEntity
  8
DEFPOINTS
  6
BYBLOCK
 62
     0
100
AcDbPoint
 10
-1825.082861
 20
-1478.362198
 30
0.0
  0
POINT
  5
865
100
AcDbEntity
  8
DEFPOINTS
  6
BYBLOCK
 62
     0
100
AcDbPoint
 10
-1832.081858
 20
-1461.362198
 30
0.0
  0
POINT
  5
866
100
AcDbEntity
  8
DEFPOINTS
  6
BYBLOCK
 62
     0
100
AcDbPoint
 10
-1815.081858
 20
-1540.365496
 30
0.0
  0
POINT
  5
867
100
AcDbEntity
  8
DEFPOINTS
  6
BYBLOCK
 62
     0
100
AcDbPoint
 10
-1815.081858
 20
-1478.362198
 30
0.0
  0
POINT
  5
868
100
AcDbEntity
  8
DEFPOINTS
  6
BYBLOCK
 62
     0
100
AcDbPoint
 10
-1815.081858
 20
-1478.362198
 30
0.0
  0
ENDBLK
  5
869
100
AcDbEntity
  8
0
100
AcDbBlockEnd
  0
BLOCK
  5
8D6
100
AcDbEntity
  8
0
100
AcDbBlockBegin
  2
*D24
 70
    65
 10
0.0
 20
0.0
 30
0.0
  3
*D24
  1

  0
LINE
  5
8D7
100
AcDbEntity
  8
0
  6
BYBLOCK
 62
     0
100
AcDbLine
 10
-1920.117739
 20
-1497.46234
 30
0.0
 11
-1920.117739
 21
-1492.73134
 31
0.0
  0
LINE
  5
8D8
100
AcDbEntity
  8
0
  6
BYBLOCK
 62
     0
100
AcDbLine
 10
-1910.117739
 20
-1505.46234
 30
0.0
 11
-1910.117739
 21
-1492.73134
 31
0.0
  0
LINE
  5
8D9
100
AcDbEntity
  8
0
  6
BYBLOCK
 62
     0
100
AcDbLine
 10
-1917.617739
 20
-1493.98134
 30
0.0
 11
-1912.617739
 21
-1493.98134
 31
0.0
  0
SOLID
  5
8DA
100
AcDbEntity
  8
0
  6
BYBLOCK
 62
     0
100
AcDbTrace
 10
-1917.617739
 20
-1493.564674
 30
0.0
 11
-1917.617739
 21
-1494.398007
 31
0.0
 12
-1920.117739
 22
-1493.98134
 32
0.0
 13
-1920.117739
 23
-1493.98134
 33
0.0
  0
SOLID
  5
8DB
100
AcDbEntity
  8
0
  6
BYBLOCK
 62
     0
100
AcDbTrace
 10
-1912.617739
 20
-1493.564674
 30
0.0
 11
-1912.617739
 21
-1494.398007
 31
0.0
 12
-1910.117739
 22
-1493.98134
 32
0.0
 13
-1910.117739
 23
-1493.98134
 33
0.0
  0
MTEXT
  5
8DC
100
AcDbEntity
  8
0
  6
BYBLOCK
 62
     0
100
AcDbMText
 10
-1915.117739
 20
-1491.85634
 30
0.0
 40
3.0
 41
0.0
 71
     5
 72
     1
  1
\A1;{50}
  0
POINT
  5
8DD
100
AcDbEntity
  8
DEFPOINTS
  6
BYBLOCK
 62
     0
100
AcDbPoint
 10
-1920.117739
 20
-1498.08734
 30
0.0
  0
POINT
  5
8DE
100
AcDbEntity
  8
DEFPOINTS
  6
BYBLOCK
 62
     0
100
AcDbPoint
 10
-1910.117739
 20
-1506.08734
 30
0.0
  0
POINT
  5
8DF
100
AcDbEntity
  8
DEFPOINTS
  6
BYBLOCK
 62
     0
100
AcDbPoint
 10
-1910.117739
 20
-1493.98134
 30
0.0
  0
ENDBLK
  5
8E0
100
AcDbEntity
  8
0
100
AcDbBlockEnd
  0
BLOCK
  5
92D
100
AcDbEntity
  8
0
100
AcDbBlockBegin
  2
*D25
 70
    65
 10
0.0
 20
0.0
 30
0.0
  3
*D25
  1

  0
LINE
  5
92E
100
AcDbEntity
  8
0
  6
BYBLOCK
 62
     0
100
AcDbLine
 10
-1903.492739
 20
-1506.08734
 30
0.0
 11
-1896.925217
 21
-1506.08734
 31
0.0
  0
LINE
  5
92F
100
AcDbEntity
  8
0
  6
BYBLOCK
 62
     0
100
AcDbLine
 10
-1902.010246
 20
-1504.08734
 30
0.0
 11
-1896.925217
 21
-1504.08734
 31
0.0
  0
LINE
  5
930
100
AcDbEntity
  8
0
  6
BYBLOCK
 62
     0
100
AcDbLine
 10
-1898.175217
 20
-1508.58734
 30
0.0
 11
-1898.175217
 21
-1511.08734
 31
0.0
  0
LINE
  5
931
100
AcDbEntity
  8
0
  6
BYBLOCK
 62
     0
100
AcDbLine
 10
-1898.175217
 20
-1501.58734
 30
0.0
 11
-1898.175217
 21
-1491.264178
 31
0.0
  0
SOLID
  5
932
100
AcDbEntity
  8
0
  6
BYBLOCK
 62
     0
100
AcDbTrace
 10
-1898.591883
 20
-1508.58734
 30
0.0
 11
-1897.75855
 21
-1508.58734
 31
0.0
 12
-1898.175217
 22
-1506.08734
 32
0.0
 13
-1898.175217
 23
-1506.08734
 33
0.0
  0
SOLID
  5
933
100
AcDbEntity
  8
0
  6
BYBLOCK
 62
     0
100
AcDbTrace
 10
-1898.591883
 20
-1501.58734
 30
0.0
 11
-1897.75855
 21
-1501.58734
 31
0.0
 12
-1898.175217
 22
-1504.08734
 32
0.0
 13
-1898.175217
 23
-1504.08734
 33
0.0
  0
MTEXT
  5
934
100
AcDbEntity
  8
0
  6
BYBLOCK
 62
     0
100
AcDbMText
 10
-1900.300217
 20
-1492.549178
 30
0.0
 40
3.0
 41
0.0
 71
     5
 72
     1
  1
\A1;{=}
 11
0.0
 21
1.0
 31
0.0
  0
POINT
  5
935
100
AcDbEntity
  8
DEFPOINTS
  6
BYBLOCK
 62
     0
100
AcDbPoint
 10
-1904.117739
 20
-1506.08734
 30
0.0
  0
POINT
  5
936
100
AcDbEntity
  8
DEFPOINTS
  6
BYBLOCK
 62
     0
100
AcDbPoint
 10
-1902.635246
 20
-1504.08734
 30
0.0
  0
POINT
  5
937
100
AcDbEntity
  8
DEFPOINTS
  6
BYBLOCK
 62
     0
100
AcDbPoint
 10
-1898.175217
 20
-1504.08734
 30
0.0
  0
ENDBLK
  5
938
100
AcDbEntity
  8
0
100
AcDbBlockEnd
  0
BLOCK
  5
951
100
AcDbEntity
  8
0
100
AcDbBlockBegin
  2
*D26
 70
    65
 10
0.0
 20
0.0
 30
0.0
  3
*D26
  1

  0
LINE
  5
952
100
AcDbEntity
  8
0
  6
BYBLOCK
 62
     0
100
AcDbLine
 10
-1903.492739
 20
-1510.08734
 30
0.0
 11
-1896.925217
 21
-1510.08734
 31
0.0
  0
LINE
  5
953
100
AcDbEntity
  8
0
  6
BYBLOCK
 62
     0
100
AcDbLine
 10
-1898.322357
 20
-1512.08734
 30
0.0
 11
-1899.425217
 21
-1512.08734
 31
0.0
  0
LINE
  5
954
100
AcDbEntity
  8
0
  6
BYBLOCK
 62
     0
100
AcDbLine
 10
-1898.175217
 20
-1507.58734
 30
0.0
 11
-1898.175217
 21
-1505.08734
 31
0.0
  0
LINE
  5
955
100
AcDbEntity
  8
0
  6
BYBLOCK
 62
     0
100
AcDbLine
 10
-1898.175217
 20
-1514.58734
 30
0.0
 11
-1898.175217
 21
-1519.65734
 31
0.0
  0
SOLID
  5
956
100
AcDbEntity
  8
0
  6
BYBLOCK
 62
     0
100
AcDbTrace
 10
-1898.591883
 20
-1507.58734
 30
0.0
 11
-1897.75855
 21
-1507.58734
 31
0.0
 12
-1898.175217
 22
-1510.08734
 32
0.0
 13
-1898.175217
 23
-1510.08734
 33
0.0
  0
SOLID
  5
957
100
AcDbEntity
  8
0
  6
BYBLOCK
 62
     0
100
AcDbTrace
 10
-1898.591883
 20
-1514.58734
 30
0.0
 11
-1897.75855
 21
-1514.58734
 31
0.0
 12
-1898.175217
 22
-1512.08734
 32
0.0
 13
-1898.175217
 23
-1512.08734
 33
0.0
  0
MTEXT
  5
958
100
AcDbEntity
  8
0
  6
BYBLOCK
 62
     0
100
AcDbMText
 10
-1900.300217
 20
-1518.37234
 30
0.0
 40
3.0
 41
0.0
 71
     5
 72
     1
  1
\A1;{=}
 11
0.0
 21
1.0
 31
0.0
  0
POINT
  5
959
100
AcDbEntity
  8
DEFPOINTS
  6
BYBLOCK
 62
     0
100
AcDbPoint
 10
-1904.117739
 20
-1510.08734
 30
0.0
  0
POINT
  5
95A
100
AcDbEntity
  8
DEFPOINTS
  6
BYBLOCK
 62
     0
100
AcDbPoint
 10
-1897.697357
 20
-1512.08734
 30
0.0
  0
POINT
  5
95B
100
AcDbEntity
  8
DEFPOINTS
  6
BYBLOCK
 62
     0
100
AcDbPoint
 10
-1898.175217
 20
-1512.08734
 30
0.0
  0
ENDBLK
  5
95C
100
AcDbEntity
  8
0
100
AcDbBlockEnd
  0
BLOCK
  5
C73
100
AcDbEntity
  8
0
100
AcDbBlockBegin
  2
*D29
 70
    65
 10
0.0
 20
0.0
 30
0.0
  3
*D29
  1

  0
LINE
  5
C74
100
AcDbEntity
  8
0
  6
BYBLOCK
 62
     0
100
AcDbLine
 10
-1812.630606
 20
-1545.806892
 30
0.0
 11
-1815.747594
 21
-1561.11324
 31
0.0
  0
SOLID
  5
C75
100
AcDbEntity
  8
0
  6
BYBLOCK
 62
     0
100
AcDbTrace
 10
-1813.038893
 20
-1545.723748
 30
0.0
 11
-1812.222319
 21
-1545.890036
 31
0.0
 12
-1812.131744
 22
-1543.35717
 32
0.0
 13
-1812.131744
 23
-1543.35717
 33
0.0
  0
MTEXT
  5
C76
100
AcDbEntity
  8
0
  6
BYBLOCK
 62
     0
100
AcDbMText
 10
-1816.736682
 20
-1555.321038
 30
0.0
 40
3.0
 41
0.0
 71
     5
 72
     1
  1
\A1;R0.25
 11
0.199545
 21
0.979889
 31
0.0
  0
POINT
  5
C77
100
AcDbEntity
  8
DEFPOINTS
  6
BYBLOCK
 62
     0
100
AcDbPoint
 10
-1812.131744
 20
-1543.35717
 30
0.0
  0
POINT
  5
C78
100
AcDbEntity
  8
DEFPOINTS
  6
BYBLOCK
 62
     0
100
AcDbPoint
 10
-1812.081858
 20
-1543.112198
 30
0.0
  0
ENDBLK
  5
C79
100
AcDbEntity
  8
0
100
AcDbBlockEnd
  0
BLOCK
  5
CA0
100
AcDbEntity
  8
0
100
AcDbBlockBegin
  2
*X30
 70
    65
 10
0.0
 20
0.0
 30
0.0
  3
*X30
  1

  0
LINE
  5
CA2
100
AcDbEntity
  8
0
 62
     0
100
AcDbLine
 10
-1812.738556
 20
-1542.792057
 30
0.0
 11
-1812.081858
 21
-1542.135359
 31
0.0
  0
LINE
  5
CA3
100
AcDbEntity
  8
0
 62
     0
100
AcDbLine
 10
-1812.081858
 20
-1542.135359
 30
0.0
 11
-1811.635362
 21
-1541.688863
 31
0.0
  0
LINE
  5
CA4
100
AcDbEntity
  8
0
 62
     0
100
AcDbLine
 10
-1812.870908
 20
-1542.655002
 30
0.0
 11
-1812.081858
 21
-1541.865951
 31
0.0
  0
LINE
  5
CA5
100
AcDbEntity
  8
0
 62
     0
100
AcDbLine
 10
-1812.081858
 20
-1541.865951
 30
0.0
 11
-1811.92676
 21
-1541.710853
 31
0.0
  0
LINE
  5
CA6
100
AcDbEntity
  8
0
 62
     0
100
AcDbLine
 10
-1813.003261
 20
-1542.517947
 30
0.0
 11
-1812.197503
 21
-1541.712189
 31
0.0
  0
LINE
  5
CA7
100
AcDbEntity
  8
0
 62
     0
100
AcDbLine
 10
-1813.135614
 20
-1542.380891
 30
0.0
 11
-1812.45147
 21
-1541.696748
 31
0.0
  0
LINE
  5
CA8
100
AcDbEntity
  8
0
 62
     0
100
AcDbLine
 10
-1813.267966
 20
-1542.243836
 30
0.0
 11
-1812.691292
 21
-1541.667162
 31
0.0
  0
LINE
  5
CA9
100
AcDbEntity
  8
0
 62
     0
100
AcDbLine
 10
-1813.400319
 20
-1542.106781
 30
0.0
 11
-1812.918849
 21
-1541.625312
 31
0.0
  0
LINE
  5
CAA
100
AcDbEntity
  8
0
 62
     0
100
AcDbLine
 10
-1813.532671
 20
-1541.969726
 30
0.0
 11
-1813.135533
 21
-1541.572588
 31
0.0
  0
LINE
  5
CAB
100
AcDbEntity
  8
0
 62
     0
100
AcDbLine
 10
-1813.665024
 20
-1541.832671
 30
0.0
 11
-1813.3424
 21
-1541.510048
 31
0.0
  0
LINE
  5
CAC
100
AcDbEntity
  8
0
 62
     0
100
AcDbLine
 10
-1813.797376
 20
-1541.695616
 30
0.0
 11
-1813.540273
 21
-1541.438512
 31
0.0
  0
LINE
  5
CAD
100
AcDbEntity
  8
0
 62
     0
100
AcDbLine
 10
-1813.929729
 20
-1541.558561
 30
0.0
 11
-1813.729794
 21
-1541.358626
 31
0.0
  0
LINE
  5
CAE
100
AcDbEntity
  8
0
 62
     0
100
AcDbLine
 10
-1814.062082
 20
-1541.421506
 30
0.0
 11
-1813.911473
 21
-1541.270897
 31
0.0
  0
LINE
  5
CAF
100
AcDbEntity
  8
0
 62
     0
100
AcDbLine
 10
-1814.194434
 20
-1541.284451
 30
0.0
 11
-1814.085716
 21
-1541.175732
 31
0.0
  0
LINE
  5
CB0
100
AcDbEntity
  8
0
 62
     0
100
AcDbLine
 10
-1814.326787
 20
-1541.147396
 30
0.0
 11
-1814.252841
 21
-1541.07345
 31
0.0
  0
LINE
  5
CB1
100
AcDbEntity
  8
0
 62
     0
100
AcDbLine
 10
-1814.459139
 20
-1541.01034
 30
0.0
 11
-1814.413096
 21
-1540.964297
 31
0.0
  0
LINE
  5
CB2
100
AcDbEntity
  8
0
 62
     0
100
AcDbLine
 10
-1814.591492
 20
-1540.873285
 30
0.0
 11
-1814.566668
 21
-1540.848461
 31
0.0
  0
LINE
  5
CB3
100
AcDbEntity
  8
0
 62
     0
100
AcDbLine
 10
-1814.723844
 20
-1540.73623
 30
0.0
 11
-1814.713692
 21
-1540.726078
 31
0.0
  0
LINE
  5
CB4
100
AcDbEntity
  8
0
 62
     0
100
AcDbLine
 10
-1814.856197
 20
-1540.599175
 30
0.0
 11
-1814.854253
 21
-1540.597231
 31
0.0
  0
LINE
  5
CB5
100
AcDbEntity
  8
0
 62
     0
100
AcDbLine
 10
-1812.606203
 20
-1542.929112
 30
0.0
 11
-1812.081858
 21
-1542.404767
 31
0.0
  0
LINE
  5
CB6
100
AcDbEntity
  8
0
 62
     0
100
AcDbLine
 10
-1812.081858
 20
-1542.404767
 30
0.0
 11
-1811.317181
 21
-1541.640089
 31
0.0
  0
LINE
  5
CB7
100
AcDbEntity
  8
0
 62
     0
100
AcDbLine
 10
-1812.473851
 20
-1543.066167
 30
0.0
 11
-1812.081858
 21
-1542.674174
 31
0.0
  0
LINE
  5
CB8
100
AcDbEntity
  8
0
 62
     0
100
AcDbLine
 10
-1812.081858
 20
-1542.674174
 30
0.0
 11
-1810.961416
 21
-1541.553732
 31
0.0
  0
LINE
  5
CB9
100
AcDbEntity
  8
0
 62
     0
100
AcDbLine
 10
-1812.341498
 20
-1543.203222
 30
0.0
 11
-1812.081858
 21
-1542.943582
 31
0.0
  0
LINE
  5
CBA
100
AcDbEntity
  8
0
 62
     0
100
AcDbLine
 10
-1812.081858
 20
-1542.943582
 30
0.0
 11
-1810.545193
 21
-1541.406917
 31
0.0
  0
LINE
  5
CBB
100
AcDbEntity
  8
0
 62
     0
100
AcDbLine
 10
-1812.200903
 20
-1543.332035
 30
0.0
 11
-1812.081858
 21
-1543.21299
 31
0.0
  0
LINE
  5
CBC
100
AcDbEntity
  8
0
 62
     0
100
AcDbLine
 10
-1812.081858
 20
-1543.21299
 30
0.0
 11
-1809.99554
 21
-1541.126672
 31
0.0
  0
ENDBLK
  5
CBD
100
AcDbEntity
  8
0
100
AcDbBlockEnd
  0
BLOCK
  5
CD7
100
AcDbEntity
  8
0
100
AcDbBlockBegin
  2
*D31
 70
    65
 10
0.0
 20
0.0
 30
0.0
  3
*D31
  1

  0
LINE
  5
CD8
100
AcDbEntity
  8
0
  6
BYBLOCK
 62
     0
100
AcDbLine
 10
-1805.456858
 20
-1448.362198
 30
0.0
 11
-1770.163767
 21
-1448.362198
 31
0.0
  0
LINE
  5
CD9
100
AcDbEntity
  8
0
  6
BYBLOCK
 62
     0
100
AcDbLine
 10
-1811.456858
 20
-1543.362198
 30
0.0
 11
-1770.163767
 21
-1543.362198
 31
0.0
  0
LINE
  5
CDA
100
AcDbEntity
  8
0
  6
BYBLOCK
 62
     0
100
AcDbLine
 10
-1771.413767
 20
-1450.862198
 30
0.0
 11
-1771.413767
 21
-1540.862198
 31
0.0
  0
SOLID
  5
CDB
100
AcDbEntity
  8
0
  6
BYBLOCK
 62
     0
100
AcDbTrace
 10
-1771.830433
 20
-1450.862198
 30
0.0
 11
-1770.9971
 21
-1450.862198
 31
0.0
 12
-1771.413767
 22
-1448.362198
 32
0.0
 13
-1771.413767
 23
-1448.362198
 33
0.0
  0
SOLID
  5
CDC
100
AcDbEntity
  8
0
  6
BYBLOCK
 62
     0
100
AcDbTrace
 10
-1771.830433
 20
-1540.862198
 30
0.0
 11
-1770.9971
 21
-1540.862198
 31
0.0
 12
-1771.413767
 22
-1543.362198
 32
0.0
 13
-1771.413767
 23
-1543.362198
 33
0.0
  0
MTEXT
  5
CDD
100
AcDbEntity
  8
0
  6
BYBLOCK
 62
     0
100
AcDbMText
 10
-1774.779475
 20
-1495.862198
 30
0.0
 40
3.0
 41
0.0
 71
     5
 72
     1
  1
\A2;95{\H2.400000;\S+0.02^  0;}
 11
0.0
 21
1.0
 31
0.0
  0
POINT
  5
CDE
100
AcDbEntity
  8
DEFPOINTS
  6
BYBLOCK
 62
     0
100
AcDbPoint
 10
-1806.081858
 20
-1448.362198
 30
0.0
  0
POINT
  5
CDF
100
AcDbEntity
  8
DEFPOINTS
  6
BYBLOCK
 62
     0
100
AcDbPoint
 10
-1812.081858
 20
-1543.362198
 30
0.0
  0
POINT
  5
CE0
100
AcDbEntity
  8
DEFPOINTS
  6
BYBLOCK
 62
     0
100
AcDbPoint
 10
-1771.413767
 20
-1543.362198
 30
0.0
  0
ENDBLK
  5
CE1
100
AcDbEntity
  8
0
100
AcDbBlockEnd
  0
BLOCK
  5
CE4
100
AcDbEntity
  8
0
100
AcDbBlockBegin
  2
*D32
 70
    65
 10
0.0
 20
0.0
 30
0.0
  3
*D32
  1

  0
LINE
  5
CE5
100
AcDbEntity
  8
0
  6
BYBLOCK
 62
     0
100
AcDbLine
 10
-1819.456858
 20
-1418.362198
 30
0.0
 11
-1758.574283
 21
-1418.362198
 31
0.0
  0
LINE
  5
CE6
100
AcDbEntity
  8
0
  6
BYBLOCK
 62
     0
100
AcDbLine
 10
-1811.456858
 20
-1543.362198
 30
0.0
 11
-1758.574283
 21
-1543.362198
 31
0.0
  0
LINE
  5
CE7
100
AcDbEntity
  8
0
  6
BYBLOCK
 62
     0
100
AcDbLine
 10
-1759.824283
 20
-1420.862198
 30
0.0
 11
-1759.824283
 21
-1540.862198
 31
0.0
  0
SOLID
  5
CE8
100
AcDbEntity
  8
0
  6
BYBLOCK
 62
     0
100
AcDbTrace
 10
-1760.24095
 20
-1420.862198
 30
0.0
 11
-1759.407617
 21
-1420.862198
 31
0.0
 12
-1759.824283
 22
-1418.362198
 32
0.0
 13
-1759.824283
 23
-1418.362198
 33
0.0
  0
SOLID
  5
CE9
100
AcDbEntity
  8
0
  6
BYBLOCK
 62
     0
100
AcDbTrace
 10
-1760.24095
 20
-1540.862198
 30
0.0
 11
-1759.407617
 21
-1540.862198
 31
0.0
 12
-1759.824283
 22
-1543.362198
 32
0.0
 13
-1759.824283
 23
-1543.362198
 33
0.0
  0
MTEXT
  5
CEA
100
AcDbEntity
  8
0
  6
BYBLOCK
 62
     0
100
AcDbMText
 10
-1761.949283
 20
-1480.862198
 30
0.0
 40
3.0
 41
0.0
 71
     5
 72
     1
  1
\A1;125
 11
0.0
 21
1.0
 31
0.0
  0
POINT
  5
CEB
100
AcDbEntity
  8
DEFPOINTS
  6
BYBLOCK
 62
     0
100
AcDbPoint
 10
-1820.081858
 20
-1418.362198
 30
0.0
  0
POINT
  5
CEC
100
AcDbEntity
  8
DEFPOINTS
  6
BYBLOCK
 62
     0
100
AcDbPoint
 10
-1812.081858
 20
-1543.362198
 30
0.0
  0
POINT
  5
CED
100
AcDbEntity
  8
DEFPOINTS
  6
BYBLOCK
 62
     0
100
AcDbPoint
 10
-1759.824283
 20
-1543.362198
 30
0.0
  0
ENDBLK
  5
CEE
100
AcDbEntity
  8
0
100
AcDbBlockEnd
  0
ENDSEC
  0
SECTION
  2
ENTITIES
  0
LINE
  5
5FA
100
AcDbEntity
  8
DISEGNO
100
AcDbLine
 10
-1805.081858
 20
-1474.362198
 30
0.0
 11
-1809.081858
 21
-1478.362198
 31
0.0
  0
LINE
  5
5FB
100
AcDbEntity
  8
DISEGNO
100
AcDbLine
 10
-1808.581858
 20
-1448.362198
 30
0.0
 11
-1806.081858
 21
-1448.362198
 31
0.0
  0
LINE
  5
5FC
100
AcDbEntity
  8
DISEGNO
100
AcDbLine
 10
-1809.081858
 20
-1540.365496
 30
0.0
 11
-1809.081858
 21
-1478.362198
 31
0.0
  0
LINE
  5
5FD
100
AcDbEntity
  8
DISEGNO
100
AcDbLine
 10
-1815.081858
 20
-1540.365496
 30
0.0
 11
-1815.081858
 21
-1478.362198
 31
0.0
  0
LINE
  5
607
100
AcDbEntity
  8
DISEGNO
100
AcDbLine
 10
-1832.081858
 20
-1461.362198
 30
0.0
 11
-1815.081858
 21
-1478.362198
 31
0.0
  0
LINE
  5
608
100
AcDbEntity
  8
DISEGNO
100
AcDbLine
 10
-1808.581858
 20
-1448.362198
 30
0.0
 11
-1819.081858
 21
-1448.362198
 31
0.0
  0
LINE
  5
60E
100
AcDbEntity
  8
DISEGNO
100
AcDbLine
 10
-1805.081858
 20
-1449.362198
 30
0.0
 11
-1805.081858
 21
-1474.362198
 31
0.0
  0
LINE
  5
60F
100
AcDbEntity
  8
DISEGNO
100
AcDbLine
 10
-1806.081858
 20
-1448.362198
 30
0.0
 11
-1805.081858
 21
-1449.362198
 31
0.0
  0
LINE
  5
6BA
100
AcDbEntity
  8
DISEGNO
100
AcDbLine
 10
-1819.081858
 20
-1448.362198
 30
0.0
 11
-1819.081858
 21
-1419.362198
 31
0.0
  0
LINE
  5
6BB
100
AcDbEntity
  8
DISEGNO
100
AcDbLine
 10
-1820.081858
 20
-1418.362198
 30
0.0
 11
-1831.081858
 21
-1418.362198
 31
0.0
  0
LINE
  5
6BC
100
AcDbEntity
  8
DISEGNO
100
AcDbLine
 10
-1832.081858
 20
-1419.362198
 30
0.0
 11
-1832.081858
 21
-1434.862198
 31
0.0
  0
LINE
  5
6BD
100
AcDbEntity
  8
DISEGNO
100
AcDbLine
 10
-1831.581858
 20
-1435.362198
 30
0.0
 11
-1828.581858
 21
-1435.362198
 31
0.0
  0
LINE
  5
6BE
100
AcDbEntity
  8
DISEGNO
100
AcDbLine
 10
-1828.581858
 20
-1435.362198
 30
0.0
 11
-1828.581858
 21
-1443.762198
 31
0.0
  0
LINE
  5
6BF
100
AcDbEntity
  8
DISEGNO
100
AcDbLine
 10
-1828.581858
 20
-1443.762198
 30
0.0
 11
-1831.581858
 21
-1443.762198
 31
0.0
  0
LINE
  5
6C0
100
AcDbEntity
  8
DISEGNO
100
AcDbLine
 10
-1832.081858
 20
-1444.262198
 30
0.0
 11
-1832.081858
 21
-1461.362198
 31
0.0
  0
LINE
  5
777
100
AcDbEntity
  8
DISEGNO
100
AcDbLine
 10
-1811.902023
 20
-1543.285863
 30
0.0
 11
-1809.081858
 21
-1540.365496
 31
0.0
1001
ACAD
1000
ASC_BOUNDS
1002
{
1070
    19
1002
}
  0
LINE
  5
778
100
AcDbEntity
  8
DISEGNO
100
AcDbLine
 10
-1812.261693
 20
-1543.285863
 30
0.0
 11
-1815.081858
 21
-1540.365496
 31
0.0
1001
ACAD
1000
ASC_BOUNDS
1002
{
1070
    19
1002
}
  0
LINE
  5
7FF
100
AcDbEntity
  8
DISEGNO
100
AcDbLine
 10
-1832.081858
 20
-1419.362198
 30
0.0
 11
-1831.081858
 21
-1418.362198
 31
0.0
  0
LINE
  5
800
100
AcDbEntity
  8
DISEGNO
100
AcDbLine
 10
-1820.081858
 20
-1418.362198
 30
0.0
 11
-1819.081858
 21
-1419.362198
 31
0.0
  0
LINE
  5
801
100
AcDbEntity
  8
DISEGNO
100
AcDbLine
 10
-1832.081858
 20
-1434.862198
 30
0.0
 11
-1831.581858
 21
-1435.362198
 31
0.0
  0
LINE
  5
802
100
AcDbEntity
  8
DISEGNO
100
AcDbLine
 10
-1832.081858
 20
-1444.262198
 30
0.0
 11
-1831.581858
 21
-1443.762198
 31
0.0
  0
ARC
  5
C69
100
AcDbEntity
  8
DISEGNO
100
AcDbCircle
 10
-1812.081858
 20
-1543.112198
 30
0.0
 40
0.25
100
AcDbArc
 50
224.0
 51
316.0
1001
ACAD
1000
ASC_BOUNDS
1002
{
1070
    19
1002
}
  0
ENDSEC
  0
SECTION
  2
OBJECTS
  0
DICTIONARY
  5
C
100
AcDbDictionary
  3
ACAD_GROUP
350
D
  3
ACAD_MLINESTYLE
350
E
  0
DICTIONARY
  5
D
102
{ACAD_REACTORS
330
C
102
}
100
AcDbDictionary
  0
DICTIONARY
  5
E
102
{ACAD_REACTORS
330
C
102
}
100
AcDbDictionary
  3
STANDARD
350
1C
  0
MLINESTYLE
  5
1C
102
{ACAD_REACTORS
330
E
102
}
100
AcDbMlineStyle
  2
STANDARD
 70
     0
  3

 62
     0
 51
90.0
 52
90.0
 71
     2
 49
0.5
 62
   256
  6
BYLAYER
 49
-0.5
 62
   256
  6
BYLAYER
  0
ENDSEC
  0
EOF
