  0
SECTION
  2
HEADER
  9
$ACADVER
  1
AC1018
  9
$ACADMAINTVER
 70
     0
  9
$DWGCODEPAGE
  3
ANSI_1252
  9
$INSBASE
 10
0.0
 20
0.0
 30
0.0
  9
$EXTMIN
 10
1.000000E+20
 20
1.000000E+20
 30
1.000000E+20
  9
$EXTMAX
 10
-1.000000E+20
 20
-1.000000E+20
 30
-1.000000E+20
  9
$LIMMIN
 10
0.0
 20
0.0
  9
$LIMMAX
 10
420.0
 20
297.0
  9
$ORTHOMODE
 70
     0
  9
$REGENMODE
 70
     1
  9
$FILLMODE
 70
     1
  9
$QTEXTMODE
 70
     0
  9
$MIRRTEXT
 70
     1
  9
$LTSCALE
 40
1.0
  9
$ATTMODE
 70
     1
  9
$TEXTSIZE
 40
2.5
  9
$TRACEWID
 40
1.0
  9
$TEXTSTYLE
  7
Standard
  9
$CLAYER
  8
0
  9
$CELTYPE
  6
ByLayer
  9
$CECOLOR
 62
   256
  9
$CELTSCALE
 40
1.0
  9
$DISPSILH
 70
     0
  9
$DIMSCALE
 40
1.0
  9
$DIMASZ
 40
2.5
  9
$DIMEXO
 40
0.625
  9
$DIMDLI
 40
3.75
  9
$DIMRND
 40
0.0
  9
$DIMDLE
 40
0.0
  9
$DIMEXE
 40
1.25
  9
$DIMTP
 40
0.0
  9
$DIMTM
 40
0.0
  9
$DIMTXT
 40
2.5
  9
$DIMCEN
 40
2.5
  9
$DIMTSZ
 40
0.0
  9
$DIMTOL
 70
     0
  9
$DIMLIM
 70
     0
  9
$DIMTIH
 70
     0
  9
$DIMTOH
 70
     0
  9
$DIMSE1
 70
     0
  9
$DIMSE2
 70
     0
  9
$DIMTAD
 70
     1
  9
$DIMZIN
 70
     8
  9
$DIMBLK
  1

  9
$DIMASO
 70
     1
  9
$DIMSHO
 70
     1
  9
$DIMPOST
  1

  9
$DIMAPOST
  1

  9
$DIMALT
 70
     0
  9
$DIMALTD
 70
     3
  9
$DIMALTF
 40
0.03937
  9
$DIMLFAC
 40
1.0
  9
$DIMTOFL
 70
     1
  9
$DIMTVP
 40
0.0
  9
$DIMTIX
 70
     0
  9
$DIMSOXD
 70
     0
  9
$DIMSAH
 70
     0
  9
$DIMBLK1
  1

  9
$DIMBLK2
  1

  9
$DIMSTYLE
  2
ISO-25
  9
$DIMCLRD
 70
     0
  9
$DIMCLRE
 70
     0
  9
$DIMCLRT
 70
     0
  9
$DIMTFAC
 40
1.0
  9
$DIMGAP
 40
0.625
  9
$DIMJUST
 70
     0
  9
$DIMSD1
 70
     0
  9
$DIMSD2
 70
     0
  9
$DIMTOLJ
 70
     0
  9
$DIMTZIN
 70
     8
  9
$DIMALTZ
 70
     0
  9
$DIMALTTZ
 70
     0
  9
$DIMUPT
 70
     0
  9
$DIMDEC
 70
     2
  9
$DIMTDEC
 70
     2
  9
$DIMALTU
 70
     2
  9
$DIMALTTD
 70
     3
  9
$DIMTXSTY
  7
Standard
  9
$DIMAUNIT
 70
     0
  9
$DIMADEC
 70
     0
  9
$DIMALTRND
 40
0.0
  9
$DIMAZIN
 70
     0
  9
$DIMDSEP
 70
    44
  9
$DIMATFIT
 70
     3
  9
$DIMFRAC
 70
     0
  9
$DIMLDRBLK
  1

  9
$DIMLUNIT
 70
     2
  9
$DIMLWD
 70
    -2
  9
$DIMLWE
 70
    -2
  9
$DIMTMOVE
 70
     0
  9
$LUNITS
 70
     2
  9
$LUPREC
 70
     4
  9
$SKETCHINC
 40
1.0
  9
$FILLETRAD
 40
10.0
  9
$AUNITS
 70
     0
  9
$AUPREC
 70
     0
  9
$MENU
  1
.
  9
$ELEVATION
 40
0.0
  9
$PELEVATION
 40
0.0
  9
$THICKNESS
 40
0.0
  9
$LIMCHECK
 70
     0
  9
$CHAMFERA
 40
10.0
  9
$CHAMFERB
 40
10.0
  9
$CHAMFERC
 40
20.0
  9
$CHAMFERD
 40
0.0
  9
$SKPOLY
 70
     0
  9
$TDCREATE
 40
2455026.357457593
  9
$TDUCREATE
 40
2455026.274124259
  9
$TDUPDATE
 40
2455026.357457604
  9
$TDUUPDATE
 40
2455026.274124271
  9
$TDINDWG
 40
0.0000000116
  9
$TDUSRTIMER
 40
0.0000000116
  9
$USRTIMER
 70
     1
  9
$ANGBASE
 50
0.0
  9
$ANGDIR
 70
     0
  9
$PDMODE
 70
     0
  9
$PDSIZE
 40
0.0
  9
$PLINEWID
 40
0.0
  9
$SPLFRAME
 70
     0
  9
$SPLINETYPE
 70
     6
  9
$SPLINESEGS
 70
     8
  9
$HANDSEED
  5
348
  9
$SURFTAB1
 70
     6
  9
$SURFTAB2
 70
     6
  9
$SURFTYPE
 70
     6
  9
$SURFU
 70
     6
  9
$SURFV
 70
     6
  9
$UCSBASE
  2

  9
$UCSNAME
  2

  9
$UCSORG
 10
0.0
 20
0.0
 30
0.0
  9
$UCSXDIR
 10
1.0
 20
0.0
 30
0.0
  9
$UCSYDIR
 10
0.0
 20
1.0
 30
0.0
  9
$UCSORTHOREF
  2

  9
$UCSORTHOVIEW
 70
     0
  9
$UCSORGTOP
 10
0.0
 20
0.0
 30
0.0
  9
$UCSORGBOTTOM
 10
0.0
 20
0.0
 30
0.0
  9
$UCSORGLEFT
 10
0.0
 20
0.0
 30
0.0
  9
$UCSORGRIGHT
 10
0.0
 20
0.0
 30
0.0
  9
$UCSORGFRONT
 10
0.0
 20
0.0
 30
0.0
  9
$UCSORGBACK
 10
0.0
 20
0.0
 30
0.0
  9
$PUCSBASE
  2

  9
$PUCSNAME
  2

  9
$PUCSORG
 10
0.0
 20
0.0
 30
0.0
  9
$PUCSXDIR
 10
1.0
 20
0.0
 30
0.0
  9
$PUCSYDIR
 10
0.0
 20
1.0
 30
0.0
  9
$PUCSORTHOREF
  2

  9
$PUCSORTHOVIEW
 70
     0
  9
$PUCSORGTOP
 10
0.0
 20
0.0
 30
0.0
  9
$PUCSORGBOTTOM
 10
0.0
 20
0.0
 30
0.0
  9
$PUCSORGLEFT
 10
0.0
 20
0.0
 30
0.0
  9
$PUCSORGRIGHT
 10
0.0
 20
0.0
 30
0.0
  9
$PUCSORGFRONT
 10
0.0
 20
0.0
 30
0.0
  9
$PUCSORGBACK
 10
0.0
 20
0.0
 30
0.0
  9
$USERI1
 70
     0
  9
$USERI2
 70
     0
  9
$USERI3
 70
     0
  9
$USERI4
 70
     0
  9
$USERI5
 70
     0
  9
$USERR1
 40
0.0
  9
$USERR2
 40
0.0
  9
$USERR3
 40
0.0
  9
$USERR4
 40
0.0
  9
$USERR5
 40
0.0
  9
$WORLDVIEW
 70
     1
  9
$SHADEDGE
 70
     3
  9
$SHADEDIF
 70
    70
  9
$TILEMODE
 70
     1
  9
$MAXACTVP
 70
    64
  9
$PINSBASE
 10
0.0
 20
0.0
 30
0.0
  9
$PLIMCHECK
 70
     0
  9
$PEXTMIN
 10
1.000000E+20
 20
1.000000E+20
 30
1.000000E+20
  9
$PEXTMAX
 10
-1.000000E+20
 20
-1.000000E+20
 30
-1.000000E+20
  9
$PLIMMIN
 10
0.0
 20
0.0
  9
$PLIMMAX
 10
420.0
 20
297.0
  9
$UNITMODE
 70
     0
  9
$VISRETAIN
 70
     1
  9
$PLINEGEN
 70
     0
  9
$PSLTSCALE
 70
     1
  9
$TREEDEPTH
 70
  3020
  9
$CMLSTYLE
  2
Standard
  9
$CMLJUST
 70
     0
  9
$CMLSCALE
 40
20.0
  9
$PROXYGRAPHICS
 70
     1
  9
$MEASUREMENT
 70
     1
  9
$CELWEIGHT
370
    -1
  9
$ENDCAPS
280
     0
  9
$JOINSTYLE
280
     0
  9
$LWDISPLAY
290
     0
  9
$INSUNITS
 70
     4
  9
$HYPERLINKBASE
  1

  9
$STYLESHEET
  1

  9
$XEDIT
290
     1
  9
$CEPSNTYPE
380
     0
  9
$PSTYLEMODE
290
     1
  9
$FINGERPRINTGUID
  2
{9C450460-82E2-463E-A378-EFC88FD6153F}
  9
$VERSIONGUID
  2
{FAEB1C32-E019-11D5-929B-00C0DF256EC4}
  9
$EXTNAMES
290
     1
  9
$PSVPSCALE
 40
0.0
  9
$OLESTARTUP
290
     0
  9
$SORTENTS
280
   127
  9
$INDEXCTL
280
     0
  9
$HIDETEXT
280
     1
  9
$XCLIPFRAME
290
     0
  9
$HALOGAP
280
     0
  9
$OBSCOLOR
 70
   257
  9
$OBSLTYPE
280
     0
  9
$INTERSECTIONDISPLAY
280
     0
  9
$INTERSECTIONCOLOR
 70
   257
  9
$DIMASSOC
280
     2
  9
$PROJECTNAME
  1

  0
ENDSEC
  0
SECTION
  2
CLASSES
  0
CLASS
  1
ACDBDICTIONARYWDFLT
  2
AcDbDictionaryWithDefault
  3
ObjectDBX Classes
 90
        0
 91
        3
280
     0
281
     0
  0
CLASS
  1
VISUALSTYLE
  2
AcDbVisualStyle
  3
ObjectDBX Classes
 90
     4095
 91
        3
280
     0
281
     0
  0
ENDSEC
  0
SECTION
  2
TABLES
  0
TABLE
  2
VPORT
  5
8
330
0
100
AcDbSymbolTable
 70
     1
  0
VPORT
  5
29
330
8
100
AcDbSymbolTableRecord
100
AcDbViewportTableRecord
  2
*Active
 70
     0
 10
0.0
 20
0.0
 11
1.0
 21
1.0
 12
344.186916
 22
148.5
 13
0.0
 23
0.0
 14
10.0
 24
10.0
 15
10.0
 25
10.0
 16
0.0
 26
0.0
 36
1.0
 17
0.0
 27
0.0
 37
0.0
 40
297.0
 41
1.972973
 42
50.0
 43
0.0
 44
0.0
 50
0.0
 51
0.0
 71
     0
 72
   100
 73
     1
 74
     3
 75
     0
 76
     0
 77
     0
 78
     0
281
     0
 65
     1
110
0.0
120
0.0
130
0.0
111
1.0
121
0.0
131
0.0
112
0.0
122
1.0
132
0.0
 79
     0
146
0.0
  0
ENDTAB
  0
TABLE
  2
LTYPE
  5
5
330
0
100
AcDbSymbolTable
 70
     1
  0
LTYPE
  5
14
330
5
100
AcDbSymbolTableRecord
100
AcDbLinetypeTableRecord
  2
ByBlock
 70
     0
  3

 72
    65
 73
     0
 40
0.0
  0
LTYPE
  5
15
330
5
100
AcDbSymbolTableRecord
100
AcDbLinetypeTableRecord
  2
ByLayer
 70
     0
  3

 72
    65
 73
     0
 40
0.0
  0
LTYPE
  5
16
330
5
100
AcDbSymbolTableRecord
100
AcDbLinetypeTableRecord
  2
Continuous
 70
     0
  3
Solid line
 72
    65
 73
     0
 40
0.0
  0
ENDTAB
  0
TABLE
  2
LAYER
  5
2
330
0
100
AcDbSymbolTable
 70
    11
  0
LAYER
  5
10
330
2
100
AcDbSymbolTableRecord
100
AcDbLayerTableRecord
  2
0
 70
     0
 62
     7
  6
Continuous
370
    -3
390
F
  0
LAYER
  5
3B
330
2
100
AcDbSymbolTableRecord
100
AcDbLayerTableRecord
  2
DISEGNO
 70
     0
 62
     7
  6
Continuous
370
    -3
390
F
  0
LAYER
  5
3C
330
2
100
AcDbSymbolTableRecord
100
AcDbLayerTableRecord
  2
ASSI
 70
     0
 62
     7
  6
Continuous
370
    -3
390
F
  0
LAYER
  5
3D
330
2
100
AcDbSymbolTableRecord
100
AcDbLayerTableRecord
  2
QUOTE
 70
     0
 62
     7
  6
Continuous
370
    -3
390
F
  0
LAYER
  5
3E
330
2
100
AcDbSymbolTableRecord
100
AcDbLayerTableRecord
  2
TEMPRA
 70
     0
 62
     7
  6
Continuous
370
    -3
390
F
  0
LAYER
  5
3F
330
2
100
AcDbSymbolTableRecord
100
AcDbLayerTableRecord
  2
MARCATURA
 70
     0
 62
     7
  6
Continuous
370
    -3
390
F
  0
LAYER
  5
40
330
2
100
AcDbSymbolTableRecord
100
AcDbLayerTableRecord
  2
TESTO
 70
     0
 62
     7
  6
Continuous
370
    -3
390
F
  0
LAYER
  5
41
330
2
100
AcDbSymbolTableRecord
100
AcDbLayerTableRecord
  2
SEZIONE
 70
     0
 62
     7
  6
Continuous
370
    -3
390
F
  0
LAYER
  5
42
330
2
100
AcDbSymbolTableRecord
100
AcDbLayerTableRecord
  2
TRATTEGGIO
 70
     0
 62
     7
  6
Continuous
370
    -3
390
F
  0
LAYER
  5
43
330
2
100
AcDbSymbolTableRecord
100
AcDbLayerTableRecord
  2
CARTIGLIO
 70
     0
 62
     7
  6
Continuous
370
    -3
390
F
  0
LAYER
  5
52
330
2
100
AcDbSymbolTableRecord
100
AcDbLayerTableRecord
  2
Defpoints
 70
     0
 62
     7
  6
Continuous
290
     0
370
    -3
390
F
  0
ENDTAB
  0
TABLE
  2
STYLE
  5
3
330
0
100
AcDbSymbolTable
 70
     5
  0
STYLE
  5
11
330
3
100
AcDbSymbolTableRecord
100
AcDbTextStyleTableRecord
  2
Standard
 70
     0
 40
0.0
 41
1.0
 50
0.0
 71
     0
 42
2.5
  3
txt
  4

  0
STYLE
  5
44
330
3
100
AcDbSymbolTableRecord
100
AcDbTextStyleTableRecord
  2
Default
 70
     0
 40
0.0
 41
1.0
 50
0.0
 71
     0
 42
0.2
  3

  4

1001
ACAD
1000
txt
1071
        0
  0
STYLE
  5
45
330
3
100
AcDbSymbolTableRecord
100
AcDbTextStyleTableRecord
  2
ROLLERI
 70
     0
 40
0.0
 41
1.0
 50
0.0
 71
     0
 42
0.2
  3

  4

1001
ACAD
1000
Arial
1071
        0
  0
STYLE
  5
46
330
3
100
AcDbSymbolTableRecord
100
AcDbTextStyleTableRecord
  2
STEFANO
 70
     0
 40
0.0
 41
1.0
 50
0.0
 71
     0
 42
0.2
  3

  4

1001
ACAD
1000
Arial
1071
        0
  0
STYLE
  5
47
330
3
100
AcDbSymbolTableRecord
100
AcDbTextStyleTableRecord
  2
MARCELLO
 70
     0
 40
0.0
 41
1.0
 50
0.0
 71
     0
 42
0.2
  3

  4

1001
ACAD
1000
txt
1071
        0
  0
ENDTAB
  0
TABLE
  2
VIEW
  5
6
330
0
100
AcDbSymbolTable
 70
     0
  0
ENDTAB
  0
TABLE
  2
UCS
  5
7
330
0
100
AcDbSymbolTable
 70
     0
  0
ENDTAB
  0
TABLE
  2
APPID
  5
9
330
0
100
AcDbSymbolTable
 70
     1
  0
APPID
  5
12
330
9
100
AcDbSymbolTableRecord
100
AcDbRegAppTableRecord
  2
ACAD
 70
     0
  0
ENDTAB
  0
TABLE
  2
DIMSTYLE
  5
A
330
0
100
AcDbSymbolTable
 70
     4
100
AcDbDimStyleTable
  0
DIMSTYLE
105
27
330
A
100
AcDbSymbolTableRecord
100
AcDbDimStyleTableRecord
  2
ISO-25
 70
     0
 41
2.5
 42
0.625
 43
3.75
 44
1.25
 73
     0
 74
     0
 77
     1
 78
     8
140
2.5
141
2.5
143
0.03937
147
0.625
171
     3
172
     1
271
     2
272
     2
274
     3
278
    44
283
     0
284
     8
340
11
  0
DIMSTYLE
105
48
330
A
100
AcDbSymbolTableRecord
100
AcDbDimStyleTableRecord
  2
Default
 70
     0
  3
<>
 41
4.375
 42
1.05
 44
2.1
 73
     0
 74
     0
 77
     1
 78
     8
 79
    10
140
3.5
146
0.4
147
1.75
178
     1
179
     1
271
     2
272
     3
284
     8
340
44
341
49
342
49
  0
DIMSTYLE
105
50
330
A
100
AcDbSymbolTableRecord
100
AcDbDimStyleTableRecord
  2
ROLLERI
 70
     0
  3
<>
 41
2.55
 42
0.9
 44
0.6
 73
     0
 74
     0
 77
     1
 78
     8
 79
    10
140
3.0
146
0.65
147
0.45
178
    21
179
     2
271
     2
272
     2
284
     8
340
45
  0
DIMSTYLE
105
51
102
{ACAD_REACTORS
330
53
330
60
330
6E
330
7C
330
87
330
94
330
9F
330
AA
330
B9
330
C8
330
D7
330
E6
330
F5
330
104
330
113
330
121
330
12E
330
13B
330
14A
330
159
330
168
330
177
330
187
330
196
330
1A5
330
1B2
330
1C0
330
1CD
330
1DC
330
1E9
330
1F6
330
205
330
214
330
223
330
232
330
241
330
24C
330
25B
330
26A
330
277
330
282
330
28D
330
29C
330
2AB
330
2BA
330
2C9
330
2D8
330
2E7
330
2F7
330
306
330
315
330
324
102
}
330
A
100
AcDbSymbolTableRecord
100
AcDbDimStyleTableRecord
  2
STEFANO
 70
     0
  3
<>
 41
3.6
 42
0.9
 44
1.8
 73
     0
 74
     0
 77
     1
 78
     8
 79
    10
140
3.0
146
0.65
147
1.5
176
    21
177
    21
178
    21
179
     1
271
     2
272
     3
284
     8
340
46
  0
ENDTAB
  0
TABLE
  2
BLOCK_RECORD
  5
1
330
0
100
AcDbSymbolTable
 70
    54
  0
BLOCK_RECORD
  5
1F
330
1
100
AcDbSymbolTableRecord
100
AcDbBlockTableRecord
  2
*Model_Space
340
22
  0
BLOCK_RECORD
  5
1B
330
1
100
AcDbSymbolTableRecord
100
AcDbBlockTableRecord
  2
*Paper_Space
340
1E
  0
BLOCK_RECORD
  5
23
330
1
100
AcDbSymbolTableRecord
100
AcDbBlockTableRecord
  2
*Paper_Space0
340
26
  0
BLOCK_RECORD
  5
49
330
1
100
AcDbSymbolTableRecord
100
AcDbBlockTableRecord
  2
_CLOSED
340
0
  0
BLOCK_RECORD
  5
54
330
1
100
AcDbSymbolTableRecord
100
AcDbBlockTableRecord
  2
*D2
340
0
  0
BLOCK_RECORD
  5
61
330
1
100
AcDbSymbolTableRecord
100
AcDbBlockTableRecord
  2
*D3
340
0
  0
BLOCK_RECORD
  5
6F
330
1
100
AcDbSymbolTableRecord
100
AcDbBlockTableRecord
  2
*D4
340
0
  0
BLOCK_RECORD
  5
7D
330
1
100
AcDbSymbolTableRecord
100
AcDbBlockTableRecord
  2
*D5
340
0
  0
BLOCK_RECORD
  5
88
330
1
100
AcDbSymbolTableRecord
100
AcDbBlockTableRecord
  2
*D6
340
0
  0
BLOCK_RECORD
  5
95
330
1
100
AcDbSymbolTableRecord
100
AcDbBlockTableRecord
  2
*D7
340
0
  0
BLOCK_RECORD
  5
A0
330
1
100
AcDbSymbolTableRecord
100
AcDbBlockTableRecord
  2
*D8
340
0
  0
BLOCK_RECORD
  5
AB
330
1
100
AcDbSymbolTableRecord
100
AcDbBlockTableRecord
  2
*D9
340
0
  0
BLOCK_RECORD
  5
BA
330
1
100
AcDbSymbolTableRecord
100
AcDbBlockTableRecord
  2
*D10
340
0
  0
BLOCK_RECORD
  5
C9
330
1
100
AcDbSymbolTableRecord
100
AcDbBlockTableRecord
  2
*D11
340
0
  0
BLOCK_RECORD
  5
D8
330
1
100
AcDbSymbolTableRecord
100
AcDbBlockTableRecord
  2
*D12
340
0
  0
BLOCK_RECORD
  5
E7
330
1
100
AcDbSymbolTableRecord
100
AcDbBlockTableRecord
  2
*D13
340
0
  0
BLOCK_RECORD
  5
F6
330
1
100
AcDbSymbolTableRecord
100
AcDbBlockTableRecord
  2
*D14
340
0
  0
BLOCK_RECORD
  5
105
330
1
100
AcDbSymbolTableRecord
100
AcDbBlockTableRecord
  2
*D15
340
0
  0
BLOCK_RECORD
  5
114
330
1
100
AcDbSymbolTableRecord
100
AcDbBlockTableRecord
  2
*D16
340
0
  0
BLOCK_RECORD
  5
122
330
1
100
AcDbSymbolTableRecord
100
AcDbBlockTableRecord
  2
*D17
340
0
  0
BLOCK_RECORD
  5
12F
330
1
100
AcDbSymbolTableRecord
100
AcDbBlockTableRecord
  2
*D18
340
0
  0
BLOCK_RECORD
  5
13C
330
1
100
AcDbSymbolTableRecord
100
AcDbBlockTableRecord
  2
*D19
340
0
  0
BLOCK_RECORD
  5
14B
330
1
100
AcDbSymbolTableRecord
100
AcDbBlockTableRecord
  2
*D20
340
0
  0
BLOCK_RECORD
  5
15A
330
1
100
AcDbSymbolTableRecord
100
AcDbBlockTableRecord
  2
*D21
340
0
  0
BLOCK_RECORD
  5
169
330
1
100
AcDbSymbolTableRecord
100
AcDbBlockTableRecord
  2
*D22
340
0
  0
BLOCK_RECORD
  5
178
330
1
100
AcDbSymbolTableRecord
100
AcDbBlockTableRecord
  2
*D23
340
0
  0
BLOCK_RECORD
  5
188
330
1
100
AcDbSymbolTableRecord
100
AcDbBlockTableRecord
  2
*D24
340
0
  0
BLOCK_RECORD
  5
197
330
1
100
AcDbSymbolTableRecord
100
AcDbBlockTableRecord
  2
*D25
340
0
  0
BLOCK_RECORD
  5
1A6
330
1
100
AcDbSymbolTableRecord
100
AcDbBlockTableRecord
  2
*D26
340
0
  0
BLOCK_RECORD
  5
1B3
330
1
100
AcDbSymbolTableRecord
100
AcDbBlockTableRecord
  2
*D27
340
0
  0
BLOCK_RECORD
  5
1C1
330
1
100
AcDbSymbolTableRecord
100
AcDbBlockTableRecord
  2
*D28
340
0
  0
BLOCK_RECORD
  5
1CE
330
1
100
AcDbSymbolTableRecord
100
AcDbBlockTableRecord
  2
*D29
340
0
  0
BLOCK_RECORD
  5
1DD
330
1
100
AcDbSymbolTableRecord
100
AcDbBlockTableRecord
  2
*D30
340
0
  0
BLOCK_RECORD
  5
1EA
330
1
100
AcDbSymbolTableRecord
100
AcDbBlockTableRecord
  2
*D31
340
0
  0
BLOCK_RECORD
  5
1F7
330
1
100
AcDbSymbolTableRecord
100
AcDbBlockTableRecord
  2
*D32
340
0
  0
BLOCK_RECORD
  5
206
330
1
100
AcDbSymbolTableRecord
100
AcDbBlockTableRecord
  2
*D33
340
0
  0
BLOCK_RECORD
  5
215
330
1
100
AcDbSymbolTableRecord
100
AcDbBlockTableRecord
  2
*D34
340
0
  0
BLOCK_RECORD
  5
224
330
1
100
AcDbSymbolTableRecord
100
AcDbBlockTableRecord
  2
*D35
340
0
  0
BLOCK_RECORD
  5
233
330
1
100
AcDbSymbolTableRecord
100
AcDbBlockTableRecord
  2
*D36
340
0
  0
BLOCK_RECORD
  5
242
330
1
100
AcDbSymbolTableRecord
100
AcDbBlockTableRecord
  2
*D37
340
0
  0
BLOCK_RECORD
  5
24D
330
1
100
AcDbSymbolTableRecord
100
AcDbBlockTableRecord
  2
*D38
340
0
  0
BLOCK_RECORD
  5
25C
330
1
100
AcDbSymbolTableRecord
100
AcDbBlockTableRecord
  2
*D39
340
0
  0
BLOCK_RECORD
  5
26B
330
1
100
AcDbSymbolTableRecord
100
AcDbBlockTableRecord
  2
*D40
340
0
  0
BLOCK_RECORD
  5
278
330
1
100
AcDbSymbolTableRecord
100
AcDbBlockTableRecord
  2
*D41
340
0
  0
BLOCK_RECORD
  5
283
330
1
100
AcDbSymbolTableRecord
100
AcDbBlockTableRecord
  2
*D42
340
0
  0
BLOCK_RECORD
  5
28E
330
1
100
AcDbSymbolTableRecord
100
AcDbBlockTableRecord
  2
*D43
340
0
  0
BLOCK_RECORD
  5
29D
330
1
100
AcDbSymbolTableRecord
100
AcDbBlockTableRecord
  2
*D44
340
0
  0
BLOCK_RECORD
  5
2AC
330
1
100
AcDbSymbolTableRecord
100
AcDbBlockTableRecord
  2
*D45
340
0
  0
BLOCK_RECORD
  5
2BB
330
1
100
AcDbSymbolTableRecord
100
AcDbBlockTableRecord
  2
*D46
340
0
  0
BLOCK_RECORD
  5
2CA
330
1
100
AcDbSymbolTableRecord
100
AcDbBlockTableRecord
  2
*D47
340
0
  0
BLOCK_RECORD
  5
2D9
330
1
100
AcDbSymbolTableRecord
100
AcDbBlockTableRecord
  2
*D48
340
0
  0
BLOCK_RECORD
  5
2E8
330
1
100
AcDbSymbolTableRecord
100
AcDbBlockTableRecord
  2
*D49
340
0
  0
BLOCK_RECORD
  5
2F8
330
1
100
AcDbSymbolTableRecord
100
AcDbBlockTableRecord
  2
*D50
340
0
  0
BLOCK_RECORD
  5
307
330
1
100
AcDbSymbolTableRecord
100
AcDbBlockTableRecord
  2
*D51
340
0
  0
BLOCK_RECORD
  5
316
330
1
100
AcDbSymbolTableRecord
100
AcDbBlockTableRecord
  2
*D52
340
0
  0
BLOCK_RECORD
  5
325
330
1
100
AcDbSymbolTableRecord
100
AcDbBlockTableRecord
  2
*D53
340
0
  0
ENDTAB
  0
ENDSEC
  0
SECTION
  2
BLOCKS
  0
BLOCK
  5
20
330
1F
100
AcDbEntity
  8
0
100
AcDbBlockBegin
  2
*Model_Space
 70
     0
 71
     0
 10
0.0
 20
0.0
 30
0.0
  3
*Model_Space
  1

  0
ENDBLK
  5
21
330
1F
100
AcDbEntity
  8
0
100
AcDbBlockEnd
  0
BLOCK
  5
1C
330
1B
100
AcDbEntity
 67
     1
  8
0
100
AcDbBlockBegin
  2
*Paper_Space
 70
     0
 71
     0
 10
0.0
 20
0.0
 30
0.0
  3
*Paper_Space
  1

  0
ENDBLK
  5
1D
330
1B
100
AcDbEntity
 67
     1
  8
0
100
AcDbBlockEnd
  0
BLOCK
  5
24
330
23
100
AcDbEntity
  8
0
100
AcDbBlockBegin
  2
*Paper_Space0
 70
     0
 71
     0
 10
0.0
 20
0.0
 30
0.0
  3
*Paper_Space0
  1

  0
ENDBLK
  5
25
330
23
100
AcDbEntity
  8
0
100
AcDbBlockEnd
  0
BLOCK
  5
4A
330
49
100
AcDbEntity
  8
0
100
AcDbBlockBegin
  2
_CLOSED
 70
     0
 71
     0
 10
0.0
 20
0.0
 30
0.0
  3
_CLOSED
  1

  0
LINE
  5
4C
330
49
100
AcDbEntity
  8
0
  6
ByBlock
 62
     0
370
    -2
100
AcDbLine
 10
-1.0
 20
0.166667
 30
0.0
 11
0.0
 21
0.0
 31
0.0
  0
LINE
  5
4D
330
49
100
AcDbEntity
  8
0
  6
ByBlock
 62
     0
370
    -2
100
AcDbLine
 10
0.0
 20
0.0
 30
0.0
 11
-1.0
 21
-0.166667
 31
0.0
  0
LINE
  5
4E
330
49
100
AcDbEntity
  8
0
  6
ByBlock
 62
     0
370
    -2
100
AcDbLine
 10
-1.0
 20
0.166667
 30
0.0
 11
-1.0
 21
-0.166667
 31
0.0
  0
LINE
  5
4F
330
49
100
AcDbEntity
  8
0
  6
ByBlock
 62
     0
370
    -2
100
AcDbLine
 10
0.0
 20
0.0
 30
0.0
 11
-1.0
 21
0.0
 31
0.0
  0
ENDBLK
  5
4B
330
49
100
AcDbEntity
  8
0
100
AcDbBlockEnd
  0
BLOCK
  5
5E
330
54
100
AcDbEntity
  8
0
100
AcDbBlockBegin
  2
*D2
 70
     1
 71
     0
 10
0.0
 20
0.0
 30
0.0
  3
*D2
  1

  0
LINE
  5
55
330
54
100
AcDbEntity
  8
0
  6
Continuous
 62
    21
370
    -2
100
AcDbLine
 10
262.755408
 20
418.639435
 30
0.0
 11
295.155408
 21
418.639435
 31
0.0
  0
LINE
  5
56
330
54
100
AcDbEntity
  8
0
  6
Continuous
 62
    21
370
    -2
100
AcDbLine
 10
262.755408
 20
400.639435
 30
0.0
 11
295.155408
 21
400.639435
 31
0.0
  0
LINE
  5
57
330
54
100
AcDbEntity
  8
0
  6
Continuous
 62
    21
370
    -2
100
AcDbLine
 10
293.355408
 20
415.039435
 30
0.0
 11
293.355408
 21
404.239435
 31
0.0
  0
SOLID
  5
58
330
54
100
AcDbEntity
  8
0
 62
    21
100
AcDbTrace
 10
293.955408
 20
415.039435
 30
0.0
 11
292.755408
 21
415.039435
 31
0.0
 12
293.355408
 22
418.639435
 32
0.0
 13
293.355408
 23
418.639435
 33
0.0
  0
SOLID
  5
59
330
54
100
AcDbEntity
  8
0
 62
    21
100
AcDbTrace
 10
292.755408
 20
404.239435
 30
0.0
 11
293.955408
 21
404.239435
 31
0.0
 12
293.355408
 22
400.639435
 32
0.0
 13
293.355408
 23
400.639435
 33
0.0
  0
MTEXT
  5
5A
330
54
100
AcDbEntity
  8
0
 62
    21
100
AcDbMText
 10
290.323908
 20
409.639435
 30
0.0
 40
3.0
 41
0.0
 71
     5
 72
     1
  1
\A1;18
  7
STEFANO
 11
0.0
 21
1.0
 31
0.0
 73
     1
 44
1.0
  0
POINT
  5
5B
330
54
100
AcDbEntity
  8
Defpoints
 62
     0
100
AcDbPoint
 10
261.855408
 20
418.639435
 30
0.0
  0
POINT
  5
5C
330
54
100
AcDbEntity
  8
Defpoints
 62
     0
100
AcDbPoint
 10
261.855408
 20
400.639435
 30
0.0
  0
POINT
  5
5D
330
54
100
AcDbEntity
  8
Defpoints
 62
     0
100
AcDbPoint
 10
293.355408
 20
400.639435
 30
0.0
  0
ENDBLK
  5
5F
330
54
100
AcDbEntity
  8
0
100
AcDbBlockEnd
  0
BLOCK
  5
6C
330
61
100
AcDbEntity
  8
0
100
AcDbBlockBegin
  2
*D3
 70
     1
 71
     0
 10
0.0
 20
0.0
 30
0.0
  3
*D3
  1

  0
LINE
  5
62
330
61
100
AcDbEntity
  8
0
  6
Continuous
 62
    21
370
    -2
100
AcDbLine
 10
231.855423
 20
395.664099
 30
0.0
 11
231.855423
 21
550.001843
 31
0.0
  0
LINE
  5
63
330
61
100
AcDbEntity
  8
0
  6
Continuous
 62
    21
370
    -2
100
AcDbLine
 10
219.355423
 20
481.539435
 30
0.0
 11
219.355423
 21
550.001843
 31
0.0
  0
LINE
  5
64
330
61
100
AcDbEntity
  8
0
  6
Continuous
 62
    21
370
    -2
100
AcDbLine
 10
219.355423
 20
548.201843
 30
0.0
 11
204.388421
 21
548.201843
 31
0.0
  0
LINE
  5
65
330
61
100
AcDbEntity
  8
0
  6
Continuous
 62
    21
370
    -2
100
AcDbLine
 10
228.255423
 20
548.201843
 30
0.0
 11
222.955423
 21
548.201843
 31
0.0
  0
SOLID
  5
66
330
61
100
AcDbEntity
  8
0
 62
    21
100
AcDbTrace
 10
228.255423
 20
547.601843
 30
0.0
 11
228.255423
 21
548.801843
 31
0.0
 12
231.855423
 22
548.201843
 32
0.0
 13
231.855423
 23
548.201843
 33
0.0
  0
SOLID
  5
67
330
61
100
AcDbEntity
  8
0
 62
    21
100
AcDbTrace
 10
222.955423
 20
548.801843
 30
0.0
 11
222.955423
 21
547.601843
 31
0.0
 12
219.355423
 22
548.201843
 32
0.0
 13
219.355423
 23
548.201843
 33
0.0
  0
MTEXT
  5
68
330
61
100
AcDbEntity
  8
0
 62
    21
100
AcDbMText
 10
209.650421
 20
551.233343
 30
0.0
 40
3.0
 41
0.0
 71
     5
 72
     1
  1
\A1;12.5
  7
STEFANO
 73
     1
 44
1.0
  0
POINT
  5
69
330
61
100
AcDbEntity
  8
Defpoints
 62
     0
100
AcDbPoint
 10
231.855423
 20
394.764099
 30
0.0
  0
POINT
  5
6A
330
61
100
AcDbEntity
  8
Defpoints
 62
     0
100
AcDbPoint
 10
219.355423
 20
480.639435
 30
0.0
  0
POINT
  5
6B
330
61
100
AcDbEntity
  8
Defpoints
 62
     0
100
AcDbPoint
 10
219.355423
 20
548.201843
 30
0.0
  0
ENDBLK
  5
6D
330
61
100
AcDbEntity
  8
0
100
AcDbBlockEnd
  0
BLOCK
  5
7A
330
6F
100
AcDbEntity
  8
0
100
AcDbBlockBegin
  2
*D4
 70
     1
 71
     0
 10
0.0
 20
0.0
 30
0.0
  3
*D4
  1

  0
LINE
  5
70
330
6F
100
AcDbEntity
  8
0
  6
Continuous
 62
    21
370
    -2
100
AcDbLine
 10
231.855423
 20
395.664099
 30
0.0
 11
231.855423
 21
518.501721
 31
0.0
  0
LINE
  5
71
330
6F
100
AcDbEntity
  8
0
  6
Continuous
 62
    21
370
    -2
100
AcDbLine
 10
244.355423
 20
481.539435
 30
0.0
 11
244.355423
 21
518.501721
 31
0.0
  0
LINE
  5
72
330
6F
100
AcDbEntity
  8
0
  6
Continuous
 62
    21
370
    -2
100
AcDbLine
 10
231.855423
 20
516.701721
 30
0.0
 11
216.888421
 21
516.701721
 31
0.0
  0
LINE
  5
73
330
6F
100
AcDbEntity
  8
0
  6
Continuous
 62
    21
370
    -2
100
AcDbLine
 10
235.455423
 20
516.701721
 30
0.0
 11
240.755423
 21
516.701721
 31
0.0
  0
SOLID
  5
74
330
6F
100
AcDbEntity
  8
0
 62
    21
100
AcDbTrace
 10
235.455423
 20
517.301721
 30
0.0
 11
235.455423
 21
516.101721
 31
0.0
 12
231.855423
 22
516.701721
 32
0.0
 13
231.855423
 23
516.701721
 33
0.0
  0
SOLID
  5
75
330
6F
100
AcDbEntity
  8
0
 62
    21
100
AcDbTrace
 10
240.755423
 20
516.101721
 30
0.0
 11
240.755423
 21
517.301721
 31
0.0
 12
244.355423
 22
516.701721
 32
0.0
 13
244.355423
 23
516.701721
 33
0.0
  0
MTEXT
  5
76
330
6F
100
AcDbEntity
  8
0
 62
    21
100
AcDbMText
 10
222.150421
 20
519.733221
 30
0.0
 40
3.0
 41
0.0
 71
     5
 72
     1
  1
\A1;12.5
  7
STEFANO
 73
     1
 44
1.0
  0
POINT
  5
77
330
6F
100
AcDbEntity
  8
Defpoints
 62
     0
100
AcDbPoint
 10
231.855423
 20
394.764099
 30
0.0
  0
POINT
  5
78
330
6F
100
AcDbEntity
  8
Defpoints
 62
     0
100
AcDbPoint
 10
244.355423
 20
480.639435
 30
0.0
  0
POINT
  5
79
330
6F
100
AcDbEntity
  8
Defpoints
 62
     0
100
AcDbPoint
 10
244.355423
 20
516.701721
 30
0.0
  0
ENDBLK
  5
7B
330
6F
100
AcDbEntity
  8
0
100
AcDbBlockEnd
  0
BLOCK
  5
85
330
7D
100
AcDbEntity
  8
0
100
AcDbBlockBegin
  2
*D5
 70
     1
 71
     0
 10
0.0
 20
0.0
 30
0.0
  3
*D5
  1

  0
LINE
  5
7E
330
7D
100
AcDbEntity
  8
0
  6
Continuous
 62
    21
370
    -2
100
AcDbLine
 10
222.877247
 20
453.445051
 30
0.0
 11
229.746653
 21
464.898951
 31
0.0
  0
MTEXT
  5
7F
330
7D
100
AcDbEntity
  8
0
 62
    21
100
AcDbMText
 10
222.457726
 20
458.639578
 30
0.0
 40
3.0
 41
0.0
 71
     5
 72
     1
  1
\A1;0.5
  7
STEFANO
 11
0.5143341854976453
 21
0.8575898469714263
 31
0.0
 73
     1
 44
1.0
  0
SOLID
  5
80
330
7D
100
AcDbEntity
  8
0
 62
    21
100
AcDbTrace
 10
230.261207
 20
464.590351
 30
0.0
 11
229.232099
 21
465.207552
 31
0.0
 12
231.598256
 22
467.986275
 32
0.0
 13
231.598256
 23
467.986275
 33
0.0
  0
LINE
  5
81
330
7D
100
AcDbEntity
  8
0
  6
Continuous
 62
    21
370
    -2
100
AcDbLine
 10
231.765423
 20
468.41507
 30
0.0
 11
231.945423
 21
468.41507
 31
0.0
  0
LINE
  5
82
330
7D
100
AcDbEntity
  8
0
  6
Continuous
 62
    21
370
    -2
100
AcDbLine
 10
231.855423
 20
468.32507
 30
0.0
 11
231.855423
 21
468.50507
 31
0.0
  0
POINT
  5
83
330
7D
100
AcDbEntity
  8
Defpoints
 62
     0
100
AcDbPoint
 10
231.598256
 20
467.986275
 30
0.0
  0
POINT
  5
84
330
7D
100
AcDbEntity
  8
Defpoints
 62
     0
100
AcDbPoint
 10
231.855423
 20
468.41507
 30
0.0
  0
ENDBLK
  5
86
330
7D
100
AcDbEntity
  8
0
100
AcDbBlockEnd
  0
BLOCK
  5
92
330
88
100
AcDbEntity
  8
0
100
AcDbBlockBegin
  2
*D6
 70
     1
 71
     0
 10
0.0
 20
0.0
 30
0.0
  3
*D6
  1

  0
LINE
  5
89
330
88
100
AcDbEntity
  8
0
  6
Continuous
 62
    21
370
    -2
100
AcDbLine
 10
250.255423
 20
480.639435
 30
0.0
 11
325.405408
 21
480.639435
 31
0.0
  0
LINE
  5
8A
330
88
100
AcDbEntity
  8
0
  6
Continuous
 62
    21
370
    -2
100
AcDbLine
 10
262.755408
 20
418.639435
 30
0.0
 11
325.405408
 21
418.639435
 31
0.0
  0
LINE
  5
8B
330
88
100
AcDbEntity
  8
0
  6
Continuous
 62
    21
370
    -2
100
AcDbLine
 10
323.605408
 20
477.039435
 30
0.0
 11
323.605408
 21
422.239435
 31
0.0
  0
SOLID
  5
8C
330
88
100
AcDbEntity
  8
0
 62
    21
100
AcDbTrace
 10
324.205408
 20
477.039435
 30
0.0
 11
323.005408
 21
477.039435
 31
0.0
 12
323.605408
 22
480.639435
 32
0.0
 13
323.605408
 23
480.639435
 33
0.0
  0
SOLID
  5
8D
330
88
100
AcDbEntity
  8
0
 62
    21
100
AcDbTrace
 10
323.005408
 20
422.239435
 30
0.0
 11
324.205408
 21
422.239435
 31
0.0
 12
323.605408
 22
418.639435
 32
0.0
 13
323.605408
 23
418.639435
 33
0.0
  0
MTEXT
  5
8E
330
88
100
AcDbEntity
  8
0
 62
    21
100
AcDbMText
 10
320.573908
 20
449.639435
 30
0.0
 40
3.0
 41
0.0
 71
     5
 72
     1
  1
\A1;62
  7
STEFANO
 11
0.0
 21
1.0
 31
0.0
 73
     1
 44
1.0
  0
POINT
  5
8F
330
88
100
AcDbEntity
  8
Defpoints
 62
     0
100
AcDbPoint
 10
249.355423
 20
480.639435
 30
0.0
  0
POINT
  5
90
330
88
100
AcDbEntity
  8
Defpoints
 62
     0
100
AcDbPoint
 10
261.855408
 20
418.639435
 30
0.0
  0
POINT
  5
91
330
88
100
AcDbEntity
  8
Defpoints
 62
     0
100
AcDbPoint
 10
323.605408
 20
418.639435
 30
0.0
  0
ENDBLK
  5
93
330
88
100
AcDbEntity
  8
0
100
AcDbBlockEnd
  0
BLOCK
  5
9D
330
95
100
AcDbEntity
  8
0
100
AcDbBlockBegin
  2
*D7
 70
     1
 71
     0
 10
0.0
 20
0.0
 30
0.0
  3
*D7
  1

  0
LINE
  5
96
330
95
100
AcDbEntity
  8
0
  6
Continuous
 62
    21
370
    -2
100
AcDbLine
 10
232.274514
 20
502.221658
 30
0.0
 11
221.381994
 21
483.355207
 31
0.0
  0
MTEXT
  5
97
330
95
100
AcDbEntity
  8
0
 62
    21
100
AcDbMText
 10
228.408659
 20
501.588794
 30
0.0
 40
3.0
 41
0.0
 71
     5
 72
     1
  1
\A1;3
  7
STEFANO
 11
0.4999989485401309
 21
0.8660260108442261
 31
0.0
 73
     1
 44
1.0
  0
SOLID
  5
98
330
95
100
AcDbEntity
  8
0
 62
    21
100
AcDbTrace
 10
220.862378
 20
483.655206
 30
0.0
 11
221.901609
 21
483.055207
 31
0.0
 12
219.581998
 22
480.237513
 32
0.0
 13
219.581998
 23
480.237513
 33
0.0
  0
LINE
  5
99
330
95
100
AcDbEntity
  8
0
  6
Continuous
 62
    21
370
    -2
100
AcDbLine
 10
217.992001
 20
477.639435
 30
0.0
 11
218.172001
 21
477.639435
 31
0.0
  0
LINE
  5
9A
330
95
100
AcDbEntity
  8
0
  6
Continuous
 62
    21
370
    -2
100
AcDbLine
 10
218.082001
 20
477.549435
 30
0.0
 11
218.082001
 21
477.729435
 31
0.0
  0
POINT
  5
9B
330
95
100
AcDbEntity
  8
Defpoints
 62
     0
100
AcDbPoint
 10
219.581998
 20
480.237513
 30
0.0
  0
POINT
  5
9C
330
95
100
AcDbEntity
  8
Defpoints
 62
     0
100
AcDbPoint
 10
218.082001
 20
477.639435
 30
0.0
  0
ENDBLK
  5
9E
330
95
100
AcDbEntity
  8
0
100
AcDbBlockEnd
  0
BLOCK
  5
A8
330
A0
100
AcDbEntity
  8
0
100
AcDbBlockBegin
  2
*D8
 70
     1
 71
     0
 10
0.0
 20
0.0
 30
0.0
  3
*D8
  1

  0
LINE
  5
A1
330
A0
100
AcDbEntity
  8
0
  6
Continuous
 62
    21
370
    -2
100
AcDbLine
 10
234.172182
 20
497.482578
 30
0.0
 11
242.328798
 21
483.355175
 31
0.0
  0
MTEXT
  5
A2
330
A0
100
AcDbEntity
  8
0
 62
    21
100
AcDbMText
 10
238.038043
 20
496.849751
 30
0.0
 40
3.0
 41
0.0
 71
     5
 72
     1
  1
\A1;3
  7
STEFANO
 11
0.5000071680812559
 21
-0.8660212652512423
 31
0.0
 73
     1
 44
1.0
  0
SOLID
  5
A3
330
A0
100
AcDbEntity
  8
0
 62
    21
100
AcDbTrace
 10
241.809185
 20
483.055171
 30
0.0
 11
242.848411
 21
483.65518
 31
0.0
 12
244.128824
 22
480.237499
 32
0.0
 13
244.128824
 23
480.237499
 33
0.0
  0
LINE
  5
A4
330
A0
100
AcDbEntity
  8
0
  6
Continuous
 62
    21
370
    -2
100
AcDbLine
 10
245.538845
 20
477.639435
 30
0.0
 11
245.718845
 21
477.639435
 31
0.0
  0
LINE
  5
A5
330
A0
100
AcDbEntity
  8
0
  6
Continuous
 62
    21
370
    -2
100
AcDbLine
 10
245.628845
 20
477.549435
 30
0.0
 11
245.628845
 21
477.729435
 31
0.0
  0
POINT
  5
A6
330
A0
100
AcDbEntity
  8
Defpoints
 62
     0
100
AcDbPoint
 10
244.128824
 20
480.237499
 30
0.0
  0
POINT
  5
A7
330
A0
100
AcDbEntity
  8
Defpoints
 62
     0
100
AcDbPoint
 10
245.628845
 20
477.639435
 30
0.0
  0
ENDBLK
  5
A9
330
A0
100
AcDbEntity
  8
0
100
AcDbBlockEnd
  0
BLOCK
  5
B7
330
AB
100
AcDbEntity
  8
0
100
AcDbBlockBegin
  2
*D9
 70
     1
 71
     0
 10
0.0
 20
0.0
 30
0.0
  3
*D9
  1

  0
LINE
  5
AC
330
AB
100
AcDbEntity
  8
0
  6
Continuous
 62
    21
370
    -2
100
AcDbLine
 10
200.955423
 20
417.639435
 30
0.0
 11
168.555423
 21
417.639435
 31
0.0
  0
LINE
  5
AD
330
AB
100
AcDbEntity
  8
0
  6
Continuous
 62
    21
370
    -2
100
AcDbLine
 10
201.955423
 20
418.639435
 30
0.0
 11
168.555423
 21
418.639435
 31
0.0
  0
LINE
  5
AE
330
AB
100
AcDbEntity
  8
0
  6
Continuous
 62
    21
370
    -2
100
AcDbLine
 10
170.355423
 20
418.639435
 30
0.0
 11
170.355423
 21
438.050949
 31
0.0
  0
LINE
  5
AF
330
AB
100
AcDbEntity
  8
0
  6
Continuous
 62
    21
370
    -2
100
AcDbLine
 10
170.355423
 20
414.039435
 30
0.0
 11
170.355423
 21
410.439435
 31
0.0
  0
LINE
  5
B0
330
AB
100
AcDbEntity
  8
0
  6
Continuous
 62
    21
370
    -2
100
AcDbLine
 10
170.355423
 20
422.239435
 30
0.0
 11
170.355423
 21
425.839435
 31
0.0
  0
SOLID
  5
B1
330
AB
100
AcDbEntity
  8
0
 62
    21
100
AcDbTrace
 10
170.955423
 20
414.039435
 30
0.0
 11
169.755423
 21
414.039435
 31
0.0
 12
170.355423
 22
417.639435
 32
0.0
 13
170.355423
 23
417.639435
 33
0.0
  0
SOLID
  5
B2
330
AB
100
AcDbEntity
  8
0
 62
    21
100
AcDbTrace
 10
169.755423
 20
422.239435
 30
0.0
 11
170.955423
 21
422.239435
 31
0.0
 12
170.355423
 22
418.639435
 32
0.0
 13
170.355423
 23
418.639435
 33
0.0
  0
MTEXT
  5
B3
330
AB
100
AcDbEntity
  8
0
 62
    21
100
AcDbMText
 10
167.304423
 20
430.960449
 30
0.0
 40
3.0
 41
0.0
 71
     5
 72
     1
  1
\A1;1 x45%%d
  7
STEFANO
 11
0.0
 21
1.0
 31
0.0
 73
     1
 44
1.0
  0
POINT
  5
B4
330
AB
100
AcDbEntity
  8
Defpoints
 62
     0
100
AcDbPoint
 10
201.855423
 20
417.639435
 30
0.0
  0
POINT
  5
B5
330
AB
100
AcDbEntity
  8
Defpoints
 62
     0
100
AcDbPoint
 10
202.855423
 20
418.639435
 30
0.0
  0
POINT
  5
B6
330
AB
100
AcDbEntity
  8
Defpoints
 62
     0
100
AcDbPoint
 10
170.355423
 20
418.639435
 30
0.0
  0
ENDBLK
  5
B8
330
AB
100
AcDbEntity
  8
0
100
AcDbBlockEnd
  0
BLOCK
  5
C6
330
BA
100
AcDbEntity
  8
0
100
AcDbBlockBegin
  2
*D10
 70
     1
 71
     0
 10
0.0
 20
0.0
 30
0.0
  3
*D10
  1

  0
LINE
  5
BB
330
BA
100
AcDbEntity
  8
0
  6
Continuous
 62
    21
370
    -2
100
AcDbLine
 10
260.855408
 20
417.739435
 30
0.0
 11
260.855408
 21
335.839435
 31
0.0
  0
LINE
  5
BC
330
BA
100
AcDbEntity
  8
0
  6
Continuous
 62
    21
370
    -2
100
AcDbLine
 10
261.855408
 20
416.739435
 30
0.0
 11
261.855408
 21
335.839435
 31
0.0
  0
LINE
  5
BD
330
BA
100
AcDbEntity
  8
0
  6
Continuous
 62
    21
370
    -2
100
AcDbLine
 10
261.855408
 20
337.639435
 30
0.0
 11
281.266922
 21
337.639435
 31
0.0
  0
LINE
  5
BE
330
BA
100
AcDbEntity
  8
0
  6
Continuous
 62
    21
370
    -2
100
AcDbLine
 10
257.255408
 20
337.639435
 30
0.0
 11
253.655407
 21
337.639435
 31
0.0
  0
LINE
  5
BF
330
BA
100
AcDbEntity
  8
0
  6
Continuous
 62
    21
370
    -2
100
AcDbLine
 10
265.455408
 20
337.639435
 30
0.0
 11
269.055408
 21
337.639435
 31
0.0
  0
SOLID
  5
C0
330
BA
100
AcDbEntity
  8
0
 62
    21
100
AcDbTrace
 10
257.255408
 20
337.039435
 30
0.0
 11
257.255408
 21
338.239435
 31
0.0
 12
260.855408
 22
337.639435
 32
0.0
 13
260.855408
 23
337.639435
 33
0.0
  0
SOLID
  5
C1
330
BA
100
AcDbEntity
  8
0
 62
    21
100
AcDbTrace
 10
265.455408
 20
338.239435
 30
0.0
 11
265.455408
 21
337.039435
 31
0.0
 12
261.855408
 22
337.639435
 32
0.0
 13
261.855408
 23
337.639435
 33
0.0
  0
MTEXT
  5
C2
330
BA
100
AcDbEntity
  8
0
 62
    21
100
AcDbMText
 10
274.176422
 20
340.690435
 30
0.0
 40
3.0
 41
0.0
 71
     5
 72
     1
  1
\A1;1 x45%%d
  7
STEFANO
 73
     1
 44
1.0
  0
POINT
  5
C3
330
BA
100
AcDbEntity
  8
Defpoints
 62
     0
100
AcDbPoint
 10
260.855408
 20
418.639435
 30
0.0
  0
POINT
  5
C4
330
BA
100
AcDbEntity
  8
Defpoints
 62
     0
100
AcDbPoint
 10
261.855408
 20
417.639435
 30
0.0
  0
POINT
  5
C5
330
BA
100
AcDbEntity
  8
Defpoints
 62
     0
100
AcDbPoint
 10
261.855408
 20
337.639435
 30
0.0
  0
ENDBLK
  5
C7
330
BA
100
AcDbEntity
  8
0
100
AcDbBlockEnd
  0
BLOCK
  5
D5
330
C9
100
AcDbEntity
  8
0
100
AcDbBlockBegin
  2
*D11
 70
     1
 71
     0
 10
0.0
 20
0.0
 30
0.0
  3
*D11
  1

  0
LINE
  5
CA
330
C9
100
AcDbEntity
  8
0
  6
Continuous
 62
    21
370
    -2
100
AcDbLine
 10
200.955423
 20
401.639435
 30
0.0
 11
168.555423
 21
401.639435
 31
0.0
  0
LINE
  5
CB
330
C9
100
AcDbEntity
  8
0
  6
Continuous
 62
    21
370
    -2
100
AcDbLine
 10
201.955423
 20
400.639435
 30
0.0
 11
168.555423
 21
400.639435
 31
0.0
  0
LINE
  5
CC
330
C9
100
AcDbEntity
  8
0
  6
Continuous
 62
    21
370
    -2
100
AcDbLine
 10
170.355423
 20
400.639435
 30
0.0
 11
170.355423
 21
381.227951
 31
0.0
  0
LINE
  5
CD
330
C9
100
AcDbEntity
  8
0
  6
Continuous
 62
    21
370
    -2
100
AcDbLine
 10
170.355423
 20
405.239435
 30
0.0
 11
170.355423
 21
408.839435
 31
0.0
  0
LINE
  5
CE
330
C9
100
AcDbEntity
  8
0
  6
Continuous
 62
    21
370
    -2
100
AcDbLine
 10
170.355423
 20
397.039435
 30
0.0
 11
170.355423
 21
393.439435
 31
0.0
  0
SOLID
  5
CF
330
C9
100
AcDbEntity
  8
0
 62
    21
100
AcDbTrace
 10
169.755423
 20
405.239435
 30
0.0
 11
170.955423
 21
405.239435
 31
0.0
 12
170.355423
 22
401.639435
 32
0.0
 13
170.355423
 23
401.639435
 33
0.0
  0
SOLID
  5
D0
330
C9
100
AcDbEntity
  8
0
 62
    21
100
AcDbTrace
 10
170.955423
 20
397.039435
 30
0.0
 11
169.755423
 21
397.039435
 31
0.0
 12
170.355423
 22
400.639435
 32
0.0
 13
170.355423
 23
400.639435
 33
0.0
  0
MTEXT
  5
D1
330
C9
100
AcDbEntity
  8
0
 62
    21
100
AcDbMText
 10
167.304423
 20
388.318451
 30
0.0
 40
3.0
 41
0.0
 71
     5
 72
     1
  1
\A1;1 x45%%d
  7
STEFANO
 11
0.0
 21
1.0
 31
0.0
 73
     1
 44
1.0
  0
POINT
  5
D2
330
C9
100
AcDbEntity
  8
Defpoints
 62
     0
100
AcDbPoint
 10
201.855423
 20
401.639435
 30
0.0
  0
POINT
  5
D3
330
C9
100
AcDbEntity
  8
Defpoints
 62
     0
100
AcDbPoint
 10
202.855423
 20
400.639435
 30
0.0
  0
POINT
  5
D4
330
C9
100
AcDbEntity
  8
Defpoints
 62
     0
100
AcDbPoint
 10
170.355423
 20
400.639435
 30
0.0
  0
ENDBLK
  5
D6
330
C9
100
AcDbEntity
  8
0
100
AcDbBlockEnd
  0
BLOCK
  5
E4
330
D8
100
AcDbEntity
  8
0
100
AcDbBlockBegin
  2
*D12
 70
     1
 71
     0
 10
0.0
 20
0.0
 30
0.0
  3
*D12
  1

  0
LINE
  5
D9
330
D8
100
AcDbEntity
  8
0
  6
Continuous
 62
    21
370
    -2
100
AcDbLine
 10
250.255423
 20
479.839417
 30
0.0
 11
292.655408
 21
479.839417
 31
0.0
  0
LINE
  5
DA
330
D8
100
AcDbEntity
  8
0
  6
Continuous
 62
    21
370
    -2
100
AcDbLine
 10
249.45542
 20
480.639435
 30
0.0
 11
292.655408
 21
480.639435
 31
0.0
  0
LINE
  5
DB
330
D8
100
AcDbEntity
  8
0
  6
Continuous
 62
    21
370
    -2
100
AcDbLine
 10
290.855408
 20
480.639435
 30
0.0
 11
290.855408
 21
503.647941
 31
0.0
  0
LINE
  5
DC
330
D8
100
AcDbEntity
  8
0
  6
Continuous
 62
    21
370
    -2
100
AcDbLine
 10
290.855408
 20
476.239416
 30
0.0
 11
290.855408
 21
472.639416
 31
0.0
  0
LINE
  5
DD
330
D8
100
AcDbEntity
  8
0
  6
Continuous
 62
    21
370
    -2
100
AcDbLine
 10
290.855408
 20
484.239435
 30
0.0
 11
290.855408
 21
487.839435
 31
0.0
  0
SOLID
  5
DE
330
D8
100
AcDbEntity
  8
0
 62
    21
100
AcDbTrace
 10
291.455408
 20
476.239416
 30
0.0
 11
290.255408
 21
476.239416
 31
0.0
 12
290.855408
 22
479.839417
 32
0.0
 13
290.855408
 23
479.839417
 33
0.0
  0
SOLID
  5
DF
330
D8
100
AcDbEntity
  8
0
 62
    21
100
AcDbTrace
 10
290.255408
 20
484.239435
 30
0.0
 11
291.455408
 21
484.239435
 31
0.0
 12
290.855408
 22
480.639435
 32
0.0
 13
290.855408
 23
480.639435
 33
0.0
  0
MTEXT
  5
E0
330
D8
100
AcDbEntity
  8
0
 62
    21
100
AcDbMText
 10
287.804408
 20
494.670441
 30
0.0
 40
3.0
 41
0.0
 71
     5
 72
     1
  1
\A1;0.8 x45%%d
  7
STEFANO
 11
0.0
 21
1.0
 31
0.0
 73
     1
 44
1.0
  0
POINT
  5
E1
330
D8
100
AcDbEntity
  8
Defpoints
 62
     0
100
AcDbPoint
 10
249.355423
 20
479.839417
 30
0.0
  0
POINT
  5
E2
330
D8
100
AcDbEntity
  8
Defpoints
 62
     0
100
AcDbPoint
 10
248.55542
 20
480.639435
 30
0.0
  0
POINT
  5
E3
330
D8
100
AcDbEntity
  8
Defpoints
 62
     0
100
AcDbPoint
 10
290.855408
 20
480.639435
 30
0.0
  0
ENDBLK
  5
E5
330
D8
100
AcDbEntity
  8
0
100
AcDbBlockEnd
  0
BLOCK
  5
F3
330
E7
100
AcDbEntity
  8
0
100
AcDbBlockBegin
  2
*D13
 70
     1
 71
     0
 10
0.0
 20
0.0
 30
0.0
  3
*D13
  1

  0
LINE
  5
E8
330
E7
100
AcDbEntity
  8
0
  6
Continuous
 62
    21
370
    -2
100
AcDbLine
 10
213.455423
 20
479.839417
 30
0.0
 11
171.055408
 21
479.839417
 31
0.0
  0
LINE
  5
E9
330
E7
100
AcDbEntity
  8
0
  6
Continuous
 62
    21
370
    -2
100
AcDbLine
 10
214.255426
 20
480.639435
 30
0.0
 11
171.055408
 21
480.639435
 31
0.0
  0
LINE
  5
EA
330
E7
100
AcDbEntity
  8
0
  6
Continuous
 62
    21
370
    -2
100
AcDbLine
 10
172.855408
 20
480.639435
 30
0.0
 11
172.855408
 21
503.647941
 31
0.0
  0
LINE
  5
EB
330
E7
100
AcDbEntity
  8
0
  6
Continuous
 62
    21
370
    -2
100
AcDbLine
 10
172.855408
 20
476.239416
 30
0.0
 11
172.855408
 21
472.639416
 31
0.0
  0
LINE
  5
EC
330
E7
100
AcDbEntity
  8
0
  6
Continuous
 62
    21
370
    -2
100
AcDbLine
 10
172.855408
 20
484.239435
 30
0.0
 11
172.855408
 21
487.839435
 31
0.0
  0
SOLID
  5
ED
330
E7
100
AcDbEntity
  8
0
 62
    21
100
AcDbTrace
 10
173.455408
 20
476.239416
 30
0.0
 11
172.255408
 21
476.239416
 31
0.0
 12
172.855408
 22
479.839417
 32
0.0
 13
172.855408
 23
479.839417
 33
0.0
  0
SOLID
  5
EE
330
E7
100
AcDbEntity
  8
0
 62
    21
100
AcDbTrace
 10
172.255408
 20
484.239435
 30
0.0
 11
173.455408
 21
484.239435
 31
0.0
 12
172.855408
 22
480.639435
 32
0.0
 13
172.855408
 23
480.639435
 33
0.0
  0
MTEXT
  5
EF
330
E7
100
AcDbEntity
  8
0
 62
    21
100
AcDbMText
 10
169.804408
 20
494.670441
 30
0.0
 40
3.0
 41
0.0
 71
     5
 72
     1
  1
\A1;0.8 x45%%d
  7
STEFANO
 11
0.0
 21
1.0
 31
0.0
 73
     1
 44
1.0
  0
POINT
  5
F0
330
E7
100
AcDbEntity
  8
Defpoints
 62
     0
100
AcDbPoint
 10
214.355423
 20
479.839417
 30
0.0
  0
POINT
  5
F1
330
E7
100
AcDbEntity
  8
Defpoints
 62
     0
100
AcDbPoint
 10
215.155426
 20
480.639435
 30
0.0
  0
POINT
  5
F2
330
E7
100
AcDbEntity
  8
Defpoints
 62
     0
100
AcDbPoint
 10
172.855408
 20
480.639435
 30
0.0
  0
ENDBLK
  5
F4
330
E7
100
AcDbEntity
  8
0
100
AcDbBlockEnd
  0
BLOCK
  5
102
330
F6
100
AcDbEntity
  8
0
100
AcDbBlockBegin
  2
*D14
 70
     1
 71
     0
 10
0.0
 20
0.0
 30
0.0
  3
*D14
  1

  0
LINE
  5
F7
330
F6
100
AcDbEntity
  8
0
  6
Continuous
 62
    21
370
    -2
100
AcDbLine
 10
213.455423
 20
436.889435
 30
0.0
 11
171.055423
 21
436.889435
 31
0.0
  0
LINE
  5
F8
330
F6
100
AcDbEntity
  8
0
  6
Continuous
 62
    21
370
    -2
100
AcDbLine
 10
213.455423
 20
434.389435
 30
0.0
 11
171.055423
 21
434.389435
 31
0.0
  0
LINE
  5
F9
330
F6
100
AcDbEntity
  8
0
  6
Continuous
 62
    21
370
    -2
100
AcDbLine
 10
172.855423
 20
434.389435
 30
0.0
 11
172.855423
 21
421.559932
 31
0.0
  0
LINE
  5
FA
330
F6
100
AcDbEntity
  8
0
  6
Continuous
 62
    21
370
    -2
100
AcDbLine
 10
172.855423
 20
440.489435
 30
0.0
 11
172.855423
 21
444.089435
 31
0.0
  0
LINE
  5
FB
330
F6
100
AcDbEntity
  8
0
  6
Continuous
 62
    21
370
    -2
100
AcDbLine
 10
172.855423
 20
430.789435
 30
0.0
 11
172.855423
 21
427.189435
 31
0.0
  0
SOLID
  5
FC
330
F6
100
AcDbEntity
  8
0
 62
    21
100
AcDbTrace
 10
172.255423
 20
440.489435
 30
0.0
 11
173.455423
 21
440.489435
 31
0.0
 12
172.855423
 22
436.889435
 32
0.0
 13
172.855423
 23
436.889435
 33
0.0
  0
SOLID
  5
FD
330
F6
100
AcDbEntity
  8
0
 62
    21
100
AcDbTrace
 10
173.455423
 20
430.789435
 30
0.0
 11
172.255423
 21
430.789435
 31
0.0
 12
172.855423
 22
434.389435
 32
0.0
 13
172.855423
 23
434.389435
 33
0.0
  0
MTEXT
  5
FE
330
F6
100
AcDbEntity
  8
0
 62
    21
100
AcDbMText
 10
169.823923
 20
425.824432
 30
0.0
 40
3.0
 41
0.0
 71
     5
 72
     1
  1
\A1;2.5
  7
STEFANO
 11
0.0
 21
1.0
 31
0.0
 73
     1
 44
1.0
  0
POINT
  5
FF
330
F6
100
AcDbEntity
  8
Defpoints
 62
     0
100
AcDbPoint
 10
214.355423
 20
436.889435
 30
0.0
  0
POINT
  5
100
330
F6
100
AcDbEntity
  8
Defpoints
 62
     0
100
AcDbPoint
 10
214.355423
 20
434.389435
 30
0.0
  0
POINT
  5
101
330
F6
100
AcDbEntity
  8
Defpoints
 62
     0
100
AcDbPoint
 10
172.855423
 20
434.389435
 30
0.0
  0
ENDBLK
  5
103
330
F6
100
AcDbEntity
  8
0
100
AcDbBlockEnd
  0
BLOCK
  5
111
330
105
100
AcDbEntity
  8
0
100
AcDbBlockBegin
  2
*D15
 70
     1
 71
     0
 10
0.0
 20
0.0
 30
0.0
  3
*D15
  1

  0
LINE
  5
106
330
105
100
AcDbEntity
  8
0
  6
Continuous
 62
    21
370
    -2
100
AcDbLine
 10
216.241819
 20
435.003039
 30
0.0
 11
226.459034
 21
424.785824
 31
0.0
  0
LINE
  5
107
330
105
100
AcDbEntity
  8
0
  6
Continuous
 62
    21
370
    -2
100
AcDbLine
 10
216.241819
 20
436.275831
 30
0.0
 11
226.459034
 21
446.493046
 31
0.0
  0
ARC
  5
108
330
105
100
AcDbEntity
  8
0
  6
Continuous
 62
    21
370
    -2
100
AcDbCircle
 10
215.605423
 20
435.639435
 30
0.0
 40
13.54932360951526
100
AcDbArc
 50
330.268393
 51
29.731607
  0
SOLID
  5
109
330
105
100
AcDbEntity
  8
0
 62
    21
100
AcDbTrace
 10
226.894221
 20
429.283954
 30
0.0
 11
227.847954
 21
428.555673
 31
0.0
 12
225.186242
 22
426.058616
 32
0.0
 13
225.186242
 23
426.058616
 33
0.0
  0
SOLID
  5
10A
330
105
100
AcDbEntity
  8
0
 62
    21
100
AcDbTrace
 10
227.847954
 20
442.723197
 30
0.0
 11
226.894221
 21
441.994915
 31
0.0
 12
225.186242
 22
445.220253
 32
0.0
 13
225.186242
 23
445.220253
 33
0.0
  0
MTEXT
  5
10B
330
105
100
AcDbEntity
  8
0
 62
    21
100
AcDbMText
 10
226.103747
 20
435.639435
 30
0.0
 40
3.0
 41
0.0
 71
     5
 72
     1
  1
90%%d
  7
STEFANO
 11
0.0
 21
1.0
 31
0.0
 73
     1
 44
1.0
  0
POINT
  5
10C
330
105
100
AcDbEntity
  8
Defpoints
 62
     0
100
AcDbPoint
 10
229.154747
 20
435.639435
 30
0.0
  0
POINT
  5
10D
330
105
100
AcDbEntity
  8
Defpoints
 62
     0
100
AcDbPoint
 10
215.605423
 20
435.639435
 30
0.0
  0
POINT
  5
10E
330
105
100
AcDbEntity
  8
Defpoints
 62
     0
100
AcDbPoint
 10
215.605423
 20
435.639435
 30
0.0
  0
POINT
  5
10F
330
105
100
AcDbEntity
  8
Defpoints
 62
     0
100
AcDbPoint
 10
214.355423
 20
436.889435
 30
0.0
  0
POINT
  5
110
330
105
100
AcDbEntity
  8
Defpoints
 62
     0
100
AcDbPoint
 10
214.355423
 20
434.389435
 30
0.0
  0
ENDBLK
  5
112
330
105
100
AcDbEntity
  8
0
100
AcDbBlockEnd
  0
BLOCK
  5
11E
330
114
100
AcDbEntity
  8
0
100
AcDbBlockBegin
  2
*D16
 70
     1
 71
     0
 10
0.0
 20
0.0
 30
0.0
  3
*D16
  1

  0
LINE
  5
115
330
114
100
AcDbEntity
  8
0
  6
Continuous
 62
    21
370
    -2
100
AcDbLine
 10
213.455423
 20
418.639435
 30
0.0
 11
139.555423
 21
418.639435
 31
0.0
  0
LINE
  5
116
330
114
100
AcDbEntity
  8
0
  6
Continuous
 62
    21
370
    -2
100
AcDbLine
 10
214.705423
 20
435.639435
 30
0.0
 11
139.555423
 21
435.639435
 31
0.0
  0
LINE
  5
117
330
114
100
AcDbEntity
  8
0
  6
Continuous
 62
    21
370
    -2
100
AcDbLine
 10
141.355423
 20
422.239435
 30
0.0
 11
141.355423
 21
432.039435
 31
0.0
  0
SOLID
  5
118
330
114
100
AcDbEntity
  8
0
 62
    21
100
AcDbTrace
 10
140.755423
 20
422.239435
 30
0.0
 11
141.955423
 21
422.239435
 31
0.0
 12
141.355423
 22
418.639435
 32
0.0
 13
141.355423
 23
418.639435
 33
0.0
  0
SOLID
  5
119
330
114
100
AcDbEntity
  8
0
 62
    21
100
AcDbTrace
 10
141.955423
 20
432.039435
 30
0.0
 11
140.755423
 21
432.039435
 31
0.0
 12
141.355423
 22
435.639435
 32
0.0
 13
141.355423
 23
435.639435
 33
0.0
  0
MTEXT
  5
11A
330
114
100
AcDbEntity
  8
0
 62
    21
100
AcDbMText
 10
138.349423
 20
427.139435
 30
0.0
 40
3.0
 41
0.0
 71
     5
 72
     1
  1
\A1;17
  7
STEFANO
 11
0.0
 21
1.0
 31
0.0
 73
     1
 44
1.0
  0
POINT
  5
11B
330
114
100
AcDbEntity
  8
Defpoints
 62
     0
100
AcDbPoint
 10
214.355423
 20
418.639435
 30
0.0
  0
POINT
  5
11C
330
114
100
AcDbEntity
  8
Defpoints
 62
     0
100
AcDbPoint
 10
215.605423
 20
435.639435
 30
0.0
  0
POINT
  5
11D
330
114
100
AcDbEntity
  8
Defpoints
 62
     0
100
AcDbPoint
 10
141.355423
 20
435.639435
 30
0.0
  0
ENDBLK
  5
11F
330
114
100
AcDbEntity
  8
0
100
AcDbBlockEnd
  0
BLOCK
  5
12C
330
122
100
AcDbEntity
  8
0
100
AcDbBlockBegin
  2
*D17
 70
     1
 71
     0
 10
0.0
 20
0.0
 30
0.0
  3
*D17
  1

  0
LINE
  5
123
330
122
100
AcDbEntity
  8
0
  6
Continuous
 62
    21
370
    -2
100
AcDbLine
 10
400.233038
 20
418.639435
 30
0.0
 11
464.133038
 21
418.639435
 31
0.0
  0
LINE
  5
124
330
122
100
AcDbEntity
  8
0
  6
Continuous
 62
    21
370
    -2
100
AcDbLine
 10
400.233038
 20
400.639435
 30
0.0
 11
464.133038
 21
400.639435
 31
0.0
  0
LINE
  5
125
330
122
100
AcDbEntity
  8
0
  6
Continuous
 62
    21
370
    -2
100
AcDbLine
 10
462.333038
 20
415.039435
 30
0.0
 11
462.333038
 21
404.239435
 31
0.0
  0
SOLID
  5
126
330
122
100
AcDbEntity
  8
0
 62
    21
100
AcDbTrace
 10
462.933038
 20
415.039435
 30
0.0
 11
461.733038
 21
415.039435
 31
0.0
 12
462.333038
 22
418.639435
 32
0.0
 13
462.333038
 23
418.639435
 33
0.0
  0
SOLID
  5
127
330
122
100
AcDbEntity
  8
0
 62
    21
100
AcDbTrace
 10
461.733038
 20
404.239435
 30
0.0
 11
462.933038
 21
404.239435
 31
0.0
 12
462.333038
 22
400.639435
 32
0.0
 13
462.333038
 23
400.639435
 33
0.0
  0
MTEXT
  5
128
330
122
100
AcDbEntity
  8
0
 62
    21
100
AcDbMText
 10
459.301538
 20
409.639435
 30
0.0
 40
3.0
 41
0.0
 71
     5
 72
     1
  1
\A1;18
  7
STEFANO
 11
0.0
 21
1.0
 31
0.0
 73
     1
 44
1.0
  0
POINT
  5
129
330
122
100
AcDbEntity
  8
Defpoints
 62
     0
100
AcDbPoint
 10
399.333038
 20
418.639435
 30
0.0
  0
POINT
  5
12A
330
122
100
AcDbEntity
  8
Defpoints
 62
     0
100
AcDbPoint
 10
399.333038
 20
400.639435
 30
0.0
  0
POINT
  5
12B
330
122
100
AcDbEntity
  8
Defpoints
 62
     0
100
AcDbPoint
 10
462.333038
 20
400.639435
 30
0.0
  0
ENDBLK
  5
12D
330
122
100
AcDbEntity
  8
0
100
AcDbBlockEnd
  0
BLOCK
  5
139
330
12F
100
AcDbEntity
  8
0
100
AcDbBlockBegin
  2
*D18
 70
     1
 71
     0
 10
0.0
 20
0.0
 30
0.0
  3
*D18
  1

  0
LINE
  5
130
330
12F
100
AcDbEntity
  8
0
  6
Continuous
 62
    21
370
    -2
100
AcDbLine
 10
399.333038
 20
417.739435
 30
0.0
 11
399.333038
 21
335.839435
 31
0.0
  0
LINE
  5
131
330
12F
100
AcDbEntity
  8
0
  6
Continuous
 62
    21
370
    -2
100
AcDbLine
 10
349.333038
 20
417.739435
 30
0.0
 11
349.333038
 21
335.839435
 31
0.0
  0
LINE
  5
132
330
12F
100
AcDbEntity
  8
0
  6
Continuous
 62
    21
370
    -2
100
AcDbLine
 10
395.733038
 20
337.639435
 30
0.0
 11
352.933038
 21
337.639435
 31
0.0
  0
SOLID
  5
133
330
12F
100
AcDbEntity
  8
0
 62
    21
100
AcDbTrace
 10
395.733038
 20
337.039435
 30
0.0
 11
395.733038
 21
338.239435
 31
0.0
 12
399.333038
 22
337.639435
 32
0.0
 13
399.333038
 23
337.639435
 33
0.0
  0
SOLID
  5
134
330
12F
100
AcDbEntity
  8
0
 62
    21
100
AcDbTrace
 10
352.933038
 20
338.239435
 30
0.0
 11
352.933038
 21
337.039435
 31
0.0
 12
349.333038
 22
337.639435
 32
0.0
 13
349.333038
 23
337.639435
 33
0.0
  0
MTEXT
  5
135
330
12F
100
AcDbEntity
  8
0
 62
    21
100
AcDbMText
 10
374.333038
 20
340.670935
 30
0.0
 40
3.0
 41
0.0
 71
     5
 72
     1
  1
\A1;50
  7
STEFANO
 73
     1
 44
1.0
  0
POINT
  5
136
330
12F
100
AcDbEntity
  8
Defpoints
 62
     0
100
AcDbPoint
 10
399.333038
 20
418.639435
 30
0.0
  0
POINT
  5
137
330
12F
100
AcDbEntity
  8
Defpoints
 62
     0
100
AcDbPoint
 10
349.333038
 20
418.639435
 30
0.0
  0
POINT
  5
138
330
12F
100
AcDbEntity
  8
Defpoints
 62
     0
100
AcDbPoint
 10
349.333038
 20
337.639435
 30
0.0
  0
ENDBLK
  5
13A
330
12F
100
AcDbEntity
  8
0
100
AcDbBlockEnd
  0
BLOCK
  5
148
330
13C
100
AcDbEntity
  8
0
100
AcDbBlockBegin
  2
*D19
 70
     1
 71
     0
 10
0.0
 20
0.0
 30
0.0
  3
*D19
  1

  0
LINE
  5
13D
330
13C
100
AcDbEntity
  8
0
  6
Continuous
 62
    21
370
    -2
100
AcDbLine
 10
375.233038
 20
417.639435
 30
0.0
 11
432.633038
 21
417.639435
 31
0.0
  0
LINE
  5
13E
330
13C
100
AcDbEntity
  8
0
  6
Continuous
 62
    21
370
    -2
100
AcDbLine
 10
375.233038
 20
418.639435
 30
0.0
 11
432.633038
 21
418.639435
 31
0.0
  0
LINE
  5
13F
330
13C
100
AcDbEntity
  8
0
  6
Continuous
 62
    21
370
    -2
100
AcDbLine
 10
430.833038
 20
418.639435
 30
0.0
 11
430.833038
 21
438.050949
 31
0.0
  0
LINE
  5
140
330
13C
100
AcDbEntity
  8
0
  6
Continuous
 62
    21
370
    -2
100
AcDbLine
 10
430.833038
 20
414.039435
 30
0.0
 11
430.833038
 21
410.439435
 31
0.0
  0
LINE
  5
141
330
13C
100
AcDbEntity
  8
0
  6
Continuous
 62
    21
370
    -2
100
AcDbLine
 10
430.833038
 20
422.239435
 30
0.0
 11
430.833038
 21
425.839435
 31
0.0
  0
SOLID
  5
142
330
13C
100
AcDbEntity
  8
0
 62
    21
100
AcDbTrace
 10
431.433038
 20
414.039435
 30
0.0
 11
430.233038
 21
414.039435
 31
0.0
 12
430.833038
 22
417.639435
 32
0.0
 13
430.833038
 23
417.639435
 33
0.0
  0
SOLID
  5
143
330
13C
100
AcDbEntity
  8
0
 62
    21
100
AcDbTrace
 10
430.233038
 20
422.239435
 30
0.0
 11
431.433038
 21
422.239435
 31
0.0
 12
430.833038
 22
418.639435
 32
0.0
 13
430.833038
 23
418.639435
 33
0.0
  0
MTEXT
  5
144
330
13C
100
AcDbEntity
  8
0
 62
    21
100
AcDbMText
 10
427.782038
 20
430.960449
 30
0.0
 40
3.0
 41
0.0
 71
     5
 72
     1
  1
\A1;1 x45%%d
  7
STEFANO
 11
0.0
 21
1.0
 31
0.0
 73
     1
 44
1.0
  0
POINT
  5
145
330
13C
100
AcDbEntity
  8
Defpoints
 62
     0
100
AcDbPoint
 10
374.333038
 20
417.639435
 30
0.0
  0
POINT
  5
146
330
13C
100
AcDbEntity
  8
Defpoints
 62
     0
100
AcDbPoint
 10
374.333038
 20
418.639435
 30
0.0
  0
POINT
  5
147
330
13C
100
AcDbEntity
  8
Defpoints
 62
     0
100
AcDbPoint
 10
430.833038
 20
418.639435
 30
0.0
  0
ENDBLK
  5
149
330
13C
100
AcDbEntity
  8
0
100
AcDbBlockEnd
  0
BLOCK
  5
157
330
14B
100
AcDbEntity
  8
0
100
AcDbBlockBegin
  2
*D20
 70
     1
 71
     0
 10
0.0
 20
0.0
 30
0.0
  3
*D20
  1

  0
LINE
  5
14C
330
14B
100
AcDbEntity
  8
0
  6
Continuous
 62
    21
370
    -2
100
AcDbLine
 10
375.233038
 20
401.639435
 30
0.0
 11
432.633038
 21
401.639435
 31
0.0
  0
LINE
  5
14D
330
14B
100
AcDbEntity
  8
0
  6
Continuous
 62
    21
370
    -2
100
AcDbLine
 10
375.233038
 20
400.639435
 30
0.0
 11
432.633038
 21
400.639435
 31
0.0
  0
LINE
  5
14E
330
14B
100
AcDbEntity
  8
0
  6
Continuous
 62
    21
370
    -2
100
AcDbLine
 10
430.833038
 20
400.639435
 30
0.0
 11
430.833038
 21
381.227951
 31
0.0
  0
LINE
  5
14F
330
14B
100
AcDbEntity
  8
0
  6
Continuous
 62
    21
370
    -2
100
AcDbLine
 10
430.833038
 20
405.239435
 30
0.0
 11
430.833038
 21
408.839435
 31
0.0
  0
LINE
  5
150
330
14B
100
AcDbEntity
  8
0
  6
Continuous
 62
    21
370
    -2
100
AcDbLine
 10
430.833038
 20
397.039435
 30
0.0
 11
430.833038
 21
393.439435
 31
0.0
  0
SOLID
  5
151
330
14B
100
AcDbEntity
  8
0
 62
    21
100
AcDbTrace
 10
430.233038
 20
405.239435
 30
0.0
 11
431.433038
 21
405.239435
 31
0.0
 12
430.833038
 22
401.639435
 32
0.0
 13
430.833038
 23
401.639435
 33
0.0
  0
SOLID
  5
152
330
14B
100
AcDbEntity
  8
0
 62
    21
100
AcDbTrace
 10
431.433038
 20
397.039435
 30
0.0
 11
430.233038
 21
397.039435
 31
0.0
 12
430.833038
 22
400.639435
 32
0.0
 13
430.833038
 23
400.639435
 33
0.0
  0
MTEXT
  5
153
330
14B
100
AcDbEntity
  8
0
 62
    21
100
AcDbMText
 10
427.782038
 20
388.318451
 30
0.0
 40
3.0
 41
0.0
 71
     5
 72
     1
  1
\A1;1 x45%%d
  7
STEFANO
 11
0.0
 21
1.0
 31
0.0
 73
     1
 44
1.0
  0
POINT
  5
154
330
14B
100
AcDbEntity
  8
Defpoints
 62
     0
100
AcDbPoint
 10
374.333038
 20
401.639435
 30
0.0
  0
POINT
  5
155
330
14B
100
AcDbEntity
  8
Defpoints
 62
     0
100
AcDbPoint
 10
374.333038
 20
400.639435
 30
0.0
  0
POINT
  5
156
330
14B
100
AcDbEntity
  8
Defpoints
 62
     0
100
AcDbPoint
 10
430.833038
 20
400.639435
 30
0.0
  0
ENDBLK
  5
158
330
14B
100
AcDbEntity
  8
0
100
AcDbBlockEnd
  0
BLOCK
  5
166
330
15A
100
AcDbEntity
  8
0
100
AcDbBlockBegin
  2
*D21
 70
     1
 71
     0
 10
0.0
 20
0.0
 30
0.0
  3
*D21
  1

  0
LINE
  5
15B
330
15A
100
AcDbEntity
  8
0
  6
Continuous
 62
    21
370
    -2
100
AcDbLine
 10
375.233038
 20
479.839417
 30
0.0
 11
464.133038
 21
479.839417
 31
0.0
  0
LINE
  5
15C
330
15A
100
AcDbEntity
  8
0
  6
Continuous
 62
    21
370
    -2
100
AcDbLine
 10
375.233038
 20
480.639435
 30
0.0
 11
464.133038
 21
480.639435
 31
0.0
  0
LINE
  5
15D
330
15A
100
AcDbEntity
  8
0
  6
Continuous
 62
    21
370
    -2
100
AcDbLine
 10
462.333038
 20
480.639435
 30
0.0
 11
462.333038
 21
503.647941
 31
0.0
  0
LINE
  5
15E
330
15A
100
AcDbEntity
  8
0
  6
Continuous
 62
    21
370
    -2
100
AcDbLine
 10
462.333038
 20
476.239416
 30
0.0
 11
462.333038
 21
472.639416
 31
0.0
  0
LINE
  5
15F
330
15A
100
AcDbEntity
  8
0
  6
Continuous
 62
    21
370
    -2
100
AcDbLine
 10
462.333038
 20
484.239435
 30
0.0
 11
462.333038
 21
487.839435
 31
0.0
  0
SOLID
  5
160
330
15A
100
AcDbEntity
  8
0
 62
    21
100
AcDbTrace
 10
462.933038
 20
476.239416
 30
0.0
 11
461.733038
 21
476.239416
 31
0.0
 12
462.333038
 22
479.839417
 32
0.0
 13
462.333038
 23
479.839417
 33
0.0
  0
SOLID
  5
161
330
15A
100
AcDbEntity
  8
0
 62
    21
100
AcDbTrace
 10
461.733038
 20
484.239435
 30
0.0
 11
462.933038
 21
484.239435
 31
0.0
 12
462.333038
 22
480.639435
 32
0.0
 13
462.333038
 23
480.639435
 33
0.0
  0
MTEXT
  5
162
330
15A
100
AcDbEntity
  8
0
 62
    21
100
AcDbMText
 10
459.282038
 20
494.670441
 30
0.0
 40
3.0
 41
0.0
 71
     5
 72
     1
  1
\A1;0.8 x45%%d
  7
STEFANO
 11
0.0
 21
1.0
 31
0.0
 73
     1
 44
1.0
  0
POINT
  5
163
330
15A
100
AcDbEntity
  8
Defpoints
 62
     0
100
AcDbPoint
 10
374.333038
 20
479.839417
 30
0.0
  0
POINT
  5
164
330
15A
100
AcDbEntity
  8
Defpoints
 62
     0
100
AcDbPoint
 10
374.333038
 20
480.639435
 30
0.0
  0
POINT
  5
165
330
15A
100
AcDbEntity
  8
Defpoints
 62
     0
100
AcDbPoint
 10
462.333038
 20
480.639435
 30
0.0
  0
ENDBLK
  5
167
330
15A
100
AcDbEntity
  8
0
100
AcDbBlockEnd
  0
BLOCK
  5
175
330
169
100
AcDbEntity
  8
0
100
AcDbBlockBegin
  2
*D22
 70
     1
 71
     0
 10
0.0
 20
0.0
 30
0.0
  3
*D22
  1

  0
LINE
  5
16A
330
169
100
AcDbEntity
  8
0
  6
Continuous
 62
    21
370
    -2
100
AcDbLine
 10
375.233038
 20
479.839417
 30
0.0
 11
432.633038
 21
479.839417
 31
0.0
  0
LINE
  5
16B
330
169
100
AcDbEntity
  8
0
  6
Continuous
 62
    21
370
    -2
100
AcDbLine
 10
375.233038
 20
480.639435
 30
0.0
 11
432.633038
 21
480.639435
 31
0.0
  0
LINE
  5
16C
330
169
100
AcDbEntity
  8
0
  6
Continuous
 62
    21
370
    -2
100
AcDbLine
 10
430.833038
 20
480.639435
 30
0.0
 11
430.833038
 21
503.647941
 31
0.0
  0
LINE
  5
16D
330
169
100
AcDbEntity
  8
0
  6
Continuous
 62
    21
370
    -2
100
AcDbLine
 10
430.833038
 20
476.239416
 30
0.0
 11
430.833038
 21
472.639416
 31
0.0
  0
LINE
  5
16E
330
169
100
AcDbEntity
  8
0
  6
Continuous
 62
    21
370
    -2
100
AcDbLine
 10
430.833038
 20
484.239435
 30
0.0
 11
430.833038
 21
487.839435
 31
0.0
  0
SOLID
  5
16F
330
169
100
AcDbEntity
  8
0
 62
    21
100
AcDbTrace
 10
431.433038
 20
476.239416
 30
0.0
 11
430.233038
 21
476.239416
 31
0.0
 12
430.833038
 22
479.839417
 32
0.0
 13
430.833038
 23
479.839417
 33
0.0
  0
SOLID
  5
170
330
169
100
AcDbEntity
  8
0
 62
    21
100
AcDbTrace
 10
430.233038
 20
484.239435
 30
0.0
 11
431.433038
 21
484.239435
 31
0.0
 12
430.833038
 22
480.639435
 32
0.0
 13
430.833038
 23
480.639435
 33
0.0
  0
MTEXT
  5
171
330
169
100
AcDbEntity
  8
0
 62
    21
100
AcDbMText
 10
427.782038
 20
494.670441
 30
0.0
 40
3.0
 41
0.0
 71
     5
 72
     1
  1
\A1;0.8 x45%%d
  7
STEFANO
 11
0.0
 21
1.0
 31
0.0
 73
     1
 44
1.0
  0
POINT
  5
172
330
169
100
AcDbEntity
  8
Defpoints
 62
     0
100
AcDbPoint
 10
374.333038
 20
479.839417
 30
0.0
  0
POINT
  5
173
330
169
100
AcDbEntity
  8
Defpoints
 62
     0
100
AcDbPoint
 10
374.333038
 20
480.639435
 30
0.0
  0
POINT
  5
174
330
169
100
AcDbEntity
  8
Defpoints
 62
     0
100
AcDbPoint
 10
430.833038
 20
480.639435
 30
0.0
  0
ENDBLK
  5
176
330
169
100
AcDbEntity
  8
0
100
AcDbBlockEnd
  0
BLOCK
  5
184
330
178
100
AcDbEntity
  8
0
100
AcDbBlockBegin
  2
*D23
 70
     1
 71
     0
 10
0.0
 20
0.0
 30
0.0
  3
*D23
  1

  0
LINE
  5
179
330
178
100
AcDbEntity
  8
0
  6
Continuous
 62
    21
370
    -2
100
AcDbLine
 10
400.233038
 20
436.889435
 30
0.0
 11
432.633038
 21
436.889435
 31
0.0
  0
LINE
  5
17A
330
178
100
AcDbEntity
  8
0
  6
Continuous
 62
    21
370
    -2
100
AcDbLine
 10
400.233038
 20
434.389435
 30
0.0
 11
432.633038
 21
434.389435
 31
0.0
  0
LINE
  5
17B
330
178
100
AcDbEntity
  8
0
  6
Continuous
 62
    21
370
    -2
100
AcDbLine
 10
430.833038
 20
434.389435
 30
0.0
 11
430.833038
 21
421.559932
 31
0.0
  0
LINE
  5
17C
330
178
100
AcDbEntity
  8
0
  6
Continuous
 62
    21
370
    -2
100
AcDbLine
 10
430.833038
 20
440.489435
 30
0.0
 11
430.833038
 21
444.089435
 31
0.0
  0
LINE
  5
17D
330
178
100
AcDbEntity
  8
0
  6
Continuous
 62
    21
370
    -2
100
AcDbLine
 10
430.833038
 20
430.789435
 30
0.0
 11
430.833038
 21
427.189435
 31
0.0
  0
SOLID
  5
17E
330
178
100
AcDbEntity
  8
0
 62
    21
100
AcDbTrace
 10
430.233038
 20
440.489435
 30
0.0
 11
431.433038
 21
440.489435
 31
0.0
 12
430.833038
 22
436.889435
 32
0.0
 13
430.833038
 23
436.889435
 33
0.0
  0
SOLID
  5
17F
330
178
100
AcDbEntity
  8
0
 62
    21
100
AcDbTrace
 10
431.433038
 20
430.789435
 30
0.0
 11
430.233038
 21
430.789435
 31
0.0
 12
430.833038
 22
434.389435
 32
0.0
 13
430.833038
 23
434.389435
 33
0.0
  0
MTEXT
  5
180
330
178
100
AcDbEntity
  8
0
 62
    21
100
AcDbMText
 10
427.801538
 20
425.824432
 30
0.0
 40
3.0
 41
0.0
 71
     5
 72
     1
  1
\A1;2.5
  7
STEFANO
 11
0.0
 21
1.0
 31
0.0
 73
     1
 44
1.0
  0
POINT
  5
181
330
178
100
AcDbEntity
  8
Defpoints
 62
     0
100
AcDbPoint
 10
399.333038
 20
436.889435
 30
0.0
  0
POINT
  5
182
330
178
100
AcDbEntity
  8
Defpoints
 62
     0
100
AcDbPoint
 10
399.333038
 20
434.389435
 30
0.0
  0
POINT
  5
183
330
178
100
AcDbEntity
  8
Defpoints
 62
     0
100
AcDbPoint
 10
430.833038
 20
434.389435
 30
0.0
  0
ENDBLK
  5
185
330
178
100
AcDbEntity
  8
0
100
AcDbBlockEnd
  0
BLOCK
  5
194
330
188
100
AcDbEntity
  8
0
100
AcDbBlockBegin
  2
*D24
 70
     1
 71
     0
 10
0.0
 20
0.0
 30
0.0
  3
*D24
  1

  0
LINE
  5
189
330
188
100
AcDbEntity
  8
0
  6
Continuous
 62
    21
370
    -2
100
AcDbLine
 10
213.455423
 20
450.639435
 30
0.0
 11
212.555423
 21
450.639435
 31
0.0
  0
LINE
  5
18A
330
188
100
AcDbEntity
  8
0
  6
Continuous
 62
    21
370
    -2
100
AcDbLine
 10
213.455423
 20
460.639435
 30
0.0
 11
212.555423
 21
460.639435
 31
0.0
  0
LINE
  5
18B
330
188
100
AcDbEntity
  8
0
  6
Continuous
 62
    21
370
    -2
100
AcDbLine
 10
214.355423
 20
450.639435
 30
0.0
 11
214.355423
 21
439.14494
 31
0.0
  0
LINE
  5
18C
330
188
100
AcDbEntity
  8
0
  6
Continuous
 62
    21
370
    -2
100
AcDbLine
 10
214.355423
 20
447.039435
 30
0.0
 11
214.355423
 21
443.439435
 31
0.0
  0
LINE
  5
18D
330
188
100
AcDbEntity
  8
0
  6
Continuous
 62
    21
370
    -2
100
AcDbLine
 10
214.355423
 20
464.239435
 30
0.0
 11
214.355423
 21
467.839435
 31
0.0
  0
SOLID
  5
18E
330
188
100
AcDbEntity
  8
0
 62
    21
100
AcDbTrace
 10
214.955423
 20
447.039435
 30
0.0
 11
213.755423
 21
447.039435
 31
0.0
 12
214.355423
 22
450.639435
 32
0.0
 13
214.355423
 23
450.639435
 33
0.0
  0
SOLID
  5
18F
330
188
100
AcDbEntity
  8
0
 62
    21
100
AcDbTrace
 10
213.755423
 20
464.239435
 30
0.0
 11
214.955423
 21
464.239435
 31
0.0
 12
214.355423
 22
460.639435
 32
0.0
 13
214.355423
 23
460.639435
 33
0.0
  0
MTEXT
  5
190
330
188
100
AcDbEntity
  8
0
 62
    21
100
AcDbMText
 10
211.323923
 20
442.64444
 30
0.0
 40
3.0
 41
0.0
 71
     5
 72
     1
  1
\A1;10
  7
STEFANO
 11
0.0
 21
1.0
 31
0.0
 73
     1
 44
1.0
  0
POINT
  5
191
330
188
100
AcDbEntity
  8
Defpoints
 62
     0
100
AcDbPoint
 10
214.355423
 20
450.639435
 30
0.0
  0
POINT
  5
192
330
188
100
AcDbEntity
  8
Defpoints
 62
     0
100
AcDbPoint
 10
214.355423
 20
460.639435
 30
0.0
  0
POINT
  5
193
330
188
100
AcDbEntity
  8
Defpoints
 62
     0
100
AcDbPoint
 10
214.355423
 20
460.639435
 30
0.0
  0
ENDBLK
  5
195
330
188
100
AcDbEntity
  8
0
100
AcDbBlockEnd
  0
BLOCK
  5
1A3
330
197
100
AcDbEntity
  8
0
100
AcDbBlockBegin
  2
*D25
 70
     1
 71
     0
 10
0.0
 20
0.0
 30
0.0
  3
*D25
  1

  0
LINE
  5
198
330
197
100
AcDbEntity
  8
0
  6
Continuous
 62
    21
370
    -2
100
AcDbLine
 10
214.355423
 20
449.739435
 30
0.0
 11
214.355423
 21
440.439471
 31
0.0
  0
LINE
  5
199
330
197
100
AcDbEntity
  8
0
  6
Continuous
 62
    21
370
    -2
100
AcDbLine
 10
214.455429
 20
449.739435
 30
0.0
 11
214.455429
 21
440.439471
 31
0.0
  0
LINE
  5
19A
330
197
100
AcDbEntity
  8
0
  6
Continuous
 62
    21
370
    -2
100
AcDbLine
 10
214.355423
 20
442.239471
 30
0.0
 11
201.851436
 21
442.239471
 31
0.0
  0
LINE
  5
19B
330
197
100
AcDbEntity
  8
0
  6
Continuous
 62
    21
370
    -2
100
AcDbLine
 10
210.755423
 20
442.239471
 30
0.0
 11
207.155423
 21
442.239471
 31
0.0
  0
LINE
  5
19C
330
197
100
AcDbEntity
  8
0
  6
Continuous
 62
    21
370
    -2
100
AcDbLine
 10
218.055429
 20
442.239471
 30
0.0
 11
221.655429
 21
442.239471
 31
0.0
  0
SOLID
  5
19D
330
197
100
AcDbEntity
  8
0
 62
    21
100
AcDbTrace
 10
210.755423
 20
441.639471
 30
0.0
 11
210.755423
 21
442.839471
 31
0.0
 12
214.355423
 22
442.239471
 32
0.0
 13
214.355423
 23
442.239471
 33
0.0
  0
SOLID
  5
19E
330
197
100
AcDbEntity
  8
0
 62
    21
100
AcDbTrace
 10
218.055429
 20
442.839471
 30
0.0
 11
218.055429
 21
441.639471
 31
0.0
 12
214.455429
 22
442.239471
 32
0.0
 13
214.455429
 23
442.239471
 33
0.0
  0
MTEXT
  5
19F
330
197
100
AcDbEntity
  8
0
 62
    21
100
AcDbMText
 10
205.790436
 20
445.270971
 30
0.0
 40
3.0
 41
0.0
 71
     5
 72
     1
  1
\A1;0.1
  7
STEFANO
 73
     1
 44
1.0
  0
POINT
  5
1A0
330
197
100
AcDbEntity
  8
Defpoints
 62
     0
100
AcDbPoint
 10
214.355423
 20
450.639435
 30
0.0
  0
POINT
  5
1A1
330
197
100
AcDbEntity
  8
Defpoints
 62
     0
100
AcDbPoint
 10
214.455429
 20
450.639435
 30
0.0
  0
POINT
  5
1A2
330
197
100
AcDbEntity
  8
Defpoints
 62
     0
100
AcDbPoint
 10
214.455429
 20
442.239471
 30
0.0
  0
ENDBLK
  5
1A4
330
197
100
AcDbEntity
  8
0
100
AcDbBlockEnd
  0
BLOCK
  5
1B0
330
1A6
100
AcDbEntity
  8
0
100
AcDbBlockBegin
  2
*D26
 70
     1
 71
     0
 10
0.0
 20
0.0
 30
0.0
  3
*D26
  1

  0
LINE
  5
1A7
330
1A6
100
AcDbEntity
  8
0
  6
Continuous
 62
    21
370
    -2
100
AcDbLine
 10
373.433038
 20
460.639435
 30
0.0
 11
365.120807
 21
460.639435
 31
0.0
  0
LINE
  5
1A8
330
1A6
100
AcDbEntity
  8
0
  6
Continuous
 62
    21
370
    -2
100
AcDbLine
 10
398.433038
 20
480.639435
 30
0.0
 11
365.120807
 21
480.639435
 31
0.0
  0
LINE
  5
1A9
330
1A6
100
AcDbEntity
  8
0
  6
Continuous
 62
    21
370
    -2
100
AcDbLine
 10
366.920807
 20
464.239435
 30
0.0
 11
366.920807
 21
477.039435
 31
0.0
  0
SOLID
  5
1AA
330
1A6
100
AcDbEntity
  8
0
 62
    21
100
AcDbTrace
 10
366.320807
 20
464.239435
 30
0.0
 11
367.520807
 21
464.239435
 31
0.0
 12
366.920807
 22
460.639435
 32
0.0
 13
366.920807
 23
460.639435
 33
0.0
  0
SOLID
  5
1AB
330
1A6
100
AcDbEntity
  8
0
 62
    21
100
AcDbTrace
 10
367.520807
 20
477.039435
 30
0.0
 11
366.320807
 21
477.039435
 31
0.0
 12
366.920807
 22
480.639435
 32
0.0
 13
366.920807
 23
480.639435
 33
0.0
  0
MTEXT
  5
1AC
330
1A6
100
AcDbEntity
  8
0
 62
    21
100
AcDbMText
 10
363.889307
 20
470.639435
 30
0.0
 40
3.0
 41
0.0
 71
     5
 72
     1
  1
\A1;20
  7
STEFANO
 11
0.0
 21
1.0
 31
0.0
 73
     1
 44
1.0
  0
POINT
  5
1AD
330
1A6
100
AcDbEntity
  8
Defpoints
 62
     0
100
AcDbPoint
 10
374.333038
 20
460.639435
 30
0.0
  0
POINT
  5
1AE
330
1A6
100
AcDbEntity
  8
Defpoints
 62
     0
100
AcDbPoint
 10
399.333038
 20
480.639435
 30
0.0
  0
POINT
  5
1AF
330
1A6
100
AcDbEntity
  8
Defpoints
 62
     0
100
AcDbPoint
 10
366.920807
 20
480.639435
 30
0.0
  0
ENDBLK
  5
1B1
330
1A6
100
AcDbEntity
  8
0
100
AcDbBlockEnd
  0
BLOCK
  5
1BE
330
1B3
100
AcDbEntity
  8
0
100
AcDbBlockBegin
  2
*D27
 70
     1
 71
     0
 10
0.0
 20
0.0
 30
0.0
  3
*D27
  1

  0
LINE
  5
1B4
330
1B3
100
AcDbEntity
  8
0
  6
Continuous
 62
    21
370
    -2
100
AcDbLine
 10
354.333038
 20
459.739435
 30
0.0
 11
354.333038
 21
440.520251
 31
0.0
  0
LINE
  5
1B5
330
1B3
100
AcDbEntity
  8
0
  6
Continuous
 62
    21
370
    -2
100
AcDbLine
 10
349.333038
 20
478.939417
 30
0.0
 11
349.333038
 21
440.520251
 31
0.0
  0
LINE
  5
1B6
330
1B3
100
AcDbEntity
  8
0
  6
Continuous
 62
    21
370
    -2
100
AcDbLine
 10
357.933038
 20
442.320251
 30
0.0
 11
361.533039
 21
442.320251
 31
0.0
  0
LINE
  5
1B7
330
1B3
100
AcDbEntity
  8
0
  6
Continuous
 62
    21
370
    -2
100
AcDbLine
 10
345.733038
 20
442.320251
 30
0.0
 11
342.133038
 21
442.320251
 31
0.0
  0
SOLID
  5
1B8
330
1B3
100
AcDbEntity
  8
0
 62
    21
100
AcDbTrace
 10
357.933038
 20
442.920251
 30
0.0
 11
357.933038
 21
441.720251
 31
0.0
 12
354.333038
 22
442.320251
 32
0.0
 13
354.333038
 23
442.320251
 33
0.0
  0
SOLID
  5
1B9
330
1B3
100
AcDbEntity
  8
0
 62
    21
100
AcDbTrace
 10
345.733038
 20
441.720251
 30
0.0
 11
345.733038
 21
442.920251
 31
0.0
 12
349.333038
 22
442.320251
 32
0.0
 13
349.333038
 23
442.320251
 33
0.0
  0
MTEXT
  5
1BA
330
1B3
100
AcDbEntity
  8
0
 62
    21
100
AcDbMText
 10
351.833038
 20
445.345751
 30
0.0
 40
3.0
 41
0.0
 71
     5
 72
     1
  1
\A1;5
  7
STEFANO
 73
     1
 44
1.0
  0
POINT
  5
1BB
330
1B3
100
AcDbEntity
  8
Defpoints
 62
     0
100
AcDbPoint
 10
354.333038
 20
460.639435
 30
0.0
  0
POINT
  5
1BC
330
1B3
100
AcDbEntity
  8
Defpoints
 62
     0
100
AcDbPoint
 10
349.333038
 20
479.839417
 30
0.0
  0
POINT
  5
1BD
330
1B3
100
AcDbEntity
  8
Defpoints
 62
     0
100
AcDbPoint
 10
349.333038
 20
442.320251
 30
0.0
  0
ENDBLK
  5
1BF
330
1B3
100
AcDbEntity
  8
0
100
AcDbBlockEnd
  0
BLOCK
  5
1CB
330
1C1
100
AcDbEntity
  8
0
100
AcDbBlockBegin
  2
*D28
 70
     1
 71
     0
 10
0.0
 20
0.0
 30
0.0
  3
*D28
  1

  0
LINE
  5
1C2
330
1C1
100
AcDbEntity
  8
0
  6
Continuous
 62
    21
370
    -2
100
AcDbLine
 10
354.333038
 20
449.739435
 30
0.0
 11
354.333038
 21
438.437274
 31
0.0
  0
LINE
  5
1C3
330
1C1
100
AcDbEntity
  8
0
  6
Continuous
 62
    21
370
    -2
100
AcDbLine
 10
374.333038
 20
449.739435
 30
0.0
 11
374.333038
 21
438.437274
 31
0.0
  0
LINE
  5
1C4
330
1C1
100
AcDbEntity
  8
0
  6
Continuous
 62
    21
370
    -2
100
AcDbLine
 10
357.933038
 20
440.237274
 30
0.0
 11
370.733038
 21
440.237274
 31
0.0
  0
SOLID
  5
1C5
330
1C1
100
AcDbEntity
  8
0
 62
    21
100
AcDbTrace
 10
357.933038
 20
440.837274
 30
0.0
 11
357.933038
 21
439.637274
 31
0.0
 12
354.333038
 22
440.237274
 32
0.0
 13
354.333038
 23
440.237274
 33
0.0
  0
SOLID
  5
1C6
330
1C1
100
AcDbEntity
  8
0
 62
    21
100
AcDbTrace
 10
370.733038
 20
439.637274
 30
0.0
 11
370.733038
 21
440.837274
 31
0.0
 12
374.333038
 22
440.237274
 32
0.0
 13
374.333038
 23
440.237274
 33
0.0
  0
MTEXT
  5
1C7
330
1C1
100
AcDbEntity
  8
0
 62
    21
100
AcDbMText
 10
364.333038
 20
443.268774
 30
0.0
 40
3.0
 41
0.0
 71
     5
 72
     1
  1
\A1;20
  7
STEFANO
 73
     1
 44
1.0
  0
POINT
  5
1C8
330
1C1
100
AcDbEntity
  8
Defpoints
 62
     0
100
AcDbPoint
 10
354.333038
 20
450.639435
 30
0.0
  0
POINT
  5
1C9
330
1C1
100
AcDbEntity
  8
Defpoints
 62
     0
100
AcDbPoint
 10
374.333038
 20
450.639435
 30
0.0
  0
POINT
  5
1CA
330
1C1
100
AcDbEntity
  8
Defpoints
 62
     0
100
AcDbPoint
 10
374.333038
 20
440.237274
 30
0.0
  0
ENDBLK
  5
1CC
330
1C1
100
AcDbEntity
  8
0
100
AcDbBlockEnd
  0
BLOCK
  5
1DA
330
1CE
100
AcDbEntity
  8
0
100
AcDbBlockBegin
  2
*D29
 70
     1
 71
     0
 10
0.0
 20
0.0
 30
0.0
  3
*D29
  1

  0
LINE
  5
1CF
330
1CE
100
AcDbEntity
  8
0
  6
Continuous
 62
    21
370
    -2
100
AcDbLine
 10
375.233038
 20
450.639435
 30
0.0
 11
385.096326
 21
450.639435
 31
0.0
  0
LINE
  5
1D0
330
1CE
100
AcDbEntity
  8
0
  6
Continuous
 62
    21
370
    -2
100
AcDbLine
 10
375.233038
 20
460.639435
 30
0.0
 11
385.096326
 21
460.639435
 31
0.0
  0
LINE
  5
1D1
330
1CE
100
AcDbEntity
  8
0
  6
Continuous
 62
    21
370
    -2
100
AcDbLine
 10
383.296326
 20
450.639435
 30
0.0
 11
383.296326
 21
439.14494
 31
0.0
  0
LINE
  5
1D2
330
1CE
100
AcDbEntity
  8
0
  6
Continuous
 62
    21
370
    -2
100
AcDbLine
 10
383.296326
 20
447.039435
 30
0.0
 11
383.296326
 21
443.439435
 31
0.0
  0
LINE
  5
1D3
330
1CE
100
AcDbEntity
  8
0
  6
Continuous
 62
    21
370
    -2
100
AcDbLine
 10
383.296326
 20
464.239435
 30
0.0
 11
383.296326
 21
467.839435
 31
0.0
  0
SOLID
  5
1D4
330
1CE
100
AcDbEntity
  8
0
 62
    21
100
AcDbTrace
 10
383.896326
 20
447.039435
 30
0.0
 11
382.696326
 21
447.039435
 31
0.0
 12
383.296326
 22
450.639435
 32
0.0
 13
383.296326
 23
450.639435
 33
0.0
  0
SOLID
  5
1D5
330
1CE
100
AcDbEntity
  8
0
 62
    21
100
AcDbTrace
 10
382.696326
 20
464.239435
 30
0.0
 11
383.896326
 21
464.239435
 31
0.0
 12
383.296326
 22
460.639435
 32
0.0
 13
383.296326
 23
460.639435
 33
0.0
  0
MTEXT
  5
1D6
330
1CE
100
AcDbEntity
  8
0
 62
    21
100
AcDbMText
 10
380.264826
 20
442.64444
 30
0.0
 40
3.0
 41
0.0
 71
     5
 72
     1
  1
\A1;10
  7
STEFANO
 11
0.0
 21
1.0
 31
0.0
 73
     1
 44
1.0
  0
POINT
  5
1D7
330
1CE
100
AcDbEntity
  8
Defpoints
 62
     0
100
AcDbPoint
 10
374.333038
 20
450.639435
 30
0.0
  0
POINT
  5
1D8
330
1CE
100
AcDbEntity
  8
Defpoints
 62
     0
100
AcDbPoint
 10
374.333038
 20
460.639435
 30
0.0
  0
POINT
  5
1D9
330
1CE
100
AcDbEntity
  8
Defpoints
 62
     0
100
AcDbPoint
 10
383.296326
 20
460.639435
 30
0.0
  0
ENDBLK
  5
1DB
330
1CE
100
AcDbEntity
  8
0
100
AcDbBlockEnd
  0
BLOCK
  5
1E7
330
1DD
100
AcDbEntity
  8
0
100
AcDbBlockBegin
  2
*D30
 70
     1
 71
     0
 10
0.0
 20
0.0
 30
0.0
  3
*D30
  1

  0
LINE
  5
1DE
330
1DD
100
AcDbEntity
  8
0
  6
Continuous
 62
    21
370
    -2
100
AcDbLine
 10
476.775238
 20
405.655817
 30
0.0
 11
476.775238
 21
303.536975
 31
0.0
  0
LINE
  5
1DF
330
1DD
100
AcDbEntity
  8
0
  6
Continuous
 62
    21
370
    -2
100
AcDbLine
 10
491.775238
 20
393.718164
 30
0.0
 11
491.775238
 21
303.536975
 31
0.0
  0
LINE
  5
1E0
330
1DD
100
AcDbEntity
  8
0
  6
Continuous
 62
    21
370
    -2
100
AcDbLine
 10
480.375238
 20
305.336975
 30
0.0
 11
488.175238
 21
305.336975
 31
0.0
  0
SOLID
  5
1E1
330
1DD
100
AcDbEntity
  8
0
 62
    21
100
AcDbTrace
 10
480.375238
 20
305.936975
 30
0.0
 11
480.375238
 21
304.736975
 31
0.0
 12
476.775238
 22
305.336975
 32
0.0
 13
476.775238
 23
305.336975
 33
0.0
  0
SOLID
  5
1E2
330
1DD
100
AcDbEntity
  8
0
 62
    21
100
AcDbTrace
 10
488.175238
 20
304.736975
 30
0.0
 11
488.175238
 21
305.936975
 31
0.0
 12
491.775238
 22
305.336975
 32
0.0
 13
491.775238
 23
305.336975
 33
0.0
  0
MTEXT
  5
1E3
330
1DD
100
AcDbEntity
  8
0
 62
     1
100
AcDbMText
 10
484.275238
 20
308.368475
 30
0.0
 40
3.0
 41
0.0
 71
     5
 72
     1
  1
\A1;30
  7
STEFANO
 73
     1
 44
1.0
  0
POINT
  5
1E4
330
1DD
100
AcDbEntity
  8
Defpoints
 62
     0
100
AcDbPoint
 10
476.775238
 20
406.555817
 30
0.0
  0
POINT
  5
1E5
330
1DD
100
AcDbEntity
  8
Defpoints
 62
     0
100
AcDbPoint
 10
491.775238
 20
394.618164
 30
0.0
  0
POINT
  5
1E6
330
1DD
100
AcDbEntity
  8
Defpoints
 62
     0
100
AcDbPoint
 10
491.775238
 20
305.336975
 30
0.0
  0
ENDBLK
  5
1E8
330
1DD
100
AcDbEntity
  8
0
100
AcDbBlockEnd
  0
BLOCK
  5
1F4
330
1EA
100
AcDbEntity
  8
0
100
AcDbBlockBegin
  2
*D31
 70
     1
 71
     0
 10
0.0
 20
0.0
 30
0.0
  3
*D31
  1

  0
LINE
  5
1EB
330
1EA
100
AcDbEntity
  8
0
  6
Continuous
 62
    21
370
    -2
100
AcDbLine
 10
506.775238
 20
396.655817
 30
0.0
 11
506.775238
 21
272.036975
 31
0.0
  0
LINE
  5
1EC
330
1EA
100
AcDbEntity
  8
0
  6
Continuous
 62
    21
370
    -2
100
AcDbLine
 10
491.775238
 20
393.718164
 30
0.0
 11
491.775238
 21
272.036975
 31
0.0
  0
LINE
  5
1ED
330
1EA
100
AcDbEntity
  8
0
  6
Continuous
 62
    21
370
    -2
100
AcDbLine
 10
503.175238
 20
273.836975
 30
0.0
 11
495.375238
 21
273.836975
 31
0.0
  0
SOLID
  5
1EE
330
1EA
100
AcDbEntity
  8
0
 62
    21
100
AcDbTrace
 10
503.175238
 20
273.236975
 30
0.0
 11
503.175238
 21
274.436975
 31
0.0
 12
506.775238
 22
273.836975
 32
0.0
 13
506.775238
 23
273.836975
 33
0.0
  0
SOLID
  5
1EF
330
1EA
100
AcDbEntity
  8
0
 62
    21
100
AcDbTrace
 10
495.375238
 20
274.436975
 30
0.0
 11
495.375238
 21
273.236975
 31
0.0
 12
491.775238
 22
273.836975
 32
0.0
 13
491.775238
 23
273.836975
 33
0.0
  0
MTEXT
  5
1F0
330
1EA
100
AcDbEntity
  8
0
 62
     1
100
AcDbMText
 10
499.275238
 20
276.868475
 30
0.0
 40
3.0
 41
0.0
 71
     5
 72
     1
  1
\A1;30
  7
STEFANO
 73
     1
 44
1.0
  0
POINT
  5
1F1
330
1EA
100
AcDbEntity
  8
Defpoints
 62
     0
100
AcDbPoint
 10
506.775238
 20
397.555817
 30
0.0
  0
POINT
  5
1F2
330
1EA
100
AcDbEntity
  8
Defpoints
 62
     0
100
AcDbPoint
 10
491.775238
 20
394.618164
 30
0.0
  0
POINT
  5
1F3
330
1EA
100
AcDbEntity
  8
Defpoints
 62
     0
100
AcDbPoint
 10
491.775238
 20
273.836975
 30
0.0
  0
ENDBLK
  5
1F5
330
1EA
100
AcDbEntity
  8
0
100
AcDbBlockEnd
  0
BLOCK
  5
203
330
1F7
100
AcDbEntity
  8
0
100
AcDbBlockBegin
  2
*D32
 70
     1
 71
     0
 10
0.0
 20
0.0
 30
0.0
  3
*D32
  1

  0
LINE
  5
1F8
330
1F7
100
AcDbEntity
  8
0
  6
Continuous
 62
    21
370
    -2
100
AcDbLine
 10
507.675238
 20
406.555817
 30
0.0
 11
540.075146
 21
406.555817
 31
0.0
  0
LINE
  5
1F9
330
1F7
100
AcDbEntity
  8
0
  6
Continuous
 62
    21
370
    -2
100
AcDbLine
 10
507.675238
 20
397.555817
 30
0.0
 11
540.075146
 21
397.555817
 31
0.0
  0
LINE
  5
1FA
330
1F7
100
AcDbEntity
  8
0
  6
Continuous
 62
    21
370
    -2
100
AcDbLine
 10
538.275146
 20
397.555817
 30
0.0
 11
538.275146
 21
386.052322
 31
0.0
  0
LINE
  5
1FB
330
1F7
100
AcDbEntity
  8
0
  6
Continuous
 62
    21
370
    -2
100
AcDbLine
 10
538.275146
 20
410.155817
 30
0.0
 11
538.275146
 21
413.755817
 31
0.0
  0
LINE
  5
1FC
330
1F7
100
AcDbEntity
  8
0
  6
Continuous
 62
    21
370
    -2
100
AcDbLine
 10
538.275146
 20
393.955817
 30
0.0
 11
538.275146
 21
390.355816
 31
0.0
  0
SOLID
  5
1FD
330
1F7
100
AcDbEntity
  8
0
 62
    21
100
AcDbTrace
 10
537.675146
 20
410.155817
 30
0.0
 11
538.875147
 21
410.155817
 31
0.0
 12
538.275146
 22
406.555817
 32
0.0
 13
538.275146
 23
406.555817
 33
0.0
  0
SOLID
  5
1FE
330
1F7
100
AcDbEntity
  8
0
 62
    21
100
AcDbTrace
 10
538.875147
 20
393.955817
 30
0.0
 11
537.675146
 21
393.955817
 31
0.0
 12
538.275146
 22
397.555817
 32
0.0
 13
538.275146
 23
397.555817
 33
0.0
  0
MTEXT
  5
1FF
330
1F7
100
AcDbEntity
  8
0
 62
     1
100
AcDbMText
 10
535.243646
 20
389.560822
 30
0.0
 40
3.0
 41
0.0
 71
     5
 72
     1
  1
\A1;18
  7
STEFANO
 11
0.0
 21
1.0
 31
0.0
 73
     1
 44
1.0
  0
POINT
  5
200
330
1F7
100
AcDbEntity
  8
Defpoints
 62
     0
100
AcDbPoint
 10
506.775238
 20
406.555817
 30
0.0
  0
POINT
  5
201
330
1F7
100
AcDbEntity
  8
Defpoints
 62
     0
100
AcDbPoint
 10
506.775238
 20
397.555817
 30
0.0
  0
POINT
  5
202
330
1F7
100
AcDbEntity
  8
Defpoints
 62
     0
100
AcDbPoint
 10
538.275146
 20
397.555817
 30
0.0
  0
ENDBLK
  5
204
330
1F7
100
AcDbEntity
  8
0
100
AcDbBlockEnd
  0
BLOCK
  5
212
330
206
100
AcDbEntity
  8
0
100
AcDbBlockBegin
  2
*D33
 70
     1
 71
     0
 10
0.0
 20
0.0
 30
0.0
  3
*D33
  1

  0
LINE
  5
207
330
206
100
AcDbEntity
  8
0
  6
Continuous
 62
    21
370
    -2
100
AcDbLine
 10
483.025238
 20
438.455817
 30
0.0
 11
483.025238
 21
537.16554
 31
0.0
  0
LINE
  5
208
330
206
100
AcDbEntity
  8
0
  6
Continuous
 62
    21
370
    -2
100
AcDbLine
 10
491.775238
 20
395.518164
 30
0.0
 11
491.775238
 21
537.16554
 31
0.0
  0
LINE
  5
209
330
206
100
AcDbEntity
  8
0
  6
Continuous
 62
    21
370
    -2
100
AcDbLine
 10
483.025238
 20
535.36554
 30
0.0
 11
468.058251
 21
535.36554
 31
0.0
  0
LINE
  5
20A
330
206
100
AcDbEntity
  8
0
  6
Continuous
 62
    21
370
    -2
100
AcDbLine
 10
479.425238
 20
535.36554
 30
0.0
 11
475.825238
 21
535.36554
 31
0.0
  0
LINE
  5
20B
330
206
100
AcDbEntity
  8
0
  6
Continuous
 62
    21
370
    -2
100
AcDbLine
 10
495.375238
 20
535.36554
 30
0.0
 11
498.975238
 21
535.36554
 31
0.0
  0
SOLID
  5
20C
330
206
100
AcDbEntity
  8
0
 62
    21
100
AcDbTrace
 10
479.425238
 20
534.76554
 30
0.0
 11
479.425238
 21
535.96554
 31
0.0
 12
483.025238
 22
535.36554
 32
0.0
 13
483.025238
 23
535.36554
 33
0.0
  0
SOLID
  5
20D
330
206
100
AcDbEntity
  8
0
 62
    21
100
AcDbTrace
 10
495.375238
 20
535.96554
 30
0.0
 11
495.375238
 21
534.76554
 31
0.0
 12
491.775238
 22
535.36554
 32
0.0
 13
491.775238
 23
535.36554
 33
0.0
  0
MTEXT
  5
20E
330
206
100
AcDbEntity
  8
0
 62
     1
100
AcDbMText
 10
473.320251
 20
538.39704
 30
0.0
 40
3.0
 41
0.0
 71
     5
 72
     1
  1
\A1;17.5
  7
STEFANO
 73
     1
 44
1.0
  0
POINT
  5
20F
330
206
100
AcDbEntity
  8
Defpoints
 62
     0
100
AcDbPoint
 10
483.025238
 20
437.555817
 30
0.0
  0
POINT
  5
210
330
206
100
AcDbEntity
  8
Defpoints
 62
     0
100
AcDbPoint
 10
491.775238
 20
394.618164
 30
0.0
  0
POINT
  5
211
330
206
100
AcDbEntity
  8
Defpoints
 62
     0
100
AcDbPoint
 10
491.775238
 20
535.36554
 30
0.0
  0
ENDBLK
  5
213
330
206
100
AcDbEntity
  8
0
100
AcDbBlockEnd
  0
BLOCK
  5
221
330
215
100
AcDbEntity
  8
0
100
AcDbBlockBegin
  2
*D34
 70
     1
 71
     0
 10
0.0
 20
0.0
 30
0.0
  3
*D34
  1

  0
LINE
  5
216
330
215
100
AcDbEntity
  8
0
  6
Continuous
 62
    21
370
    -2
100
AcDbLine
 10
500.525238
 20
405.655817
 30
0.0
 11
500.525238
 21
303.536975
 31
0.0
  0
LINE
  5
217
330
215
100
AcDbEntity
  8
0
  6
Continuous
 62
    21
370
    -2
100
AcDbLine
 10
491.775238
 20
393.718164
 30
0.0
 11
491.775238
 21
303.536975
 31
0.0
  0
LINE
  5
218
330
215
100
AcDbEntity
  8
0
  6
Continuous
 62
    21
370
    -2
100
AcDbLine
 10
491.775238
 20
305.336975
 30
0.0
 11
476.808251
 21
305.336975
 31
0.0
  0
LINE
  5
219
330
215
100
AcDbEntity
  8
0
  6
Continuous
 62
    21
370
    -2
100
AcDbLine
 10
504.125238
 20
305.336975
 30
0.0
 11
507.725238
 21
305.336975
 31
0.0
  0
LINE
  5
21A
330
215
100
AcDbEntity
  8
0
  6
Continuous
 62
    21
370
    -2
100
AcDbLine
 10
488.175238
 20
305.336975
 30
0.0
 11
484.575238
 21
305.336975
 31
0.0
  0
SOLID
  5
21B
330
215
100
AcDbEntity
  8
0
 62
    21
100
AcDbTrace
 10
504.125238
 20
305.936975
 30
0.0
 11
504.125238
 21
304.736975
 31
0.0
 12
500.525238
 22
305.336975
 32
0.0
 13
500.525238
 23
305.336975
 33
0.0
  0
SOLID
  5
21C
330
215
100
AcDbEntity
  8
0
 62
    21
100
AcDbTrace
 10
488.175238
 20
304.736975
 30
0.0
 11
488.175238
 21
305.936975
 31
0.0
 12
491.775238
 22
305.336975
 32
0.0
 13
491.775238
 23
305.336975
 33
0.0
  0
MTEXT
  5
21D
330
215
100
AcDbEntity
  8
0
 62
     1
100
AcDbMText
 10
482.070251
 20
308.368475
 30
0.0
 40
3.0
 41
0.0
 71
     5
 72
     1
  1
\A1;17.5
  7
STEFANO
 73
     1
 44
1.0
  0
POINT
  5
21E
330
215
100
AcDbEntity
  8
Defpoints
 62
     0
100
AcDbPoint
 10
500.525238
 20
406.555817
 30
0.0
  0
POINT
  5
21F
330
215
100
AcDbEntity
  8
Defpoints
 62
     0
100
AcDbPoint
 10
491.775238
 20
394.618164
 30
0.0
  0
POINT
  5
220
330
215
100
AcDbEntity
  8
Defpoints
 62
     0
100
AcDbPoint
 10
491.775238
 20
305.336975
 30
0.0
  0
ENDBLK
  5
222
330
215
100
AcDbEntity
  8
0
100
AcDbBlockEnd
  0
BLOCK
  5
230
330
224
100
AcDbEntity
  8
0
100
AcDbBlockBegin
  2
*D35
 70
     1
 71
     0
 10
0.0
 20
0.0
 30
0.0
  3
*D35
  1

  0
LINE
  5
225
330
224
100
AcDbEntity
  8
0
  6
Continuous
 62
    21
370
    -2
100
AcDbLine
 10
491.775238
 20
395.518164
 30
0.0
 11
491.775238
 21
505.66554
 31
0.0
  0
LINE
  5
226
330
224
100
AcDbEntity
  8
0
  6
Continuous
 62
    21
370
    -2
100
AcDbLine
 10
485.525238
 20
438.455817
 30
0.0
 11
485.525238
 21
505.66554
 31
0.0
  0
LINE
  5
227
330
224
100
AcDbEntity
  8
0
  6
Continuous
 62
    21
370
    -2
100
AcDbLine
 10
485.525238
 20
503.86554
 30
0.0
 11
470.558251
 21
503.86554
 31
0.0
  0
LINE
  5
228
330
224
100
AcDbEntity
  8
0
  6
Continuous
 62
    21
370
    -2
100
AcDbLine
 10
495.375238
 20
503.86554
 30
0.0
 11
498.975238
 21
503.86554
 31
0.0
  0
LINE
  5
229
330
224
100
AcDbEntity
  8
0
  6
Continuous
 62
    21
370
    -2
100
AcDbLine
 10
481.925238
 20
503.86554
 30
0.0
 11
478.325238
 21
503.86554
 31
0.0
  0
SOLID
  5
22A
330
224
100
AcDbEntity
  8
0
 62
    21
100
AcDbTrace
 10
495.375238
 20
504.46554
 30
0.0
 11
495.375238
 21
503.26554
 31
0.0
 12
491.775238
 22
503.86554
 32
0.0
 13
491.775238
 23
503.86554
 33
0.0
  0
SOLID
  5
22B
330
224
100
AcDbEntity
  8
0
 62
    21
100
AcDbTrace
 10
481.925238
 20
503.26554
 30
0.0
 11
481.925238
 21
504.46554
 31
0.0
 12
485.525238
 22
503.86554
 32
0.0
 13
485.525238
 23
503.86554
 33
0.0
  0
MTEXT
  5
22C
330
224
100
AcDbEntity
  8
0
 62
     1
100
AcDbMText
 10
475.820251
 20
506.89704
 30
0.0
 40
3.0
 41
0.0
 71
     5
 72
     1
  1
\A1;12.5
  7
STEFANO
 73
     1
 44
1.0
  0
POINT
  5
22D
330
224
100
AcDbEntity
  8
Defpoints
 62
     0
100
AcDbPoint
 10
491.775238
 20
394.618164
 30
0.0
  0
POINT
  5
22E
330
224
100
AcDbEntity
  8
Defpoints
 62
     0
100
AcDbPoint
 10
485.525238
 20
437.555817
 30
0.0
  0
POINT
  5
22F
330
224
100
AcDbEntity
  8
Defpoints
 62
     0
100
AcDbPoint
 10
485.525238
 20
503.86554
 30
0.0
  0
ENDBLK
  5
231
330
224
100
AcDbEntity
  8
0
100
AcDbBlockEnd
  0
BLOCK
  5
23F
330
233
100
AcDbEntity
  8
0
100
AcDbBlockBegin
  2
*D36
 70
     1
 71
     0
 10
0.0
 20
0.0
 30
0.0
  3
*D36
  1

  0
LINE
  5
234
330
233
100
AcDbEntity
  8
0
  6
Continuous
 62
    21
370
    -2
100
AcDbLine
 10
491.775238
 20
395.518164
 30
0.0
 11
491.775238
 21
474.16554
 31
0.0
  0
LINE
  5
235
330
233
100
AcDbEntity
  8
0
  6
Continuous
 62
    21
370
    -2
100
AcDbLine
 10
498.025238
 20
438.455817
 30
0.0
 11
498.025238
 21
474.16554
 31
0.0
  0
LINE
  5
236
330
233
100
AcDbEntity
  8
0
  6
Continuous
 62
    21
370
    -2
100
AcDbLine
 10
491.775238
 20
472.36554
 30
0.0
 11
476.808251
 21
472.36554
 31
0.0
  0
LINE
  5
237
330
233
100
AcDbEntity
  8
0
  6
Continuous
 62
    21
370
    -2
100
AcDbLine
 10
488.175238
 20
472.36554
 30
0.0
 11
484.575238
 21
472.36554
 31
0.0
  0
LINE
  5
238
330
233
100
AcDbEntity
  8
0
  6
Continuous
 62
    21
370
    -2
100
AcDbLine
 10
501.625238
 20
472.36554
 30
0.0
 11
505.225238
 21
472.36554
 31
0.0
  0
SOLID
  5
239
330
233
100
AcDbEntity
  8
0
 62
    21
100
AcDbTrace
 10
488.175238
 20
471.76554
 30
0.0
 11
488.175238
 21
472.96554
 31
0.0
 12
491.775238
 22
472.36554
 32
0.0
 13
491.775238
 23
472.36554
 33
0.0
  0
SOLID
  5
23A
330
233
100
AcDbEntity
  8
0
 62
    21
100
AcDbTrace
 10
501.625238
 20
472.96554
 30
0.0
 11
501.625238
 21
471.76554
 31
0.0
 12
498.025238
 22
472.36554
 32
0.0
 13
498.025238
 23
472.36554
 33
0.0
  0
MTEXT
  5
23B
330
233
100
AcDbEntity
  8
0
 62
     1
100
AcDbMText
 10
482.070251
 20
475.39704
 30
0.0
 40
3.0
 41
0.0
 71
     5
 72
     1
  1
\A1;12.5
  7
STEFANO
 73
     1
 44
1.0
  0
POINT
  5
23C
330
233
100
AcDbEntity
  8
Defpoints
 62
     0
100
AcDbPoint
 10
491.775238
 20
394.618164
 30
0.0
  0
POINT
  5
23D
330
233
100
AcDbEntity
  8
Defpoints
 62
     0
100
AcDbPoint
 10
498.025238
 20
437.555817
 30
0.0
  0
POINT
  5
23E
330
233
100
AcDbEntity
  8
Defpoints
 62
     0
100
AcDbPoint
 10
498.025238
 20
472.36554
 30
0.0
  0
ENDBLK
  5
240
330
233
100
AcDbEntity
  8
0
100
AcDbBlockEnd
  0
BLOCK
  5
24A
330
242
100
AcDbEntity
  8
0
100
AcDbBlockBegin
  2
*D37
 70
     1
 71
     0
 10
0.0
 20
0.0
 30
0.0
  3
*D37
  1

  0
LINE
  5
243
330
242
100
AcDbEntity
  8
0
  6
Continuous
 62
    21
370
    -2
100
AcDbLine
 10
483.583209
 20
417.783771
 30
0.0
 11
489.795121
 21
428.141872
 31
0.0
  0
MTEXT
  5
244
330
242
100
AcDbEntity
  8
0
 62
     1
100
AcDbMText
 10
483.163579
 20
422.97829
 30
0.0
 40
3.0
 41
0.0
 71
     5
 72
     1
  1
\A1;0.5
  7
STEFANO
 11
0.5143162171213799
 21
0.8576006231375731
 31
0.0
 73
     1
 44
1.0
  0
SOLID
  5
245
330
242
100
AcDbEntity
  8
0
 62
    21
100
AcDbTrace
 10
490.309681
 20
427.833282
 30
0.0
 11
489.28056
 21
428.450461
 31
0.0
 12
491.646659
 22
431.229234
 32
0.0
 13
491.646659
 23
431.229234
 33
0.0
  0
LINE
  5
246
330
242
100
AcDbEntity
  8
0
  6
Continuous
 62
    21
370
    -2
100
AcDbLine
 10
491.685238
 20
431.443634
 30
0.0
 11
491.865238
 21
431.443634
 31
0.0
  0
LINE
  5
247
330
242
100
AcDbEntity
  8
0
  6
Continuous
 62
    21
370
    -2
100
AcDbLine
 10
491.775238
 20
431.353634
 30
0.0
 11
491.775238
 21
431.533634
 31
0.0
  0
POINT
  5
248
330
242
100
AcDbEntity
  8
Defpoints
 62
     0
100
AcDbPoint
 10
491.646659
 20
431.229234
 30
0.0
  0
POINT
  5
249
330
242
100
AcDbEntity
  8
Defpoints
 62
     0
100
AcDbPoint
 10
491.775238
 20
431.443634
 30
0.0
  0
ENDBLK
  5
24B
330
242
100
AcDbEntity
  8
0
100
AcDbBlockEnd
  0
BLOCK
  5
259
330
24D
100
AcDbEntity
  8
0
100
AcDbBlockBegin
  2
*D38
 70
     1
 71
     0
 10
0.0
 20
0.0
 30
0.0
  3
*D38
  1

  0
LINE
  5
24E
330
24D
100
AcDbEntity
  8
0
  6
Continuous
 62
    21
370
    -2
100
AcDbLine
 10
491.775238
 20
452.148962
 30
0.0
 11
491.775238
 21
455.76866
 31
0.0
  0
LINE
  5
24F
330
24D
100
AcDbEntity
  8
0
  6
Continuous
 62
    21
370
    -2
100
AcDbLine
 10
484.900045
 20
438.203222
 30
0.0
 11
474.627656
 21
448.840581
 31
0.0
  0
ARC
  5
250
330
24D
100
AcDbEntity
  8
0
  6
Continuous
 62
    21
370
    -2
100
AcDbCircle
 10
491.775238
 20
431.083759
 30
0.0
 40
22.88490019465289
100
AcDbArc
 50
99.02246
 51
124.977572
  0
SOLID
  5
251
330
24D
100
AcDbEntity
  8
0
 62
    21
100
AcDbTrace
 10
488.233584
 20
453.087362
 30
0.0
 11
488.139198
 21
454.283645
 31
0.0
 12
491.775238
 22
453.96866
 32
0.0
 13
491.775238
 23
453.96866
 33
0.0
  0
SOLID
  5
252
330
24D
100
AcDbEntity
  8
0
 62
    21
100
AcDbTrace
 10
478.274781
 20
450.298158
 30
0.0
 11
479.037894
 21
449.372059
 31
0.0
 12
475.878041
 22
447.54577
 32
0.0
 13
475.878041
 23
447.54577
 33
0.0
  0
MTEXT
  5
253
330
24D
100
AcDbEntity
  8
0
 62
     1
100
AcDbMText
 10
482.078577
 20
455.083818
 30
0.0
 40
3.0
 41
0.0
 71
     5
 72
     1
  1
44
  7
STEFANO
 11
0.9271837509067294
 21
0.3746068499834566
 31
0.0
 73
     1
 44
1.0
  0
POINT
  5
254
330
24D
100
AcDbEntity
  8
Defpoints
 62
     0
100
AcDbPoint
 10
483.202398
 20
452.302267
 30
0.0
  0
POINT
  5
255
330
24D
100
AcDbEntity
  8
Defpoints
 62
     0
100
AcDbPoint
 10
485.525238
 20
437.555817
 30
0.0
  0
POINT
  5
256
330
24D
100
AcDbEntity
  8
Defpoints
 62
     0
100
AcDbPoint
 10
491.775238
 20
451.248962
 30
0.0
  0
POINT
  5
257
330
24D
100
AcDbEntity
  8
Defpoints
 62
     0
100
AcDbPoint
 10
491.775238
 20
394.618164
 30
0.0
  0
POINT
  5
258
330
24D
100
AcDbEntity
  8
Defpoints
 62
     0
100
AcDbPoint
 10
491.595398
 20
431.269989
 30
0.0
  0
ENDBLK
  5
25A
330
24D
100
AcDbEntity
  8
0
100
AcDbBlockEnd
  0
BLOCK
  5
268
330
25C
100
AcDbEntity
  8
0
100
AcDbBlockBegin
  2
*D39
 70
     1
 71
     0
 10
0.0
 20
0.0
 30
0.0
  3
*D39
  1

  0
LINE
  5
25D
330
25C
100
AcDbEntity
  8
0
  6
Continuous
 62
    21
370
    -2
100
AcDbLine
 10
498.650431
 20
438.203222
 30
0.0
 11
508.965705
 21
448.884989
 31
0.0
  0
LINE
  5
25E
330
25C
100
AcDbEntity
  8
0
  6
Continuous
 62
    21
370
    -2
100
AcDbLine
 10
491.775238
 20
452.148962
 30
0.0
 11
491.775238
 21
455.830394
 31
0.0
  0
ARC
  5
25F
330
25C
100
AcDbEntity
  8
0
  6
Continuous
 62
    21
370
    -2
100
AcDbCircle
 10
491.775238
 20
431.083759
 30
0.0
 40
22.94663439771419
100
AcDbArc
 50
54.998104
 51
81.001864
  0
SOLID
  5
260
330
25C
100
AcDbEntity
  8
0
 62
    21
100
AcDbTrace
 10
504.555854
 20
449.417138
 30
0.0
 11
505.319163
 21
450.343075
 31
0.0
 12
507.715319
 22
447.590178
 32
0.0
 13
507.715319
 23
447.590178
 33
0.0
  0
SOLID
  5
261
330
25C
100
AcDbEntity
  8
0
 62
    21
100
AcDbTrace
 10
495.411211
 20
454.346151
 30
0.0
 11
495.317079
 21
453.149848
 31
0.0
 12
491.775238
 22
454.030394
 32
0.0
 13
491.775238
 23
454.030394
 33
0.0
  0
MTEXT
  5
262
330
25C
100
AcDbEntity
  8
0
 62
     1
100
AcDbMText
 10
501.495025
 20
455.141057
 30
0.0
 40
3.0
 41
0.0
 71
     5
 72
     1
  1
44
  7
STEFANO
 11
0.9271837509067296
 21
-0.374606849983456
 31
0.0
 73
     1
 44
1.0
  0
POINT
  5
263
330
25C
100
AcDbEntity
  8
Defpoints
 62
     0
100
AcDbPoint
 10
500.371204
 20
452.359506
 30
0.0
  0
POINT
  5
264
330
25C
100
AcDbEntity
  8
Defpoints
 62
     0
100
AcDbPoint
 10
491.775238
 20
451.248962
 30
0.0
  0
POINT
  5
265
330
25C
100
AcDbEntity
  8
Defpoints
 62
     0
100
AcDbPoint
 10
498.025238
 20
437.555817
 30
0.0
  0
POINT
  5
266
330
25C
100
AcDbEntity
  8
Defpoints
 62
     0
100
AcDbPoint
 10
491.955078
 20
431.269989
 30
0.0
  0
POINT
  5
267
330
25C
100
AcDbEntity
  8
Defpoints
 62
     0
100
AcDbPoint
 10
491.775238
 20
394.618164
 30
0.0
  0
ENDBLK
  5
269
330
25C
100
AcDbEntity
  8
0
100
AcDbBlockEnd
  0
BLOCK
  5
275
330
26B
100
AcDbEntity
  8
0
100
AcDbBlockBegin
  2
*D40
 70
     1
 71
     0
 10
0.0
 20
0.0
 30
0.0
  3
*D40
  1

  0
LINE
  5
26C
330
26B
100
AcDbEntity
  8
0
  6
Continuous
 62
    21
370
    -2
100
AcDbLine
 10
501.425238
 20
437.555817
 30
0.0
 11
539.450146
 21
437.555817
 31
0.0
  0
LINE
  5
26D
330
26B
100
AcDbEntity
  8
0
  6
Continuous
 62
    21
370
    -2
100
AcDbLine
 10
507.675238
 20
406.555817
 30
0.0
 11
539.450146
 21
406.555817
 31
0.0
  0
LINE
  5
26E
330
26B
100
AcDbEntity
  8
0
  6
Continuous
 62
    21
370
    -2
100
AcDbLine
 10
537.650146
 20
433.955817
 30
0.0
 11
537.650146
 21
410.155817
 31
0.0
  0
SOLID
  5
26F
330
26B
100
AcDbEntity
  8
0
 62
    21
100
AcDbTrace
 10
538.250147
 20
433.955817
 30
0.0
 11
537.050146
 21
433.955817
 31
0.0
 12
537.650146
 22
437.555817
 32
0.0
 13
537.650146
 23
437.555817
 33
0.0
  0
SOLID
  5
270
330
26B
100
AcDbEntity
  8
0
 62
    21
100
AcDbTrace
 10
537.050146
 20
410.155817
 30
0.0
 11
538.250147
 21
410.155817
 31
0.0
 12
537.650146
 22
406.555817
 32
0.0
 13
537.650146
 23
406.555817
 33
0.0
  0
MTEXT
  5
271
330
26B
100
AcDbEntity
  8
0
 62
     1
100
AcDbMText
 10
534.618646
 20
422.055817
 30
0.0
 40
3.0
 41
0.0
 71
     5
 72
     1
  1
\A1;62
  7
STEFANO
 11
0.0
 21
1.0
 31
0.0
 73
     1
 44
1.0
  0
POINT
  5
272
330
26B
100
AcDbEntity
  8
Defpoints
 62
     0
100
AcDbPoint
 10
500.525238
 20
437.555817
 30
0.0
  0
POINT
  5
273
330
26B
100
AcDbEntity
  8
Defpoints
 62
     0
100
AcDbPoint
 10
506.775238
 20
406.555817
 30
0.0
  0
POINT
  5
274
330
26B
100
AcDbEntity
  8
Defpoints
 62
     0
100
AcDbPoint
 10
537.650146
 20
406.555817
 30
0.0
  0
ENDBLK
  5
276
330
26B
100
AcDbEntity
  8
0
100
AcDbBlockEnd
  0
BLOCK
  5
280
330
278
100
AcDbEntity
  8
0
100
AcDbBlockBegin
  2
*D41
 70
     1
 71
     0
 10
0.0
 20
0.0
 30
0.0
  3
*D41
  1

  0
LINE
  5
279
330
278
100
AcDbEntity
  8
0
  6
Continuous
 62
    21
370
    -2
100
AcDbLine
 10
493.650842
 20
450.078157
 30
0.0
 11
487.59115
 21
440.380835
 31
0.0
  0
MTEXT
  5
27A
330
278
100
AcDbEntity
  8
0
 62
     1
100
AcDbMText
 10
489.765249
 20
449.580638
 30
0.0
 40
3.0
 41
0.0
 71
     5
 72
     1
  1
\A1;3
  7
STEFANO
 11
0.5299276161422665
 21
0.8480428772472384
 31
0.0
 73
     1
 44
1.0
  0
SOLID
  5
27B
330
278
100
AcDbEntity
  8
0
 62
    21
100
AcDbTrace
 10
487.082324
 20
440.698792
 30
0.0
 11
488.099976
 21
440.062879
 31
0.0
 12
485.683411
 22
437.327881
 32
0.0
 13
485.683411
 23
437.327881
 33
0.0
  0
LINE
  5
27C
330
278
100
AcDbEntity
  8
0
  6
Continuous
 62
    21
370
    -2
100
AcDbLine
 10
484.798519
 20
436.055817
 30
0.0
 11
484.978519
 21
436.055817
 31
0.0
  0
LINE
  5
27D
330
278
100
AcDbEntity
  8
0
  6
Continuous
 62
    21
370
    -2
100
AcDbLine
 10
484.888519
 20
435.965817
 30
0.0
 11
484.888519
 21
436.145817
 31
0.0
  0
POINT
  5
27E
330
278
100
AcDbEntity
  8
Defpoints
 62
     0
100
AcDbPoint
 10
485.683411
 20
437.327881
 30
0.0
  0
POINT
  5
27F
330
278
100
AcDbEntity
  8
Defpoints
 62
     0
100
AcDbPoint
 10
484.888519
 20
436.055817
 30
0.0
  0
ENDBLK
  5
281
330
278
100
AcDbEntity
  8
0
100
AcDbBlockEnd
  0
BLOCK
  5
28B
330
283
100
AcDbEntity
  8
0
100
AcDbBlockBegin
  2
*D42
 70
     1
 71
     0
 10
0.0
 20
0.0
 30
0.0
  3
*D42
  1

  0
LINE
  5
284
330
283
100
AcDbEntity
  8
0
  6
Continuous
 62
    21
370
    -2
100
AcDbLine
 10
489.061246
 20
451.419829
 30
0.0
 11
495.959326
 21
440.380835
 31
0.0
  0
MTEXT
  5
285
330
283
100
AcDbEntity
  8
0
 62
     1
100
AcDbMText
 10
492.946838
 20
450.92231
 30
0.0
 40
3.0
 41
0.0
 71
     5
 72
     1
  1
\A1;3
  7
STEFANO
 11
0.5299276161422665
 21
-0.8480428772472384
 31
0.0
 73
     1
 44
1.0
  0
SOLID
  5
286
330
283
100
AcDbEntity
  8
0
 62
    21
100
AcDbTrace
 10
495.4505
 20
440.062879
 30
0.0
 11
496.468152
 21
440.698792
 31
0.0
 12
497.867065
 22
437.327881
 32
0.0
 13
497.867065
 23
437.327881
 33
0.0
  0
LINE
  5
287
330
283
100
AcDbEntity
  8
0
  6
Continuous
 62
    21
370
    -2
100
AcDbLine
 10
498.571957
 20
436.055817
 30
0.0
 11
498.751957
 21
436.055817
 31
0.0
  0
LINE
  5
288
330
283
100
AcDbEntity
  8
0
  6
Continuous
 62
    21
370
    -2
100
AcDbLine
 10
498.661957
 20
435.965817
 30
0.0
 11
498.661957
 21
436.145817
 31
0.0
  0
POINT
  5
289
330
283
100
AcDbEntity
  8
Defpoints
 62
     0
100
AcDbPoint
 10
497.867065
 20
437.327881
 30
0.0
  0
POINT
  5
28A
330
283
100
AcDbEntity
  8
Defpoints
 62
     0
100
AcDbPoint
 10
498.661957
 20
436.055817
 30
0.0
  0
ENDBLK
  5
28C
330
283
100
AcDbEntity
  8
0
100
AcDbBlockEnd
  0
BLOCK
  5
29A
330
28E
100
AcDbEntity
  8
0
100
AcDbBlockBegin
  2
*D43
 70
     1
 71
     0
 10
0.0
 20
0.0
 30
0.0
  3
*D43
  1

  0
LINE
  5
28F
330
28E
100
AcDbEntity
  8
0
  6
Continuous
 62
    21
370
    -2
100
AcDbLine
 10
475.875238
 20
406.055817
 30
0.0
 11
443.475238
 21
406.055817
 31
0.0
  0
LINE
  5
290
330
28E
100
AcDbEntity
  8
0
  6
Continuous
 62
    21
370
    -2
100
AcDbLine
 10
476.375238
 20
406.555817
 30
0.0
 11
443.475238
 21
406.555817
 31
0.0
  0
LINE
  5
291
330
28E
100
AcDbEntity
  8
0
  6
Continuous
 62
    21
370
    -2
100
AcDbLine
 10
445.275238
 20
406.555817
 30
0.0
 11
445.275238
 21
425.967331
 31
0.0
  0
LINE
  5
292
330
28E
100
AcDbEntity
  8
0
  6
Continuous
 62
    21
370
    -2
100
AcDbLine
 10
445.275238
 20
402.455817
 30
0.0
 11
445.275238
 21
398.855816
 31
0.0
  0
LINE
  5
293
330
28E
100
AcDbEntity
  8
0
  6
Continuous
 62
    21
370
    -2
100
AcDbLine
 10
445.275238
 20
410.155817
 30
0.0
 11
445.275238
 21
413.755817
 31
0.0
  0
SOLID
  5
294
330
28E
100
AcDbEntity
  8
0
 62
    21
100
AcDbTrace
 10
445.875238
 20
402.455817
 30
0.0
 11
444.675238
 21
402.455817
 31
0.0
 12
445.275238
 22
406.055817
 32
0.0
 13
445.275238
 23
406.055817
 33
0.0
  0
SOLID
  5
295
330
28E
100
AcDbEntity
  8
0
 62
    21
100
AcDbTrace
 10
444.675238
 20
410.155817
 30
0.0
 11
445.875238
 21
410.155817
 31
0.0
 12
445.275238
 22
406.555817
 32
0.0
 13
445.275238
 23
406.555817
 33
0.0
  0
MTEXT
  5
296
330
28E
100
AcDbEntity
  8
0
 62
     1
100
AcDbMText
 10
442.224238
 20
418.876831
 30
0.0
 40
3.0
 41
0.0
 71
     5
 72
     1
  1
\A1;1 x45%%d
  7
STEFANO
 11
0.0
 21
1.0
 31
0.0
 73
     1
 44
1.0
  0
POINT
  5
297
330
28E
100
AcDbEntity
  8
Defpoints
 62
     0
100
AcDbPoint
 10
476.775238
 20
406.055817
 30
0.0
  0
POINT
  5
298
330
28E
100
AcDbEntity
  8
Defpoints
 62
     0
100
AcDbPoint
 10
477.275238
 20
406.555817
 30
0.0
  0
POINT
  5
299
330
28E
100
AcDbEntity
  8
Defpoints
 62
     0
100
AcDbPoint
 10
445.275238
 20
406.555817
 30
0.0
  0
ENDBLK
  5
29B
330
28E
100
AcDbEntity
  8
0
100
AcDbBlockEnd
  0
BLOCK
  5
2A9
330
29D
100
AcDbEntity
  8
0
100
AcDbBlockBegin
  2
*D44
 70
     1
 71
     0
 10
0.0
 20
0.0
 30
0.0
  3
*D44
  1

  0
LINE
  5
29E
330
29D
100
AcDbEntity
  8
0
  6
Continuous
 62
    21
370
    -2
100
AcDbLine
 10
506.275238
 20
405.655817
 30
0.0
 11
506.275238
 21
332.755817
 31
0.0
  0
LINE
  5
29F
330
29D
100
AcDbEntity
  8
0
  6
Continuous
 62
    21
370
    -2
100
AcDbLine
 10
506.775238
 20
405.155817
 30
0.0
 11
506.775238
 21
332.755817
 31
0.0
  0
LINE
  5
2A0
330
29D
100
AcDbEntity
  8
0
  6
Continuous
 62
    21
370
    -2
100
AcDbLine
 10
506.775238
 20
334.555817
 30
0.0
 11
526.186691
 21
334.555817
 31
0.0
  0
LINE
  5
2A1
330
29D
100
AcDbEntity
  8
0
  6
Continuous
 62
    21
370
    -2
100
AcDbLine
 10
502.675238
 20
334.555817
 30
0.0
 11
499.075238
 21
334.555817
 31
0.0
  0
LINE
  5
2A2
330
29D
100
AcDbEntity
  8
0
  6
Continuous
 62
    21
370
    -2
100
AcDbLine
 10
510.375238
 20
334.555817
 30
0.0
 11
513.975238
 21
334.555817
 31
0.0
  0
SOLID
  5
2A3
330
29D
100
AcDbEntity
  8
0
 62
    21
100
AcDbTrace
 10
502.675238
 20
333.955817
 30
0.0
 11
502.675238
 21
335.155817
 31
0.0
 12
506.275238
 22
334.555817
 32
0.0
 13
506.275238
 23
334.555817
 33
0.0
  0
SOLID
  5
2A4
330
29D
100
AcDbEntity
  8
0
 62
    21
100
AcDbTrace
 10
510.375238
 20
335.155817
 30
0.0
 11
510.375238
 21
333.955817
 31
0.0
 12
506.775238
 22
334.555817
 32
0.0
 13
506.775238
 23
334.555817
 33
0.0
  0
MTEXT
  5
2A5
330
29D
100
AcDbEntity
  8
0
 62
     1
100
AcDbMText
 10
519.096191
 20
337.606817
 30
0.0
 40
3.0
 41
0.0
 71
     5
 72
     1
  1
\A1;1 x45%%d
  7
STEFANO
 73
     1
 44
1.0
  0
POINT
  5
2A6
330
29D
100
AcDbEntity
  8
Defpoints
 62
     0
100
AcDbPoint
 10
506.275238
 20
406.555817
 30
0.0
  0
POINT
  5
2A7
330
29D
100
AcDbEntity
  8
Defpoints
 62
     0
100
AcDbPoint
 10
506.775238
 20
406.055817
 30
0.0
  0
POINT
  5
2A8
330
29D
100
AcDbEntity
  8
Defpoints
 62
     0
100
AcDbPoint
 10
506.775238
 20
334.555817
 30
0.0
  0
ENDBLK
  5
2AA
330
29D
100
AcDbEntity
  8
0
100
AcDbBlockEnd
  0
BLOCK
  5
2B8
330
2AC
100
AcDbEntity
  8
0
100
AcDbBlockBegin
  2
*D45
 70
     1
 71
     0
 10
0.0
 20
0.0
 30
0.0
  3
*D45
  1

  0
LINE
  5
2AD
330
2AC
100
AcDbEntity
  8
0
  6
Continuous
 62
    21
370
    -2
100
AcDbLine
 10
475.875238
 20
398.055817
 30
0.0
 11
443.475238
 21
398.055817
 31
0.0
  0
LINE
  5
2AE
330
2AC
100
AcDbEntity
  8
0
  6
Continuous
 62
    21
370
    -2
100
AcDbLine
 10
476.375238
 20
397.555817
 30
0.0
 11
443.475238
 21
397.555817
 31
0.0
  0
LINE
  5
2AF
330
2AC
100
AcDbEntity
  8
0
  6
Continuous
 62
    21
370
    -2
100
AcDbLine
 10
445.275238
 20
397.555817
 30
0.0
 11
445.275238
 21
378.144333
 31
0.0
  0
LINE
  5
2B0
330
2AC
100
AcDbEntity
  8
0
  6
Continuous
 62
    21
370
    -2
100
AcDbLine
 10
445.275238
 20
401.655817
 30
0.0
 11
445.275238
 21
405.255817
 31
0.0
  0
LINE
  5
2B1
330
2AC
100
AcDbEntity
  8
0
  6
Continuous
 62
    21
370
    -2
100
AcDbLine
 10
445.275238
 20
393.955817
 30
0.0
 11
445.275238
 21
390.355816
 31
0.0
  0
SOLID
  5
2B2
330
2AC
100
AcDbEntity
  8
0
 62
    21
100
AcDbTrace
 10
444.675238
 20
401.655817
 30
0.0
 11
445.875238
 21
401.655817
 31
0.0
 12
445.275238
 22
398.055817
 32
0.0
 13
445.275238
 23
398.055817
 33
0.0
  0
SOLID
  5
2B3
330
2AC
100
AcDbEntity
  8
0
 62
    21
100
AcDbTrace
 10
445.875238
 20
393.955817
 30
0.0
 11
444.675238
 21
393.955817
 31
0.0
 12
445.275238
 22
397.555817
 32
0.0
 13
445.275238
 23
397.555817
 33
0.0
  0
MTEXT
  5
2B4
330
2AC
100
AcDbEntity
  8
0
 62
     1
100
AcDbMText
 10
442.224238
 20
385.234833
 30
0.0
 40
3.0
 41
0.0
 71
     5
 72
     1
  1
\A1;1 x45%%d
  7
STEFANO
 11
0.0
 21
1.0
 31
0.0
 73
     1
 44
1.0
  0
POINT
  5
2B5
330
2AC
100
AcDbEntity
  8
Defpoints
 62
     0
100
AcDbPoint
 10
476.775238
 20
398.055817
 30
0.0
  0
POINT
  5
2B6
330
2AC
100
AcDbEntity
  8
Defpoints
 62
     0
100
AcDbPoint
 10
477.275238
 20
397.555817
 30
0.0
  0
POINT
  5
2B7
330
2AC
100
AcDbEntity
  8
Defpoints
 62
     0
100
AcDbPoint
 10
445.275238
 20
397.555817
 30
0.0
  0
ENDBLK
  5
2B9
330
2AC
100
AcDbEntity
  8
0
100
AcDbBlockEnd
  0
BLOCK
  5
2C7
330
2BB
100
AcDbEntity
  8
0
100
AcDbBlockBegin
  2
*D46
 70
     1
 71
     0
 10
0.0
 20
0.0
 30
0.0
  3
*D46
  1

  0
LINE
  5
2BC
330
2BB
100
AcDbEntity
  8
0
  6
Continuous
 62
    21
370
    -2
100
AcDbLine
 10
499.625238
 20
437.155823
 30
0.0
 11
410.725238
 21
437.155823
 31
0.0
  0
LINE
  5
2BD
330
2BB
100
AcDbEntity
  8
0
  6
Continuous
 62
    21
370
    -2
100
AcDbLine
 10
499.225244
 20
437.555817
 30
0.0
 11
410.725238
 21
437.555817
 31
0.0
  0
LINE
  5
2BE
330
2BB
100
AcDbEntity
  8
0
  6
Continuous
 62
    21
370
    -2
100
AcDbLine
 10
412.525238
 20
437.555817
 30
0.0
 11
412.525238
 21
460.564323
 31
0.0
  0
LINE
  5
2BF
330
2BB
100
AcDbEntity
  8
0
  6
Continuous
 62
    21
370
    -2
100
AcDbLine
 10
412.525238
 20
433.555823
 30
0.0
 11
412.525238
 21
429.955822
 31
0.0
  0
LINE
  5
2C0
330
2BB
100
AcDbEntity
  8
0
  6
Continuous
 62
    21
370
    -2
100
AcDbLine
 10
412.525238
 20
441.155817
 30
0.0
 11
412.525238
 21
444.755817
 31
0.0
  0
SOLID
  5
2C1
330
2BB
100
AcDbEntity
  8
0
 62
    21
100
AcDbTrace
 10
413.125238
 20
433.555823
 30
0.0
 11
411.925238
 21
433.555823
 31
0.0
 12
412.525238
 22
437.155823
 32
0.0
 13
412.525238
 23
437.155823
 33
0.0
  0
SOLID
  5
2C2
330
2BB
100
AcDbEntity
  8
0
 62
    21
100
AcDbTrace
 10
411.925238
 20
441.155817
 30
0.0
 11
413.125238
 21
441.155817
 31
0.0
 12
412.525238
 22
437.555817
 32
0.0
 13
412.525238
 23
437.555817
 33
0.0
  0
MTEXT
  5
2C3
330
2BB
100
AcDbEntity
  8
0
 62
     1
100
AcDbMText
 10
409.474238
 20
451.586823
 30
0.0
 40
3.0
 41
0.0
 71
     5
 72
     1
  1
\A1;0.8 x45%%d
  7
STEFANO
 11
0.0
 21
1.0
 31
0.0
 73
     1
 44
1.0
  0
POINT
  5
2C4
330
2BB
100
AcDbEntity
  8
Defpoints
 62
     0
100
AcDbPoint
 10
500.525238
 20
437.155823
 30
0.0
  0
POINT
  5
2C5
330
2BB
100
AcDbEntity
  8
Defpoints
 62
     0
100
AcDbPoint
 10
500.125244
 20
437.555817
 30
0.0
  0
POINT
  5
2C6
330
2BB
100
AcDbEntity
  8
Defpoints
 62
     0
100
AcDbPoint
 10
412.525238
 20
437.555817
 30
0.0
  0
ENDBLK
  5
2C8
330
2BB
100
AcDbEntity
  8
0
100
AcDbBlockEnd
  0
BLOCK
  5
2D6
330
2CA
100
AcDbEntity
  8
0
100
AcDbBlockBegin
  2
*D47
 70
     1
 71
     0
 10
0.0
 20
0.0
 30
0.0
  3
*D47
  1

  0
LINE
  5
2CB
330
2CA
100
AcDbEntity
  8
0
  6
Continuous
 62
    21
370
    -2
100
AcDbLine
 10
482.125238
 20
437.155823
 30
0.0
 11
444.725208
 21
437.155823
 31
0.0
  0
LINE
  5
2CC
330
2CA
100
AcDbEntity
  8
0
  6
Continuous
 62
    21
370
    -2
100
AcDbLine
 10
482.525232
 20
437.555817
 30
0.0
 11
444.725208
 21
437.555817
 31
0.0
  0
LINE
  5
2CD
330
2CA
100
AcDbEntity
  8
0
  6
Continuous
 62
    21
370
    -2
100
AcDbLine
 10
446.525208
 20
437.555817
 30
0.0
 11
446.525208
 21
460.564323
 31
0.0
  0
LINE
  5
2CE
330
2CA
100
AcDbEntity
  8
0
  6
Continuous
 62
    21
370
    -2
100
AcDbLine
 10
446.525208
 20
433.555823
 30
0.0
 11
446.525208
 21
429.955822
 31
0.0
  0
LINE
  5
2CF
330
2CA
100
AcDbEntity
  8
0
  6
Continuous
 62
    21
370
    -2
100
AcDbLine
 10
446.525208
 20
441.155817
 30
0.0
 11
446.525208
 21
444.755817
 31
0.0
  0
SOLID
  5
2D0
330
2CA
100
AcDbEntity
  8
0
 62
    21
100
AcDbTrace
 10
447.125208
 20
433.555823
 30
0.0
 11
445.925207
 21
433.555823
 31
0.0
 12
446.525208
 22
437.155823
 32
0.0
 13
446.525208
 23
437.155823
 33
0.0
  0
SOLID
  5
2D1
330
2CA
100
AcDbEntity
  8
0
 62
    21
100
AcDbTrace
 10
445.925207
 20
441.155817
 30
0.0
 11
447.125208
 21
441.155817
 31
0.0
 12
446.525208
 22
437.555817
 32
0.0
 13
446.525208
 23
437.555817
 33
0.0
  0
MTEXT
  5
2D2
330
2CA
100
AcDbEntity
  8
0
 62
     1
100
AcDbMText
 10
443.474208
 20
451.586823
 30
0.0
 40
3.0
 41
0.0
 71
     5
 72
     1
  1
\A1;0.8 x45%%d
  7
STEFANO
 11
0.0
 21
1.0
 31
0.0
 73
     1
 44
1.0
  0
POINT
  5
2D3
330
2CA
100
AcDbEntity
  8
Defpoints
 62
     0
100
AcDbPoint
 10
483.025238
 20
437.155823
 30
0.0
  0
POINT
  5
2D4
330
2CA
100
AcDbEntity
  8
Defpoints
 62
     0
100
AcDbPoint
 10
483.425232
 20
437.555817
 30
0.0
  0
POINT
  5
2D5
330
2CA
100
AcDbEntity
  8
Defpoints
 62
     0
100
AcDbPoint
 10
446.525208
 20
437.555817
 30
0.0
  0
ENDBLK
  5
2D7
330
2CA
100
AcDbEntity
  8
0
100
AcDbBlockEnd
  0
BLOCK
  5
2E5
330
2D9
100
AcDbEntity
  8
0
100
AcDbBlockBegin
  2
*D48
 70
     1
 71
     0
 10
0.0
 20
0.0
 30
0.0
  3
*D48
  1

  0
LINE
  5
2DA
330
2D9
100
AcDbEntity
  8
0
  6
Continuous
 62
    21
370
    -2
100
AcDbLine
 10
482.125238
 20
415.680817
 30
0.0
 11
444.725238
 21
415.680817
 31
0.0
  0
LINE
  5
2DB
330
2D9
100
AcDbEntity
  8
0
  6
Continuous
 62
    21
370
    -2
100
AcDbLine
 10
482.125238
 20
414.430817
 30
0.0
 11
444.725238
 21
414.430817
 31
0.0
  0
LINE
  5
2DC
330
2D9
100
AcDbEntity
  8
0
  6
Continuous
 62
    21
370
    -2
100
AcDbLine
 10
446.525238
 20
414.430817
 30
0.0
 11
446.525238
 21
401.601314
 31
0.0
  0
LINE
  5
2DD
330
2D9
100
AcDbEntity
  8
0
  6
Continuous
 62
    21
370
    -2
100
AcDbLine
 10
446.525238
 20
419.280817
 30
0.0
 11
446.525238
 21
422.880817
 31
0.0
  0
LINE
  5
2DE
330
2D9
100
AcDbEntity
  8
0
  6
Continuous
 62
    21
370
    -2
100
AcDbLine
 10
446.525238
 20
410.830817
 30
0.0
 11
446.525238
 21
407.230816
 31
0.0
  0
SOLID
  5
2DF
330
2D9
100
AcDbEntity
  8
0
 62
    21
100
AcDbTrace
 10
445.925238
 20
419.280817
 30
0.0
 11
447.125238
 21
419.280817
 31
0.0
 12
446.525238
 22
415.680817
 32
0.0
 13
446.525238
 23
415.680817
 33
0.0
  0
SOLID
  5
2E0
330
2D9
100
AcDbEntity
  8
0
 62
    21
100
AcDbTrace
 10
447.125238
 20
410.830817
 30
0.0
 11
445.925238
 21
410.830817
 31
0.0
 12
446.525238
 22
414.430817
 32
0.0
 13
446.525238
 23
414.430817
 33
0.0
  0
MTEXT
  5
2E1
330
2D9
100
AcDbEntity
  8
0
 62
     1
100
AcDbMText
 10
443.493738
 20
405.865814
 30
0.0
 40
3.0
 41
0.0
 71
     5
 72
     1
  1
\A1;2.5
  7
STEFANO
 11
0.0
 21
1.0
 31
0.0
 73
     1
 44
1.0
  0
POINT
  5
2E2
330
2D9
100
AcDbEntity
  8
Defpoints
 62
     0
100
AcDbPoint
 10
483.025238
 20
415.680817
 30
0.0
  0
POINT
  5
2E3
330
2D9
100
AcDbEntity
  8
Defpoints
 62
     0
100
AcDbPoint
 10
483.025238
 20
414.430817
 30
0.0
  0
POINT
  5
2E4
330
2D9
100
AcDbEntity
  8
Defpoints
 62
     0
100
AcDbPoint
 10
446.525238
 20
414.430817
 30
0.0
  0
ENDBLK
  5
2E6
330
2D9
100
AcDbEntity
  8
0
100
AcDbBlockEnd
  0
BLOCK
  5
2F5
330
2E8
100
AcDbEntity
  8
0
100
AcDbBlockBegin
  2
*D49
 70
     1
 71
     0
 10
0.0
 20
0.0
 30
0.0
  3
*D49
  1

  0
LINE
  5
2E9
330
2E8
100
AcDbEntity
  8
0
  6
Continuous
 62
    21
370
    -2
100
AcDbLine
 10
484.286634
 20
414.419421
 30
0.0
 11
490.026009
 21
408.680046
 31
0.0
  0
LINE
  5
2EA
330
2E8
100
AcDbEntity
  8
0
  6
Continuous
 62
    21
370
    -2
100
AcDbLine
 10
484.286634
 20
415.692213
 30
0.0
 11
490.026009
 21
421.431587
 31
0.0
  0
ARC
  5
2EB
330
2E8
100
AcDbEntity
  8
0
  6
Continuous
 62
    21
370
    -2
100
AcDbCircle
 10
483.650238
 20
415.055817
 30
0.0
 40
7.216701094555731
100
AcDbArc
 50
257.226882
 51
286.113441
  0
ARC
  5
2EC
330
2E8
100
AcDbEntity
  8
0
  6
Continuous
 62
    21
370
    -2
100
AcDbCircle
 10
483.650238
 20
415.055817
 30
0.0
 40
7.216701094555731
100
AcDbArc
 50
73.886559
 51
102.773118
  0
SOLID
  5
2ED
330
2E8
100
AcDbEntity
  8
0
 62
    21
100
AcDbTrace
 10
485.958196
 20
407.605955
 30
0.0
 11
485.348127
 21
408.639306
 31
0.0
 12
488.753216
 22
409.952838
 32
0.0
 13
488.753216
 23
409.952838
 33
0.0
  0
SOLID
  5
2EE
330
2E8
100
AcDbEntity
  8
0
 62
    21
100
AcDbTrace
 10
485.348127
 20
421.472327
 30
0.0
 11
485.958196
 21
422.505679
 31
0.0
 12
488.753216
 22
420.158795
 32
0.0
 13
488.753216
 23
420.158795
 33
0.0
  0
MTEXT
  5
2EF
330
2E8
100
AcDbEntity
  8
0
 62
     1
100
AcDbMText
 10
487.815939
 20
415.055817
 30
0.0
 40
3.0
 41
0.0
 71
     5
 72
     1
  1
90%%d
  7
STEFANO
 11
0.0
 21
1.0
 31
0.0
 73
     1
 44
1.0
  0
POINT
  5
2F0
330
2E8
100
AcDbEntity
  8
Defpoints
 62
     0
100
AcDbPoint
 10
490.866939
 20
415.055817
 30
0.0
  0
POINT
  5
2F1
330
2E8
100
AcDbEntity
  8
Defpoints
 62
     0
100
AcDbPoint
 10
483.650238
 20
415.055817
 30
0.0
  0
POINT
  5
2F2
330
2E8
100
AcDbEntity
  8
Defpoints
 62
     0
100
AcDbPoint
 10
483.650238
 20
415.055817
 30
0.0
  0
POINT
  5
2F3
330
2E8
100
AcDbEntity
  8
Defpoints
 62
     0
100
AcDbPoint
 10
483.025238
 20
415.680817
 30
0.0
  0
POINT
  5
2F4
330
2E8
100
AcDbEntity
  8
Defpoints
 62
     0
100
AcDbPoint
 10
483.025238
 20
414.430817
 30
0.0
  0
ENDBLK
  5
2F6
330
2E8
100
AcDbEntity
  8
0
100
AcDbBlockEnd
  0
BLOCK
  5
304
330
2F8
100
AcDbEntity
  8
0
100
AcDbBlockBegin
  2
*D50
 70
     1
 71
     0
 10
0.0
 20
0.0
 30
0.0
  3
*D50
  1

  0
LINE
  5
2F9
330
2F8
100
AcDbEntity
  8
0
  6
Continuous
 62
    21
370
    -2
100
AcDbLine
 10
482.125238
 20
406.555817
 30
0.0
 11
413.225238
 21
406.555817
 31
0.0
  0
LINE
  5
2FA
330
2F8
100
AcDbEntity
  8
0
  6
Continuous
 62
    21
370
    -2
100
AcDbLine
 10
482.750238
 20
415.055817
 30
0.0
 11
413.225238
 21
415.055817
 31
0.0
  0
LINE
  5
2FB
330
2F8
100
AcDbEntity
  8
0
  6
Continuous
 62
    21
370
    -2
100
AcDbLine
 10
415.025238
 20
406.555817
 30
0.0
 11
415.025238
 21
395.056822
 31
0.0
  0
LINE
  5
2FC
330
2F8
100
AcDbEntity
  8
0
  6
Continuous
 62
    21
370
    -2
100
AcDbLine
 10
415.025238
 20
402.955817
 30
0.0
 11
415.025238
 21
399.355816
 31
0.0
  0
LINE
  5
2FD
330
2F8
100
AcDbEntity
  8
0
  6
Continuous
 62
    21
370
    -2
100
AcDbLine
 10
415.025238
 20
418.655817
 30
0.0
 11
415.025238
 21
422.255817
 31
0.0
  0
SOLID
  5
2FE
330
2F8
100
AcDbEntity
  8
0
 62
    21
100
AcDbTrace
 10
415.625238
 20
402.955817
 30
0.0
 11
414.425238
 21
402.955817
 31
0.0
 12
415.025238
 22
406.555817
 32
0.0
 13
415.025238
 23
406.555817
 33
0.0
  0
SOLID
  5
2FF
330
2F8
100
AcDbEntity
  8
0
 62
    21
100
AcDbTrace
 10
414.425238
 20
418.655817
 30
0.0
 11
415.625238
 21
418.655817
 31
0.0
 12
415.025238
 22
415.055817
 32
0.0
 13
415.025238
 23
415.055817
 33
0.0
  0
MTEXT
  5
300
330
2F8
100
AcDbEntity
  8
0
 62
     1
100
AcDbMText
 10
412.019238
 20
398.560822
 30
0.0
 40
3.0
 41
0.0
 71
     5
 72
     1
  1
\A1;17
  7
STEFANO
 11
0.0
 21
1.0
 31
0.0
 73
     1
 44
1.0
  0
POINT
  5
301
330
2F8
100
AcDbEntity
  8
Defpoints
 62
     0
100
AcDbPoint
 10
483.025238
 20
406.555817
 30
0.0
  0
POINT
  5
302
330
2F8
100
AcDbEntity
  8
Defpoints
 62
     0
100
AcDbPoint
 10
483.650238
 20
415.055817
 30
0.0
  0
POINT
  5
303
330
2F8
100
AcDbEntity
  8
Defpoints
 62
     0
100
AcDbPoint
 10
415.025238
 20
415.055817
 30
0.0
  0
ENDBLK
  5
305
330
2F8
100
AcDbEntity
  8
0
100
AcDbBlockEnd
  0
BLOCK
  5
313
330
307
100
AcDbEntity
  8
0
100
AcDbBlockBegin
  2
*D51
 70
     1
 71
     0
 10
0.0
 20
0.0
 30
0.0
  3
*D51
  1

  0
LINE
  5
308
330
307
100
AcDbEntity
  8
0
  6
Continuous
 62
    21
370
    -2
100
AcDbLine
 10
482.125238
 20
422.555817
 30
0.0
 11
444.725238
 21
422.555817
 31
0.0
  0
LINE
  5
309
330
307
100
AcDbEntity
  8
0
  6
Continuous
 62
    21
370
    -2
100
AcDbLine
 10
482.125238
 20
427.555817
 30
0.0
 11
444.725238
 21
427.555817
 31
0.0
  0
LINE
  5
30A
330
307
100
AcDbEntity
  8
0
  6
Continuous
 62
    21
370
    -2
100
AcDbLine
 10
446.525238
 20
422.555817
 30
0.0
 11
446.525238
 21
411.061322
 31
0.0
  0
LINE
  5
30B
330
307
100
AcDbEntity
  8
0
  6
Continuous
 62
    21
370
    -2
100
AcDbLine
 10
446.525238
 20
418.955817
 30
0.0
 11
446.525238
 21
415.355816
 31
0.0
  0
LINE
  5
30C
330
307
100
AcDbEntity
  8
0
  6
Continuous
 62
    21
370
    -2
100
AcDbLine
 10
446.525238
 20
431.155817
 30
0.0
 11
446.525238
 21
434.755817
 31
0.0
  0
SOLID
  5
30D
330
307
100
AcDbEntity
  8
0
 62
    21
100
AcDbTrace
 10
447.125238
 20
418.955817
 30
0.0
 11
445.925238
 21
418.955817
 31
0.0
 12
446.525238
 22
422.555817
 32
0.0
 13
446.525238
 23
422.555817
 33
0.0
  0
SOLID
  5
30E
330
307
100
AcDbEntity
  8
0
 62
    21
100
AcDbTrace
 10
445.925238
 20
431.155817
 30
0.0
 11
447.125238
 21
431.155817
 31
0.0
 12
446.525238
 22
427.555817
 32
0.0
 13
446.525238
 23
427.555817
 33
0.0
  0
MTEXT
  5
30F
330
307
100
AcDbEntity
  8
0
 62
     1
100
AcDbMText
 10
443.493738
 20
414.560822
 30
0.0
 40
3.0
 41
0.0
 71
     5
 72
     1
  1
\A1;10
  7
STEFANO
 11
0.0
 21
1.0
 31
0.0
 73
     1
 44
1.0
  0
POINT
  5
310
330
307
100
AcDbEntity
  8
Defpoints
 62
     0
100
AcDbPoint
 10
483.025238
 20
422.555817
 30
0.0
  0
POINT
  5
311
330
307
100
AcDbEntity
  8
Defpoints
 62
     0
100
AcDbPoint
 10
483.025238
 20
427.555817
 30
0.0
  0
POINT
  5
312
330
307
100
AcDbEntity
  8
Defpoints
 62
     0
100
AcDbPoint
 10
446.525238
 20
427.555817
 30
0.0
  0
ENDBLK
  5
314
330
307
100
AcDbEntity
  8
0
100
AcDbBlockEnd
  0
BLOCK
  5
322
330
316
100
AcDbEntity
  8
0
100
AcDbBlockBegin
  2
*D52
 70
     1
 71
     0
 10
0.0
 20
0.0
 30
0.0
  3
*D52
  1

  0
LINE
  5
317
330
316
100
AcDbEntity
  8
0
  6
Continuous
 62
    21
370
    -2
100
AcDbLine
 10
483.025238
 20
421.655817
 30
0.0
 11
483.025238
 21
332.755817
 31
0.0
  0
LINE
  5
318
330
316
100
AcDbEntity
  8
0
  6
Continuous
 62
    21
370
    -2
100
AcDbLine
 10
483.075256
 20
421.655817
 30
0.0
 11
483.075256
 21
332.755817
 31
0.0
  0
LINE
  5
319
330
316
100
AcDbEntity
  8
0
  6
Continuous
 62
    21
370
    -2
100
AcDbLine
 10
483.025238
 20
334.555817
 30
0.0
 11
470.521236
 21
334.555817
 31
0.0
  0
LINE
  5
31A
330
316
100
AcDbEntity
  8
0
  6
Continuous
 62
    21
370
    -2
100
AcDbLine
 10
479.425238
 20
334.555817
 30
0.0
 11
475.825238
 21
334.555817
 31
0.0
  0
LINE
  5
31B
330
316
100
AcDbEntity
  8
0
  6
Continuous
 62
    21
370
    -2
100
AcDbLine
 10
486.675256
 20
334.555817
 30
0.0
 11
490.275257
 21
334.555817
 31
0.0
  0
SOLID
  5
31C
330
316
100
AcDbEntity
  8
0
 62
    21
100
AcDbTrace
 10
479.425238
 20
333.955817
 30
0.0
 11
479.425238
 21
335.155817
 31
0.0
 12
483.025238
 22
334.555817
 32
0.0
 13
483.025238
 23
334.555817
 33
0.0
  0
SOLID
  5
31D
330
316
100
AcDbEntity
  8
0
 62
    21
100
AcDbTrace
 10
486.675256
 20
335.155817
 30
0.0
 11
486.675256
 21
333.955817
 31
0.0
 12
483.075256
 22
334.555817
 32
0.0
 13
483.075256
 23
334.555817
 33
0.0
  0
MTEXT
  5
31E
330
316
100
AcDbEntity
  8
0
 62
     1
100
AcDbMText
 10
474.460236
 20
337.587317
 30
0.0
 40
3.0
 41
0.0
 71
     5
 72
     1
  1
\A1;0.1
  7
STEFANO
 73
     1
 44
1.0
  0
POINT
  5
31F
330
316
100
AcDbEntity
  8
Defpoints
 62
     0
100
AcDbPoint
 10
483.025238
 20
422.555817
 30
0.0
  0
POINT
  5
320
330
316
100
AcDbEntity
  8
Defpoints
 62
     0
100
AcDbPoint
 10
483.075256
 20
422.555817
 30
0.0
  0
POINT
  5
321
330
316
100
AcDbEntity
  8
Defpoints
 62
     0
100
AcDbPoint
 10
483.075256
 20
334.555817
 30
0.0
  0
ENDBLK
  5
323
330
316
100
AcDbEntity
  8
0
100
AcDbBlockEnd
  0
BLOCK
  5
32D
330
325
100
AcDbEntity
  8
0
100
AcDbBlockBegin
  2
*D53
 70
     1
 71
     0
 10
0.0
 20
0.0
 30
0.0
  3
*D53
  1

  0
LINE
  5
326
330
325
100
AcDbEntity
  8
0
  6
Continuous
 62
    21
370
    -2
100
AcDbLine
 10
504.010276
 20
453.076979
 30
0.0
 11
497.255801
 21
444.909
 31
0.0
  0
MTEXT
  5
327
330
325
100
AcDbEntity
  8
0
 62
     1
100
AcDbMText
 10
499.443948
 20
452.312034
 30
0.0
 40
3.0
 41
0.0
 71
     5
 72
     1
  1
\A1;10
  7
STEFANO
 11
0.6372747463137086
 21
0.7706366833409881
 31
0.0
 73
     1
 44
1.0
  0
SOLID
  5
328
330
325
100
AcDbEntity
  8
0
 62
    21
100
AcDbTrace
 10
496.793419
 20
445.291365
 30
0.0
 11
497.718183
 21
444.526635
 31
0.0
 12
494.961612
 22
442.134708
 32
0.0
 13
494.961612
 23
442.134708
 33
0.0
  0
LINE
  5
329
330
325
100
AcDbEntity
  8
0
  6
Continuous
 62
    21
370
    -2
100
AcDbLine
 10
491.685238
 20
438.281525
 30
0.0
 11
491.865238
 21
438.281525
 31
0.0
  0
LINE
  5
32A
330
325
100
AcDbEntity
  8
0
  6
Continuous
 62
    21
370
    -2
100
AcDbLine
 10
491.775238
 20
438.191525
 30
0.0
 11
491.775238
 21
438.371525
 31
0.0
  0
POINT
  5
32B
330
325
100
AcDbEntity
  8
Defpoints
 62
     0
100
AcDbPoint
 10
494.961612
 20
442.134708
 30
0.0
  0
POINT
  5
32C
330
325
100
AcDbEntity
  8
Defpoints
 62
     0
100
AcDbPoint
 10
491.775238
 20
438.281525
 30
0.0
  0
ENDBLK
  5
32E
330
325
100
AcDbEntity
  8
0
100
AcDbBlockEnd
  0
ENDSEC
  0
SECTION
  2
ENTITIES
  0
DIMENSION
  5
53
330
1F
100
AcDbEntity
  8
0
  6
Continuous
 62
    21
 60
     1
100
AcDbDimension
  2
*D2
 10
293.355408
 20
400.639435
 30
0.0
 11
290.323908
 21
409.639435
 31
0.0
 70
    33
  1
18
 71
     5
 42
18.0
  3
STEFANO
100
AcDbAlignedDimension
 13
261.855408
 23
418.639435
 33
0.0
 14
261.855408
 24
400.639435
 34
0.0
1001
ACAD
1000
DSTYLE
1002
{
1070
   280
1070
     0
1070
   344
1005
0
1070
   343
1005
0
1070
    76
1070
     0
1070
    75
1070
     0
1002
}
  0
DIMENSION
  5
60
330
1F
100
AcDbEntity
  8
0
  6
Continuous
 62
    21
 60
     1
100
AcDbDimension
  2
*D3
 10
219.355423
 20
548.201843
 30
0.0
 11
209.650421
 21
548.201843
 31
0.0
 70
   160
  1
12.5
 71
     5
 42
12.5
  3
STEFANO
100
AcDbAlignedDimension
 13
231.855423
 23
394.764099
 33
0.0
 14
219.355423
 24
480.639435
 34
0.0
100
AcDbRotatedDimension
1001
ACAD
1000
DSTYLE
1002
{
1070
   280
1070
     0
1070
   344
1005
0
1070
   343
1005
0
1070
    76
1070
     0
1070
    75
1070
     0
1070
   279
1070
     0
1002
}
  0
DIMENSION
  5
6E
330
1F
100
AcDbEntity
  8
0
  6
Continuous
 62
    21
 60
     1
100
AcDbDimension
  2
*D4
 10
244.355423
 20
516.701721
 30
0.0
 11
222.150421
 21
516.701721
 31
0.0
 70
   160
  1
12.5
 71
     5
 42
12.5
  3
STEFANO
100
AcDbAlignedDimension
 13
231.855423
 23
394.764099
 33
0.0
 14
244.355423
 24
480.639435
 34
0.0
100
AcDbRotatedDimension
1001
ACAD
1000
DSTYLE
1002
{
1070
   279
1070
     0
1002
}
  0
DIMENSION
  5
7C
330
1F
100
AcDbEntity
  8
0
  6
Continuous
 62
    21
 60
     1
100
AcDbDimension
  2
*D5
 10
231.855423
 20
468.41507
 30
0.0
 11
225.05751
 21
457.080374
 31
0.0
 70
   164
  1
0.5
 71
     5
 42
0.5
  3
STEFANO
100
AcDbRadialDimension
 15
231.598256
 25
467.986275
 35
0.0
 40
0.0
1001
ACAD
1000
DSTYLE
1002
{
1070
   172
1070
     0
1002
}
  0
DIMENSION
  5
87
330
1F
100
AcDbEntity
  8
0
  6
Continuous
 62
    21
 60
     1
100
AcDbDimension
  2
*D6
 10
323.605408
 20
418.639435
 30
0.0
 11
320.573908
 21
449.639435
 31
0.0
 70
    32
  1
62
 71
     5
 42
62.0
  3
STEFANO
100
AcDbAlignedDimension
 13
249.355423
 23
480.639435
 33
0.0
 14
261.855408
 24
418.639435
 34
0.0
 50
90.0
100
AcDbRotatedDimension
1001
ACAD
1000
DSTYLE
1002
{
1070
   280
1070
     0
1070
   344
1005
0
1070
   343
1005
0
1070
    76
1070
     0
1070
    75
1070
     0
1002
}
  0
DIMENSION
  5
94
330
1F
100
AcDbEntity
  8
0
  6
Continuous
 62
    21
 60
     1
100
AcDbDimension
  2
*D7
 10
218.082001
 20
477.639435
 30
0.0
 11
231.034017
 21
500.073047
 31
0.0
 70
   164
  1
3
 71
     5
 42
3.0
  3
STEFANO
100
AcDbRadialDimension
 15
219.581998
 25
480.237513
 35
0.0
 40
0.0
1001
ACAD
1000
DSTYLE
1002
{
1070
   172
1070
     0
1002
}
  0
DIMENSION
  5
9F
330
1F
100
AcDbEntity
  8
0
  6
Continuous
 62
    21
 60
     1
100
AcDbDimension
  2
*D8
 10
245.628845
 20
477.639435
 30
0.0
 11
235.4127
 21
495.333979
 31
0.0
 70
   164
  1
3
 71
     5
 42
3.0
  3
STEFANO
100
AcDbRadialDimension
 15
244.128824
 25
480.237499
 35
0.0
 40
0.0
1001
ACAD
1000
DSTYLE
1002
{
1070
   172
1070
     0
1002
}
  0
DIMENSION
  5
AA
330
1F
100
AcDbEntity
  8
0
  6
Continuous
 62
    21
 60
     1
100
AcDbDimension
  2
*D9
 10
170.355423
 20
418.639435
 30
0.0
 11
170.355423
 21
430.960449
 31
0.0
 70
   160
  1
1 x45%%d
 71
     5
 42
1.0
  3
STEFANO
100
AcDbAlignedDimension
 13
201.855423
 23
417.639435
 33
0.0
 14
202.855423
 24
418.639435
 34
0.0
 50
90.0
100
AcDbRotatedDimension
1001
ACAD
1000
DSTYLE
1002
{
1070
   279
1070
     0
1002
}
  0
DIMENSION
  5
B9
330
1F
100
AcDbEntity
  8
0
  6
Continuous
 62
    21
 60
     1
100
AcDbDimension
  2
*D10
 10
261.855408
 20
337.639435
 30
0.0
 11
274.176422
 21
337.639435
 31
0.0
 70
   160
  1
1 x45%%d
 71
     5
 42
1.0
  3
STEFANO
100
AcDbAlignedDimension
 13
260.855408
 23
418.639435
 33
0.0
 14
261.855408
 24
417.639435
 34
0.0
100
AcDbRotatedDimension
1001
ACAD
1000
DSTYLE
1002
{
1070
   279
1070
     0
1002
}
  0
DIMENSION
  5
C8
330
1F
100
AcDbEntity
  8
0
  6
Continuous
 62
    21
 60
     1
100
AcDbDimension
  2
*D11
 10
170.355423
 20
400.639435
 30
0.0
 11
170.355423
 21
388.318451
 31
0.0
 70
   160
  1
1 x45%%d
 71
     5
 42
1.0
  3
STEFANO
100
AcDbAlignedDimension
 13
201.855423
 23
401.639435
 33
0.0
 14
202.855423
 24
400.639435
 34
0.0
 50
90.0
100
AcDbRotatedDimension
1001
ACAD
1000
DSTYLE
1002
{
1070
   280
1070
     0
1070
   344
1005
0
1070
   343
1005
0
1070
    76
1070
     0
1070
    75
1070
     0
1070
   279
1070
     0
1002
}
  0
DIMENSION
  5
D7
330
1F
100
AcDbEntity
  8
0
  6
Continuous
 62
    21
 60
     1
100
AcDbDimension
  2
*D12
 10
290.855408
 20
480.639435
 30
0.0
 11
290.855408
 21
494.670441
 31
0.0
 70
   160
  1
0.8 x45%%d
 71
     5
 42
0.800018
  3
STEFANO
100
AcDbAlignedDimension
 13
249.355423
 23
479.839417
 33
0.0
 14
248.55542
 24
480.639435
 34
0.0
 50
90.0
100
AcDbRotatedDimension
1001
ACAD
1000
DSTYLE
1002
{
1070
   279
1070
     0
1002
}
  0
DIMENSION
  5
E6
330
1F
100
AcDbEntity
  8
0
  6
Continuous
 62
    21
 60
     1
100
AcDbDimension
  2
*D13
 10
172.855408
 20
480.639435
 30
0.0
 11
172.855408
 21
494.670441
 31
0.0
 70
   160
  1
0.8 x45%%d
 71
     5
 42
0.800018
  3
STEFANO
100
AcDbAlignedDimension
 13
214.355423
 23
479.839417
 33
0.0
 14
215.155426
 24
480.639435
 34
0.0
 50
90.0
100
AcDbRotatedDimension
1001
ACAD
1000
DSTYLE
1002
{
1070
   279
1070
     0
1002
}
  0
DIMENSION
  5
F5
330
1F
100
AcDbEntity
  8
0
  6
Continuous
 62
    21
 60
     1
100
AcDbDimension
  2
*D14
 10
172.855423
 20
434.389435
 30
0.0
 11
172.855423
 21
425.824432
 31
0.0
 70
   161
  1
2.5
 71
     5
 42
2.5
  3
STEFANO
100
AcDbAlignedDimension
 13
214.355423
 23
436.889435
 33
0.0
 14
214.355423
 24
434.389435
 34
0.0
1001
ACAD
1000
DSTYLE
1002
{
1070
   280
1070
     0
1070
   344
1005
0
1070
   343
1005
0
1070
    76
1070
     0
1070
    75
1070
     0
1070
   279
1070
     0
1002
}
  0
DIMENSION
  5
104
330
1F
100
AcDbEntity
  8
0
  6
Continuous
 62
    21
 60
     1
100
AcDbDimension
  2
*D15
 10
214.355423
 20
434.389435
 30
0.0
 11
226.103747
 21
435.639435
 31
0.0
 70
    34
  1
90%%d
 71
     5
 42
1.570796
  3
STEFANO
100
AcDb2LineAngularDimension
 13
215.605423
 23
435.639435
 33
0.0
 14
214.355423
 24
436.889435
 34
0.0
 15
215.605423
 25
435.639435
 35
0.0
 16
229.154747
 26
435.639435
 36
0.0
1001
ACAD
1000
DSTYLE
1002
{
1070
   272
1070
     2
1070
   284
1070
    12
1002
}
  0
DIMENSION
  5
113
330
1F
100
AcDbEntity
  8
0
  6
Continuous
 62
    21
 60
     1
100
AcDbDimension
  2
*D16
 10
141.355423
 20
435.639435
 30
0.0
 11
138.349423
 21
427.139435
 31
0.0
 70
    32
  1
17
 71
     5
 42
17.0
  3
STEFANO
100
AcDbAlignedDimension
 13
214.355423
 23
418.639435
 33
0.0
 14
215.605423
 24
435.639435
 34
0.0
 50
90.0
100
AcDbRotatedDimension
  0
TEXT
  5
120
330
1F
100
AcDbEntity
  8
0
  6
Continuous
 62
     1
 60
     1
100
AcDbText
 10
230.691423
 20
396.039429
 30
0.0
 40
3.0
  1
a
  7
STEFANO
 72
     1
 11
231.855423
 21
396.039429
 31
0.0
100
AcDbText
  0
DIMENSION
  5
121
330
1F
100
AcDbEntity
  8
0
  6
Continuous
 62
    21
 60
     1
100
AcDbDimension
  2
*D17
 10
462.333038
 20
400.639435
 30
0.0
 11
459.301538
 21
409.639435
 31
0.0
 70
    33
  1
18
 71
     5
 42
18.0
  3
STEFANO
100
AcDbAlignedDimension
 13
399.333038
 23
418.639435
 33
0.0
 14
399.333038
 24
400.639435
 34
0.0
1001
ACAD
1000
DSTYLE
1002
{
1070
   280
1070
     0
1070
   344
1005
0
1070
   343
1005
0
1070
    76
1070
     0
1070
    75
1070
     0
1002
}
  0
DIMENSION
  5
12E
330
1F
100
AcDbEntity
  8
0
  6
Continuous
 62
    21
 60
     1
100
AcDbDimension
  2
*D18
 10
349.333038
 20
337.639435
 30
0.0
 11
374.333038
 21
340.670935
 31
0.0
 70
    33
  1
50
 71
     5
 42
50.0
  3
STEFANO
100
AcDbAlignedDimension
 13
399.333038
 23
418.639435
 33
0.0
 14
349.333038
 24
418.639435
 34
0.0
1001
ACAD
1000
DSTYLE
1002
{
1070
   280
1070
     0
1070
   344
1005
0
1070
   343
1005
0
1070
    76
1070
     0
1070
    75
1070
     0
1002
}
  0
DIMENSION
  5
13B
330
1F
100
AcDbEntity
  8
0
  6
Continuous
 62
    21
 60
     1
100
AcDbDimension
  2
*D19
 10
430.833038
 20
418.639435
 30
0.0
 11
430.833038
 21
430.960449
 31
0.0
 70
   161
  1
1 x45%%d
 71
     5
 42
1.0
  3
STEFANO
100
AcDbAlignedDimension
 13
374.333038
 23
417.639435
 33
0.0
 14
374.333038
 24
418.639435
 34
0.0
1001
ACAD
1000
DSTYLE
1002
{
1070
   279
1070
     0
1002
}
  0
DIMENSION
  5
14A
330
1F
100
AcDbEntity
  8
0
  6
Continuous
 62
    21
 60
     1
100
AcDbDimension
  2
*D20
 10
430.833038
 20
400.639435
 30
0.0
 11
430.833038
 21
388.318451
 31
0.0
 70
   161
  1
1 x45%%d
 71
     5
 42
1.0
  3
STEFANO
100
AcDbAlignedDimension
 13
374.333038
 23
401.639435
 33
0.0
 14
374.333038
 24
400.639435
 34
0.0
1001
ACAD
1000
DSTYLE
1002
{
1070
   280
1070
     0
1070
   344
1005
0
1070
   343
1005
0
1070
    76
1070
     0
1070
    75
1070
     0
1070
   279
1070
     0
1002
}
  0
DIMENSION
  5
159
330
1F
100
AcDbEntity
  8
0
  6
Continuous
 62
    21
 60
     1
100
AcDbDimension
  2
*D21
 10
462.333038
 20
480.639435
 30
0.0
 11
462.333038
 21
494.670441
 31
0.0
 70
   161
  1
0.8 x45%%d
 71
     5
 42
0.800018
  3
STEFANO
100
AcDbAlignedDimension
 13
374.333038
 23
479.839417
 33
0.0
 14
374.333038
 24
480.639435
 34
0.0
1001
ACAD
1000
DSTYLE
1002
{
1070
   279
1070
     0
1002
}
  0
DIMENSION
  5
168
330
1F
100
AcDbEntity
  8
0
  6
Continuous
 62
    21
 60
     1
100
AcDbDimension
  2
*D22
 10
430.833038
 20
480.639435
 30
0.0
 11
430.833038
 21
494.670441
 31
0.0
 70
   161
  1
0.8 x45%%d
 71
     5
 42
0.800018
  3
STEFANO
100
AcDbAlignedDimension
 13
374.333038
 23
479.839417
 33
0.0
 14
374.333038
 24
480.639435
 34
0.0
1001
ACAD
1000
DSTYLE
1002
{
1070
   279
1070
     0
1002
}
  0
DIMENSION
  5
177
330
1F
100
AcDbEntity
  8
0
  6
Continuous
 62
    21
 60
     1
100
AcDbDimension
  2
*D23
 10
430.833038
 20
434.389435
 30
0.0
 11
430.833038
 21
425.824432
 31
0.0
 70
   161
  1
2.5
 71
     5
 42
2.5
  3
STEFANO
100
AcDbAlignedDimension
 13
399.333038
 23
436.889435
 33
0.0
 14
399.333038
 24
434.389435
 34
0.0
1001
ACAD
1000
DSTYLE
1002
{
1070
   280
1070
     0
1070
   344
1005
0
1070
   343
1005
0
1070
    76
1070
     0
1070
    75
1070
     0
1070
   279
1070
     0
1002
}
  0
TEXT
  5
186
330
1F
100
AcDbEntity
  8
0
  6
Continuous
 62
     1
 60
     1
100
AcDbText
 10
373.286038
 20
396.039429
 30
0.0
 40
3.0
  1
c
  7
STEFANO
 72
     1
 11
374.333038
 21
396.039429
 31
0.0
100
AcDbText
  0
DIMENSION
  5
187
330
1F
100
AcDbEntity
  8
0
  6
Continuous
 62
    21
 60
     1
100
AcDbDimension
  2
*D24
 10
214.355423
 20
460.639435
 30
0.0
 11
214.355423
 21
442.64444
 31
0.0
 70
   161
  1
10
 71
     5
 42
10.0
  3
STEFANO
100
AcDbAlignedDimension
 13
214.355423
 23
450.639435
 33
0.0
 14
214.355423
 24
460.639435
 34
0.0
1001
ACAD
1000
DSTYLE
1002
{
1070
   279
1070
     0
1002
}
  0
DIMENSION
  5
196
330
1F
100
AcDbEntity
  8
0
  6
Continuous
 62
    21
 60
     1
100
AcDbDimension
  2
*D25
 10
214.455429
 20
442.239471
 30
0.0
 11
205.790436
 21
442.239471
 31
0.0
 70
   161
  1
0.1
 71
     5
 42
0.100006
  3
STEFANO
100
AcDbAlignedDimension
 13
214.355423
 23
450.639435
 33
0.0
 14
214.455429
 24
450.639435
 34
0.0
1001
ACAD
1000
DSTYLE
1002
{
1070
   279
1070
     0
1002
}
  0
DIMENSION
  5
1A5
330
1F
100
AcDbEntity
  8
0
  6
Continuous
 62
    21
 60
     1
100
AcDbDimension
  2
*D26
 10
366.920807
 20
480.639435
 30
0.0
 11
363.889307
 21
470.639435
 31
0.0
 70
    32
  1
20
 71
     5
 42
20.0
  3
STEFANO
100
AcDbAlignedDimension
 13
374.333038
 23
460.639435
 33
0.0
 14
399.333038
 24
480.639435
 34
0.0
 50
90.0
100
AcDbRotatedDimension
  0
DIMENSION
  5
1B2
330
1F
100
AcDbEntity
  8
0
  6
Continuous
 62
    21
 60
     1
100
AcDbDimension
  2
*D27
 10
349.333038
 20
442.320251
 30
0.0
 11
351.833038
 21
445.345751
 31
0.0
 70
    32
  1
5
 71
     5
 42
5.0
  3
STEFANO
100
AcDbAlignedDimension
 13
354.333038
 23
460.639435
 33
0.0
 14
349.333038
 24
479.839417
 34
0.0
100
AcDbRotatedDimension
1001
ACAD
1000
DSTYLE
1002
{
1070
   280
1070
     0
1070
   344
1005
0
1070
   343
1005
0
1070
    76
1070
     0
1070
    75
1070
     0
1002
}
  0
DIMENSION
  5
1C0
330
1F
100
AcDbEntity
  8
0
  6
Continuous
 62
    21
 60
     1
100
AcDbDimension
  2
*D28
 10
374.333038
 20
440.237274
 30
0.0
 11
364.333038
 21
443.268774
 31
0.0
 70
    33
  1
20
 71
     5
 42
20.0
  3
STEFANO
100
AcDbAlignedDimension
 13
354.333038
 23
450.639435
 33
0.0
 14
374.333038
 24
450.639435
 34
0.0
  0
DIMENSION
  5
1CD
330
1F
100
AcDbEntity
  8
0
  6
Continuous
 62
    21
 60
     1
100
AcDbDimension
  2
*D29
 10
383.296326
 20
460.639435
 30
0.0
 11
383.296326
 21
442.64444
 31
0.0
 70
   161
  1
10
 71
     5
 42
10.0
  3
STEFANO
100
AcDbAlignedDimension
 13
374.333038
 23
450.639435
 33
0.0
 14
374.333038
 24
460.639435
 34
0.0
1001
ACAD
1000
DSTYLE
1002
{
1070
   279
1070
     0
1002
}
  0
DIMENSION
  5
1DC
330
1F
100
AcDbEntity
  8
0
  6
Continuous
 62
    21
 60
     1
100
AcDbDimension
  2
*D30
 10
491.775238
 20
305.336975
 30
0.0
 11
484.275238
 21
308.368475
 31
0.0
 70
    32
  1
30
 71
     5
 42
15.0
  3
STEFANO
100
AcDbAlignedDimension
 13
476.775238
 23
406.555817
 33
0.0
 14
491.775238
 24
394.618164
 34
0.0
100
AcDbRotatedDimension
1001
ACAD
1000
DSTYLE
1002
{
1070
   178
1070
     1
1002
}
  0
DIMENSION
  5
1E9
330
1F
100
AcDbEntity
  8
0
  6
Continuous
 62
    21
 60
     1
100
AcDbDimension
  2
*D31
 10
491.775238
 20
273.836975
 30
0.0
 11
499.275238
 21
276.868475
 31
0.0
 70
    32
  1
30
 71
     5
 42
15.0
  3
STEFANO
100
AcDbAlignedDimension
 13
506.775238
 23
397.555817
 33
0.0
 14
491.775238
 24
394.618164
 34
0.0
100
AcDbRotatedDimension
1001
ACAD
1000
DSTYLE
1002
{
1070
   280
1070
     0
1070
   344
1005
0
1070
   343
1005
0
1070
    76
1070
     0
1070
    75
1070
     0
1070
   178
1070
     1
1002
}
  0
DIMENSION
  5
1F6
330
1F
100
AcDbEntity
  8
0
  6
Continuous
 62
    21
 60
     1
100
AcDbDimension
  2
*D32
 10
538.275146
 20
397.555817
 30
0.0
 11
538.275146
 21
389.560822
 31
0.0
 70
   161
  1
18
 71
     5
 42
9.0
  3
STEFANO
100
AcDbAlignedDimension
 13
506.775238
 23
406.555817
 33
0.0
 14
506.775238
 24
397.555817
 34
0.0
1001
ACAD
1000
DSTYLE
1002
{
1070
   280
1070
     0
1070
   344
1005
0
1070
   343
1005
0
1070
    76
1070
     0
1070
    75
1070
     0
1070
   279
1070
     0
1070
   178
1070
     1
1002
}
  0
DIMENSION
  5
205
330
1F
100
AcDbEntity
  8
0
  6
Continuous
 62
    21
 60
     1
100
AcDbDimension
  2
*D33
 10
491.775238
 20
535.36554
 30
0.0
 11
473.320251
 21
535.36554
 31
0.0
 70
   160
  1
17.5
 71
     5
 42
8.75
  3
STEFANO
100
AcDbAlignedDimension
 13
483.025238
 23
437.555817
 33
0.0
 14
491.775238
 24
394.618164
 34
0.0
100
AcDbRotatedDimension
1001
ACAD
1000
DSTYLE
1002
{
1070
   279
1070
     0
1070
   178
1070
     1
1002
}
  0
DIMENSION
  5
214
330
1F
100
AcDbEntity
  8
0
  6
Continuous
 62
    21
 60
     1
100
AcDbDimension
  2
*D34
 10
491.775238
 20
305.336975
 30
0.0
 11
482.070251
 21
305.336975
 31
0.0
 70
   160
  1
17.5
 71
     5
 42
8.75
  3
STEFANO
100
AcDbAlignedDimension
 13
500.525238
 23
406.555817
 33
0.0
 14
491.775238
 24
394.618164
 34
0.0
100
AcDbRotatedDimension
1001
ACAD
1000
DSTYLE
1002
{
1070
   280
1070
     0
1070
   344
1005
0
1070
   343
1005
0
1070
    76
1070
     0
1070
    75
1070
     0
1070
   279
1070
     0
1070
   178
1070
     1
1002
}
  0
DIMENSION
  5
223
330
1F
100
AcDbEntity
  8
0
  6
Continuous
 62
    21
 60
     1
100
AcDbDimension
  2
*D35
 10
485.525238
 20
503.86554
 30
0.0
 11
475.820251
 21
503.86554
 31
0.0
 70
   160
  1
12.5
 71
     5
 42
6.25
  3
STEFANO
100
AcDbAlignedDimension
 13
491.775238
 23
394.618164
 33
0.0
 14
485.525238
 24
437.555817
 34
0.0
100
AcDbRotatedDimension
1001
ACAD
1000
DSTYLE
1002
{
1070
   280
1070
     0
1070
   344
1005
0
1070
   343
1005
0
1070
    76
1070
     0
1070
    75
1070
     0
1070
   279
1070
     0
1070
   178
1070
     1
1002
}
  0
DIMENSION
  5
232
330
1F
100
AcDbEntity
  8
0
  6
Continuous
 62
    21
 60
     1
100
AcDbDimension
  2
*D36
 10
498.025238
 20
472.36554
 30
0.0
 11
482.070251
 21
472.36554
 31
0.0
 70
   160
  1
12.5
 71
     5
 42
6.25
  3
STEFANO
100
AcDbAlignedDimension
 13
491.775238
 23
394.618164
 33
0.0
 14
498.025238
 24
437.555817
 34
0.0
100
AcDbRotatedDimension
1001
ACAD
1000
DSTYLE
1002
{
1070
   279
1070
     0
1070
   178
1070
     1
1002
}
  0
DIMENSION
  5
241
330
1F
100
AcDbEntity
  8
0
  6
Continuous
 62
    21
 60
     1
100
AcDbDimension
  2
*D37
 10
491.775238
 20
431.443634
 30
0.0
 11
485.763396
 21
421.41914
 31
0.0
 70
   164
  1
0.5
 71
     5
 42
0.25
  3
STEFANO
100
AcDbRadialDimension
 15
491.646659
 25
431.229234
 35
0.0
 40
0.0
1001
ACAD
1000
DSTYLE
1002
{
1070
   172
1070
     0
1070
   178
1070
     1
1002
}
  0
DIMENSION
  5
24C
330
1F
100
AcDbEntity
  8
0
  6
Continuous
 62
    21
 60
     1
100
AcDbDimension
  2
*D38
 10
491.595398
 20
431.269989
 30
0.0
 11
482.078577
 21
455.083818
 31
0.0
 70
    34
  1
44
 71
     5
 42
0.767945
  3
STEFANO
100
AcDb2LineAngularDimension
 13
491.775238
 23
451.248962
 33
0.0
 14
491.775238
 24
394.618164
 34
0.0
 15
485.525238
 25
437.555817
 35
0.0
 16
483.202398
 26
452.302267
 36
0.0
1001
ACAD
1000
DSTYLE
1002
{
1070
   178
1070
     1
1070
   272
1070
     2
1070
   284
1070
    12
1002
}
  0
DIMENSION
  5
25B
330
1F
100
AcDbEntity
  8
0
  6
Continuous
 62
    21
 60
     1
100
AcDbDimension
  2
*D39
 10
491.775238
 20
394.618164
 30
0.0
 11
501.495025
 21
455.141057
 31
0.0
 70
    34
  1
44
 71
     5
 42
0.767945
  3
STEFANO
100
AcDb2LineAngularDimension
 13
498.025238
 23
437.555817
 33
0.0
 14
491.955078
 24
431.269989
 34
0.0
 15
491.775238
 25
451.248962
 35
0.0
 16
500.371204
 26
452.359506
 36
0.0
1001
ACAD
1000
DSTYLE
1002
{
1070
   178
1070
     1
1070
   272
1070
     2
1070
   284
1070
    12
1002
}
  0
DIMENSION
  5
26A
330
1F
100
AcDbEntity
  8
0
  6
Continuous
 62
    21
 60
     1
100
AcDbDimension
  2
*D40
 10
537.650146
 20
406.555817
 30
0.0
 11
534.618646
 21
422.055817
 31
0.0
 70
    32
  1
62
 71
     5
 42
31.0
  3
STEFANO
100
AcDbAlignedDimension
 13
500.525238
 23
437.555817
 33
0.0
 14
506.775238
 24
406.555817
 34
0.0
 50
90.0
100
AcDbRotatedDimension
1001
ACAD
1000
DSTYLE
1002
{
1070
   280
1070
     0
1070
   344
1005
0
1070
   343
1005
0
1070
    76
1070
     0
1070
    75
1070
     0
1070
   178
1070
     1
1002
}
  0
DIMENSION
  5
277
330
1F
100
AcDbEntity
  8
0
  6
Continuous
 62
    21
 60
     1
100
AcDbDimension
  2
*D41
 10
484.888519
 20
436.055817
 30
0.0
 11
492.336091
 21
447.974162
 31
0.0
 70
   164
  1
3
 71
     5
 42
1.5
  3
STEFANO
100
AcDbRadialDimension
 15
485.683411
 25
437.327881
 35
0.0
 40
0.0
1001
ACAD
1000
DSTYLE
1002
{
1070
   172
1070
     0
1070
   178
1070
     1
1002
}
  0
DIMENSION
  5
282
330
1F
100
AcDbEntity
  8
0
  6
Continuous
 62
    21
 60
     1
100
AcDbDimension
  2
*D42
 10
498.661957
 20
436.055817
 30
0.0
 11
490.375996
 21
449.315835
 31
0.0
 70
   164
  1
3
 71
     5
 42
1.5
  3
STEFANO
100
AcDbRadialDimension
 15
497.867065
 25
437.327881
 35
0.0
 40
0.0
1001
ACAD
1000
DSTYLE
1002
{
1070
   172
1070
     0
1070
   178
1070
     1
1002
}
  0
DIMENSION
  5
28D
330
1F
100
AcDbEntity
  8
0
  6
Continuous
 62
    21
 60
     1
100
AcDbDimension
  2
*D43
 10
445.275238
 20
406.555817
 30
0.0
 11
445.275238
 21
418.876831
 31
0.0
 70
   160
  1
1 x45%%d
 71
     5
 42
0.5
  3
STEFANO
100
AcDbAlignedDimension
 13
476.775238
 23
406.055817
 33
0.0
 14
477.275238
 24
406.555817
 34
0.0
 50
90.0
100
AcDbRotatedDimension
1001
ACAD
1000
DSTYLE
1002
{
1070
   279
1070
     0
1070
   178
1070
     1
1002
}
  0
DIMENSION
  5
29C
330
1F
100
AcDbEntity
  8
0
  6
Continuous
 62
    21
 60
     1
100
AcDbDimension
  2
*D44
 10
506.775238
 20
334.555817
 30
0.0
 11
519.096191
 21
334.555817
 31
0.0
 70
   160
  1
1 x45%%d
 71
     5
 42
0.5
  3
STEFANO
100
AcDbAlignedDimension
 13
506.275238
 23
406.555817
 33
0.0
 14
506.775238
 24
406.055817
 34
0.0
100
AcDbRotatedDimension
1001
ACAD
1000
DSTYLE
1002
{
1070
   279
1070
     0
1070
   178
1070
     1
1002
}
  0
DIMENSION
  5
2AB
330
1F
100
AcDbEntity
  8
0
  6
Continuous
 62
    21
 60
     1
100
AcDbDimension
  2
*D45
 10
445.275238
 20
397.555817
 30
0.0
 11
445.275238
 21
385.234833
 31
0.0
 70
   160
  1
1 x45%%d
 71
     5
 42
0.5
  3
STEFANO
100
AcDbAlignedDimension
 13
476.775238
 23
398.055817
 33
0.0
 14
477.275238
 24
397.555817
 34
0.0
 50
90.0
100
AcDbRotatedDimension
1001
ACAD
1000
DSTYLE
1002
{
1070
   280
1070
     0
1070
   344
1005
0
1070
   343
1005
0
1070
    76
1070
     0
1070
    75
1070
     0
1070
   279
1070
     0
1070
   178
1070
     1
1002
}
  0
DIMENSION
  5
2BA
330
1F
100
AcDbEntity
  8
0
  6
Continuous
 62
    21
 60
     1
100
AcDbDimension
  2
*D46
 10
412.525238
 20
437.555817
 30
0.0
 11
412.525238
 21
451.586823
 31
0.0
 70
   160
  1
0.8 x45%%d
 71
     5
 42
0.399994
  3
STEFANO
100
AcDbAlignedDimension
 13
500.525238
 23
437.155823
 33
0.0
 14
500.125244
 24
437.555817
 34
0.0
 50
90.0
100
AcDbRotatedDimension
1001
ACAD
1000
DSTYLE
1002
{
1070
   279
1070
     0
1070
   178
1070
     1
1002
}
  0
DIMENSION
  5
2C9
330
1F
100
AcDbEntity
  8
0
  6
Continuous
 62
    21
 60
     1
100
AcDbDimension
  2
*D47
 10
446.525208
 20
437.555817
 30
0.0
 11
446.525208
 21
451.586823
 31
0.0
 70
   160
  1
0.8 x45%%d
 71
     5
 42
0.399994
  3
STEFANO
100
AcDbAlignedDimension
 13
483.025238
 23
437.155823
 33
0.0
 14
483.425232
 24
437.555817
 34
0.0
 50
90.0
100
AcDbRotatedDimension
1001
ACAD
1000
DSTYLE
1002
{
1070
   279
1070
     0
1070
   178
1070
     1
1002
}
  0
DIMENSION
  5
2D8
330
1F
100
AcDbEntity
  8
0
  6
Continuous
 62
    21
 60
     1
100
AcDbDimension
  2
*D48
 10
446.525238
 20
414.430817
 30
0.0
 11
446.525238
 21
405.865814
 31
0.0
 70
   161
  1
2.5
 71
     5
 42
1.25
  3
STEFANO
100
AcDbAlignedDimension
 13
483.025238
 23
415.680817
 33
0.0
 14
483.025238
 24
414.430817
 34
0.0
1001
ACAD
1000
DSTYLE
1002
{
1070
   280
1070
     0
1070
   344
1005
0
1070
   343
1005
0
1070
    76
1070
     0
1070
    75
1070
     0
1070
   279
1070
     0
1070
   178
1070
     1
1002
}
  0
DIMENSION
  5
2E7
330
1F
100
AcDbEntity
  8
0
  6
Continuous
 62
    21
 60
     1
100
AcDbDimension
  2
*D49
 10
483.025238
 20
414.430817
 30
0.0
 11
487.815939
 21
415.055817
 31
0.0
 70
    34
  1
90%%d
 71
     5
 42
1.570796
  3
STEFANO
100
AcDb2LineAngularDimension
 13
483.650238
 23
415.055817
 33
0.0
 14
483.025238
 24
415.680817
 34
0.0
 15
483.650238
 25
415.055817
 35
0.0
 16
490.866939
 26
415.055817
 36
0.0
1001
ACAD
1000
DSTYLE
1002
{
1070
   178
1070
     1
1070
   272
1070
     2
1070
   284
1070
    12
1002
}
  0
DIMENSION
  5
2F7
330
1F
100
AcDbEntity
  8
0
  6
Continuous
 62
    21
 60
     1
100
AcDbDimension
  2
*D50
 10
415.025238
 20
415.055817
 30
0.0
 11
415.025238
 21
398.560822
 31
0.0
 70
   160
  1
17
 71
     5
 42
8.5
  3
STEFANO
100
AcDbAlignedDimension
 13
483.025238
 23
406.555817
 33
0.0
 14
483.650238
 24
415.055817
 34
0.0
 50
90.0
100
AcDbRotatedDimension
1001
ACAD
1000
DSTYLE
1002
{
1070
   279
1070
     0
1070
   178
1070
     1
1002
}
  0
DIMENSION
  5
306
330
1F
100
AcDbEntity
  8
0
  6
Continuous
 62
    21
 60
     1
100
AcDbDimension
  2
*D51
 10
446.525238
 20
427.555817
 30
0.0
 11
446.525238
 21
414.560822
 31
0.0
 70
   161
  1
10
 71
     5
 42
5.0
  3
STEFANO
100
AcDbAlignedDimension
 13
483.025238
 23
422.555817
 33
0.0
 14
483.025238
 24
427.555817
 34
0.0
1001
ACAD
1000
DSTYLE
1002
{
1070
   279
1070
     0
1070
   178
1070
     1
1002
}
  0
DIMENSION
  5
315
330
1F
100
AcDbEntity
  8
0
  6
Continuous
 62
    21
 60
     1
100
AcDbDimension
  2
*D52
 10
483.075256
 20
334.555817
 30
0.0
 11
474.460236
 21
334.555817
 31
0.0
 70
   161
  1
0.1
 71
     5
 42
0.050018
  3
STEFANO
100
AcDbAlignedDimension
 13
483.025238
 23
422.555817
 33
0.0
 14
483.075256
 24
422.555817
 34
0.0
1001
ACAD
1000
DSTYLE
1002
{
1070
   279
1070
     0
1070
   178
1070
     1
1002
}
  0
DIMENSION
  5
324
330
1F
100
AcDbEntity
  8
0
  6
Continuous
 62
    21
 60
     1
100
AcDbDimension
  2
*D53
 10
491.775238
 20
438.281525
 30
0.0
 11
501.780133
 21
450.380135
 31
0.0
 70
   164
  1
10
 71
     5
 42
5.0
  3
STEFANO
100
AcDbRadialDimension
 15
494.961612
 25
442.134708
 35
0.0
 40
0.0
1001
ACAD
1000
DSTYLE
1002
{
1070
   172
1070
     0
1070
   178
1070
     1
1002
}
  0
TEXT
  5
32F
330
1F
100
AcDbEntity
  8
0
  6
Continuous
 62
     1
 60
     1
100
AcDbText
 10
511.910341
 20
345.499451
 30
0.0
 40
3.0
  1
d
  7
STEFANO
 72
     1
 11
513.074341
 21
345.499451
 31
0.0
100
AcDbText
  0
LINE
  5
330
330
1F
100
AcDbEntity
  8
DISEGNO
  6
Continuous
 62
     7
100
AcDbLine
 10
440.100751
 20
776.556606
 30
0.0
 11
440.100751
 21
838.056606
 31
0.0
  0
LINE
  5
331
330
1F
100
AcDbEntity
  8
DISEGNO
  6
Continuous
 62
     7
100
AcDbLine
 10
439.600751
 20
838.556606
 30
0.0
 11
436.499674
 21
838.556606
 31
0.0
  0
LINE
  5
332
330
1F
100
AcDbEntity
  8
DISEGNO
  6
Continuous
 62
     7
100
AcDbLine
 10
434.201541
 20
837.484969
 30
0.0
 11
422.983774
 21
824.116154
 31
0.0
  0
LINE
  5
333
330
1F
100
AcDbEntity
  8
DISEGNO
  6
Continuous
 62
     7
100
AcDbLine
 10
408.701829
 20
838.556606
 30
0.0
 11
405.600751
 21
838.556606
 31
0.0
  0
LINE
  5
334
330
1F
100
AcDbEntity
  8
DISEGNO
  6
Continuous
 62
     7
100
AcDbLine
 10
405.100751
 20
838.056606
 30
0.0
 11
405.100751
 21
794.806606
 31
0.0
  0
LINE
  5
335
330
1F
100
AcDbEntity
  8
DISEGNO
  6
Continuous
 62
     7
100
AcDbLine
 10
405.100751
 20
794.806606
 30
0.0
 11
406.350751
 21
793.556606
 31
0.0
  0
LINE
  5
336
330
1F
100
AcDbEntity
  8
DISEGNO
  6
Continuous
 62
     7
100
AcDbLine
 10
406.350751
 20
793.556606
 30
0.0
 11
405.100751
 21
792.306606
 31
0.0
  0
LINE
  5
337
330
1F
100
AcDbEntity
  8
DISEGNO
  6
Continuous
 62
     7
100
AcDbLine
 10
405.100751
 20
792.306606
 30
0.0
 11
405.100751
 21
776.556606
 31
0.0
  0
LINE
  5
338
330
1F
100
AcDbEntity
  8
DISEGNO
  6
Continuous
 62
     7
100
AcDbLine
 10
405.100751
 20
776.556606
 30
0.0
 11
393.600751
 21
776.556606
 31
0.0
  0
LINE
  5
339
330
1F
100
AcDbEntity
  8
DISEGNO
  6
Continuous
 62
     7
100
AcDbLine
 10
392.600751
 20
775.556606
 30
0.0
 11
393.600751
 21
776.556606
 31
0.0
  0
LINE
  5
33A
330
1F
100
AcDbEntity
  8
DISEGNO
  6
Continuous
 62
     7
100
AcDbLine
 10
392.600751
 20
775.556606
 30
0.0
 11
392.600751
 21
759.556606
 31
0.0
  0
LINE
  5
33B
330
1F
100
AcDbEntity
  8
DISEGNO
  6
Continuous
 62
     7
100
AcDbLine
 10
392.600751
 20
759.556606
 30
0.0
 11
393.600751
 21
758.556606
 31
0.0
  0
LINE
  5
33C
330
1F
100
AcDbEntity
  8
DISEGNO
  6
Continuous
 62
     7
100
AcDbLine
 10
393.600751
 20
758.556606
 30
0.0
 11
451.600751
 21
758.556606
 31
0.0
  0
LINE
  5
33D
330
1F
100
AcDbEntity
  8
DISEGNO
  6
Continuous
 62
     7
100
AcDbLine
 10
452.600751
 20
759.556606
 30
0.0
 11
451.600751
 21
758.556606
 31
0.0
  0
LINE
  5
33E
330
1F
100
AcDbEntity
  8
DISEGNO
  6
Continuous
 62
     7
100
AcDbLine
 10
452.600751
 20
759.556606
 30
0.0
 11
452.600751
 21
775.556606
 31
0.0
  0
LINE
  5
33F
330
1F
100
AcDbEntity
  8
DISEGNO
  6
Continuous
 62
     7
100
AcDbLine
 10
451.600751
 20
776.556606
 30
0.0
 11
452.600751
 21
775.556606
 31
0.0
  0
LINE
  5
340
330
1F
100
AcDbEntity
  8
DISEGNO
  6
Continuous
 62
     7
100
AcDbLine
 10
451.600751
 20
776.556606
 30
0.0
 11
440.100751
 21
776.556606
 31
0.0
  0
LINE
  5
341
330
1F
100
AcDbEntity
  8
DISEGNO
  6
Continuous
 62
     7
100
AcDbLine
 10
422.217729
 20
824.116154
 30
0.0
 11
410.999962
 21
837.484969
 31
0.0
  0
ARC
  5
342
330
1F
100
AcDbEntity
  8
CARTIGLIO
  6
Continuous
 62
     9
100
AcDbCircle
 10
422.600751
 20
824.437548
 30
0.0
 40
0.5
100
AcDbArc
 50
220.0
 51
320.0
  0
ARC
  5
343
330
1F
100
AcDbEntity
  8
DISEGNO
  6
Continuous
 62
     7
100
AcDbCircle
 10
-408.701829
 20
835.556606
 30
0.0
 40
3.0
210
0.0
220
0.0
230
-1.0
100
AcDbArc
 50
90.0
 51
140.0
  0
ARC
  5
344
330
1F
100
AcDbEntity
  8
DISEGNO
  6
Continuous
 62
     7
100
AcDbCircle
 10
-436.499674
 20
835.556606
 30
0.0
 40
3.0
210
0.0
220
0.0
230
-1.0
100
AcDbArc
 50
40.0
 51
90.0
  0
LINE
  5
345
330
1F
100
AcDbEntity
  8
DISEGNO
  6
Continuous
 62
     7
100
AcDbLine
 10
405.100751
 20
838.056606
 30
0.0
 11
405.600751
 21
838.556606
 31
0.0
  0
LINE
  5
346
330
1F
100
AcDbEntity
  8
DISEGNO
  6
Continuous
 62
     7
100
AcDbLine
 10
440.100751
 20
838.056606
 30
0.0
 11
439.600751
 21
838.556606
 31
0.0
  0
ENDSEC
  0
SECTION
  2
OBJECTS
  0
DICTIONARY
  5
C
330
0
100
AcDbDictionary
281
     1
  3
ACAD_GROUP
350
D
  3
ACAD_LAYOUT
350
1A
  3
ACAD_MLINESTYLE
350
17
  3
ACAD_PLOTSETTINGS
350
19
  3
ACAD_PLOTSTYLENAME
350
E
  3
ACAD_TABLESTYLE
350
347
  3
ACAD_VISUALSTYLE
350
2A
  0
DICTIONARY
  5
D
102
{ACAD_REACTORS
330
C
102
}
330
C
100
AcDbDictionary
281
     1
  0
DICTIONARY
  5
1A
102
{ACAD_REACTORS
330
C
102
}
330
C
100
AcDbDictionary
281
     1
  3
Layout1
350
1E
  3
Layout2
350
26
  3
Model
350
22
  0
DICTIONARY
  5
17
102
{ACAD_REACTORS
330
C
102
}
330
C
100
AcDbDictionary
281
     1
  3
Standard
350
18
  0
DICTIONARY
  5
19
102
{ACAD_REACTORS
330
C
102
}
330
C
100
AcDbDictionary
281
     1
  0
ACDBDICTIONARYWDFLT
  5
E
102
{ACAD_REACTORS
330
C
102
}
330
C
100
AcDbDictionary
281
     1
  3
Normal
350
F
100
AcDbDictionaryWithDefault
340
F
  0
DICTIONARY
  5
347
102
{ACAD_REACTORS
330
C
102
}
330
C
100
AcDbDictionary
281
     1
  0
DICTIONARY
  5
2A
102
{ACAD_REACTORS
330
C
102
}
330
C
100
AcDbDictionary
281
     1
  3
2dWireframe
350
2F
  3
3D Hidden
350
31
  3
3dWireframe
350
30
  3
Basic
350
32
  3
Brighten
350
36
  3
ColorChange
350
3A
  3
Conceptual
350
34
  3
Dim
350
35
  3
Facepattern
350
39
  3
Flat
350
2B
  3
FlatWithEdges
350
2C
  3
Gouraud
350
2D
  3
GouraudWithEdges
350
2E
  3
Linepattern
350
38
  3
Realistic
350
33
  3
Thicken
350
37
  0
LAYOUT
  5
1E
102
{ACAD_REACTORS
330
1A
102
}
330
1A
100
AcDbPlotSettings
  1

  2
none_device
  4

  6

 40
0.0
 41
0.0
 42
0.0
 43
0.0
 44
0.0
 45
0.0
 46
0.0
 47
0.0
 48
0.0
 49
0.0
140
0.0
141
0.0
142
1.0
143
1.0
 70
   688
 72
     0
 73
     0
 74
     5
  7

 75
    16
 76
     0
 77
     2
 78
   300
147
1.0
148
0.0
149
0.0
100
AcDbLayout
  1
Layout1
 70
     1
 71
     1
 10
0.0
 20
0.0
 11
420.0
 21
297.0
 12
0.0
 22
0.0
 32
0.0
 14
1.000000E+20
 24
1.000000E+20
 34
1.000000E+20
 15
-1.000000E+20
 25
-1.000000E+20
 35
-1.000000E+20
146
0.0
 13
0.0
 23
0.0
 33
0.0
 16
1.0
 26
0.0
 36
0.0
 17
0.0
 27
1.0
 37
0.0
 76
     0
330
1B
  0
LAYOUT
  5
26
102
{ACAD_REACTORS
330
1A
102
}
330
1A
100
AcDbPlotSettings
  1

  2
none_device
  4

  6

 40
0.0
 41
0.0
 42
0.0
 43
0.0
 44
0.0
 45
0.0
 46
0.0
 47
0.0
 48
0.0
 49
0.0
140
0.0
141
0.0
142
1.0
143
1.0
 70
   688
 72
     0
 73
     0
 74
     5
  7

 75
    16
 76
     0
 77
     2
 78
   300
147
1.0
148
0.0
149
0.0
100
AcDbLayout
  1
Layout2
 70
     1
 71
     2
 10
0.0
 20
0.0
 11
0.0
 21
0.0
 12
0.0
 22
0.0
 32
0.0
 14
0.0
 24
0.0
 34
0.0
 15
0.0
 25
0.0
 35
0.0
146
0.0
 13
0.0
 23
0.0
 33
0.0
 16
1.0
 26
0.0
 36
0.0
 17
0.0
 27
1.0
 37
0.0
 76
     0
330
23
  0
LAYOUT
  5
22
102
{ACAD_REACTORS
330
1A
102
}
330
1A
100
AcDbPlotSettings
  1

  2
none_device
  4

  6

 40
0.0
 41
0.0
 42
0.0
 43
0.0
 44
0.0
 45
0.0
 46
0.0
 47
0.0
 48
0.0
 49
0.0
140
0.0
141
0.0
142
1.0
143
1.0
 70
  1712
 72
     0
 73
     0
 74
     0
  7

 75
     0
 76
     0
 77
     2
 78
   300
147
1.0
148
0.0
149
0.0
100
AcDbLayout
  1
Model
 70
     1
 71
     0
 10
0.0
 20
0.0
 11
420.0
 21
297.0
 12
0.0
 22
0.0
 32
0.0
 14
1.000000E+20
 24
1.000000E+20
 34
1.000000E+20
 15
-1.000000E+20
 25
-1.000000E+20
 35
-1.000000E+20
146
0.0
 13
0.0
 23
0.0
 33
0.0
 16
1.0
 26
0.0
 36
0.0
 17
0.0
 27
1.0
 37
0.0
 76
     0
330
1F
331
29
  0
MLINESTYLE
  5
18
102
{ACAD_REACTORS
330
17
102
}
330
17
100
AcDbMlineStyle
  2
Standard
 70
     0
  3

 62
   256
 51
90.0
 52
90.0
 71
     2
 49
0.5
 62
   256
  6
BYLAYER
 49
-0.5
 62
   256
  6
BYLAYER
  0
ACDBPLACEHOLDER
  5
F
102
{ACAD_REACTORS
330
E
102
}
330
E
  0
VISUALSTYLE
  5
2F
102
{ACAD_REACTORS
330
2A
102
}
330
2A
100
AcDbVisualStyle
  2
2dWireframe
 70
     4
 71
     0
 72
     2
 73
     0
 90
        0
 40
-0.6
 41
-30.0
 62
     5
 63
     7
421
 16777215
 74
     1
 91
        4
 64
     7
 65
   257
 75
     1
175
     1
 42
1.0
 92
        0
 66
   257
 43
1.0
 76
     1
 77
     6
 78
     2
 67
     7
 79
     5
170
     0
171
     0
290
     0
174
     0
 93
        1
 44
0.0
173
     0
291
     0
 45
0.0
1001
ACAD
1000
AcDbSavedByObjectVersion
1070
     0
  0
VISUALSTYLE
  5
31
102
{ACAD_REACTORS
330
2A
102
}
330
2A
100
AcDbVisualStyle
  2
3D Hidden
 70
     6
 71
     1
 72
     2
 73
     2
 90
        0
 40
-0.6
 41
-30.0
 62
     5
 63
     7
421
 16777215
 74
     2
 91
        2
 64
     7
 65
   257
 75
     2
175
     1
 42
40.0
 92
        0
 66
   257
 43
1.0
 76
     1
 77
     6
 78
     2
 67
     7
 79
     3
170
     0
171
     0
290
     0
174
     0
 93
        1
 44
0.0
173
     0
291
     0
 45
0.0
1001
ACAD
1000
AcDbSavedByObjectVersion
1070
     0
  0
VISUALSTYLE
  5
30
102
{ACAD_REACTORS
330
2A
102
}
330
2A
100
AcDbVisualStyle
  2
3dWireframe
 70
     5
 71
     0
 72
     2
 73
     0
 90
        0
 40
-0.6
 41
-30.0
 62
     5
 63
     7
421
 16777215
 74
     1
 91
        4
 64
     7
 65
   257
 75
     1
175
     1
 42
1.0
 92
        0
 66
   257
 43
1.0
 76
     1
 77
     6
 78
     2
 67
     7
 79
     5
170
     0
171
     0
290
     0
174
     0
 93
        1
 44
0.0
173
     0
291
     0
 45
0.0
1001
ACAD
1000
AcDbSavedByObjectVersion
1070
     0
  0
VISUALSTYLE
  5
32
102
{ACAD_REACTORS
330
2A
102
}
330
2A
100
AcDbVisualStyle
  2
Basic
 70
     7
 71
     1
 72
     0
 73
     1
 90
        0
 40
-0.6
 41
-30.0
 62
     5
 63
     7
421
 16777215
 74
     0
 91
        4
 64
     7
 65
   257
 75
     1
175
     1
 42
1.0
 92
        8
 66
     7
 43
1.0
 76
     1
 77
     6
 78
     2
 67
     7
 79
     5
170
     0
171
     0
290
     0
174
     0
 93
        1
 44
0.0
173
     0
291
     1
 45
0.0
1001
ACAD
1000
AcDbSavedByObjectVersion
1070
     0
  0
VISUALSTYLE
  5
36
102
{ACAD_REACTORS
330
2A
102
}
330
2A
100
AcDbVisualStyle
  2
Brighten
 70
    12
 71
     2
 72
     2
 73
     0
 90
        0
 40
-0.6
 41
-30.0
 62
     5
 63
     7
421
 16777215
 74
     1
 91
        4
 64
     7
 65
   257
 75
     1
175
     1
 42
1.0
 92
        8
 66
     7
 43
1.0
 76
     1
 77
     6
 78
     2
 67
     7
 79
     5
170
     0
171
     0
290
     0
174
     0
 93
        1
 44
50.0
173
     0
291
     1
 45
0.0
1001
ACAD
1000
AcDbSavedByObjectVersion
1070
     0
  0
VISUALSTYLE
  5
3A
102
{ACAD_REACTORS
330
2A
102
}
330
2A
100
AcDbVisualStyle
  2
ColorChange
 70
    16
 71
     2
 72
     2
 73
     3
 90
        0
 40
-0.6
 41
-30.0
 62
     5
 63
     8
421
  8421504
 74
     1
 91
        4
 64
     7
 65
   257
 75
     1
175
     1
 42
1.0
 92
        8
 66
     8
424
  8421504
 43
1.0
 76
     1
 77
     6
 78
     2
 67
     7
 79
     5
170
     0
171
     0
290
     0
174
     0
 93
        1
 44
0.0
173
     0
291
     1
 45
0.0
1001
ACAD
1000
AcDbSavedByObjectVersion
1070
     0
  0
VISUALSTYLE
  5
34
102
{ACAD_REACTORS
330
2A
102
}
330
2A
100
AcDbVisualStyle
  2
Conceptual
 70
     9
 71
     3
 72
     2
 73
     0
 90
        0
 40
-0.6
 41
-30.0
 62
     5
 63
     7
421
 16777215
 74
     2
 91
        2
 64
     7
 65
   257
 75
     1
175
     1
 42
40.0
 92
        8
 66
     7
 43
1.0
 76
     1
 77
     6
 78
     2
 67
     7
 79
     3
170
     0
171
     0
290
     0
174
     0
 93
        1
 44
0.0
173
     0
291
     0
 45
0.0
1001
ACAD
1000
AcDbSavedByObjectVersion
1070
     0
  0
VISUALSTYLE
  5
35
102
{ACAD_REACTORS
330
2A
102
}
330
2A
100
AcDbVisualStyle
  2
Dim
 70
    11
 71
     2
 72
     2
 73
     0
 90
        0
 40
-0.6
 41
-30.0
 62
     5
 63
     7
421
 16777215
 74
     1
 91
        4
 64
     7
 65
   257
 75
     1
175
     1
 42
1.0
 92
        8
 66
     7
 43
1.0
 76
     1
 77
     6
 78
     2
 67
     7
 79
     5
170
     0
171
     0
290
     0
174
     0
 93
        1
 44
-50.0
173
     0
291
     1
 45
0.0
1001
ACAD
1000
AcDbSavedByObjectVersion
1070
     0
  0
VISUALSTYLE
  5
39
102
{ACAD_REACTORS
330
2A
102
}
330
2A
100
AcDbVisualStyle
  2
Facepattern
 70
    15
 71
     2
 72
     2
 73
     0
 90
        0
 40
-0.6
 41
-30.0
 62
     5
 63
     7
421
 16777215
 74
     1
 91
        4
 64
     7
 65
   257
 75
     1
175
     1
 42
1.0
 92
        8
 66
     7
 43
1.0
 76
     1
 77
     6
 78
     2
 67
     7
 79
     5
170
     0
171
     0
290
     0
174
     0
 93
        1
 44
0.0
173
     0
291
     1
 45
0.0
1001
ACAD
1000
AcDbSavedByObjectVersion
1070
     0
  0
VISUALSTYLE
  5
2B
102
{ACAD_REACTORS
330
2A
102
}
330
2A
100
AcDbVisualStyle
  2
Flat
 70
     0
 71
     2
 72
     1
 73
     1
 90
        2
 40
-0.6
 41
30.0
 62
     5
 63
     7
421
 16777215
 74
     0
 91
        4
 64
     7
 65
   257
 75
     1
175
     1
 42
1.0
 92
        8
 66
     7
 43
1.0
 76
     1
 77
     6
 78
     2
 67
     7
 79
     5
170
     0
171
     0
290
     0
174
     0
 93
       13
 44
0.0
173
     0
291
     1
 45
0.0
1001
ACAD
1000
AcDbSavedByObjectVersion
1070
     0
  0
VISUALSTYLE
  5
2C
102
{ACAD_REACTORS
330
2A
102
}
330
2A
100
AcDbVisualStyle
  2
FlatWithEdges
 70
     1
 71
     2
 72
     1
 73
     1
 90
        2
 40
-0.6
 41
30.0
 62
     5
 63
     7
421
 16777215
 74
     1
 91
        4
 64
     7
 65
   257
 75
     1
175
     1
 42
1.0
 92
        0
 66
   257
 43
1.0
 76
     1
 77
     6
 78
     2
 67
     7
 79
     5
170
     0
171
     0
290
     0
174
     0
 93
       13
 44
0.0
173
     0
291
     1
 45
0.0
1001
ACAD
1000
AcDbSavedByObjectVersion
1070
     0
  0
VISUALSTYLE
  5
2D
102
{ACAD_REACTORS
330
2A
102
}
330
2A
100
AcDbVisualStyle
  2
Gouraud
 70
     2
 71
     2
 72
     2
 73
     1
 90
        2
 40
-0.6
 41
30.0
 62
     5
 63
     7
421
 16777215
 74
     0
 91
        4
 64
     7
 65
   257
 75
     1
175
     1
 42
1.0
 92
        0
 66
     7
 43
1.0
 76
     1
 77
     6
 78
     2
 67
     7
 79
     5
170
     0
171
     0
290
     0
174
     0
 93
       13
 44
0.0
173
     0
291
     1
 45
0.0
1001
ACAD
1000
AcDbSavedByObjectVersion
1070
     0
  0
VISUALSTYLE
  5
2E
102
{ACAD_REACTORS
330
2A
102
}
330
2A
100
AcDbVisualStyle
  2
GouraudWithEdges
 70
     3
 71
     2
 72
     2
 73
     1
 90
        2
 40
-0.6
 41
30.0
 62
     5
 63
     7
421
 16777215
 74
     1
 91
        4
 64
     7
 65
   257
 75
     1
175
     1
 42
1.0
 92
        0
 66
   257
 43
1.0
 76
     1
 77
     6
 78
     2
 67
     7
 79
     5
170
     0
171
     0
290
     0
174
     0
 93
       13
 44
0.0
173
     0
291
     1
 45
0.0
1001
ACAD
1000
AcDbSavedByObjectVersion
1070
     0
  0
VISUALSTYLE
  5
38
102
{ACAD_REACTORS
330
2A
102
}
330
2A
100
AcDbVisualStyle
  2
Linepattern
 70
    14
 71
     2
 72
     2
 73
     0
 90
        0
 40
-0.6
 41
-30.0
 62
     5
 63
     7
421
 16777215
 74
     1
 91
        4
 64
     7
 65
   257
 75
     7
175
     7
 42
1.0
 92
        8
 66
     7
 43
1.0
 76
     1
 77
     6
 78
     2
 67
     7
 79
     5
170
     0
171
     0
290
     0
174
     0
 93
        1
 44
0.0
173
     0
291
     1
 45
0.0
1001
ACAD
1000
AcDbSavedByObjectVersion
1070
     0
  0
VISUALSTYLE
  5
33
102
{ACAD_REACTORS
330
2A
102
}
330
2A
100
AcDbVisualStyle
  2
Realistic
 70
     8
 71
     2
 72
     2
 73
     0
 90
        0
 40
-0.6
 41
-30.0
 62
     5
 63
     7
421
 16777215
 74
     1
 91
        0
 64
     7
 65
   257
 75
     1
175
     1
 42
1.0
 92
        8
 66
     8
424
  7895160
 43
1.0
 76
     1
 77
     6
 78
     2
 67
     7
 79
     5
170
     0
171
     0
290
     0
174
     0
 93
       13
 44
0.0
173
     0
291
     0
 45
0.0
1001
ACAD
1000
AcDbSavedByObjectVersion
1070
     0
  0
VISUALSTYLE
  5
37
102
{ACAD_REACTORS
330
2A
102
}
330
2A
100
AcDbVisualStyle
  2
Thicken
 70
    13
 71
     2
 72
     2
 73
     0
 90
        0
 40
-0.6
 41
-30.0
 62
     5
 63
     7
421
 16777215
 74
     1
 91
        4
 64
     7
 65
   257
 75
     1
175
     1
 42
1.0
 92
       12
 66
     7
 43
1.0
 76
     1
 77
     6
 78
     2
 67
     7
 79
     5
170
     0
171
     0
290
     0
174
     0
 93
        1
 44
0.0
173
     0
291
     1
 45
0.0
1001
ACAD
1000
AcDbSavedByObjectVersion
1070
     0
  0
ENDSEC
  0
EOF
